osu file format v7

[General]
AudioFilename: 07 Malchik Gay.mp3
AudioLeadIn: 0
PreviewTime: 45395
Countdown: 0
SampleSet: Soft
StackLeniency: 0.7
Mode: 0
LetterboxInBreaks: 1

[Editor]
DistanceSpacing: 1.60000002384186
BeatDivisor: 4
GridSize: 8

[Metadata]
Title:Malchik Gay
Artist:t.A.T.u.
Creator:osuplayer111
Version:Hard
Source:
Tags:Starrodkirby86 xxheroxx

[Difficulty]
HPDrainRate:8
CircleSize:5
OverallDifficulty:8
SliderMultiplier:1.6
SliderTickRate:1

[Events]
//Background and Video events
0,0,"death-note-Misa.png"
//Break Periods
2,43791,44082
2,60032,66300
2,142589,145699
//Storyboard Layer 0 (Background)
//Storyboard Layer 1 (Fail)
//Storyboard Layer 2 (Pass)
//Storyboard Layer 3 (Foreground)
//Storyboard Sound Samples
//Background Colour Transformations
3,100,0,0,0

[TimingPoints]
14720,451.127819548872,4,2,0,26,1,0
31201,-100,4,2,0,33,0,0
32216,-100,4,2,0,41,0,0
33118,-100,4,2,0,48,0,0
34246,-100,4,2,0,29,0,0
34471,-100,4,1,0,29,0,0
34697,-100,4,2,0,41,0,0
36050,-100,4,2,0,50,0,0
37516,-100,4,2,0,60,0,0
39885,-100,4,2,0,18,0,0
41689,-100,4,2,0,31,0,0
43494,-100,4,1,0,25,0,0
44960,-100,4,1,0,61,0,0
45395,-100,4,1,0,50,0,1
59831,-100,4,1,0,50,0,0
66614,-100,4,2,0,31,0,0
69321,-100,4,2,0,41,0,0
69885,-100,4,2,0,51,0,0
70336,-100,4,2,0,60,0,0
72253,-100,4,1,0,31,0,0
80486,-100,4,1,0,47,0,0
81614,-100,4,1,0,31,0,0
84998,-100,4,2,0,31,0,0
89283,-100,4,1,0,21,0,0
89453,-100,4,1,0,30,0,0
89565,-100,4,1,0,39,0,0
89734,-100,4,1,0,51,0,0
89904,-100,4,1,0,59,0,0
90016,-100,4,1,0,68,0,0
90186,-100,4,1,0,79,0,0
90355,-100,4,1,0,89,0,0
90468,-100,4,1,0,100,0,0
90508,-100,4,1,0,85,0,1
104380,-200,4,2,0,62,0,0
116802,-200,4,2,0,45,0,0
117704,-200,4,2,0,37,0,0
118156,-200,4,2,0,23,0,0
118607,-200,4,2,0,11,0,0
119058,-200,4,2,0,0,0,0
120298,-200,4,1,0,21,0,0
121185,-100,4,1,0,86,0,1
135395,-200,4,1,0,70,0,0
139810,-200,4,1,0,41,0,0
140035,-200,4,1,0,75,0,0
140261,-200,4,1,0,39,0,0
140486,-200,4,1,0,76,0,0
140712,-200,4,1,0,56,0,0
141163,-200,4,1,0,41,0,0
141389,-200,4,1,0,30,0,0
142291,-200,4,1,0,51,0,0
146013,-200,4,2,0,38,0,0
149847,-200,4,2,0,71,0,0
156260,-200,4,1,0,86,0,0
157275,-100,4,1,0,85,0,1
171711,-100,4,1,0,51,0,0
172404,-100,4,1,0,29,0,0
177930,-100,4,1,0,56,0,0
178156,-100,4,1,0,29,0,0
178832,-100,4,1,0,55,0,0
179058,-100,4,1,0,30,0,0
185148,-100,4,1,0,21,0,0

[Colours]
Combo1 : 250,192,173
Combo2 : 190,50,64

[HitObjects]
256,104,21938,2,0,B|304:96|296:32,1,80,0|0
248,288,22840,2,2,B|200:296|208:360,1,80,0|2
56,136,23742,6,0,B|16:200|56:256,2,120,8|0|0
112,80,24644,1,0
168,136,24870,2,0,B|168:192|224:200,2,80,0|2|0
232,88,25547,5,8
312,88,25772,2,0,B|368:72|360:0,1,80,0|0
456,160,26449,5,2
384,192,26674,2,2,B|324:223|351:284,1,80,0|0
264,256,27126,6,2,B|278:203|230:179,1,80,0|8
96,112,27802,1,0
96,112,28028,6,2,B|104:64|169:60,1,80,0|2
224,88,28479,2,0,B|248:136|184:168,1,80,0|2
128,192,28930,1,0
128,272,29156,5,8
96,352,29381,2,0,B|136:320|184:360,1,80,0|0
328,328,30058,5,2
400,352,30283,1,0
472,328,30509,1,8
400,288,30735,1,0
400,288,30960,6,0,B|440:248|440:248|456:184|352:208,1,160,2|8
312,152,31637,1,0
256,96,31862,1,2
192,144,32088,1,0
256,192,32313,2,0,B|239:242|307:263,1,80,8|0
360,288,32765,5,2
296,336,32990,1,0
216,336,33216,1,8
152,288,33441,6,0,B|104:296|80:240,1,80,0|2
32,192,33892,1,0
88,136,34118,2,0,B|80:88|0:80,2,80,8|0|4
304,32,35246,5,0
384,32,35471,1,2
344,104,35697,2,0,B|368:144|424:128,1,80,0|8
488,112,36148,5,0
464,192,36374,2,0,B|512:208|512:264,2,80,2|0|8
400,240,37050,1,2
336,280,37276,6,2,B|264:296|264:296|232:312|256:352|328:344,1,160,2|8
400,240,38178,2,0,B|448:248|464:296,2,80,2|0|8
336,192,38855,5,0
272,240,39080,2,0,B|216:248|216:304,1,80,2|0
168,352,39532,1,8
104,304,39757,6,0,B|40:312|32:240,1,80,0|4
112,120,40208,6,0,B|168:112|152:40,1,80,2|4
352,80,40659,6,4,B|384:40|440:72,1,80,2|4
408,280,41110,6,4,B|424:336|480:320,1,80,2|4
328,224,41562,6,0,B|312:272|248:264,2,80,2|0|0
256,192,42238,1,2
184,168,42464,2,0,B|192:120|248:120,2,80,0|0|0
256,192,43141,5,2
328,224,43366,2,0,B|296:280|248:256,1,80,0|4
256,192,44832,6,0,B|200:192,1,40
72,280,45396,6,0,B|64:344|128:352,1,80,0|4
184,344,45847,1,8
256,192,46298,6,0,B|280:144|352:184,1,80,0|4
384,128,46750,1,8
64,48,47201,6,0,B|80:96|152:72,1,80,0|0
208,56,47652,1,8
288,40,47877,5,0
304,48,47990,1,0
320,56,48103,1,0
400,48,48329,1,4
384,128,48554,1,8
312,272,49005,5,0
256,216,49231,2,0,B|256:160|320:152,1,80,0|8
240,104,49682,5,0
224,96,49795,1,0
208,96,49907,1,0
128,104,50133,1,4
128,104,50359,1,8
88,296,50810,6,0,B|40:280|40:232,2,80,0|0|8
160,336,51486,5,0
160,336,51599,1,0
160,336,51712,1,0
232,296,51938,1,4
232,296,52050,1,0
232,296,52163,1,8
392,296,52614,5,0
352,224,52840,1,0
432,208,53065,2,0,B|485:216|501:152,1,80,8|0
448,104,53516,5,0
384,48,53742,1,0
352,120,53968,2,0,B|317:162|269:130,1,80,8|4
256,56,54419,5,0
176,56,54644,1,0
144,128,54870,2,0,B|91:111|67:175,1,80,8|4
72,232,55321,5,0
72,232,55547,1,0
72,232,55772,2,0,B|96:280|64:312,2,80,8|0|0
144,224,56449,6,0,B|112:256|64:232,1,80,0|8
0,192,56900,1,0
64,144,57126,1,0
64,144,57351,2,0,B|96:96|32:64,1,80,4|8
128,48,57802,6,0,B|157:82|213:58,1,80,0|0
256,120,58253,2,0,B|264:64|334:61,1,80,0|8
360,128,58704,2,0,B|408:104|440:160,1,80,4|0
400,216,59156,5,0
392,224,59268,1,0
384,232,59381,1,8
328,288,59607,1,0
256,328,59832,1,4
296,40,67050,6,0,B|256:16|208:48,1,80,0|0
448,288,67953,2,0,B|446:339|398:347,1,80,0|0
64,288,68855,2,0,B|66:339|114:347,1,80,0|0
120,144,69532,6,0,B|160:160|207:142,1,80,0|0
392,144,69983,2,0,B|352:160|307:143,1,80,0|2
216,224,70434,6,0,B|256:240|311:221,1,80,2|0
176,80,70885,2,0,B|248:24|336:88,1,160
256,128,71562,5,0
256,128,71787,2,0,B|256:224,1,80,0|2
256,352,72464,5,4
48,280,72915,1,8
464,280,73366,1,4
256,192,73817,5,8
256,192,74268,2,0,B|296:168|280:120,2,80,4|0|8
96,192,75171,6,0,B|40:216|72:280,2,80,0|0|8
176,176,75847,1,0
256,192,76073,2,0,B|328:248|409:188,1,160,4|8
464,144,76750,5,0
403,192,76975,2,0,B|344:225|408:281,2,80,0|0|8
344,144,77652,1,0
408,96,77877,6,0,B|392:40|312:48,1,80
272,48,78329,1,8
128,120,78780,5,0
88,192,79005,1,0
128,264,79231,2,0,B|184:360|272:320,1,160,8|0
336,304,79907,1,0
416,320,80133,1,8
464,256,80359,1,0
408,192,80584,5,0
408,192,80697,1,4
408,32,80923,5,4
408,32,81035,1,8
328,112,81261,5,0
328,112,81374,1,0
328,112,81486,2,0,B|272:128|240:72,1,80
184,64,81938,1,8
120,112,82163,6,0,B|112:168|192:176,1,80
160,248,82614,2,0,B|216:240|240:288,1,80,0|8
368,184,83291,5,0
328,112,83516,2,0,B|367:83|422:108,1,80,4|8
472,144,83968,5,0
440,216,84193,1,0
368,184,84419,2,0,B|328:218|352:264,1,80,0|8
280,304,84870,1,0
120,304,85095,6,0,B|124:249|49:229,1,80,4|2
256,40,85547,6,0,B|192:32|192:104,1,80,4|2
392,248,85998,6,0,B|384:312|472:304,1,80,4|2
224,208,86449,6,0,B|280:216|288:128,1,80,4|2
256,40,86900,5,2
336,40,87126,1,0
400,88,87351,1,2
376,168,87577,2,0,B|344:112|280:136,1,80,0|2
256,192,88028,2,0,B|224:232|176:208,1,80,0|2
104,208,88479,6,4,B|56:176|112:160|144:176|152:208|152:240|112:264|64:248|16:216|64:152,1,240,4|4
72,96,89381,5,0
80,80,89494,1,0
96,64,89607,1,0
176,40,89832,5,0
192,48,89945,1,0
208,48,90058,1,0
288,64,90283,5,0
304,80,90396,1,0
320,96,90509,2,0,B|360:88|376:32,2,80,4|0|8
280,168,91186,5,0
264,184,91298,1,0
240,176,91411,2,0,B|200:160|160:192,2,80,0|0|8
136,296,92313,5,0
64,256,92539,2,0,B|8:240|32:168,1,80,0|8
56,272,92990,5,0
128,312,93216,2,8,B|208:352|296:312,1,160,0|8
320,248,93892,1,0
360,320,94118,5,0
400,248,94344,1,0
440,320,94569,2,0,B|488:296|464:240,2,80,8|0|0
360,320,95246,5,0
320,248,95471,1,8
400,248,95697,1,0
320,248,95923,6,0,B|304:200|248:200,1,80
184,176,96374,1,8
232,112,96599,1,0
168,168,96825,1,0
216,104,97050,2,0,B|192:64|128:80,1,80,0|8
72,224,97727,6,0,B|88:272|160:248,1,80
192,312,98178,1,8
256,264,98404,5,0
256,264,98516,1,0
256,264,98629,1,0
256,264,98855,1,0
256,264,99080,1,8
392,248,99532,5,0
392,248,99757,2,0,B|448:232|440:168,1,80,0|8
488,128,100208,5,0
480,112,100321,1,0
464,96,100434,1,0
392,120,100659,1,0
440,192,100885,1,8
328,304,101336,5,0
184,304,101562,1,0
256,272,101787,2,0,B|256:184,1,80,8|0
328,80,102238,5,0
184,80,102464,1,0
256,112,102689,2,0,B|256:208,1,80,8|0
128,192,103141,5,0
384,192,103366,1,0
216,192,103592,2,0,B|328:192,1,80,8|0
256,264,104043,1,0
320,312,104268,1,0
320,312,104494,6,0,B|392:352|392:352|440:336|408:288,1,160,4|4
448,240,105622,1,0
448,176,105847,2,2,B|400:160|408:104,1,80,2|4
384,56,106524,2,0,B|344:48,1,40,0|2
280,64,106975,5,0
216,56,107201,2,0,B|176:16|112:48,1,80,4|2
80,48,107877,1,0
40,96,108103,1,4
80,152,108329,5,0
136,192,108554,2,0,B|200:200|208:136,1,80,2|4
256,120,109231,1,2
256,120,109344,1,0
256,120,109456,1,2
320,120,109682,5,0
288,176,109907,2,0,B|280:224|224:232,1,80,4|2
256,288,110584,1,0
200,320,110810,1,4
256,360,111035,5,0
312,328,111261,2,0,B|352:336|400:312,1,80,2|4
416,256,111938,1,0
368,216,112163,5,2
416,168,112389,1,0
360,128,112614,2,4,B|400:88|376:16,1,80,4|2
328,24,113291,5,2
312,32,113404,1,0
296,24,113516,1,4
256,104,113742,5,2
240,96,113855,1,0
224,104,113968,1,2
144,40,114193,5,2
128,48,114306,1,0
112,40,114419,1,4
56,128,114644,5,2
48,136,114757,1,0
40,144,114870,1,2
32,152,114983,1,0
24,168,115095,5,2
32,184,115208,1,0
40,200,115321,2,0,B|0:248|32:280,1,80,4|2
216,352,116223,5,4
256,304,116449,1,0
304,352,116674,2,2,B|344:384|384:344,1,80,2|4
464,256,117577,5,4
496,200,117802,1,2
464,144,118028,1,4
432,200,118253,1,2
400,200,118479,5,4
384,200,118704,5,2
368,200,118930,5,4
352,200,119156,5,2
336,200,119381,6,0,B|274:192|200:192|186:304|202:312|282:312|312:256|170:208|266:154,1,320,0|4
256,32,121411,5,0
376,88,121637,2,0,B|432:88|432:32,1,80,12|0
256,112,122088,5,0
376,88,122313,2,0,B|352:136|400:160,1,80,0|8
256,192,122765,5,0
256,320,122990,5,0
136,264,123216,2,0,B|112:312|40:288,1,80,0|8
24,176,123667,5,4
32,160,123780,1,0
40,144,123892,1,0
40,16,124118,1,0
152,72,124344,1,8
408,112,124795,5,0
504,192,125020,1,0
416,288,125246,1,8
328,192,125471,6,0,B|240:192,1,80
224,320,125923,1,0
136,224,126148,2,8,B|56:144,1,80,8|4
64,152,126486,1,0
48,136,126599,5,0
152,56,126825,2,0,B|176:16|232:16,1,80,0|8
344,40,127276,1,4
360,48,127389,1,0
384,56,127501,6,0,B|352:136,1,80,0|4
248,208,127953,2,0,B|343:195,1,80,8|0
408,296,128404,5,0
456,176,128629,1,0
328,200,128855,1,8
200,216,129080,6,0,B|112:224,1,80
48,328,129532,2,0,B|136:360,1,80,0|8
256,352,129983,1,4
344,256,130208,5,0
472,280,130434,2,0,B|496:328|432:368,1,80,0|8
344,256,130885,5,0
336,240,130998,1,0
320,224,131110,2,0,B|264:216|248:264,1,80,0|4
256,128,131562,1,8
64,296,132013,5,0
0,192,132238,1,0
64,88,132464,1,8
144,192,132689,6,0,B|232:192,1,80
224,192,133028,2,0,B|344:192,1,80,0|0
344,144,133366,1,8
416,40,133592,5,4
432,48,133704,1,0
448,64,133817,2,0,B|488:96|472:160,1,80,4|0
344,144,134268,5,8
224,192,134494,2,0,B|176:224|232:288,1,80,0|4
336,304,134945,1,4
344,288,135058,1,0
344,264,135171,2,0,B|355:218|302:187,1,80,8|0
176,104,135622,6,4,B|112:96|112:160,2,80,4|4|0
344,264,136975,5,0
360,256,137088,1,0
376,248,137201,1,0
392,240,137313,1,0
408,232,137426,6,0,B|488:232,1,60,4|0
472,200,137877,2,0,B|472:152,1,40,4|0
384,72,138329,6,0,B|320:40,2,60,4|0|0
256,192,139231,6,4,B|208:208,2,40,4|4|0
424,296,139907,6,0,B|472:320,1,40
256,328,140359,6,0,B|208:344,1,40
256,192,140810,5,4
256,192,140923,1,0
256,192,141035,1,4
136,80,141261,6,0,B|120:32,2,40
256,192,141938,6,0,B|272:248|320:248,1,80,0|4
256,312,146449,6,0,B|264:360,2,40,2|0|4
408,72,147351,6,0,B|432:32,2,40,2|0|4
128,176,148253,6,2,B|80:192,1,40,2|0
32,208,148704,1,4
360,232,149156,6,2,B|344:248|320:232,1,40,2|0
304,176,149607,2,4,B|344:128|288:96,1,80,4|8
256,64,150283,5,0
208,24,150509,1,4
144,24,150735,1,0
88,64,150960,5,8
72,128,151186,2,0,B|48:136|32:160,1,40,0|4
296,360,151862,5,8
352,328,152088,2,0,B|368:272,1,40,0|4
352,224,152539,6,0,B|336:176,1,40,0|8
344,120,152990,2,0,B|296:88,1,40,0|4
184,120,153667,5,8
216,176,153892,2,0,B|264:168,1,40,0|4
320,192,154344,5,0
336,256,154569,1,8
304,312,154795,1,0
256,352,155020,6,0,B|256:304|200:296,1,80,4|8
160,256,155697,1,0
112,216,155923,1,4
104,152,156148,6,0,B|32:72|-16:136|32:184|112:104,1,200,0|4
256,184,157501,5,0
160,256,157727,2,0,B|136:304|216:336,1,80,8|0
304,296,158178,1,0
256,184,158404,6,0,B|248:128|328:120,1,80,0|8
184,80,158855,1,0
64,96,159080,1,0
184,80,159306,6,0,B|184:128|104:144,1,80,0|8
40,224,159757,1,4
32,240,159870,1,0
40,256,159983,1,0
144,336,160208,5,0
256,272,160434,2,8,B|360:272|376:176,1,160,8|4
456,88,161110,5,0
336,48,161336,1,8
208,56,161562,2,0,B|112:80,1,80
48,176,162013,5,0
168,240,162238,2,8,B|184:280|248:272,1,80,8|4
256,272,162577,1,0
272,272,162689,5,0
376,192,162915,2,0,B|376:144|312:144,1,80,0|8
208,56,163366,1,4
192,64,163479,1,0
176,72,163592,6,0,B|144:152,1,80,0|4
376,136,164043,2,0,B|327:59,1,80,8|0
256,192,164494,5,0
256,320,164719,1,0
152,248,164945,2,0,B|112:288|56:256,1,80,8|0
64,256,165283,1,0
48,248,165396,5,0
96,128,165622,1,4
200,56,165847,1,8
304,128,166073,6,4,B|336:184|248:208,1,80,4|0
376,288,166524,2,0,B|432:272|464:336,1,80,0|8
488,192,166975,5,0
488,192,167088,1,0
488,192,167201,2,0,B|448:216|416:176,1,80,0|4
456,72,167652,1,8
256,40,168103,5,0
184,144,168329,2,0,B|152:176|104:160,1,80,0|8
80,288,168780,6,0,B|160:320,1,80
264,256,169231,1,0
264,128,169456,1,8
384,80,169682,1,4
400,96,169795,1,0
416,112,169907,6,0,B|397:146|444:189,1,80,4|0
312,216,170359,1,8
432,248,170584,2,0,B|468:284|421:338,1,80,0|4
304,344,171035,1,4
280,352,171148,1,0
256,344,171261,2,0,B|210:355|179:302,1,80,8|0
256,176,171712,6,0,B|304:144|312:88,2,80
112,112,172614,1,8
40,256,173065,1,0
184,328,173516,5,8
256,288,173742,2,0,B|168:264|136:176,1,160,4|0
112,112,174419,1,8
272,88,174870,1,0
272,88,175095,2,0,B|336:96|368:136,1,80,4|8
448,240,175772,5,0
392,304,175998,2,0,B|336:288|312:344,1,80,4|8
256,176,176674,1,0
176,152,176900,6,0,B|232:120|216:64,1,80,4|8
280,40,177351,1,8
296,32,177464,1,0
312,24,177577,1,8
328,16,177689,1,0
352,8,177802,2,0,B|328:56|368:88,1,80,4|8
456,144,178253,5,8
440,160,178366,1,0
424,176,178479,1,8
408,192,178592,1,0
392,208,178704,2,0,B|432:238|432:280,2,80,4|8|0
208,328,179381,6,0,B|208:272|288:264,1,80,0|4
256,192,179832,1,8
216,48,180283,6,8,B|248:77|296:77,1,80,0|0
368,48,180735,1,8
456,168,181186,6,8,B|454:230|374:262,1,120,0|0
352,280,181637,2,8,B|296:288|280:232,1,80,8|0
288,208,181975,1,0
256,184,182088,2,8,B|232:144|164:149,1,80,0|4
112,160,182539,6,0,B|176:136|184:56,1,120,8|0
208,40,182990,2,0,B|248:64|288:48,1,80,0|4
320,32,183329,1,0
352,56,183441,1,8
424,96,183667,2,8,B|464:128|432:176,1,80,4|0
360,200,184118,1,4
256,288,184344,6,0,B|208:296|216:360,1,80,0|8
96,192,184795,6,0,B|80:248|0:232,1,80,0|8
256,144,185246,5,4
256,144,185359,1,0
256,144,185471,1,4
192,88,185697,5,8
320,88,185923,1,0
256,216,186148,1,4
