osu file format v12

[General]
AudioFilename: t.A.T.u - Gomenasai.mp3
AudioLeadIn: 2000
PreviewTime: 43319
Countdown: 0
SampleSet: Soft
StackLeniency: 0.7
Mode: 0
LetterboxInBreaks: 0

[Editor]
DistanceSpacing: 1
BeatDivisor: 4
GridSize: 4

[Metadata]
Title:Gomenasai
TitleUnicode:Gomenasai
Artist:t.A.T.u
ArtistUnicode:t.A.T.u
Creator:Dark_Ai
Version:Gomenasai
Source:
Tags:tatu Lyudi Invalidy Dangerous and Moving russian
BeatmapID:227274
BeatmapSetID:82031

[Difficulty]
HPDrainRate:5
CircleSize:4
OverallDifficulty:6
ApproachRate:7
SliderMultiplier:2.8
SliderTickRate:1

[Events]
//Background and Video events
0,0,"gomenasai.jpg",0,0
//Break Periods
2,130853,132419
//Storyboard Layer 0 (Background)
//Storyboard Layer 1 (Fail)
//Storyboard Layer 2 (Pass)
//Storyboard Layer 3 (Foreground)
//Storyboard Sound Samples
//Background Colour Transformations
3,100,0,0,0

[TimingPoints]
261,705.882352941176,4,2,1,20,1,0
43319,-100,4,2,1,40,0,1
65202,-100,4,2,1,20,0,1
65378,-100,4,2,1,20,0,0
84966,-100,4,2,1,20,0,1
85143,-100,4,2,1,20,0,0
85672,-100,4,2,1,40,0,0
107555,-100,4,2,1,40,0,1
107731,-100,4,2,1,40,0,0
118849,-100,4,2,1,40,0,1
119025,-100,4,2,1,20,0,0
119202,-100,4,2,1,50,0,0
127318,-200,4,2,1,50,0,0
128024,-100,4,2,1,50,0,0
130143,-100,4,2,1,20,0,0
149908,-100,4,2,1,20,0,1
150084,-100,4,2,1,40,0,0
169672,-100,4,2,1,40,0,1
186966,-100,4,2,1,20,0,0
195079,-100,4,2,1,10,0,0
203555,-100,4,2,1,20,0,1
203731,-100,4,2,1,20,0,0

[Colours]
Combo1 : 255,0,255
Combo2 : 128,0,255
Combo3 : 255,0,128
Combo4 : 128,128,255

[HitObjects]
48,192,261,2,0,P|120:192|156:140,1,140,0|0,0:0|0:0,0:0:0:0:
256,40,966,1,0,0:0:0:0:
356,140,1319,1,2,0:0:0:0:
464,232,1672,2,0,P|396:232|356:288,1,140,0|0,0:0|0:0,0:0:0:0:
256,192,2378,1,0,0:0:0:0:
152,288,2731,1,2,0:0:0:0:
256,192,3084,6,0,P|324:196|356:140,1,140,0|0,0:0|0:0,0:0:0:0:
248,48,3790,1,0,0:0:0:0:
132,128,4143,1,2,0:0:0:0:
248,48,4496,2,0,P|320:48|360:100,1,140,0|0,0:0|0:0,0:0:0:0:
416,228,5202,1,0,0:0:0:0:
304,312,5555,1,2,0:0:0:0:
304,312,5908,6,0,P|172:316|112:196,1,280,0|0,0:0|0:0,0:0:0:0:
204,72,6966,1,2,0:0:0:0:
204,72,7319,2,0,P|336:68|396:188,1,280,0|0,0:0|0:0,0:0:0:0:
308,296,8378,1,2,0:0:0:0:
308,296,8731,6,0,P|364:336|436:328,2,140,0|0|0,0:0|0:0|0:0,0:0:0:0:
308,156,9790,1,2,0:0:0:0:
308,156,10143,2,0,P|252:116|180:124,2,140,0|0|0,0:0|0:0|0:0,0:0:0:0:
212,256,11202,1,2,0:0:0:0:
212,256,11555,1,2,0:0:0:0:
388,40,12260,5,0,0:0:0:0:
256,88,12613,1,2,0:0:0:0:
124,40,12966,1,0,0:0:0:0:
256,288,13672,1,0,0:0:0:0:
396,304,14025,1,2,0:0:0:0:
480,192,14378,1,0,0:0:0:0:
256,24,15084,5,0,0:0:0:0:
124,68,15437,1,2,0:0:0:0:
64,192,15790,1,0,0:0:0:0:
316,308,16496,1,0,0:0:0:0:
256,180,16849,1,2,0:0:0:0:
396,192,17202,1,0,0:0:0:0:
156,336,17908,6,0,P|92:316|64:252,1,140,2|0,0:0|0:0,0:0:0:0:
192,200,18613,1,0,0:0:0:0:
256,76,18966,1,2,0:0:0:0:
320,200,19319,1,0,0:0:0:0:
440,272,19672,1,0,0:0:0:0:
484,140,20025,1,2,0:0:0:0:
256,192,20378,12,0,22143,0:0:0:0:
256,36,22496,5,2,0:0:0:0:
256,108,22672,1,2,0:0:0:0:
256,180,22849,2,0,P|312:224|376:212,1,140,4|0,0:0|0:0,0:0:0:0:
464,320,23555,6,0,P|400:308|344:352,1,140,8|0,0:0|0:0,0:0:0:0:
216,292,24260,1,0,0:0:0:0:
76,292,24613,1,2,0:0:0:0:
144,168,24966,1,8,0:0:0:0:
76,292,25319,2,0,P|208:308|284:196,1,280,0|2,0:0|0:0,0:0:0:0:
236,68,26378,5,8,0:0:0:0:
376,92,26731,1,0,0:0:0:0:
424,224,27084,1,0,0:0:0:0:
340,336,27437,2,0,P|272:356|224:312,1,140,2|8,0:0|0:0,0:0:0:0:
304,200,28143,2,0,P|192:128|76:196,1,280,0|2,0:0|0:0,0:0:0:0:
120,328,29202,5,8,0:0:0:0:
256,356,29555,1,0,0:0:0:0:
392,328,29908,2,0,P|436:284|424:208,2,140,0|2|8,0:0|0:0|0:0,0:0:0:0:
256,356,30966,2,0,L|256:76,1,280,0|2,0:0|0:0,0:0:0:0:
120,36,32025,1,8,0:0:0:0:
132,328,32731,6,0,P|196:356|256:328,1,140,0|2,0:0|0:0,0:0:0:0:
380,328,33437,2,0,P|316:356|256:328,1,140,8|0,0:0|0:0,0:0:0:0:
256,188,34143,1,4,0:0:0:0:
256,188,34849,5,8,0:0:0:0:
116,192,35202,1,0,0:0:0:0:
184,68,35555,2,0,L|324:68,1,140,0|2,0:0|0:0,0:0:0:0:
388,192,36260,1,8,0:0:0:0:
364,332,36613,2,0,P|256:256|148:332,1,280,0|2,0:0|0:0,0:0:0:0:
44,240,37672,1,8,0:0:0:0:
24,100,38025,5,0,0:0:0:0:
24,100,38202,1,0,0:0:0:0:
24,100,38378,2,0,P|56:44|128:20,1,140,0|2,0:0|0:0,0:0:0:0:
256,64,39084,1,8,0:0:0:0:
256,64,39437,2,0,P|328:172|448:120,1,280,0|2,0:0|0:0,0:0:0:0:
446,122,40496,1,8,0:0:0:0:
256,328,41202,5,0,0:0:0:0:
188,204,41555,1,2,0:0:0:0:
324,204,41908,1,8,0:0:0:0:
256,84,42260,2,0,P|288:72|328:68,2,70,0|0|4,0:0|0:0|0:0,0:0:0:0:
256,224,42966,1,0,0:0:0:0:
124,128,43319,6,0,P|48:232|136:328,1,280,8|0,0:0|0:0,0:0:0:0:
276,344,44378,2,0,P|348:332|384:272,1,140,2|8,0:0|0:0,0:0:0:0:
452,160,45084,2,0,P|360:64|236:112,1,280,0|2,0:0|0:0,0:0:0:0:
237,110,46143,1,8,0:0:0:0:
188,240,46496,5,0,0:0:0:0:
188,240,46672,1,0,0:0:0:0:
188,240,46849,2,0,L|296:152,1,140,0|2,0:0|0:0,0:0:0:0:
404,244,47555,2,0,L|296:332,1,140,8|0,0:0|0:0,0:0:0:0:
295,332,48260,1,0,0:0:0:0:
196,44,48966,6,0,P|256:72|320:44,1,140,8|0,0:0|0:0,0:0:0:0:
412,152,49672,2,0,B|456:224|384:224|412:288,2,140,0|2|8,0:0|0:0|0:0,0:0:0:0:
320,44,50731,2,0,P|256:72|196:44,1,140,0|2,0:0|0:0,0:0:0:0:
100,152,51437,6,0,B|56:224|128:224|100:288,2,140,2|8|0,0:0|0:0|0:0,0:0:0:0:
200,252,52496,1,0,0:0:0:0:
256,124,52849,1,2,0:0:0:0:
312,252,53202,2,0,P|432:216|408:84,1,280,8|4,0:0|0:0,0:0:0:0:
256,124,54260,5,2,0:0:0:0:
128,184,54613,1,8,0:0:0:0:
72,312,54966,1,0,0:0:0:0:
128,184,55319,1,0,0:0:0:0:
72,312,55672,1,2,0:0:0:0:
212,312,56025,1,8,0:0:0:0:
212,312,56378,2,0,P|280:324|344:296,1,140,0|4,0:0|0:0,0:0:0:0:
400,152,57084,5,2,0:0:0:0:
296,56,57437,1,8,0:0:0:0:
400,152,57790,1,0,0:0:0:0:
264,192,58143,2,0,P|196:204|140:164,1,140,0|2,0:0|0:0,0:0:0:0:
228,56,58849,1,8,0:0:0:0:
264,192,59202,2,0,P|360:268|264:348,1,280,0|2,0:0|0:0,0:0:0:0:
128,336,60260,6,0,P|72:312|48:240,1,140,8|0,0:0|0:0,0:0:0:0:
48,100,60966,2,0,L|120:80,1,70
180,108,61319,2,0,P|244:132|308:108,1,140,2|8,0:0|0:0,0:0:0:0:
420,192,62025,1,0,0:0:0:0:
256,192,62378,12,0,64496,0:0:0:0:
452,192,64849,5,0,0:0:0:0:
382,192,65025,1,0,0:0:0:0:
312,192,65202,1,4,0:0:0:0:
32,192,65908,5,8,0:0:0:0:
32,192,66260,1,0,0:0:0:0:
140,104,66613,2,0,P|204:116|256:68,1,140,0|2,0:0|0:0,0:0:0:0:
140,280,67319,2,0,P|204:268|256:316,1,140,8|0,0:0|0:0,0:0:0:0:
312,360,67849,1,0,0:0:0:0:
344,296,68025,2,0,P|336:204|432:156,1,210
429,155,68731,1,8,0:0:0:0:
348,40,69084,5,0,0:0:0:0:
300,92,69260,1,0,0:0:0:0:
256,148,69437,1,0,0:0:0:0:
164,40,69790,5,2,0:0:0:0:
212,92,69966,1,0,0:0:0:0:
256,148,70143,2,0,L|256:288,2,140,8|0|4,0:0|0:0|0:0,0:0:0:0:
64,352,71555,6,0,P|140:336|188:292,1,140,8|0,0:0|0:0,0:0:0:0:
326,295,72260,2,0,P|372:336|448:352,2,140,0|2|8,0:0|0:0|0:0,0:0:0:0:
256,172,73319,2,0,L|256:32,1,140
116,32,74025,1,2,0:0:0:0:
396,32,74378,1,8,0:0:0:0:
256,144,74731,5,0,0:0:0:0:
256,144,74908,1,0,0:0:0:0:
256,144,75084,2,0,P|320:172|384:152,1,140,0|2,0:0|0:0,0:0:0:0:
464,268,75790,2,0,P|400:240|336:264,1,140,8|0,0:0|0:0,0:0:0:0:
337,262,76319,1,0,0:0:0:0:
337,262,76496,1,4,0:0:0:0:
68,192,77202,6,0,P|176:184|224:100,1,210,8|0,0:0|0:0,0:0:0:0:
156,92,77908,2,0,P|152:188|236:256,1,210
234,255,78613,1,8,0:0:0:0:
356,328,78966,1,0,0:0:0:0:
452,224,79319,1,0,0:0:0:0:
456,152,79496,1,0,0:0:0:0:
412,96,79672,2,0,P|356:52|288:52,2,140,2|8|0,0:0|0:0|0:0,0:0:0:0:
416,240,80731,6,0,P|360:284|292:284,1,140,0|2,0:0|0:0,0:0:0:0:
256,148,81437,1,8,0:0:0:0:
176,260,81790,2,0,P|113:152|184:28,1,280,0|2,0:0|0:0,0:0:0:0:
256,148,82849,5,8,0:0:0:0:
464,332,83555,1,4,0:0:0:0:
324,316,83908,2,0,L|184:296,1,140,2|8,0:0|0:0,0:0:0:0:
51,268,84613,2,0,P|144:160|284:192,1,280,2|0,0:0|0:0,0:0:0:0:
324,332,85672,6,0,P|392:312|416:252,1,140,8|0,0:0|0:0,0:0:0:0:
416,112,86378,1,0,0:0:0:0:
416,112,86555,1,0,0:0:0:0:
416,112,86731,2,0,P|392:52|324:32,1,140,2|8,0:0|0:0,0:0:0:0:
324,172,87437,2,0,P|192:196|124:84,1,280,0|2,0:0|0:0,0:0:0:0:
124,86,88496,1,8,0:0:0:0:
256,48,88849,5,0,0:0:0:0:
256,48,89025,1,0,0:0:0:0:
256,48,89202,2,0,L|256:196,1,140,0|2,0:0|0:0,0:0:0:0:
156,280,89908,2,0,P|256:364|352:280,1,280,8|4,0:0|0:0,0:0:0:0:
96,168,91319,5,8,0:0:0:0:
96,168,91672,1,0,0:0:0:0:
204,80,92025,2,0,P|264:52|328:80,1,140,0|2,0:0|0:0,0:0:0:0:
256,204,92731,1,8,0:0:0:0:
256,204,93084,2,0,P|320:232|380:204,1,140,0|4,0:0|0:0,0:0:0:0:
340,92,93790,5,2,0:0:0:0:
256,204,94143,1,8,0:0:0:0:
172,92,94496,1,2,0:0:0:0:
256,204,94849,1,0,0:0:0:0:
172,316,95202,1,2,0:0:0:0:
340,316,95555,1,8,0:0:0:0:
256,204,95908,1,2,0:0:0:0:
256,204,96084,1,0,0:0:0:0:
256,204,96260,1,4,0:0:0:0:
196,80,96613,6,0,P|256:52|320:80,2,140,2|8|0,0:0|0:0|0:0,0:0:0:0:
256,204,97672,2,0,P|196:232|132:204,2,140,0|2|8,0:0|0:0|0:0,0:0:0:0:
256,204,98731,2,0,P|316:176|380:204,1,140,0|4,0:0|0:0,0:0:0:0:
316,328,99437,5,2,0:0:0:0:
184,280,99790,1,8,0:0:0:0:
184,280,100143,1,0,0:0:0:0:
316,328,100496,2,0,P|384:312|428:256,1,140,0|2,0:0|0:0,0:0:0:0:
426,259,101202,1,8,0:0:0:0:
304,192,101555,2,0,P|376:84|512:108,1,280,0|2,0:0|0:0,0:0:0:0:
400,240,102613,6,0,P|364:292|288:296,1,140,8|0,0:0|0:0,0:0:0:0:
112,240,103319,2,0,P|148:292|224:296,1,140,0|2,0:0|0:0,0:0:0:0:
256,160,104025,1,8,0:0:0:0:
256,192,104378,12,4,106496,0:0:0:0:
256,48,106849,5,0,0:0:0:0:
256,188,107202,1,0,0:0:0:0:
256,328,107555,1,4,0:0:0:0:
256,188,107908,1,2,0:0:0:0:
256,328,108260,1,8,0:0:0:0:
256,188,108613,2,0,P|296:136|368:128,1,140
372,268,109319,5,2,0:0:0:0:
372,268,109496,1,0,0:0:0:0:
372,268,109672,1,8,0:0:0:0:
256,348,110025,2,0,P|184:340|140:288,1,140
184,156,110731,5,2,0:0:0:0:
324,156,111084,1,8,0:0:0:0:
256,280,111437,1,0,0:0:0:0:
256,280,111790,1,0,0:0:0:0:
396,280,112143,6,0,P|464:252|480:192,1,140,2|8,0:0|0:0,0:0:0:0:
396,104,112849,2,0,P|464:133|480:193,1,140,0|4,0:0|0:0,0:0:0:0:
340,192,113555,1,2,0:0:0:0:
340,192,113908,1,8,0:0:0:0:
172,192,114260,1,0,0:0:0:0:
172,192,114613,5,0,0:0:0:0:
256,80,114966,1,2,0:0:0:0:
320,208,115319,2,0,P|256:236|196:208,1,140,8|0,0:0|0:0,0:0:0:0:
256,80,116025,1,6,0:0:0:0:
256,192,116378,12,4,118849,0:0:0:0:
196,256,119202,5,2,0:0:0:0:
256,292,119378,1,0,0:0:0:0:
316,256,119555,1,8,0:0:0:0:
440,192,119908,1,0,0:0:0:0:
320,120,120260,5,0,0:0:0:0:
192,120,120613,1,0,0:0:0:0:
68,192,120966,1,8,0:0:0:0:
68,192,121319,1,0,0:0:0:0:
196,256,121672,6,0,P|256:288|316:256,2,140,0|2|8,0:0|0:0|0:0,0:0:0:0:
256,128,122731,2,0,P|196:96|136:126,1,140
256,128,123437,1,0,0:0:0:0:
256,196,123613,1,0,0:0:0:0:
256,264,123790,2,0,P|332:304|396:276,1,140,8|0,0:0|0:0,0:0:0:0:
488,200,124496,5,4,0:0:0:0:
488,200,124849,1,2,0:0:0:0:
488,200,125202,2,0,P|456:128|408:92,1,140,8|0,0:0|0:0,0:0:0:0:
300,184,125908,2,0,P|232:160|152:176,2,140,0|2|8,0:0|0:0|0:0,0:0:0:0:
368,308,126966,1,0,0:0:0:0:
368,308,127319,6,0,P|304:324|256:276,1,140,0|4,0:0|0:0,0:0:0:0:
324,40,128731,6,0,B|388:80,1,70,2|0,0:0|0:0,0:0:0:0:
316,148,129084,2,0,B|352:208,1,70,2|0,0:0|0:0,0:0:0:0:
256,228,129437,2,0,B|256:300,1,70,2|0,0:0|0:0,0:0:0:0:
196,148,129790,2,0,B|160:208,1,70,2|0,0:0|0:0,0:0:0:0:
188,40,130143,1,4,0:0:0:0:
116,192,133319,5,2,0:0:0:0:
396,192,133672,1,2,0:0:0:0:
256,192,134025,1,2,0:0:0:0:
256,192,134731,5,2,0:0:0:0:
256,52,135084,1,2,0:0:0:0:
252,332,135437,1,2,0:0:0:0:
256,192,135790,1,0,0:0:0:0:
28,352,136496,6,0,P|124:348|172:256,1,210
172,256,137202,1,2,0:0:0:0:
256,144,137555,1,0,0:0:0:0:
344,256,137908,1,2,0:0:0:0:
368,116,138260,2,0,P|256:44|144:120,1,280,0|0,0:0|0:0,0:0:0:0:
256,192,139319,1,2,0:0:0:0:
256,192,140025,5,0,0:0:0:0:
256,192,140378,1,2,0:0:0:0:
188,316,140731,2,0,P|256:332|324:316,2,140,0|0|4,0:0|0:0|0:0,0:0:0:0:
256,44,142143,5,2,0:0:0:0:
156,144,142496,1,0,0:0:0:0:
356,144,142849,1,2,0:0:0:0:
256,44,143202,1,0,0:0:0:0:
256,184,143555,1,2,0:0:0:0:
164,292,143908,2,0,P|256:332|356:284,1,210
316,228,144613,2,0,P|388:228|424:284,1,140,2|0,0:0|0:0,0:0:0:0:
420,140,145319,1,0,0:0:0:0:
328,36,145672,5,0,0:0:0:0:
184,36,146025,1,2,0:0:0:0:
256,160,146378,1,2,0:0:0:0:
256,160,146731,2,0,P|184:160|128:212,1,140,0|2,0:0|0:0,0:0:0:0:
404,272,147790,6,0,P|468:252|488:188,1,140,0|2,0:0|0:0,0:0:0:0:
400,100,148496,2,0,P|468:128|488:192,1,140,12|12,0:0|0:0,0:0:0:0:
348,192,149202,1,2,0:0:0:0:
348,192,149555,2,0,L|208:192,1,140,2|4,0:0|0:0,0:0:0:0:
40,252,150613,6,0,P|4:192|40:136,1,140,8|0,0:0|0:0,0:0:0:0:
164,196,151319,2,0,P|196:250|160:310,1,140,0|2,0:0|0:0,0:0:0:0:
300,316,152025,2,0,P|272:252|312:196,1,140,8|0,0:0|0:0,0:0:0:0:
256,68,152731,1,2,0:0:0:0:
256,208,153084,1,2,0:0:0:0:
372,132,153437,1,8,0:0:0:0:
256,208,153790,1,0,0:0:0:0:
256,68,154143,5,6,0:0:0:0:
256,68,154319,1,0,0:0:0:0:
256,68,154496,1,0,0:0:0:0:
136,144,154849,2,0,P|88:180|84:256,1,140,8|0,0:0|0:0,0:0:0:0:
224,252,155555,1,6,0:0:0:0:
440,76,156260,6,0,P|376:104|312:76,1,140,8|0,0:0|0:0,0:0:0:0:
256,208,156966,2,0,P|193:185|124:208,1,140,0|2,0:0|0:0,0:0:0:0:
188,332,157672,1,8,0:0:0:0:
126,206,158025,1,0,0:0:0:0:
256,260,158378,2,0,P|320:256|364:192,1,140,4|2,0:0|0:0,0:0:0:0:
384,60,159084,5,8,0:0:0:0:
256,120,159437,1,0,0:0:0:0:
256,260,159790,1,0,0:0:0:0:
256,120,160143,1,2,0:0:0:0:
128,60,160496,1,8,0:0:0:0:
128,60,160849,1,8,0:0:0:0:
256,120,161202,1,4,0:0:0:0:
256,380,161908,5,8,0:0:0:0:
256,380,162260,1,0,0:0:0:0:
344,272,162613,2,0,P|372:212|344:148,1,140,0|2,0:0|0:0,0:0:0:0:
256,36,163319,2,0,P|228:96|256:160,1,140
256,160,164024,1,8,0:0:0:0:
356,64,164378,5,2,0:0:0:0:
356,64,164731,1,8,0:0:0:0:
256,160,165084,1,0,0:0:0:0:
256,160,165437,1,0,0:0:0:0:
156,64,165790,1,2,0:0:0:0:
156,64,166143,1,8,0:0:0:0:
256,160,166496,1,0,0:0:0:0:
256,160,166849,1,4,0:0:0:0:
52,164,167555,6,0,P|80:100|152:80,1,140,8|0,0:0|0:0,0:0:0:0:
256,160,168260,1,0,0:0:0:0:
368,80,168613,2,0,P|431:102|459:166,1,140,2|8,0:0|0:0,0:0:0:0:
452,236,169143,1,0,0:0:0:0:
412,292,169319,1,0,0:0:0:0:
320,188,169672,6,0,P|256:212|192:188,1,140,4|0,0:0|0:0,0:0:0:0:
256,64,170378,1,8,0:0:0:0:
256,64,170731,1,0,0:0:0:0:
128,76,171084,2,0,P|60:88|36:148,1,140,0|2,0:0|0:0,0:0:0:0:
168,192,171790,1,8,0:0:0:0:
36,236,172143,2,0,P|60:296|128:308,2,140,0|0|2,0:0|0:0|0:0,0:0:0:0:
168,192,173202,1,8,0:0:0:0:
344,192,173555,1,8,0:0:0:0:
472,132,173908,6,0,P|504:192|472:252,1,140,0|2,0:0|0:0,0:0:0:0:
344,304,174613,1,8,0:0:0:0:
256,192,174966,1,0,0:0:0:0:
128,136,175319,1,4,0:0:0:0:
404,192,176025,6,0,B|404:336,1,140,8|0,0:0|0:0,0:0:0:0:
312,224,176731,2,0,L|312:84,1,140,0|2,0:0|0:0,0:0:0:0:
224,192,177437,1,8,0:0:0:0:
224,192,177790,2,0,P|92:200|64:328,1,280,0|2,0:0|0:0,0:0:0:0:
204,328,178849,6,0,P|272:336|336:308,1,140,8|0,0:0|0:0,0:0:0:0:
436,208,179555,2,0,P|368:200|304:228,1,140,0|2,0:0|0:0,0:0:0:0:
256,96,180260,1,8,0:0:0:0:
148,184,180613,2,0,P|256:260|364:184,1,280,0|2,0:0|0:0,0:0:0:0:
308,56,181672,6,0,P|376:56|416:112,1,140,8|0,0:0|0:0,0:0:0:0:
204,56,182378,2,0,P|136:56|96:112,1,140,0|2,0:0|0:0,0:0:0:0:
184,216,183084,1,8,0:0:0:0:
324,216,183437,2,0,P|396:228|428:284,1,140,0|4,0:0|0:0,0:0:0:0:
308,352,184143,5,2,0:0:0:0:
256,224,184496,1,8,0:0:0:0:
256,84,184849,1,0,0:0:0:0:
256,224,185202,1,0,0:0:0:0:
204,352,185555,1,2,0:0:0:0:
104,252,185908,1,8,0:0:0:0:
104,252,186260,2,0,P|72:192|104:132,1,140,0|4,0:0|0:0,0:0:0:0:
228,192,186966,5,2,0:0:0:0:
324,88,187319,1,0,0:0:0:0:
420,192,187672,1,2,0:0:0:0:
324,296,188025,1,0,0:0:0:0:
228,192,188378,1,2,0:0:0:0:
228,192,188731,1,0,0:0:0:0:
140,292,189437,6,0,P|56:192|140:96,1,280,2|2,0:0|0:0,0:0:0:0:
400,192,190849,1,2,0:0:0:0:
296,96,191202,2,0,P|248:144|232:216,1,140,2|0,0:0|0:0,0:0:0:0:
256,192,191908,12,2,194378,0:0:0:0:
72,192,195084,6,0,P|136:196|192:136,1,140,0|8,0:0|0:0,0:0:0:0:
328,144,195790,2,0,P|380:193|444:189,2,140,8|0|0,0:0|0:0|0:0,0:0:0:0:
256,24,196849,1,0,0:0:0:0:
256,164,197202,2,0,L|256:308,1,140,8|0,0:0|0:0,0:0:0:0:
256,304,197908,1,0,0:0:0:0:
116,324,198260,5,0,0:0:0:0:
36,220,198613,2,0,P|120:208|152:152,1,140,8|0,0:0|0:0,0:0:0:0:
196,36,199319,2,0,P|256:44|312:96,1,140
332,236,200025,1,8,0:0:0:0:
260,356,200378,1,0,0:0:0:0:
256,192,200731,12,4,203555,0:0:0:0:
