osu file format v14

[General]
AudioFilename: 08. Four Seasons.mp3
AudioLeadIn: 0
PreviewTime: 325466
Countdown: 0
SampleSet: Soft
StackLeniency: 0.7
Mode: 0
LetterboxInBreaks: 0
WidescreenStoryboard: 1

[Editor]
Bookmarks: 38080,68395,98080,148629,157910,186698,215497,229894,244294,270824,284538,298252,325681,351282,361282,376882,389682,412086,428287,434488,453689,466247,472519,478789,503404
DistanceSpacing: 0.5
BeatDivisor: 1
GridSize: 4
TimelineZoom: 1.000002

[Metadata]
Title:Four Seasons
TitleUnicode:Four Seasons
Artist:t=NODE
ArtistUnicode:t=NODE
Creator:Lan wings
Version:Relax
Source:東方Project
Tags:Touhou yuy arrangement remix shikieiki yamaxanadu th09 phantasmagoria flower view pofv 四季-春- Dream of Wonder 六十年目の東方裁判 Fate of Sixty Years
BeatmapID:645242
BeatmapSetID:285718

[Difficulty]
HPDrainRate:6
CircleSize:4
OverallDifficulty:7
ApproachRate:9
SliderMultiplier:1.6
SliderTickRate:2

[Events]
//Background and Video events
0,0,"bg.jpg",0,0
//Break Periods
//Storyboard Layer 0 (Background)
//Storyboard Layer 1 (Fail)
//Storyboard Layer 2 (Pass)
//Storyboard Layer 3 (Foreground)
//Storyboard Sound Samples

[TimingPoints]
7879,613,3,2,2,20,1,0
11557,642.08892931671,3,2,2,20,1,0
13483,606.060606060606,3,2,2,20,1,0
14998,705.882352941176,3,2,2,20,1,0
15174,1034.48275862069,3,2,2,20,1,0
15432,612.244897959184,3,2,2,20,1,0
18493,666.666666666667,3,2,2,20,1,0
19159,631.578947368421,3,2,2,20,1,0
22316,721.153846153846,3,2,2,20,1,0
23037,612.244897959184,3,2,2,20,1,0
26098,750,3,2,2,20,1,0
26848,588.235294117647,3,2,2,20,1,0
28612,689.655172413793,3,2,2,20,1,0
30680,666.666666666667,3,2,2,20,1,0
34680,697.674418604651,3,2,2,20,1,0
37470,666.666666666667,3,2,2,20,1,0
38107,631.578947368423,3,2,2,20,1,0
68422,-90.9090909090909,3,2,2,25,0,0
97475,650.406504065041,3,2,2,25,1,0
98125,-100,3,2,2,35,0,0
98775,625,3,2,2,35,1,0
100650,606.060606060606,3,2,2,35,1,0
101559,609.137055837563,3,2,2,35,1,0
102168,612.244897959184,3,2,2,35,1,0
102474,618.556701030928,3,2,2,35,1,0
103401,622.116232049355,3,2,2,35,1,0
104023,626.631853785901,3,2,2,35,1,0
104336,612.244897959184,3,2,2,35,1,0
105560,571.428571428571,3,2,2,35,1,0
105845,666.666666666667,3,2,2,35,1,0
106178,618.556701030928,3,2,2,35,1,0
113600,629.92125984252,3,2,2,35,1,0
115489,613.81074168798,3,2,2,35,1,0
117330,615.384615384615,3,2,2,35,1,0
119176,631.578947368421,3,2,2,35,1,0
121070,618.556701030928,3,2,2,35,1,0
122925,588.235294117647,3,2,2,35,1,0
123807,612.244897959184,3,2,2,35,1,0
124724,628.634292000629,3,2,2,35,1,0
126609,615.384615384615,3,2,2,35,1,0
128455,-90.9090909090909,3,2,2,40,0,0
130301,609.137055837563,3,2,2,40,1,0
130301,-90.9090909090909,3,2,2,40,0,0
135174,625,3,2,2,40,1,0
135174,-90.9090909090909,3,2,2,40,0,0
135799,610.687022900763,3,2,2,40,1,0
135799,-90.9090909090909,3,2,2,40,0,0
138547,621.761658031088,3,2,2,40,1,0
138547,-90.9090909090909,3,2,2,40,0,0
139479,610.687022900763,3,2,2,40,1,0
139479,-90.9090909090909,3,2,2,40,0,0
144975,616.966580976864,3,2,2,40,1,0
144975,-90.9090909090909,3,2,2,40,0,0
146517,631.578947368421,3,2,2,40,1,0
146517,-90.9090909090909,3,2,2,40,0,0
146832,606.060606060606,3,2,2,40,1,0
146832,-90.9090909090909,3,2,2,40,0,0
148347,638.297872340426,3,2,2,40,1,0
148347,-90.9090909090909,3,2,2,40,0,0
148666,618.556701030928,3,2,2,40,1,0
148666,-90.9090909090909,3,2,2,40,0,0
150212,645.161290322581,3,2,2,40,1,0
150212,-90.9090909090909,3,2,2,40,0,0
150534,612.244897959184,3,2,2,40,1,0
150534,-90.9090909090909,3,2,2,40,0,0
152370,582.52427184466,3,2,2,40,1,0
152370,-90.9090909090909,3,2,2,40,0,0
153243,638.297872340426,3,2,2,40,1,0
153243,-90.9090909090909,3,2,2,40,0,0
154200,606.060606060606,3,2,2,40,1,0
154200,-90.9090909090909,3,2,2,40,0,0
155412,625,3,2,2,40,1,0
155412,-90.9090909090909,3,2,2,40,0,0
156037,624.67464862051,3,2,2,50,1,0
156037,-200,3,2,2,50,0,0
157598,623.376623376623,3,2,2,50,1,0
157910,600,3,2,2,50,1,0
158810,-83.3333333333333,3,2,2,50,0,0
159110,-100,3,2,2,50,0,0
161210,-83.3333333333333,3,2,2,50,0,0
161360,-100,3,2,2,50,0,0
167210,-83.3333333333333,3,2,2,50,0,0
167510,-100,3,2,2,50,0,0
169010,-83.3333333333333,3,2,2,50,0,0
169460,-100,3,2,2,50,0,0
170510,-100,3,2,2,70,0,0
170660,-100,3,2,2,50,0,0
170810,-83.3333333333333,3,2,2,50,0,0
171260,-100,3,2,2,50,0,0
175610,-83.3333333333333,3,2,2,50,0,0
175760,-100,3,2,2,50,0,0
177710,-83.3333333333333,3,2,2,50,0,0
178010,-100,3,2,2,50,0,0
179210,-100,3,2,2,30,0,0
179360,-100,3,2,2,50,0,0
179514,600.06,3,2,2,50,1,0
184914,-100,3,2,3,30,0,0
185064,-100,3,2,2,50,0,0
186714,-90.9090909090909,3,2,2,55,0,0
191215,-90.9090909090909,3,2,2,40,0,0
191365,-90.9090909090909,3,2,2,55,0,0
192115,-90.9090909090909,3,2,3,55,0,0
192265,-90.9090909090909,3,2,2,55,0,0
193315,-90.9090909090909,3,2,3,55,0,0
193465,-90.9090909090909,3,2,2,55,0,0
199390,-90.9090909090909,3,2,2,5,0,0
199465,-90.9090909090909,3,2,2,55,0,0
199691,-90.9090909090909,3,2,2,5,0,0
199766,-90.9090909090909,3,2,2,55,0,0
199991,-90.9090909090909,3,2,2,5,0,0
200066,-66.6666666666667,3,2,2,55,0,0
200291,-66.6666666666667,3,2,2,5,0,0
200366,-66.6666666666667,3,2,2,55,0,0
200591,-66.6666666666667,3,2,2,5,0,0
200666,-66.6666666666667,3,2,2,55,0,0
200891,-66.6666666666667,3,2,2,5,0,0
201116,-90.9090909090909,3,2,2,55,0,0
206516,-90.9090909090909,3,2,2,70,0,0
206666,-90.9090909090909,3,2,2,55,0,0
208316,600.6,3,2,2,55,1,0
208316,-90.9090909090909,3,2,2,55,0,0
213721,597.341828861566,3,2,2,55,1,0
213721,-90.9090909090909,3,2,2,55,0,0
215513,600,3,2,2,55,1,0
215513,-90.9090909090909,3,2,2,55,0,0
219113,599.101347978033,3,2,2,55,1,0
219113,-90.9090909090909,3,2,2,55,0,0
220910,600,3,2,2,55,1,0
220910,-90.9090909090909,3,2,2,55,0,0
229910,600,3,2,2,55,1,0
229910,-90.9090909090909,3,2,2,55,0,0
238010,-90.9090909090909,3,2,2,80,0,0
238160,-90.9090909090909,3,2,2,55,0,0
242510,-133.333333333333,3,2,2,55,0,0
242960,-133.333333333333,3,2,2,30,0,0
243260,-133.333333333333,3,2,3,40,0,0
244010,-133.333333333333,3,2,2,60,0,0
244160,-133.333333333333,3,2,2,55,0,0
244310,631.578947368421,3,2,2,45,1,0
244310,-133.333333333333,3,2,3,45,0,0
255362,-133.333333333333,3,2,4,45,0,0
255520,-133.333333333333,3,2,3,45,0,0
257099,-133.333333333333,3,2,3,80,0,0
257257,-80,3,2,3,45,0,0
257415,-133.333333333333,3,2,3,45,0,0
257573,-133.333333333333,3,2,2,45,0,0
257731,-133.333333333333,3,2,3,45,0,0
259467,-133.333333333333,3,2,3,55,0,0
260731,-133.333333333333,3,2,2,55,0,0
260888,-133.333333333333,3,2,3,55,0,0
262625,-133.333333333333,3,2,2,40,0,0
262783,-133.333333333333,3,2,3,55,0,0
265152,-133.333333333333,3,2,2,40,0,0
265467,-133.333333333333,3,2,3,55,0,0
266020,-133.333333333333,3,2,3,80,0,0
266099,-133.333333333333,3,2,3,55,0,0
266415,-133.333333333333,3,2,4,55,0,0
266731,-133.333333333333,3,2,3,70,0,0
267204,-133.333333333333,3,2,3,55,0,0
268941,633.245382585752,3,2,3,55,1,0
269890,-80,3,2,3,55,0,0
270840,428.571428571429,4,2,3,40,1,0
270840,-200,4,2,3,70,0,0
270947,-200,4,2,2,70,0,0
271161,-200,4,2,3,40,0,0
271697,-181.818181818182,4,2,4,40,0,0
273411,-166.666666666667,4,2,4,40,0,0
274054,-166.666666666667,4,2,4,40,0,0
274268,-166.666666666667,4,2,4,30,0,0
274482,-166.666666666667,4,2,4,40,0,0
275125,-153.846153846154,4,2,4,40,0,0
275447,-153.846153846154,4,2,4,40,0,0
275768,-153.846153846154,4,2,4,40,0,0
276840,-142.857142857143,4,2,4,40,0,0
278554,-133.333333333333,4,2,4,40,0,0
280268,-125,4,2,4,40,0,0
281982,-117.647058823529,4,2,4,40,0,0
283697,-111.111111111111,4,2,4,40,0,0
289697,-111.111111111111,4,2,4,20,0,0
289804,-111.111111111111,4,2,4,40,0,0
298268,-100,4,2,4,40,0,0
303411,-100,4,2,3,39,0,0
303518,-100,4,2,4,40,0,0
311982,-80,4,2,4,40,0,0
312197,-100,4,2,4,40,0,0
313697,-100,4,2,3,40,0,0
313804,-100,4,2,4,40,0,0
314554,-100,4,2,2,40,0,0
315304,-100,4,2,4,40,0,0
316054,-86.9565217391304,4,2,4,40,0,0
316268,-100,4,2,4,40,0,0
316697,-100,4,2,3,40,0,0
317125,-100,4,2,4,40,0,0
318518,-100,4,2,2,40,0,0
318840,-100,4,2,3,40,0,0
319268,-100,4,2,4,40,0,0
319482,-100,4,2,3,40,0,0
323125,-100,4,2,2,40,0,0
323982,-100,4,2,3,40,0,0
325697,400.026668444563,4,1,5,80,1,1
325697,-90.9090909090909,4,1,5,100,0,1
325797,-90.9090909090909,4,1,5,70,0,0
334897,-133.333333333333,4,1,5,70,0,0
335197,-90.9090909090909,4,1,5,70,0,0
335397,-90.9090909090909,4,1,5,60,0,0
335697,-90.9090909090909,4,1,5,50,0,0
336197,-90.9090909090909,4,1,5,70,0,0
337297,-90.9090909090909,4,1,5,60,0,0
337797,-90.9090909090909,4,1,5,70,0,0
338097,-90.9090909090909,4,1,5,50,0,0
338397,-90.9090909090909,4,1,5,70,0,0
346298,-90.9090909090909,4,1,5,50,0,0
346798,-90.9090909090909,4,1,5,70,0,0
350098,-66.6666666666667,4,1,5,70,0,0
350198,-90.9090909090909,4,1,5,70,0,0
351298,-83.3333333333333,4,1,5,70,0,0
352498,-83.3333333333333,4,1,5,50,0,0
352698,-66.6666666666667,4,1,5,70,0,0
352798,-83.3333333333333,4,1,5,70,0,0
353298,-66.6666666666667,4,1,5,70,0,0
353498,-83.3333333333333,4,1,5,50,0,0
353698,-133.333333333333,4,1,5,70,0,0
353998,-83.3333333333333,4,1,5,70,0,0
354298,-83.3333333333333,4,1,5,50,0,0
354598,-83.3333333333333,4,1,5,70,0,0
354698,-100,4,1,5,60,0,0
355098,-83.3333333333333,4,1,5,70,0,0
355498,-76.9230769230769,4,1,5,60,0,0
355799,-83.3333333333333,4,1,5,70,0,0
356099,-83.3333333333333,4,1,5,50,0,0
356299,-76.9230769230769,4,1,5,70,0,0
356699,-83.3333333333333,4,1,5,70,0,0
356799,-83.3333333333333,4,1,5,50,0,0
357199,-83.3333333333333,4,1,5,70,0,0
357699,-83.3333333333333,4,1,5,100,0,0
357799,-83.3333333333333,4,1,5,70,0,0
359699,-66.6666666666667,4,1,5,70,0,0
359799,-83.3333333333333,4,1,5,70,0,0
360099,-66.6666666666667,4,1,5,70,0,0
360299,-66.6666666666667,4,1,5,65,0,0
360399,-83.3333333333333,4,1,5,70,0,0
360499,-83.3333333333333,4,1,5,50,0,0
360699,-66.6666666666667,4,1,5,60,0,0
360799,-66.6666666666667,4,1,5,70,0,0
360999,-83.3333333333333,4,1,5,70,0,0
361499,-66.6666666666667,4,1,5,70,0,0
361599,-83.3333333333333,4,1,5,70,0,0
362499,-66.6666666666667,4,1,5,70,0,0
362699,-83.3333333333333,4,1,5,70,0,0
362899,-50,4,1,3,70,0,0
362999,-83.3333333333333,4,1,5,70,0,0
363499,-50,4,1,3,70,0,0
363599,-83.3333333333333,4,1,5,70,0,0
364699,-83.3333333333333,4,1,3,50,0,0
365599,-83.3333333333333,4,1,5,70,0,0
365699,-83.3333333333333,4,1,5,50,0,0
365799,-83.3333333333333,4,1,5,70,0,0
365899,-100,4,1,5,70,0,0
366199,-83.3333333333333,4,1,5,70,0,0
367299,-83.3333333333333,4,1,5,40,0,0
367799,-83.3333333333333,4,1,5,70,0,0
370499,-83.3333333333333,4,1,5,60,0,0
370599,-83.3333333333333,4,1,5,70,0,0
372700,-83.3333333333333,4,1,3,70,0,0
373600,-83.3333333333333,4,1,5,70,0,0
376900,-66.6666666666667,4,1,5,70,0,0
382900,-57.1428571428571,4,1,5,70,0,0
383200,-66.6666666666667,4,1,5,70,0,0
384700,-57.1428571428571,4,1,5,70,0,0
384900,-54.054054054054,4,1,5,70,0,0
385100,-66.6666666666667,4,1,5,70,0,0
386501,-66.6666666666667,4,1,5,60,0,0
386601,-66.6666666666667,4,1,5,70,0,0
387901,-57.1428571428571,4,1,5,70,0,0
388101,-66.6666666666667,4,1,5,70,0,0
389301,-66.6666666666667,4,1,5,60,0,0
389701,-66.6666666666667,4,1,5,70,0,0
393901,-57.1428571428571,4,1,5,60,0,0
394201,-66.6666666666667,4,1,5,70,0,0
395701,-100,4,1,5,70,0,0
396001,-66.6666666666667,4,1,5,70,0,0
396101,-66.6666666666667,4,1,5,50,0,0
396301,-66.6666666666667,4,1,5,70,0,0
399301,-66.6666666666667,4,1,5,45,0,0
399401,-66.6666666666667,4,1,5,70,0,0
400501,-57.1428571428571,4,1,5,60,0,0
400802,-66.6666666666667,4,1,5,70,0,0
401402,-66.6666666666667,4,1,5,5,0,0
401452,-66.6666666666667,4,1,5,80,0,0
402202,-66.6666666666667,4,1,5,70,0,0
405702,-66.6666666666667,4,1,5,50,0,0
405902,-66.6666666666667,4,1,5,70,0,0
408902,-66.6666666666667,4,1,5,60,0,0
409002,-66.6666666666667,4,1,5,70,0,0
412102,-62.5,4,1,5,70,0,0
416703,-57.1428571428571,4,1,5,70,0,0
416803,-62.5,4,1,5,70,0,0
417003,-62.5,4,1,5,60,0,0
417203,-62.5,4,1,5,70,0,0
421703,-62.5,4,1,5,55,0,0
421753,-62.5,4,1,5,70,0,0
423703,-100,4,1,5,70,0,0
424003,-62.5,4,1,5,70,0,0
426903,-55.5555555555556,4,1,3,70,0,0
428103,-50,4,1,5,70,0,0
429703,-58.8235294117647,4,1,5,70,0,0
432904,-58.8235294117647,4,1,5,40,0,0
433104,-58.8235294117647,4,1,5,70,0,0
435304,-83.3333333333333,4,1,5,60,0,0
435504,-58.8235294117647,4,1,5,70,0,0
442404,400.026668444563,4,1,5,70,1,0
442404,-58.8235294117647,4,1,5,70,0,0
450505,400.026668444563,4,1,5,45,1,0
450505,-58.8235294117647,4,1,5,45,0,0
450605,-58.8235294117647,4,1,5,70,0,0
453705,393.44262295082,4,1,5,70,1,0
453705,-55.5555555555556,4,1,5,60,0,0
453803,-55.5555555555556,4,1,5,70,0,0
456852,391.517128874388,4,1,5,70,1,0
456852,-55.5555555555556,4,1,5,70,0,0
460082,-55.5555555555556,4,1,5,50,0,0
460179,-55.5555555555556,4,1,5,70,0,0
463116,393.44262295082,4,1,5,70,1,0
463116,-55.5555555555556,4,1,5,55,0,0
463214,-55.5555555555556,4,1,5,70,0,0
466263,400,4,2,3,60,1,0
469433,387.847446670976,4,2,3,60,1,0
472535,391.90181936746,4,1,5,70,1,0
472535,-52.6315789473684,4,1,5,60,0,0
472926,-52.6315789473684,4,1,5,40,0,0
473710,-52.6315789473684,4,1,5,45,0,0
474102,-52.6315789473684,4,1,5,50,0,0
474494,-52.6315789473684,4,1,5,55,0,0
475082,-52.6315789473684,4,1,5,60,0,0
475474,-52.6315789473684,4,1,5,40,0,0
475572,-52.6315789473684,4,1,5,60,0,0
476454,-52.6315789473684,4,1,5,70,0,0
477531,-52.6315789473684,4,1,5,60,0,0
478413,-133.333333333333,4,1,5,100,0,0
478805,384.615384615385,4,1,5,80,1,0
478805,-50,4,1,5,60,0,1
479333,-50,4,1,5,70,0,1
481497,-50,4,1,5,60,0,1
481881,-50,4,1,5,70,0,1
484189,-50,4,1,5,60,0,1
484670,-50,4,1,5,70,0,1
484958,-50,4,1,5,60,0,1
486112,-50,4,1,5,70,0,1
488035,-50,4,1,5,60,0,1
488420,-50,4,1,5,70,0,1
489093,-50,4,1,5,60,0,1
489478,-50,4,1,5,70,0,1
491112,-50,4,1,5,60,0,1
491497,-50,4,1,5,70,0,1
492266,-50,4,1,5,60,0,1
492555,-50,4,1,5,70,0,1
494189,-50,4,1,5,60,0,1
494670,-50,4,1,5,70,0,1
494958,-50,4,1,5,60,0,1
495343,-50,4,1,5,70,0,1
496305,-50,4,1,5,60,0,1
496593,-50,4,1,5,70,0,1
500343,-50,4,1,5,60,0,1
500728,-50,4,1,5,70,0,1
501497,-50,4,1,5,60,0,1
502074,-50,4,1,5,70,0,1
503420,400,4,1,5,70,1,0
503470,-100,4,2,2,5,0,0
511946,563.380281690141,4,2,2,5,1,0
512227,439.56043956044,4,2,2,5,1,0
512446,631.578947368421,4,2,2,10,1,0
512446,-66.6666666666667,4,2,2,10,0,0
512603,705.882352941176,4,2,2,10,1,0
512780,759.493670886076,4,2,2,10,1,0
512780,-66.6666666666667,4,2,2,10,0,0
513159,631.578947368421,4,2,2,10,1,0
513159,-66.6666666666667,4,2,2,10,0,0
514106,769.230769230769,4,2,2,10,1,0
514106,-66.6666666666667,4,2,2,10,0,0
514490,689.655172413793,4,2,2,10,1,0
514490,-66.6666666666667,4,2,2,10,0,0
514662,-66.6666666666667,4,2,2,5,0,0
514834,600,4,2,2,10,1,0
514834,-66.6666666666667,4,2,2,10,0,0
514984,-66.6666666666667,4,2,2,5,0,0
515134,566.037735849057,4,2,2,10,1,0
515134,-66.6666666666667,4,2,2,10,0,0
515700,612.244897959184,4,2,2,10,1,0
516005,833.333333333333,4,2,2,10,1,0
516005,-66.6666666666667,4,2,2,10,0,0
516213,731.707317073171,4,2,2,10,1,0
516395,585.365853658537,4,2,2,10,1,0
516395,-66.6666666666667,4,2,2,10,0,0
516688,382.165605095541,4,2,2,10,1,0
516974,333.333333333333,4,2,2,10,1,0
517140,437.956204379562,4,2,2,10,1,0
517249,535.714285714286,4,2,2,10,1,0
517249,-66.6666666666667,4,2,5,30,0,0
517583,-57.1428571428571,4,2,5,30,0,0
517784,-100,4,2,5,20,0,0
517985,622.116232049355,4,2,5,20,1,0
518062,538.116591928251,4,2,2,10,1,0
518062,-66.6666666666667,4,2,2,10,0,0
518600,533.333333333333,4,2,2,10,1,0
518866,428.571428571429,4,2,2,10,1,0
518866,-66.6666666666667,4,2,2,10,0,0
519080,359.281437125748,4,2,2,10,1,0
519259,604.534005037783,4,2,2,10,1,0
519259,-66.6666666666667,4,2,2,10,0,0
519523,530.973451327434,4,2,2,10,1,0
519523,-66.6666666666667,4,2,2,10,0,0
519764,458.015267175573,4,2,2,10,1,0
519993,441.176470588235,4,2,2,10,1,0
520103,410.958904109589,4,2,2,10,1,0
520308,461.538461538462,4,2,2,10,1,0
520423,447.761194029851,4,2,2,10,1,0
520423,-66.6666666666667,4,2,2,10,0,0
520646,550.45871559633,4,2,2,10,1,0
520921,545.454545454546,4,2,2,10,1,0
520921,-66.6666666666667,4,2,2,10,0,0
521193,521.739130434783,4,2,2,10,1,0
521323,566.037735849057,4,2,2,10,1,0
521464,521.739130434783,4,2,2,10,1,0
521464,-66.6666666666667,4,2,2,10,0,0
521724,550.45871559633,4,2,2,10,1,0
521724,-66.6666666666667,4,2,2,10,0,0
521999,392.156862745098,4,2,2,10,1,0
522369,500,4,2,2,10,1,0
522369,-83.3333333333333,4,2,2,10,0,0
522619,456.273764258555,4,2,2,10,1,0
522809,383.386581469649,4,2,2,10,1,0
523489,571.428571428571,4,2,2,10,1,0
523489,-90.9090909090909,4,2,2,10,0,0
523774,582.52427184466,4,2,2,10,1,0
524065,500,4,2,2,10,1,0
524065,-83.3333333333333,4,2,2,10,0,0
524315,631.578947368421,4,2,2,10,1,0
524630,560.747663551402,4,2,2,10,1,0
524630,-76.9230769230769,4,2,2,10,0,0
524910,810.810810810811,4,2,2,5,1,0
525112,-66.6666666666667,4,2,2,10,0,0
525518,-66.6666666666667,4,2,2,5,0,0
525718,1000,4,2,2,5,1,0
526718,1304.34782608696,4,2,2,5,1,0
531283,-100,4,2,5,30,0,0

[Colours]
Combo1 : 128,128,128
Combo2 : 255,255,128
Combo3 : 128,255,255
Combo4 : 128,255,128
Combo5 : 255,102,102
Combo6 : 255,255,255

[HitObjects]
148,240,38107,6,0,P|185:247|232:248,1,80,8|0,0:3|0:0,0:0:0:0:
320,216,38738,1,0,0:0:0:0:
200,160,39054,1,0,0:0:0:0:
356,136,39370,1,0,0:0:0:0:
208,164,39685,1,0,0:0:0:0:
344,44,40001,5,2,0:0:0:0:
512,112,40317,1,0,0:0:0:0:
216,168,40633,2,0,L|136:168,1,80,10|0,0:3|0:0,0:0:0:0:
12,168,41264,1,0,0:0:0:0:
320,216,41580,6,0,L|360:216,1,40,8|0,0:3|0:0,0:0:0:0:
512,200,41896,2,0,L|432:176,1,80,8|0,0:3|0:0,0:0:0:0:
304,132,42528,53,0,0:0:0:0:
116,84,42843,1,0,0:0:0:0:
240,16,43159,1,0,0:0:0:0:
180,200,43475,1,0,0:0:0:0:
40,196,43791,6,0,L|16:300,1,80,8|0,0:3|0:0,0:0:0:0:
72,64,44422,1,2,0:0:0:0:
64,232,44738,2,0,L|40:336,1,80,8|0,0:3|0:0,0:0:0:0:
276,232,45370,6,0,L|212:256,1,40,8|0,0:3|0:0,0:0:0:0:
384,248,45685,2,0,L|488:208,1,80,8|0,3:0|0:0,0:0:0:0:
344,148,46317,53,0,0:0:0:0:
173,87,46633,1,0,0:0:0:0:
276,232,46949,1,0,0:0:0:0:
280,56,47264,1,0,0:0:0:0:
172,196,47580,5,0,0:0:0:0:
0,216,47896,2,0,L|35:196,1,40,8|0,0:3|0:0,0:0:0:0:
172,196,48212,2,0,L|96:236,1,80,10|0,0:3|0:0,0:0:0:0:
260,148,48843,1,4,0:3:0:0:
0,320,49159,6,0,L|35:300,1,40,8|0,0:3|0:0,0:0:0:0:
137,299,49475,2,0,L|216:284,1,80,8|0,0:3|0:0,0:0:0:0:
344,256,50107,53,0,0:0:0:0:
256,160,50422,1,0,0:0:0:0:
216,284,50738,1,0,0:0:0:0:
384,132,51054,6,0,L|404:64,1,40,8|0,0:3|0:0,0:0:0:0:
384,132,51370,2,0,L|468:92,1,80,8|0,0:3|0:0,0:0:0:0:
184,52,52001,5,2,0:0:0:0:
256,160,52317,1,0,0:0:0:0:
208,56,52633,1,0,0:0:0:0:
232,156,52949,54,0,L|188:148,1,40,8|0,0:3|0:0,0:0:0:0:
384,132,53264,2,0,L|462:148,1,80,8|0,0:3|0:0,0:0:0:0:
512,272,53896,5,0,0:0:0:0:
444,56,54212,1,4,0:3:0:0:
312,240,54528,1,0,0:0:0:0:
348,44,54843,1,0,0:0:0:0:
412,256,55159,1,2,0:0:0:0:
252,32,55475,6,0,L|184:24,1,40,8|0,0:3|0:0,0:0:0:0:
432,152,55791,54,0,L|500:160,1,40,14|0,0:3|0:0,0:0:0:0:
212,224,56107,6,0,P|171:218|124:212,1,80,12|0,0:3|0:0,0:0:0:0:
116,212,56738,6,0,L|160:208,1,40,8|0,0:3|0:0,0:0:0:0:
412,256,57054,2,0,L|332:266,1,80,8|0,3:0|0:0,0:0:0:0:
212,224,57685,53,0,0:0:0:0:
356,164,58001,1,0,0:0:0:0:
256,296,58317,2,0,P|220:308|172:300,1,80,8|0,0:3|0:0,0:0:0:0:
312,88,58949,2,0,P|348:76|396:84,1,80,8|0,0:3|0:0,0:0:0:0:
212,224,59580,5,6,0:3:0:0:
256,28,59896,1,0,0:0:0:0:
300,224,60212,1,0,0:0:0:0:
256,28,60528,6,0,L|240:104,1,40,8|0,0:3|0:0,0:0:0:0:
194,302,60843,2,0,L|212:224,1,80,8|0,0:3|0:0,0:0:0:0:
80,88,61475,53,0,0:0:0:0:
300,224,61791,1,0,0:0:0:0:
344,144,62107,1,0,0:0:0:0:
36,168,62422,1,0,0:0:0:0:
388,64,62738,6,0,L|480:36,1,80,10|0,0:3|0:0,0:0:0:0:
344,144,63370,1,0,0:0:0:0:
244,24,63685,2,0,L|167:47,1,80,8|0,0:3|0:0,0:0:0:0:
36,168,64317,6,0,L|74:156,1,40,8|0,0:3|0:0,0:0:0:0:
84,164,64633,2,0,P|128:168|160:152,1,80,8|0,3:0|0:0,0:0:0:0:
112,92,65264,53,0,0:0:0:0:
194,262,65580,1,0,0:0:0:0:
227,74,65896,1,2,0:0:0:0:
91,207,66212,1,0,0:0:0:0:
280,180,66528,6,0,L|384:164,1,80,10|0,0:3|0:0,0:0:0:0:
280,180,67159,1,4,0:3:0:0:
96,316,67475,2,0,L|-8:300,1,80,8|2,0:3|0:0,0:0:0:0:
96,316,68107,1,2,0:0:0:0:
224,280,68422,6,0,P|268:288|312:292,1,88.000002685547,8|0,0:3|0:0,0:0:0:0:
280,180,69054,1,0,0:0:0:0:
212,100,69370,1,0,0:0:0:0:
392,216,69685,1,0,0:0:0:0:
460,296,70001,1,0,0:0:0:0:
460,88,70317,53,2,0:0:0:0:
280,180,70633,2,0,P|236:188|180:188,1,88.000002685547,8|2,0:3|0:0,0:0:0:0:
32,76,71264,2,0,P|76:68|132:68,1,88.000002685547,8|0,0:3|0:0,0:0:0:0:
280,180,71896,6,0,P|259:184|236:188,1,44.0000013427735,8|0,0:3|0:0,0:0:0:0:
100,199,72212,2,0,P|136:176|156:136,1,88.000002685547,8|0,0:3|0:0,0:0:0:0:
32,76,72843,1,0,0:0:0:0:
184,296,73159,1,0,0:0:0:0:
0,240,73475,1,0,0:0:0:0:
152,20,73791,1,0,0:0:0:0:
352,196,74107,6,0,P|394:198|456:188,1,88.000002685547,8|0,0:3|0:0,0:0:0:0:
392,88,74738,1,2,0:0:0:0:
332,316,75054,2,0,P|373:311|433:290,1,88.000002685547,8|0,0:3|0:0,0:0:0:0:
232,224,75685,54,0,P|210:228|189:236,1,44.0000013427735,8|0,0:3|0:0,0:0:0:0:
88,296,76001,2,0,P|44:286|-24:300,1,88.000002685547,8|0,0:3|0:0,0:0:0:0:
216,376,76633,5,0,0:0:0:0:
232,224,76949,1,0,0:0:0:0:
288,340,77264,1,0,0:0:0:0:
160,260,77580,1,0,0:0:0:0:
360,304,77896,6,0,P|404:300|456:280,1,88.000002685547,12|0,0:3|0:0,0:0:0:0:
184,164,78528,2,0,P|140:168|88:188,1,88.000002685547,10|0,0:3|0:0,0:0:0:0:
16,244,79159,1,0,0:0:0:0:
384,212,79475,54,0,L|418:184,1,44.0000013427735,8|0,0:3|0:0,0:0:0:0:
364,20,79791,2,0,L|372:116,1,88.000002685547,8|0,0:3|0:0,0:0:0:0:
492,116,80422,5,0,0:0:0:0:
300,172,80738,1,0,0:0:0:0:
396,144,81054,5,0,0:0:0:0:
204,200,81370,1,0,0:0:0:0:
300,172,81685,54,0,L|404:192,1,88.000002685547,8|4,0:3|0:3,0:0:0:0:
136,140,82317,1,2,0:0:0:0:
360,220,82633,6,0,L|424:232,1,44.0000013427735,8|0,0:3|0:0,0:0:0:0:
156,248,82949,6,0,L|112:239,1,44.0000013427735,0|0,0:3|0:0,0:0:0:0:
76,308,83264,2,0,L|32:299,1,44.0000013427735,8|0,0:3|0:0,0:0:0:0:
400,304,83580,54,0,L|486:320,1,88.000002685547,8|0,0:3|0:0,0:0:0:0:
280,276,84212,1,0,0:0:0:0:
300,172,84528,1,0,0:0:0:0:
156,248,84843,1,0,0:0:0:0:
308,180,85159,1,0,0:0:0:0:
56,184,85475,6,0,L|8:184,1,44.0000013427735
164,120,85791,6,0,L|188:78,1,44.0000013427735,8|0,0:3|0:0,0:0:0:0:
156,248,86107,54,0,L|179:289,1,44.0000013427735,10|0,0:3|0:0,0:0:0:0:
360,304,86422,2,0,L|264:276,1,88.000002685547,8|0,0:3|0:0,0:0:0:0:
260,272,87054,6,0,L|320:280,1,44.0000013427735,8|0,0:3|0:0,0:0:0:0:
88,304,87370,2,0,L|0:293,1,88.000002685547,8|0,0:3|0:0,0:0:0:0:
224,192,88001,5,0,0:0:0:0:
96,60,88317,1,0,0:0:0:0:
256,172,88633,1,0,0:0:0:0:
64,80,88949,54,0,L|20:73,1,44.0000013427735
288,152,89264,2,0,L|374:165,1,88.000002685547,8|0,0:3|0:0,0:0:0:0:
344,64,89896,5,2,0:0:0:0:
232,240,90212,1,4,0:3:0:0:
344,64,90528,1,0,0:0:0:0:
404,264,90843,1,0,0:0:0:0:
96,120,91159,6,0,L|8:108,1,88.000002685547,8|0,0:3|0:0,0:0:0:0:
220,92,91791,1,0,0:0:0:0:
344,64,92107,1,0,0:0:0:0:
232,240,92422,1,0,0:0:0:0:
352,72,92738,1,0,0:0:0:0:
404,264,93054,2,0,P|444:280|504:284,1,88.000002685547,8|0,0:3|0:0,0:0:0:0:
332,192,93685,54,0,L|288:160,1,44.0000013427735,2|0,0:0|0:0,0:0:0:0:
312,292,94001,2,0,P|338:325|388:359,1,88.000002685547,8|0,0:3|0:0,0:0:0:0:
244,172,94633,6,0,L|221:122,1,44.0000013427735
224,272,94949,2,0,P|230:314|256:368,1,88.000002685547,8|0,0:3|0:0,0:0:0:0:
404,264,95580,5,0,0:0:0:0:
244,172,95896,1,0,0:0:0:0:
64,212,96212,1,0,0:0:0:0:
252,184,96528,1,0,0:0:0:0:
420,272,96843,54,0,P|468:260|508:236,1,88.000002685547,8|0,0:3|0:0,0:0:0:0:
404,108,97475,1,2,0:0:0:0:
260,196,97800,1,0,0:0:0:0:
420,272,98125,5,2,0:0:0:0:
268,208,98450,1,2,0:0:0:0:
112,264,98775,2,0,P|72:272|32:269,1,80,10|0,0:3|0:0,0:0:0:0:
212,316,99400,2,0,P|252:308|291:310,1,80
464,352,100025,2,0,P|424:360|384:357,1,80
292,231,100650,6,0,P|368:216|448:236,1,160,2|0,0:2|0:0,0:0:0:0:
219,152,101559,2,0,P|144:168|64:148,1,160,2|10,0:2|0:3,0:0:0:0:
216,228,102474,54,0,P|232:304|212:384,1,160,10|0,0:3|0:0,0:0:0:0:
295,155,103401,2,0,P|280:80|300:0,1,160,2|0,0:0|0:0,0:0:0:0:
176,120,104336,6,0,P|140:137|101:145,1,80,10|0,0:3|0:0,0:0:0:0:
336,264,104948,2,0,P|371:246|410:238,1,80
168,216,105560,5,2,0:0:0:0:
340,160,105845,1,2,0:0:0:0:
204,40,106178,2,0,P|144:88|48:68,1,160,10|0,0:3|0:0,0:0:0:0:
120,12,107105,53,2,0:0:0:0:
240,136,107415,1,2,0:0:0:0:
132,20,107724,5,2,0:0:0:0:
252,144,108033,2,0,P|332:144|400:100,1,160,10|0,0:3|0:0,0:0:0:0:
300,236,108961,2,0,P|340:166|335:85,1,160,10|2,0:3|0:0,0:0:0:0:
408,272,109889,6,0,L|376:184,1,80,10|0,0:3|0:0,0:0:0:0:
428,276,110507,2,0,L|520:292,1,80
416,292,111126,2,0,L|355:363,1,80
216,336,111745,54,0,L|306:313,1,80,8|0,0:3|0:0,0:0:0:0:
80,320,112363,2,0,L|2:339,1,80
216,336,112982,5,2,0:0:0:0:
352,352,113291,1,10,0:3:0:0:
160,212,113600,2,0,L|79:217,1,80,10|0,0:3|0:0,0:0:0:0:
296,228,114229,2,0,L|376:222,1,80
144,196,114859,2,0,L|63:201,1,80
312,244,115489,6,0,B|392:238|392:238|436:230|460:184,1,160,10|0,0:3|0:0,0:0:0:0:
200,140,116409,2,0,B|119:145|119:145|75:153|52:200,1,160,2|2,0:0|0:0,0:0:0:0:
312,244,117330,54,0,B|392:238|392:238|436:230|456:192|456:192|452:148|400:112,1,240,10|4,0:3|0:3,0:0:0:0:
200,140,118560,1,0,0:0:0:0:
328,152,118868,1,0,0:0:0:0:
184,152,119176,6,0,L|104:158,1,80,10|0,0:3|0:0,0:0:0:0:
0,256,119807,2,0,L|79:249,1,80
284,304,120439,6,0,P|340:292|380:244,1,120,2|0,0:0|0:0,0:0:0:0:
376,276,121070,54,0,P|392:312|420:348,1,80,10|0,0:3|0:0,0:0:0:0:
296,216,121688,2,0,P|256:211|211:218,1,80
388,176,122307,2,0,P|411:144|428:101,1,80
220,64,122925,6,0,B|195:86|182:133|182:133|150:157|98:125,1,160,10|0,0:3|0:0,0:0:0:0:
108,32,123807,1,2,0:0:0:0:
272,140,124113,1,0,0:0:0:0:
96,228,124419,1,2,0:0:0:0:
288,148,124724,6,0,L|388:148,1,80,8|0,0:3|0:0,0:0:0:0:
201,186,125352,2,0,L|151:99,1,80
278,241,125981,2,0,L|228:328,1,80,0|8,0:0|0:3,0:0:0:0:
372,244,126609,54,0,L|472:244,1,80,10|0,0:3|0:0,0:0:0:0:
156,312,127224,2,0,L|76:312,1,80
256,192,127839,5,2,0:0:0:0:
328,312,128147,1,2,0:0:0:0:
180,236,128455,2,0,L|88:236,1,88.000002685547,10|0,0:3|0:0,0:0:0:0:
404,268,129070,2,0,L|492:268,1,88.000002685547
252,356,129685,2,0,L|160:356,1,88.000002685547
408,351,130301,6,0,P|476:300|468:216,1,176.000005371094,10|0,0:3|0:0,0:0:0:0:
269,207,131214,2,0,P|320:275|404:268,1,176.000005371094,2|2,0:0|0:0,0:0:0:0:
412,69,132128,54,0,P|344:120|352:204,1,176.000005371094,10|0,0:3|0:0,0:0:0:0:
352,204,133042,2,0,P|301:136|217:143,1,176.000005371094,2|0,0:0|0:0,0:0:0:0:
112,324,133955,6,0,P|154:332|194:317,1,88.000002685547,10|0,0:3|0:0,0:0:0:0:
84,208,134564,2,0,P|41:199|1:214,1,88.000002685547
112,324,135174,5,2,0:0:0:0:
272,208,135486,1,2,0:0:0:0:
164,40,135799,2,0,B|120:32|80:44|80:44|128:60|145:105,1,176.000005371094,10|0,0:3|0:0,0:0:0:0:
64,128,136715,53,2,0:0:0:0:
164,40,137020,1,2,0:0:0:0:
292,76,137325,1,2,0:0:0:0:
192,164,137631,2,0,P|104:160|40:88,1,176.000005371094,10|0,0:3|0:0,0:0:0:0:
191,164,138547,2,0,P|118:208|95:291,1,176.000005371094,10|10,0:3|0:3,0:0:0:0:
284,160,139479,6,0,P|271:118|242:85,1,88.000002685547,10|0,0:3|0:0,0:0:0:0:
284,252,140089,2,0,P|325:239|358:210,1,88.000002685547
192,256,140700,2,0,P|204:297|233:330,1,88.000002685547
192,164,141311,6,0,P|150:176|117:205,1,88.000002685547
332,328,141921,2,0,P|373:315|406:286,1,88.000002685547
360,112,142532,53,2,0:0:0:0:
160,196,142837,1,2,0:0:0:0:
332,328,143143,2,0,P|420:348|504:312,1,176.000005371094,10|0,0:3|0:0,0:0:0:0:
408,216,144059,5,2,0:0:0:0:
200,308,144364,1,2,0:0:0:0:
416,224,144669,1,2,0:0:0:0:
128,336,144975,2,0,P|83:339|41:328,1,88.000002685547,10|0,0:3|0:0,0:0:0:0:
200,152,145591,2,0,B|220:152|234:141|234:141|246:157|246:157|262:145|262:145|282:145|282:145|318:169|356:146,1,176.000005371094
364,136,146517,5,2,0:0:0:0:
352,164,146674,1,2,0:0:0:0:
352,196,146832,2,0,P|412:248|512:220,1,176.000005371094,10|0,0:3|0:0,0:0:0:0:
276,72,147741,53,2,0:0:0:0:
440,152,148044,1,2,0:0:0:0:
284,44,148347,1,2,0:0:0:0:
156,187,148666,2,0,P|79:205|64:127,1,176.000005371094,2|0,0:0|0:0,0:0:0:0:
244,160,149593,2,0,B|256:204|232:248|232:248|276:264|316:228,1,176.000005371094,2|2,0:0|0:0,0:0:0:0:
303,55,150534,6,0,P|217:48|145:95,1,176.000005371094,10|0,0:3|0:0,0:0:0:0:
208,328,151452,2,0,P|294:335|366:288,1,176.000005371094,2|2,0:0|0:0,0:0:0:0:
254,33,152370,6,0,P|170:53|112:117,1,176.000005371094,10|0,0:3|0:0,0:0:0:0:
257,350,153243,2,0,P|341:330|399:266,1,176.000005371094,10|8,0:3|0:3,0:0:0:0:
256,192,154200,54,0,P|212:192|168:208,1,88.000002685547,10|0,0:3|0:0,0:0:0:0:
256,191,154806,2,0,P|277:154|286:111,1,88.000002685547
256,192,155412,2,0,P|277:229|311:258,1,88.000002685547
512,296,156037,6,0,P|420:292|316:344,1,200,2|0,0:0|0:0,0:0:0:0:
216,296,157910,5,12,0:1:0:0:
228,304,158210,53,2,0:2:0:0:
332,344,158360,1,0,0:0:0:0:
392,224,158510,2,0,L|384:156,1,40,2|0,3:0|0:0,0:0:0:0:
244,72,158810,2,0,L|320:160,1,95.9999970703126,2|0,0:0|3:0,0:0:0:0:
316,156,159410,6,0,L|248:148,1,40,10|0,0:3|0:0,0:0:0:0:
56,148,159710,2,0,L|164:164,1,80,14|0,0:3|0:0,0:0:0:0:
384,196,160310,1,8,0:1:0:0:
392,204,160610,5,2,0:0:0:0:
312,132,160760,1,0,0:0:0:0:
264,228,160910,2,0,L|266:269,1,40,2|0,3:2|0:0,0:0:0:0:
360,360,161210,2,0,L|356:312,1,47.9999985351563,10|0,0:3|0:0,0:0:0:0:
180,284,161510,54,0,L|124:292,1,40,12|0,1:0|0:0,0:0:0:0:
4,257,161810,2,0,L|43:251,1,40,2|0,0:0|0:0,0:0:0:0:
112,160,162110,5,2,3:2:0:0:
192,252,162260,1,0,0:0:0:0:
240,140,162410,2,0,P|228:96|204:60,1,80,2|0,0:0|3:0,0:0:0:0:
436,260,163010,6,0,L|492:284,1,40,8|0,0:1|0:0,0:0:0:0:
360,196,163310,2,0,L|420:188,1,40,2|0,0:2|0:0,0:0:0:0:
264,212,163610,1,0,0:0:0:0:
228,232,163910,53,0,3:0:0:0:
192,252,164210,6,0,L|112:245,1,80,8|0,0:3|3:0,0:0:0:0:
96,244,164810,5,0,3:0:0:0:
212,280,164960,1,0,3:0:0:0:
296,192,165110,2,0,L|302:112,1,80,10|2,1:0|0:0,0:0:0:0:
312,208,165560,53,0,0:0:0:0:
388,292,165710,1,2,3:0:0:0:
400,300,166010,5,0,0:0:0:0:
412,308,166310,5,0,3:0:0:0:
424,316,166610,54,0,L|464:320,1,40,10|10,0:3|0:3,0:0:0:0:
276,352,166910,2,0,L|236:348,1,40,10|0,0:3|0:0,0:0:0:0:
12,236,167210,2,0,L|107:246,1,95.9999970703126,2|0,0:0|3:0,0:0:0:0:
312,184,167810,2,0,L|232:176,1,80,2|0,0:0|3:0,0:0:0:0:
208,176,168410,6,0,L|280:192,1,40,10|8,0:3|0:3,0:0:0:0:
96,144,168710,2,0,L|112:80,1,40,2|2,1:0|0:0,0:0:0:0:
96,144,169010,6,0,P|76:64|40:16,1,143.999995605469,6|0,0:3|0:0,0:0:0:0:
200,96,169610,2,0,P|256:104|320:88,1,120,2|0,0:0|0:0,0:0:0:0:
432,16,170210,54,0,L|400:64,1,40,10|0,0:3|0:0,0:0:0:0:
344,204,170510,2,0,L|366:170,1,40,14|10,3:1|0:3,0:0:0:0:
344,204,170810,6,0,P|340:128|304:56,1,143.999995605469,10|0,0:3|0:0,0:0:0:0:
276,264,171410,2,0,P|284:326|312:400,1,120,10|0,0:3|0:0,0:0:0:0:
208,352,172010,6,0,L|180:380,1,40,10|0,0:3|0:0,0:0:0:0:
96,336,172310,2,0,L|16:342,1,80,14|8,3:2|0:3,0:0:0:0:
164,256,172760,53,0,0:0:0:0:
276,264,172910,2,0,P|368:286|430:214,1,200,2|0,3:0|0:0,0:0:0:0:
344,204,173810,5,8,0:1:0:0:
220,252,173960,1,0,0:0:0:0:
128,160,174110,5,10,1:2:0:0:
340,208,174260,1,0,0:0:0:0:
108,168,174410,54,0,L|68:160,1,40,8|0,0:3|0:0,0:0:0:0:
44,248,174710,2,0,L|4:240,1,40,8|8,0:3|0:3,0:0:0:0:
156,336,175010,2,0,L|273:360,1,120,10|0,0:3|0:0,0:0:0:0:
416,304,175610,6,0,L|472:292,1,47.9999985351563,10|0,0:3|0:0,0:0:0:0:
464,152,175910,6,0,L|446:206,1,40,12|0,1:2|0:0,0:0:0:0:
496,60,176210,1,0,0:0:0:0:
364,156,176360,2,0,L|284:162,1,80,2|0,0:1|0:0,0:0:0:0:
96,224,176810,2,0,B|176:216|176:216|224:228,1,120,10|0,0:3|0:0,0:0:0:0:
276,320,177410,2,0,L|236:308,1,40,10|8,0:3|0:3,0:0:0:0:
36,156,177710,54,0,L|148:144,1,95.9999970703126,10|2,0:3|0:0,0:0:0:0:
36,64,178160,1,0,0:0:0:0:
228,228,178310,1,8,0:1:0:0:
224,244,178610,6,0,L|212:292,1,40,10|0,0:3|0:0,0:0:0:0:
252,128,178910,1,10,0:0:0:0:
312,328,179060,1,2,0:0:0:0:
340,212,179210,1,14,0:1:0:0:
260,132,179360,5,2,0:0:0:0:
348,216,179514,2,0,L|452:212,1,80,10|2,0:3|3:0,0:0:0:0:
268,136,179964,53,0,0:0:0:0:
132,184,180114,1,0,0:0:0:0:
140,192,180414,5,2,3:0:0:0:
220,272,180564,1,0,0:0:0:0:
112,300,180714,2,0,L|8:296,1,80,2|2,0:0|0:0,0:0:0:0:
112,300,181314,5,8,1:2:0:0:
236,360,181464,1,0,0:0:0:0:
364,312,181614,2,0,L|404:292,1,40,10|0,0:3|0:0,0:0:0:0:
460,212,181914,2,0,L|500:232,1,40,10|2,0:3|0:0,0:0:0:0:
316,212,182214,54,0,L|280:194,1,40,10|0,0:3|0:0,0:0:0:0:
104,192,182514,2,0,L|192:200,1,80,8|2,0:3|0:0,0:0:0:0:
152,124,182964,1,2,0:0:0:0:
56,256,183114,6,0,L|16:252,1,40,14|0,1:2|0:0,0:0:0:0:
152,124,183414,1,2,3:3:0:0:
196,200,183564,2,0,L|316:212,1,120,0|10,0:0|0:3,0:0:0:0:
135,263,184164,2,0,L|56:256,1,80,8|0,0:3|0:0,0:0:0:0:
416,164,184614,1,2,0:0:0:0:
420,168,184914,5,8,0:2:0:0:
500,216,185064,1,0,0:0:0:0:
500,124,185214,53,2,0:0:0:0:
420,260,185364,2,0,P|380:264|336:276,1,80
272,200,185814,6,0,P|216:180|140:160,1,120,8|0,3:0|0:0,0:0:0:0:
20,132,186414,2,0,L|64:124,1,40,10|0,0:3|0:0,0:0:0:0:
248,80,186714,6,0,P|202:83|156:80,1,88.000002685547,10|2,0:3|3:0,0:0:0:0:
328,28,187164,1,0,0:0:0:0:
328,120,187314,2,0,L|304:164,1,44.0000013427735,2|0,0:0|0:0,0:0:0:0:
328,28,187614,54,0,B|376:36|404:68|404:68|416:112,1,132.00000402832,8|0,0:3|0:0,0:0:0:0:
372,256,188214,2,0,L|361:213,1,44.0000013427735,10|2,0:3|0:0,0:0:0:0:
464,279,188514,2,0,P|427:333|365:351,1,132.00000402832,14|0,0:2|0:0,0:0:0:0:
284,296,189114,5,2,0:0:0:0:
202,162,189264,1,0,0:0:0:0:
188,314,189414,1,10,0:3:0:0:
293,200,189565,1,2,0:0:0:0:
138,234,189715,6,0,L|68:248,1,44.0000013427735,2|0,0:0|0:0,0:0:0:0:
208,136,190015,2,0,L|164:144,1,44.0000013427735,8|0,0:3|0:0,0:0:0:0:
376,184,190315,54,0,L|462:169,1,88.000002685547,14|2,1:2|0:0,0:0:0:0:
492,96,190765,1,0,0:0:0:0:
312,248,190915,2,0,L|226:263,1,88.000002685547,2|8,0:0|3:1,0:0:0:0:
328,256,191515,5,0,0:0:0:0:
344,264,191815,6,0,L|388:256,1,44.0000013427735,10|0,0:3|0:0,0:0:0:0:
468,240,192115,1,12,0:1:0:0:
464,244,192415,54,0,L|508:252,1,44.0000013427735,8|0,0:3|0:0,0:0:0:0:
424,148,192715,5,2,0:0:0:0:
360,272,192865,1,0,0:0:0:0:
360,112,193015,5,10,0:3:0:0:
424,236,193165,1,2,0:0:0:0:
296,308,193315,1,6,0:1:0:0:
300,312,193615,54,0,L|256:320,1,44.0000013427735,8|0,0:3|0:0,0:0:0:0:
304,316,193915,6,0,L|204:312,1,88.000002685547,14|2,0:2|0:0,0:0:0:0:
372,352,194365,1,2,0:0:0:0:
148,276,194515,1,8,0:1:0:0:
132,271,194815,6,0,P|72:288|8:256,1,132.00000402832,8|0,0:3|0:0,0:0:0:0:
80,208,195415,1,10,0:3:0:0:
148,356,195565,1,0,0:0:0:0:
72,200,195715,54,0,L|64:100,1,88.000002685547,2|0,0:0|0:0,0:0:0:0:
72,200,196615,6,0,L|68:148,1,44.0000013427735,10|0,0:3|0:0,0:0:0:0:
56,32,196915,1,2,0:0:0:0:
80,208,197215,6,0,L|76:156,1,44.0000013427735,8|8,0:3|0:3,0:0:0:0:
88,4,197515,2,0,L|95:91,1,88.000002685547,14|2,0:2|0:0,0:0:0:0:
8,268,197965,1,2,0:0:0:0:
152,148,198115,1,8,0:1:0:0:
160,148,198415,54,0,P|220:176|284:152,1,132.00000402832,8|0,0:3|0:0,0:0:0:0:
224,100,199015,1,10,0:3:0:0:
164,236,199165,1,2,0:0:0:0:
328,208,199315,6,0,L|364:200,1,22.0000006713867,14|14,1:2|1:2,0:0:0:0:
292,272,199616,6,0,L|327:283,1,22.0000006713867,2|0,0:0|0:0,0:0:0:0:
228,308,199916,54,0,L|248:335,1,22.0000006713867,2|0,0:0|0:0,0:0:0:0:
224,89,200216,6,0,L|188:50,1,30.0000011444092,2|0,0:0|0:0,0:0:0:0:
330,88,200516,6,0,L|317:37,1,30.0000011444092,2|0,0:0|0:0,0:0:0:0:
420,143,200816,54,0,L|438:98,1,30.0000011444092,10|0,0:1|0:0,0:0:0:0:
276,168,201116,6,0,P|260:208|248:264,1,88.000002685547,10|0,1:0|0:0,0:0:0:0:
352,232,201566,1,2,0:0:0:0:
176,172,201716,1,2,0:0:0:0:
180,176,202016,6,0,P|116:184|56:152,1,132.00000402832
0,240,202616,2,0,L|72:236,1,44.0000013427735,10|0,0:3|0:0,0:0:0:0:
363,160,202916,2,0,L|276:168,1,88.000002685547,10|0,0:3|0:0,0:0:0:0:
448,156,203366,1,0,0:0:0:0:
224,96,203516,1,8,0:1:0:0:
228,100,203816,54,0,L|185:89,1,44.0000013427735,10|0,0:3|0:0,0:0:0:0:
452,160,204116,1,2,0:0:0:0:
288,324,204266,1,0,0:0:0:0:
184,176,204416,1,0,0:0:0:0:
364,160,204566,1,0,0:0:0:0:
288,324,204716,6,0,P|248:344|192:356,1,88.000002685547,14|2,1:0|0:0,0:0:0:0:
216,264,205166,1,0,0:0:0:0:
304,232,205316,6,0,P|328:240|356:256,1,44.0000013427735,2|0,0:0|0:0,0:0:0:0:
452,160,205616,2,0,P|427:151|400:136,1,44.0000013427735,10|8,0:3|0:3,0:0:0:0:
376,328,205916,2,0,P|401:323|433:322,1,44.0000013427735,10|0,0:3|0:0,0:0:0:0:
380,64,206216,2,0,P|354:68|322:69,1,44.0000013427735,8|0,0:3|0:0,0:0:0:0:
508,40,206516,1,14,0:1:0:0:
512,44,206816,53,2,0:0:0:0:
304,232,206966,1,0,0:0:0:0:
380,64,207116,5,2,0:0:0:0:
452,160,207266,1,2,0:0:0:0:
304,232,207416,6,0,L|252:256,1,44.0000013427735,8|0,0:3|0:0,0:0:0:0:
112,168,207716,2,0,L|168:179,1,44.0000013427735,10|0,0:3|0:0,0:0:0:0:
232,332,208016,2,0,L|193:289,1,44.0000013427735,10|2,0:3|0:0,0:0:0:0:
232,132,208316,2,0,L|238:188,1,44.0000013427735,12|0,0:2|0:0,0:0:0:0:
112,294,208616,53,2,0:0:0:0:
304,232,208766,1,0,0:0:0:0:
112,168,208916,1,2,0:0:0:0:
231,332,209066,1,2,0:0:0:0:
232,132,209216,1,10,0:3:0:0:
240,136,209517,5,0,0:0:0:0:
248,140,209817,5,10,2:1:0:0:
261,318,209967,1,2,2:0:0:0:
143,181,210117,1,0,2:0:0:0:
320,222,210267,1,2,2:0:0:0:
152,292,210418,54,0,L|96:280,1,44.0000013427735,8|8,0:3|0:3,0:0:0:0:
376,320,210718,2,0,L|462:337,1,88.000002685547,8|2,0:3|3:0,0:0:0:0:
328,228,211168,2,0,L|414:245,1,88.000002685547,2|0,0:0|0:0,0:0:0:0:
392,352,211619,6,0,L|435:361,1,44.0000013427735,10|0,0:3|0:0,0:0:0:0:
292,248,211919,2,0,L|205:230,1,88.000002685547,10|2,0:3|0:0,0:0:0:0:
80,88,212370,2,0,L|166:105,1,88.000002685547,0|2,0:0|0:0,0:0:0:0:
300,168,212820,2,0,L|452:128,1,132.00000402832,8|0,0:3|0:0,0:0:0:0:
336,68,213421,5,8,0:3:0:0:
392,236,213571,1,2,0:0:0:0:
224,88,213721,1,8,1:2:0:0:
232,96,214019,53,2,0:0:0:0:
80,188,214169,1,2,0:0:0:0:
200,316,214318,6,0,L|208:268,1,44.0000013427735,8|0,0:3|0:0,0:0:0:0:
240,104,214617,2,0,L|248:152,1,44.0000013427735,8|0,0:3|0:0,0:0:0:0:
284,348,214915,2,0,L|292:300,1,44.0000013427735,8|0,0:3|0:0,0:0:0:0:
324,136,215214,2,0,L|332:184,1,44.0000013427735,10|0,0:3|0:0,0:0:0:0:
368,380,215513,5,12,0:2:0:0:
372,376,215813,53,2,0:0:0:0:
288,344,215963,1,0,0:0:0:0:
204,312,216113,1,2,0:0:0:0:
196,320,216413,6,0,L|88:316,1,88.000002685547,10|2,0:3|0:0,0:0:0:0:
416,176,217013,2,0,L|503:179,1,88.000002685547,10|8,0:3|0:1,0:0:0:0:
424,184,217613,6,0,L|488:188,1,44.0000013427735,10|0,0:3|0:0,0:0:0:0:
332,180,217913,1,0,0:0:0:0:
324,188,218213,54,0,L|327:130,1,44.0000013427735,2|0,0:0|0:0,0:0:0:0:
148,196,218513,2,0,L|96:221,1,44.0000013427735,10|0,0:1|0:0,0:0:0:0:
232,44,218813,2,0,L|280:76,1,44.0000013427735,10|8,0:3|0:3,0:0:0:0:
324,188,219113,6,0,L|244:136,1,88.000002685547,10|2,0:3|0:0,0:0:0:0:
392,236,219562,1,0,3:0:0:0:
152,200,219712,1,2,0:0:0:0:
400,152,220011,6,0,L|485:108,1,88.000002685547,10|2,0:3|0:0,0:0:0:0:
392,236,220610,2,0,L|386:331,1,88.000002685547,2|8,0:0|0:1,0:0:0:0:
388,324,221210,53,2,0:0:0:0:
324,188,221360,1,0,0:0:0:0:
240,312,221510,1,2,0:0:0:0:
312,200,221660,5,0,0:0:0:0:
228,324,221810,2,0,L|184:326,1,44.0000013427735,10|0,0:3|0:0,0:0:0:0:
300,212,222110,5,8,0:1:0:0:
376,336,222260,1,0,0:0:0:0:
216,336,222410,2,0,L|172:338,1,44.0000013427735,10|8,0:3|0:3,0:0:0:0:
0,272,222710,2,0,L|43:269,1,44.0000013427735,12|0,0:2|0:0,0:0:0:0:
172,256,223010,53,2,0:0:0:0:
199,98,223160,1,2,0:0:0:0:
247,228,223310,1,8,0:1:0:0:
124,125,223460,1,2,0:0:0:0:
260,149,223610,6,0,L|328:124,1,44.0000013427735,10|0,0:3|0:0,0:0:0:0:
110,203,223910,1,2,0:0:0:0:
108,208,224210,5,10,0:3:0:0:
104,212,224510,54,0,L|62:227,1,44.0000013427735,8|0,0:3|0:0,0:0:0:0:
240,236,224810,1,2,0:0:0:0:
192,104,224960,1,0,0:0:0:0:
164,264,225110,1,10,0:1:0:0:
252,156,225260,1,2,0:0:0:0:
116,132,225410,6,0,L|74:116,1,44.0000013427735,8|0,0:3|0:0,0:0:0:0:
312,208,225710,1,8,0:1:0:0:
320,216,226010,5,6,1:0:0:0:
328,224,226310,54,0,L|380:248,1,44.0000013427735,8|0,0:3|0:0,0:0:0:0:
460,288,226610,1,2,0:0:0:0:
448,140,226760,1,0,0:0:0:0:
321,236,226910,5,8,0:1:0:0:
440,321,227060,1,2,0:0:0:0:
454,174,227210,2,0,L|460:120,1,44.0000013427735,10|0,1:3|0:0,0:0:0:0:
312,248,227510,5,8,0:1:0:0:
304,260,227810,54,0,L|260:256,1,44.0000013427735,10|0,0:3|0:0,0:0:0:0:
216,344,228110,2,0,L|172:340,1,44.0000013427735,8|0,0:3|0:0,0:0:0:0:
152,216,228410,5,2,0:0:0:0:
224,348,228560,1,0,0:0:0:0:
44,320,228710,5,8,0:1:0:0:
160,220,228860,1,2,0:0:0:0:
108,368,229010,54,0,L|72:384,2,29.3333342285157,6|8|8,1:2|0:1|0:2,0:0:0:0:
224,268,229310,1,0,1:0:0:0:
248,272,229610,5,14,0:1:0:0:
272,276,229910,6,0,L|376:272,1,88.000002685547,8|10,0:3|0:3,0:0:0:0:
424,176,230360,1,0,0:0:0:0:
344,348,230510,54,0,L|431:344,1,88.000002685547,10|10,0:3|0:3,0:0:0:0:
432,184,230960,5,10,0:1:0:0:
244,360,231110,2,0,L|200:362,1,44.0000013427735,10|0,0:3|0:0,0:0:0:0:
440,192,231410,5,10,0:3:0:0:
252,368,231560,1,0,0:0:0:0:
400,272,231710,54,0,L|487:268,1,88.000002685547,10|10,1:3|0:3,0:0:0:0:
236,184,232160,1,0,0:0:0:0:
464,340,232310,6,0,L|508:338,1,44.0000013427735,10|0,0:3|0:0,0:0:0:0:
379,311,232610,2,0,L|400:272,1,44.0000013427735,8|0,0:3|0:0,0:0:0:0:
256,328,232910,6,0,L|236:368,1,44.0000013427735,10|0,0:3|0:0,0:0:0:0:
171,299,233210,2,0,L|127:301,1,44.0000013427735,10|0,0:3|0:0,0:0:0:0:
0,212,233510,54,0,L|88:212,1,88.000002685547,14|10,1:2|3:3,0:0:0:0:
184,304,233960,1,0,3:0:0:0:
116,124,234110,6,0,L|204:124,1,88.000002685547,10|10,0:3|0:3,0:0:0:0:
200,312,234560,1,2,0:0:0:0:
352,200,234710,6,0,L|396:198,1,44.0000013427735,14|0,0:1|0:0,0:0:0:0:
173,241,235010,2,0,L|139:269,1,44.0000013427735,10|0,0:3|0:0,0:0:0:0:
293,103,235310,2,0,L|304:60,1,44.0000013427735,14|0,1:2|0:0,0:0:0:0:
278,285,235610,2,0,L|293:327,1,44.0000013427735,10|0,0:3|0:0,3:0:0:0:
183,129,235910,2,0,L|146:104,1,44.0000013427735,14|0,0:1|0:0,3:0:0:0:
204,24,236210,53,10,0:3:0:0:
256,192,236360,1,0,0:0:0:0:
84,156,236510,2,0,L|47:131,1,44.0000013427735,14|0,0:1|0:0,3:0:0:0:
96,276,236810,2,0,L|133:301,1,44.0000013427735,10|0,0:3|0:0,3:0:0:0:
288,264,237110,6,0,L|231:265,1,44.0000013427735,10|0,0:3|0:0,3:0:0:0:
352,160,237410,2,0,L|378:110,1,44.0000013427735,8|0,0:3|0:0,3:0:0:0:
416,268,237710,2,0,L|464:344,1,88.000002685547,8|12,0:3|3:3,0:0:0:0:
296,272,238160,5,0,3:0:0:0:
432,256,238310,54,0,L|480:248,1,44.0000013427735,8|0,0:3|0:0,0:0:0:0:
244,208,238610,2,0,L|200:215,1,44.0000013427735,12|0,0:1|0:0,0:0:0:0:
56,160,238910,1,14,1:2:0:0:
60,164,239210,5,8,0:3:0:0:
248,212,239360,1,0,0:0:0:0:
64,168,239510,6,0,L|12:156,1,44.0000013427735,8|0,0:3|0:0,0:0:0:0:
192,80,239810,2,0,L|149:70,1,44.0000013427735,10|0,0:3|0:0,0:0:0:0:
148,232,240110,53,8,0:3:0:0:
200,88,240260,1,10,0:1:0:0:
336,136,240410,5,10,0:3:0:0:
208,96,240560,1,0,0:0:0:0:
352,140,240710,6,0,L|400:124,1,44.0000013427735,14|0,1:2|0:0,0:0:0:0:
356,276,241010,2,0,L|345:325,1,44.0000013427735,8|0,0:3|0:0,0:0:0:0:
236,212,241310,2,0,L|198:178,1,44.0000013427735,8|0,0:3|0:0,0:0:0:0:
468,136,241610,54,0,L|426:149,1,44.0000013427735,10|0,0:3|0:0,0:0:0:0:
300,372,241910,2,0,L|308:328,1,44.0000013427735,10|0,0:3|0:0,0:0:0:0:
164,120,242210,2,0,L|196:149,1,44.0000013427735,10|0,0:3|0:0,0:0:0:0:
88,240,242510,6,0,P|45:199|16:132,1,120.000004577637,10|0,0:3|0:0,0:0:0:0:
88,240,243410,6,0,P|76:181|90:110,1,120.000004577637,10|2,0:2|0:0,0:0:0:0:
124,56,244310,53,4,3:1:0:0:
132,60,245257,1,2,0:3:0:0:
140,64,245888,5,0,0:0:0:0:
228,76,246204,2,0,L|308:72,1,60.0000022888184,0|8,3:0|0:3,0:0:0:0:
444,100,246678,2,0,L|384:102,1,60.0000022888184,0|0,0:3|0:0,0:0:0:0:
228,76,247152,5,0,0:0:0:0:
360,20,247467,1,2,0:3:0:0:
344,164,247783,1,0,0:0:0:0:
228,76,248099,54,0,L|176:36,1,60.0000022888184,4|8,3:1|0:3,0:0:0:0:
344,164,248573,2,0,L|404:138,1,60.0000022888184,8|8,0:3|0:3,0:0:0:0:
216,216,249046,5,2,0:3:0:0:
232,80,249362,1,8,0:3:0:0:
348,168,249678,1,2,0:2:0:0:
220,220,249994,6,0,P|135:197|40:220,1,180.000006866455,6|2,3:2|3:3,0:0:0:0:
132,336,251257,53,0,0:0:0:0:
220,220,251573,1,0,3:0:0:0:
159,88,251888,6,0,P|113:125|84:177,1,120.000004577637,2|0,3:2|0:0,0:0:0:0:
304,104,252836,2,0,P|350:67|379:15,1,120.000004577637,2|0,0:3|3:0,0:0:0:0:
280,12,253625,1,0,0:0:0:0:
304,104,253783,6,0,P|359:126|418:123,1,120.000004577637,4|0,3:3|0:0,0:0:0:0:
256,188,254731,2,0,P|200:165|141:168,1,120.000004577637,2|4,0:0|0:3,0:0:0:0:
332,240,255678,2,0,P|343:212|346:182,1,60.0000022888184,0|8,3:0|0:3,0:0:0:0:
332,240,256152,54,0,P|355:221|373:197,1,60.0000022888184
332,240,256625,6,0,P|361:235|389:223,1,60.0000022888184,8|0,0:0|0:0,0:0:0:0:
420,140,257099,1,2,0:3:0:0:
407,307,257257,6,0,P|432:310|457:306,1,50,8|0,3:3|0:0,0:0:0:0:
508,236,257573,1,12,1:0:0:0:
54,181,259467,54,0,P|112:191|167:169,1,120.000004577637,0|0,3:0|0:0,0:0:0:0:
176,160,260415,2,0,P|172:196|180:232,1,60.0000022888185,2|12,0:0|1:2,0:0:0:0:
264,188,261046,1,8,3:3:0:0:
160,76,261362,6,0,P|126:90|99:115,1,60.0000022888185,0|2,3:0|0:3,0:0:0:0:
244,108,261836,2,0,P|277:93|304:68,1,60.0000022888185,0|8,0:0|0:3,0:0:0:0:
228,24,262310,5,8,3:3:0:0:
176,160,262625,1,8,0:0:0:0:
320,136,262941,1,10,0:3:0:0:
168,176,263257,54,0,L|104:188,1,60.0000022888184,0|0,3:0|0:0,0:0:0:0:
284,240,263731,2,0,L|220:252,1,60.0000022888184,0|0,0:0|0:0,0:0:0:0:
400,304,264204,5,0,3:2:0:0:
284,240,264520,1,0,0:0:0:0:
168,176,264836,1,0,3:0:0:0:
392,184,265152,2,0,L|456:184,1,60.0000022888184,8|0,0:0|0:0,0:0:0:0:
488,104,265546,6,0,L|508:88,5,15.0000005722046,2|8|8|2|8|8,0:3|0:3|0:3|0:3|0:3|0:3,0:0:0:0:
388,104,266020,2,0,L|368:116,4,15.0000005722046,4|8|2|8|8,0:3|0:3|0:3|0:0|0:3,0:0:0:0:
300,152,266415,54,0,L|236:164,1,60.0000022888184,2|2,1:2|0:3,0:0:0:0:
168,176,266888,1,4,0:2:0:0:
308,68,267046,1,0,3:0:0:0:
316,72,267362,5,4,0:3:0:0:
324,76,267678,5,0,0:0:0:0:
332,80,267994,54,0,B|393:83|393:83|464:104,1,120.000004577637,10|0,0:3|0:0,0:0:0:0:
512,220,268941,2,0,B|432:216|432:216|352:192,1,160,4|0,3:3|0:0,0:0:0:0:
160,224,269970,2,2,P|252:232|176:296,1,225,0|0,0:0|0:0,0:0:0:0:
40,112,270840,6,0,L|40:64,1,40,4|2,0:3|0:3,0:0:0:0:
100,168,271268,1,0,0:0:0:0:
160,224,271482,1,0,0:0:0:0:
32,332,271697,6,0,L|-16:332,1,44.0000013427735,2|0,0:0|0:0,0:0:0:0:
176,300,272125,2,0,L|220:300,1,44.0000013427735,2|0,0:0|0:0,0:0:0:0:
316,296,272554,53,0,0:0:0:0:
384,224,272768,1,0,0:0:0:0:
312,156,272982,1,0,0:0:0:0:
244,228,273197,1,0,0:0:0:0:
388,364,273411,6,0,L|440:356,1,47.9999985351563,2|0,0:0|0:0,0:0:0:0:
512,204,273840,2,0,L|464:211,1,47.9999985351563,2|0,0:0|0:0,0:0:0:0:
452,284,274268,5,0,3:0:0:0:
511,204,274482,1,0,0:0:0:0:
452,122,274697,1,0,0:0:0:0:
357,153,274911,1,0,0:0:0:0:
358,253,275125,54,0,L|360:320,1,51.999997619629,14|0,0:0|0:0,0:0:0:0:
384,64,275554,2,0,L|382:12,1,51.999997619629,2|0,0:2|0:0,0:0:0:0:
296,84,275982,5,0,0:0:0:0:
236,164,276197,1,0,0:0:0:0:
237,2,276411,1,0,0:0:0:0:
144,132,276625,1,0,0:0:0:0:
144,32,276840,6,0,L|66:59,1,55.9999982910157,10|0,0:0|0:0,0:0:0:0:
0,184,277268,2,0,L|52:165,1,55.9999982910157,2|0,0:0|0:0,0:0:0:0:
144,132,277697,53,0,3:0:0:0:
296,84,277911,1,0,0:0:0:0:
236,164,278125,1,0,0:0:0:0:
236,0,278340,1,0,0:0:0:0:
328,196,278554,6,0,L|387:198,1,60.0000022888184,10|0,0:0|0:0,0:0:0:0:
144,32,278982,2,0,L|84:29,1,60.0000022888184,2|0,0:0|0:0,0:0:0:0:
144,232,279411,5,0,0:0:0:0:
212,80,279625,1,0,0:0:0:0:
176,228,279840,1,0,0:0:0:0:
176,56,280054,1,0,0:0:0:0:
208,224,280268,54,0,L|271:214,1,64,10|0,0:0|0:0,0:0:0:0:
512,260,280697,2,0,L|448:269,1,64,2|0,0:0|0:0,0:0:0:0:
284,292,281125,5,0,3:0:0:0:
372,96,281340,1,0,0:0:0:0:
368,280,281554,1,0,0:0:0:0:
212,184,281768,1,0,0:0:0:0:
372,96,281982,6,0,L|448:108,1,68.0000012969971,10|0,0:0|0:0,0:0:0:0:
212,184,282411,2,0,L|144:173,1,68.0000012969971,2|0,0:0|0:0,0:0:0:0:
48,156,282840,53,0,0:0:0:0:
292,136,283054,1,0,0:0:0:0:
8,136,283268,1,0,0:0:0:0:
308,152,283482,1,0,0:0:0:0:
88,176,283697,6,0,L|172:188,1,71.9999978027344,10|0,0:0|0:0,0:0:0:0:
395,178,284125,2,0,L|324:168,1,71.9999978027344,2|0,0:0|0:0,0:0:0:0:
92,308,284554,6,2,P|163:301|224:256,1,143.999995605469,6|0,0:0|0:0,0:0:0:0:
284,344,285197,2,2,P|313:279|304:203,1,143.999995605469,0|0,0:0|0:0,0:0:0:0:
32,240,285840,2,2,P|12:272|0:312,1,71.9999978027344,2|0,0:0|0:0,0:0:0:0:
116,224,286268,54,2,P|80:168|-4:160,1,143.999995605469,4|0,0:3|0:0,0:0:0:0:
92,308,286911,1,0,0:0:0:0:
176,284,287125,6,2,P|196:248|196:208,1,71.9999978027344,2|0,0:0|0:0,0:0:0:0:
124,28,287554,2,2,P|104:64|104:104,1,71.9999978027344,0|0,0:0|0:0,0:0:0:0:
176,284,287982,6,2,P|200:216|156:148,1,143.999995605469,6|0,0:0|0:0,0:0:0:0:
116,224,288625,1,0,0:0:0:0:
272,276,288840,54,0,P|304:276|348:264,1,71.9999978027344,2|0,0:0|0:0,0:0:0:0:
496,120,289268,2,0,P|464:120|420:132,1,71.9999978027344,2|0,0:0|0:0,0:0:0:0:
296,196,289697,5,4,0:3:0:0:
476,200,289911,1,0,0:0:0:0:
392,40,290125,5,0,0:0:0:0:
296,88,290340,1,0,0:0:0:0:
296,196,290554,54,2,P|304:233|320:272,1,71.9999978027344,6|0,0:0|0:0,0:0:0:0:
268,376,290982,2,2,P|259:338|244:300,1,71.9999978027344,2|0,0:0|0:0,0:0:0:0:
51,327,291411,6,2,P|109:367|179:360,1,143.999995605469,6|0,3:2|0:0,0:0:0:0:
132,280,292054,1,0,0:0:0:0:
55,235,292268,6,0,P|20:242|-9:261,1,71.9999978027344,2|0,0:0|0:0,0:0:0:0:
220,280,292697,2,0,P|255:273|285:254,1,71.9999978027344,2|0,0:0|0:0,0:0:0:0:
220,280,293125,54,2,P|196:216|124:188,1,143.999995605469,0|0,0:0|0:0,0:0:0:0:
132,280,293768,1,0,0:0:0:0:
180,360,293982,2,2,P|250:359|301:310,1,143.999995605469
292,224,294625,1,0,0:0:0:0:
301,311,294840,6,2,B|376:304|376:304|408:292|425:259,1,143.999995605469,2|0,3:0|0:0,0:0:0:0:
340,132,295482,2,0,B|265:139|265:139|233:151|215:184,1,143.999995605469
292,224,296125,5,0,0:0:0:0:
340,132,296340,1,0,0:0:0:0:
200,96,296554,54,0,L|124:76,1,71.9999978027344,2|0,0:0|0:0,0:0:0:0:
444,160,296982,1,0,0:0:0:0:
444,160,297197,6,0,L|516:128,1,71.9999978027344,2|2,0:0|0:0,0:0:0:0:
204,260,297625,1,0,0:0:0:0:
204,260,297840,6,0,L|120:240,1,71.9999978027344,2|0,0:0|0:0,0:0:0:0:
204,260,298268,54,2,B|158:196|158:196|146:154|160:108,1,160,2|0,3:2|0:0,0:0:0:0:
248,192,298911,2,2,B|204:260|204:260|167:275|116:272,1,160,2|0,0:0|0:0,0:0:0:0:
316,236,299554,2,2,L|359:168,1,80,2|0,0:0|0:0,0:0:0:0:
272,304,299982,6,2,P|344:312|396:248,1,160,2|0,0:0|0:0,0:0:0:0:
316,236,300625,1,0,0:0:0:0:
236,232,300840,6,2,P|192:296|224:368,1,160
272,304,301482,1,0,0:0:0:0:
280,164,301697,54,0,P|272:128|244:92,1,80,2|0,3:2|0:0,0:0:0:0:
200,160,302125,1,0,0:0:0:0:
316,236,302340,1,0,0:0:0:0:
336,100,302554,6,0,L|316:16,1,80,2|0,0:0|0:0,0:0:0:0:
372,172,302982,2,0,L|390:249,1,80,2|0,0:0|0:0,0:0:0:0:
408,324,303411,5,8,0:3:0:0:
420,104,303625,1,0,0:0:0:0:
416,332,303840,53,0,0:0:0:0:
284,168,304054,1,0,0:0:0:0:
205,361,304268,2,0,B|126:347|126:347|92:328,1,120,2|0,0:0|0:0,0:0:0:0:
72,196,304697,5,0,0:1:0:0:
64,216,304804,1,0,0:0:0:0:
56,236,304911,1,0,0:0:0:0:
48,256,305018,1,0,0:0:0:0:
28,271,305125,6,2,P|97:239|164:280,1,160,2|0,3:2|0:0,0:0:0:0:
92,328,305768,1,0,0:0:0:0:
196,184,305982,54,2,P|255:234|261:311,1,160
164,280,306625,1,0,0:0:0:0:
99,203,306840,6,2,P|116:127|184:84,1,160,2|0,0:0|0:0,0:0:0:0:
412,180,307482,2,2,P|395:256|328:300,1,160,2|0,0:0|0:0,0:0:0:0:
196,184,308125,5,2,0:0:0:0:
316,200,308340,1,0,0:0:0:0:
244,296,308554,54,2,P|165:300|97:255,1,160,2|0,0:0|0:0,0:0:0:0:
200,188,309197,1,0,0:0:0:0:
320,204,309411,6,2,P|344:232|360:272,1,80,2|0,0:0|0:0,0:0:0:0:
288,368,309840,2,2,P|262:337|248:300,1,80,2|0,0:0|0:0,0:0:0:0:
272,95,310268,6,2,P|352:92|420:144,1,160,2|0,0:0|0:0,0:0:0:0:
320,204,310911,1,0,0:0:0:0:
203,191,311125,2,2,P|161:125|165:47,1,160,4|2,1:3|0:0,0:0:0:0:
320,204,311768,53,0,0:0:0:0:
336,212,311875,1,0,0:0:0:0:
360,224,311982,2,2,L|460:224,1,100,6|2,3:2|0:0,0:0:0:0:
264,296,312411,1,0,0:0:0:0:
276,304,312518,2,2,L|196:304,1,80,2|0,0:0|0:0,0:0:0:0:
179,292,312840,2,2,P|116:331|60:282,1,160
112,156,313482,5,0,0:0:0:0:
132,148,313590,1,0,0:0:0:0:
152,140,313697,6,0,L|160:84,3,40,4|0|0|0,0:3|0:0|0:0|0:0,0:0:0:0:
248,184,314125,2,0,L|240:240,3,40
332,88,314554,2,0,L|340:40,4,26.6666666666667,8|0|8|0|8,0:1|0:0|0:0|0:0|0:0,0:0:0:0:
384,256,314982,2,0,L|379:282,4,26.6666666666667,8|8|0|0|4,1:1|0:0|0:0|0:0|0:3,0:0:0:0:
272,312,315411,54,2,L|200:348,1,80,2|0,3:0|0:0,0:0:0:0:
128,344,315732,2,2,L|106:381,2,40,0|0|0,0:0|0:0|0:0,0:0:0:0:
172,276,316054,2,2,L|64:248,1,92.0000017547608,2|0,0:2|0:0,0:0:0:0:
248,232,316375,6,2,L|312:224,1,40,0|2,0:0|0:0,0:0:0:0:
340,176,316590,1,0,0:0:0:0:
376,188,316697,2,2,L|460:176,1,80,10|2,0:0|0:0,0:0:0:0:
220,144,317125,2,2,L|140:155,1,80,2|0,0:2|0:0,0:0:0:0:
76,80,317554,6,2,L|20:60,2,53.3333333333333,2|2|0,0:2|0:0|0:0,0:0:0:0:
208,44,317982,2,0,L|252:36,1,40,2|2,0:0|0:0,0:0:0:0:
316,92,318197,2,2,L|416:132,1,80,4|2,0:3|0:0,0:0:0:0:
252,208,318572,2,2,L|320:172,1,60,14|0,0:2|0:0,0:0:0:0:
472,52,318840,54,2,P|488:88|496:152,1,80,2|0,3:3|0:0,0:0:0:0:
400,336,319268,2,2,P|384:300|376:236,1,80,2|0,0:2|0:0,0:0:0:0:
400,336,319697,6,2,P|327:355|240:336,1,160,2|0,0:0|0:0,0:0:0:0:
128,176,320340,5,0,0:0:0:0:
124,164,320447,1,0,0:0:0:0:
120,152,320554,54,2,L|80:132,1,40,6|0,0:1|0:0,0:0:0:0:
180,84,320768,2,2,L|200:44,1,40,0|0,0:0|0:0,0:0:0:0:
248,144,320982,2,2,L|288:164,1,40,0|0,0:0|0:0,0:0:0:0:
188,212,321197,2,2,L|168:252,1,40,0|0,0:0|0:0,0:0:0:0:
56,200,321411,6,2,L|16:180,1,40,0|0,0:0|0:0,0:0:0:0:
260,248,321625,2,2,L|300:268,1,40,0|0,0:0|0:0,0:0:0:0:
70,267,321840,6,2,L|26:262,1,40,0|0,0:0|0:0,0:0:0:0:
278,243,322054,2,2,L|323:248,1,40,0|0,0:0|0:0,0:0:0:0:
108,328,322268,54,2,L|-16:356,1,120,10|0,3:0|0:0,0:0:0:0:
296,232,322697,2,2,L|388:208,1,80,0|0,0:0|0:0,0:0:0:0:
392,76,323125,6,2,L|444:92,3,40,2|0|0|0,0:0|0:0|0:0|0:0,0:0:0:0:
448,168,323554,2,2,L|500:184,3,40,2|0|0|0,0:0|0:0|0:0|0:0,0:0:0:0:
508,256,323982,6,2,L|504:304,1,40,6|0,0:1|0:0,0:0:0:0:
416,364,324197,2,2,L|419:324,1,40,0|0,0:0|0:0,0:0:0:0:
352,220,324411,2,2,L|348:259,1,40,0|0,0:0|0:0,0:0:0:0:
272,384,324625,2,2,L|275:344,1,40,0|0,0:0|0:0,0:0:0:0:
196,184,324840,54,2,L|192:223,1,40,0|0,0:0|0:0,0:0:0:0:
112,124,325054,2,2,L|79:101,1,40,0|0,0:0|0:0,0:0:0:0:
208,92,325268,2,2,L|300:48,1,80,0|0,0:0|0:0,0:0:0:0:
364,20,325697,53,4,0:0:0:0:
368,24,325997,5,0,0:0:0:0:
372,28,326297,70,0,P|424:96|504:56,1,176.000005371094
360,160,326897,2,0,P|352:204|348:252,1,88.000002685547,2|0,2:0|0:0,0:0:0:0:
172,316,327297,5,0,0:0:0:0:
172,316,327397,1,0,0:0:0:0:
276,316,327597,2,0,P|335:345|399:336,1,132.00000402832
348,248,327997,70,0,P|289:219|225:228,1,132.00000402832
20,164,328497,2,0,P|78:192|142:183,1,132.00000402832
224,128,328897,5,0,0:0:0:0:
224,128,328997,1,0,0:0:0:0:
224,128,329197,70,0,L|184:48,1,88.000002685547,0|0,0:0|2:0,0:0:0:0:
248,160,329497,6,0,L|268:20,1,132.00000402832,0|0,0:0|2:0,0:0:0:0:
300,240,329897,2,0,L|281:370,1,132.00000402832,0|0,0:0|2:0,0:0:0:0:
344,160,330297,69,0,0:0:0:0:
356,164,330497,5,0,0:0:0:0:
372,168,330597,1,0,0:0:0:0:
388,172,330697,1,0,0:0:0:0:
404,176,330797,1,0,0:0:0:0:
420,180,330897,1,0,0:0:0:0:
204,248,331097,69,0,0:0:0:0:
204,248,331197,1,0,0:0:0:0:
204,248,331297,1,0,0:0:0:0:
196,84,331497,1,0,0:0:0:0:
344,160,331697,1,0,0:0:0:0:
344,160,331797,1,0,0:0:0:0:
344,160,332097,6,0,L|408:84,1,88.000002685547,4|0,0:0|2:0,0:0:0:0:
444,160,332397,2,0,L|508:84,1,88.000002685547,0|0,0:0|2:0,0:0:0:0:
396,240,332697,70,0,P|364:320|268:328,1,176.000005371094
308,84,333297,1,2,2:0:0:0:
184,220,333497,5,0,0:0:0:0:
160,232,333597,1,0,0:0:0:0:
136,244,333697,69,0,0:0:0:0:
92,248,333797,1,0,0:0:0:0:
256,312,333997,1,0,0:0:0:0:
300,308,334097,1,0,0:0:0:0:
136,244,334297,5,0,0:0:0:0:
92,248,334397,1,0,0:0:0:0:
48,252,334497,1,0,0:0:0:0:
256,128,334697,69,0,0:0:0:0:
48,252,334897,2,0,L|-16:328,1,90.0000034332277
132,148,335297,5,8,0:0:0:0:
124,164,335397,2,0,L|104:68,1,88.000002685547,0|0,0:0|0:0,0:0:0:0:
256,128,335697,2,0,L|272:76,1,44.0000013427735,8|0,0:0|2:0,0:0:0:0:
255,127,335897,70,0,P|320:136|384:118,1,132.00000402832,8|0,0:0|0:0,0:0:0:0:
412,24,336297,1,0,0:0:0:0:
124,164,336497,1,0,0:0:0:0:
496,88,336697,6,0,L|508:44,1,44.0000013427735,8|0,0:0|2:0,0:0:0:0:
488,168,336897,69,0,0:0:0:0:
492,188,336997,1,0,0:0:0:0:
496,208,337097,1,0,0:0:0:0:
504,228,337197,1,0,0:0:0:0:
480,256,337297,6,0,L|448:356,1,88.000002685547,8|0,0:0|0:0,0:0:0:0:
385,107,337597,2,0,L|412:24,1,88.000002685547,8|0,0:0|0:0,0:0:0:0:
332,204,337897,69,0,0:0:0:0:
312,212,337997,1,0,0:0:0:0:
292,220,338097,1,8,0:0:0:0:
248,208,338197,2,0,L|160:208,1,88.000002685547,8|0,0:0|0:0,0:0:0:0:
56,184,338497,5,4,0:0:0:0:
52,192,338797,69,0,0:0:0:0:
48,200,339097,6,0,B|76:168|44:116|44:116|-8:140|-4:184,1,176.000005371094
18,314,339697,2,0,P|62:314|104:300,1,88.000002685547,2|0,2:0|0:0,0:0:0:0:
164,204,340097,69,0,0:0:0:0:
164,204,340197,1,0,0:0:0:0:
260,268,340397,2,0,P|327:259|396:280,1,132.00000402832
504,196,340798,6,0,B|416:204|416:204|368:188,1,132.00000402832
272,112,341298,2,0,B|360:104|360:104|401:117,1,132.00000402832
208,24,341698,69,0,0:0:0:0:
176,28,341798,1,0,0:0:0:0:
148,40,341898,1,0,0:0:0:0:
128,60,341998,1,0,0:0:0:0:
111,88,342098,6,0,P|68:86|29:66,1,88.000002685547,8|0,0:0|0:0,0:0:0:0:
96,180,342398,2,0,P|116:218|118:262,1,88.000002685547,8|0,0:0|0:0,0:0:0:0:
179,144,342698,2,0,P|189:124|203:107,1,44.0000013427735,8|0,0:0|2:0,0:0:0:0:
32,240,342898,69,0,0:0:0:0:
32,248,343098,6,0,L|-16:296,1,44.0000013427735,8|0,0:0|0:0,0:0:0:0:
248,248,343298,69,0,0:0:0:0:
280,252,343398,1,0,0:0:0:0:
312,256,343498,1,0,0:0:0:0:
344,260,343598,1,0,0:0:0:0:
380,228,343698,6,0,L|476:208,1,88.000002685547,8|0,0:0|0:0,0:0:0:0:
304,336,343998,2,0,L|217:353,1,88.000002685547,8|0,0:0|0:0,0:0:0:0:
380,228,344298,69,8,0:0:0:0:
304,336,344398,1,8,0:0:0:0:
200,256,344498,2,0,L|168:216,1,44.0000013427735,8|0,0:0|2:0,0:0:0:0:
476,292,344698,2,0,L|503:326,1,44.0000013427735
288,168,344898,6,0,P|243:151|192:124,1,88.000002685547,4|0,0:0|2:0,0:0:0:0:
331,153,345198,70,0,P|287:152|244:148,1,88.000002685547,0|0,0:0|2:0,0:0:0:0:
372,128,345498,6,0,P|309:147|243:148,1,132.00000402832,0|0,0:0|2:0,0:0:0:0:
148,68,345898,2,0,P|210:48|276:47,1,132.00000402832,0|0,0:0|2:0,0:0:0:0:
112,191,346298,70,0,P|72:173|40:144,1,88.000002685547,8|4,0:0|0:0,0:0:0:0:
48,28,346598,1,0,0:0:0:0:
54,25,346798,6,0,P|70:87|40:144,1,132.00000402832,0|0,0:3|0:0,0:0:0:0:
148,68,347198,2,0,P|217:60|265:16,1,132.00000402832,0|0,0:0|0:0,0:0:0:0:
244,148,347698,70,0,P|260:188|300:228,1,88.000002685547
112,192,348098,1,8,0:0:0:0:
132,208,348198,2,0,P|88:192|44:192,1,88.000002685547,8|0,0:0|0:0,0:0:0:0:
160,292,348498,2,0,P|180:283|197:270,1,44.0000013427735,0|0,0:0|2:0,0:0:0:0:
76,292,348698,6,0,P|102:350|162:372,1,132.00000402832,0|0,0:0|2:0,0:0:0:0:
131,207,349098,2,0,P|70:187|10:210,1,132.00000402832,0|0,0:0|2:0,0:0:0:0:
160,292,349498,1,0,0:0:0:0:
172,296,349698,69,0,0:0:0:0:
188,300,349798,1,0,0:0:0:0:
204,304,349898,1,0,0:0:0:0:
220,308,349998,1,0,0:0:0:0:
236,312,350098,2,2,L|296:316,1,60.0000022888184,2|0,0:2|2:0,0:0:0:0:
480,224,350298,5,0,0:0:0:0:
436,228,350398,1,0,0:0:0:0:
392,232,350498,1,0,0:0:0:0:
392,232,350598,1,0,0:0:0:0:
392,232,350698,2,0,L|304:229,1,88.000002685547,0|8,0:0|0:0,0:0:0:0:
104,168,350998,2,0,L|191:170,1,88.000002685547
308,32,351298,70,0,L|348:128,1,95.9999970703126,4|0,0:0|2:0,0:0:0:0:
340,36,351598,6,0,L|380:132,1,95.9999970703126,0|0,0:0|2:0,0:0:0:0:
368,40,351898,70,0,B|460:56|460:56|508:12,1,143.999995605469,0|0,0:0|2:0,0:0:0:0:
408,128,352298,1,0,0:0:0:0:
212,52,352498,5,8,0:0:0:0:
156,68,352598,1,8,0:0:0:0:
100,84,352698,2,0,L|32:68,1,60.0000022888184,10|0,0:0|2:0,0:0:0:0:
184,180,352898,69,0,0:0:0:0:
200,192,352998,1,0,0:0:0:0:
216,204,353098,1,0,0:0:0:0:
252,196,353198,1,0,0:0:0:0:
288,188,353298,6,2,L|428:220,1,120.000004577637,2|8,0:2|0:0,0:0:0:0:
504,200,353598,1,8,0:0:0:0:
184,180,353698,70,0,L|88:156,1,90.0000034332277,2|0,0:0|2:0,0:0:0:0:
444,120,354098,1,8,0:0:0:0:
452,128,354298,6,0,L|499:140,1,47.9999985351563,8|0,0:0|0:0,0:0:0:0:
368,68,354498,69,8,0:0:0:0:
348,76,354598,1,8,0:0:0:0:
328,84,354698,6,0,P|248:84|172:32,1,160,2|0,0:0|2:0,0:0:0:0:
88,140,355198,70,0,P|135:144|182:132,1,95.9999970703126,8|0,0:0|0:0,0:0:0:0:
223,227,355498,2,0,P|294:259|371:257,1,155.999992858887,2|0,0:0|0:0,0:0:0:0:
96,220,355899,2,0,P|49:216|2:228,1,95.9999970703126,0|8,0:0|0:0,0:0:0:0:
56,340,356199,1,8,0:0:0:0:
80,346,356299,6,0,P|177:317|224:228,1,207.999990478516,2|0,0:0|0:0,0:0:0:0:
204,36,356799,2,0,P|176:75|163:121,1,95.9999970703126,8|0,0:0|0:0,0:0:0:0:
288,132,357099,1,8,0:0:0:0:
288,132,357299,69,8,0:0:0:0:
292,136,357399,1,0,0:0:0:0:
296,140,357499,1,0,0:0:0:0:
472,216,357699,5,4,0:0:0:0:
448,224,357799,1,0,0:0:0:0:
428,232,357899,1,0,0:0:0:0:
404,240,357999,1,0,0:0:0:0:
380,248,358099,2,2,P|331:249|284:248,1,95.9999970703126,0|0,0:0|0:0,0:0:0:0:
352,216,358399,70,0,L|212:280,1,143.999995605469,2|0,3:0|0:0,0:0:0:0:
324,184,358899,5,0,0:0:0:0:
472,216,359099,1,0,0:0:0:0:
296,152,359299,69,0,0:0:0:0:
272,144,359399,1,0,0:0:0:0:
248,136,359499,1,0,0:0:0:0:
224,128,359599,1,0,0:0:0:0:
200,120,359699,2,0,L|160:48,1,60.0000022888184,2|0,0:0|0:0,0:0:0:0:
128,180,359899,5,0,0:0:0:0:
100,200,359999,1,0,0:0:0:0:
72,220,360099,2,0,L|12:223,1,60.0000022888184,0|0,0:0|2:0,0:0:0:0:
204,340,360299,2,0,L|272:336,1,60.0000022888184,2|0,0:0|2:0,0:0:0:0:
472,216,360499,69,4,0:0:0:0:
396,240,360599,5,4,0:0:0:0:
320,264,360699,70,0,L|260:267,1,60.0000022888184,2|0,0:0|2:0,0:0:0:0:
76,308,360899,6,0,L|16:311,1,60.0000022888184,4|0,0:2|2:0,0:0:0:0:
69,172,361099,2,0,L|72:220,1,47.9999985351563,0|0,0:0|2:0,0:0:0:0:
204,340,361299,2,0,L|156:342,1,47.9999985351563,0|0,0:0|2:0,0:0:0:0:
125,120,361499,2,0,L|128:180,1,60.0000022888184,8|0,0:0|2:0,0:0:0:0:
296,373,361699,69,0,0:0:0:0:
308,368,361799,1,0,0:0:0:0:
320,364,361899,1,0,0:0:0:0:
332,360,361999,1,0,0:0:0:0:
344,356,362099,1,0,0:0:0:0:
400,112,362299,5,0,0:0:0:0:
384,140,362399,1,0,0:0:0:0:
368,168,362499,2,0,P|308:176|248:144,1,120.000004577637,8|0,0:0|0:0,0:0:0:0:
324,72,362799,1,0,2:0:0:0:
196,216,362899,2,0,L|136:216,1,40,8|0,0:2|2:0,0:0:0:0:
0,136,363099,69,0,0:0:0:0:
32,140,363199,1,0,0:0:0:0:
64,144,363299,2,0,L|112:144,1,47.9999985351563,0|0,0:0|2:0,0:0:0:0:
184,76,363499,2,0,L|124:76,1,40,8|0,0:2|2:0,0:0:0:0:
324,72,363699,6,0,L|330:24,1,47.9999985351563,8|0,0:0|0:0,0:0:0:0:
180,128,363899,2,0,L|186:80,1,47.9999985351563,8|0,0:0|0:0,0:0:0:0:
384,140,364099,70,0,L|376:200,1,47.9999985351563,4|0,0:0|0:0,0:0:0:0:
412,353,364299,2,0,B|440:292|440:292|448:216,1,143.999995605469
284,340,364699,6,0,L|260:352,1,23.9999992675781,8|0,0:2|0:0,0:0:0:0:
24,284,364999,70,0,L|45:273,1,23.9999992675781,8|0,0:2|0:0,0:0:0:0:
316,260,365299,6,0,L|337:249,2,23.9999992675781,8|0|8,0:2|0:0|0:2,0:0:0:0:
36,168,365599,69,0,0:0:0:0:
16,176,365699,1,4,0:0:0:0:
0,184,365799,1,2,0:0:0:0:
0,183,365899,6,0,P|59:176|117:187,1,120,2|0,0:0|0:0,0:0:0:0:
208,144,366299,69,2,0:0:0:0:
240,144,366399,2,0,L|292:112,1,47.9999985351563,0|0,0:0|2:0,0:0:0:0:
332,192,366599,5,0,0:0:0:0:
364,192,366699,2,0,L|416:160,1,47.9999985351563,2|0,0:0|2:0,0:0:0:0:
464,256,366899,70,0,L|524:248,1,47.9999985351563,0|0,0:0|2:0,0:0:0:0:
380,316,367099,2,0,L|332:322,1,47.9999985351563,8|0,0:0|2:0,0:0:0:0:
216,248,367299,5,4,0:0:0:0:
200,264,367399,2,0,P|115:225|104:304,1,191.999994140625,4|0,0:0|0:0,0:0:0:0:
176,364,367899,2,0,P|280:324|276:200,1,239.999992675781
380,316,368499,2,0,P|428:332|488:336,1,95.9999970703126,8|0,0:0|0:0,0:0:0:0:
216,148,368899,69,0,0:0:0:0:
192,144,368999,1,0,0:0:0:0:
168,140,369099,2,0,L|60:172,1,95.9999970703126,2|0,0:3|0:0,0:0:0:0:
276,84,369399,5,0,0:0:0:0:
252,80,369499,1,0,0:0:0:0:
228,76,369599,1,0,0:0:0:0:
204,72,369699,70,0,L|152:36,1,47.9999985351563,8|0,0:0|2:0,0:0:0:0:
292,208,369899,2,0,L|331:235,1,47.9999985351563,0|0,0:0|2:0,0:0:0:0:
144,216,370099,5,8,0:0:0:0:
120,212,370199,1,0,0:0:0:0:
96,208,370299,2,0,L|36:168,1,47.9999985351563,2|0,0:2|0:0,0:0:0:0:
144,312,370499,69,12,0:0:0:0:
180,312,370599,2,0,L|256:312,1,47.9999985351563,0|0,0:0|2:0,0:0:0:0:
424,352,370800,2,0,L|316:352,1,95.9999970703126,0|0,0:0|2:0,0:0:0:0:
488,312,371100,2,0,L|516:360,1,47.9999985351563,8|0,0:0|2:0,0:0:0:0:
440,240,371300,5,2,0:2:0:0:
484,56,371600,1,0,0:0:0:0:
484,56,371700,1,2,0:2:0:0:
352,116,371900,1,0,0:0:0:0:
228,72,372100,70,0,L|296:96,1,47.9999985351563,12|0,0:0|2:0,0:0:0:0:
204,104,372300,2,0,B|140:84|140:84|60:92,1,143.999995605469
76,192,372700,6,0,L|56:216,2,23.9999992675781,8|0|0,0:2|0:0|0:0,0:0:0:0:
120,280,373000,2,0,L|114:310,2,23.9999992675781,8|0|0,0:2|0:0|0:0,0:0:0:0:
208,328,373300,2,0,L|218:357,2,23.9999992675781,8|0|8,0:2|0:0|0:2,0:0:0:0:
208,328,373600,69,0,0:0:0:0:
295,361,373700,6,0,L|388:336,1,95.9999970703126,8|0,0:0|2:0,0:0:0:0:
480,361,374000,2,0,L|388:336,1,95.9999970703126,0|0,0:0|2:0,0:0:0:0:
256,240,374300,1,0,0:0:0:0:
256,240,374500,69,0,0:0:0:0:
448,120,374700,1,0,0:0:0:0:
264,248,374900,5,0,0:0:0:0:
124,64,375100,1,0,0:0:0:0:
304,152,375300,69,12,0:0:0:0:
320,160,375400,1,0,0:0:0:0:
336,168,375500,1,0,0:0:0:0:
500,236,375700,6,0,L|352:256,1,143.999995605469,8|0,0:0|0:0,0:0:0:0:
168,192,376100,2,0,L|52:208,1,95.9999970703126,8|0,0:0|0:0,0:0:0:0:
232,42,376500,69,2,0:2:0:0:
260,33,376600,1,0,0:0:0:0:
276,56,376700,1,0,0:0:0:0:
260,80,376800,1,0,0:0:0:0:
232,71,376900,69,8,0:0:0:0:
276,56,377000,1,0,0:0:0:0:
324,56,377100,1,0,0:0:0:0:
368,68,377200,1,0,0:0:0:0:
408,96,377300,6,0,P|468:88|508:40,1,120.000004577637,8|0,0:0|0:0,0:0:0:0:
324,160,377600,2,0,P|264:168|224:216,2,120.000004577637,8|2|2,0:0|0:2|0:2,0:0:0:0:
396,224,378100,6,0,P|410:199|428:152,1,60.0000022888184,8|2,0:0|0:2,0:0:0:0:
324,160,378300,1,0,0:0:0:0:
396,224,378400,54,0,P|456:216|496:168,1,120.000004577637,8|0,0:0|0:0,0:0:0:0:
308,252,378700,2,0,P|294:277|276:324,1,60.0000022888184
160,320,378900,6,0,P|100:329|40:329,1,120.000004577637,8|0,0:0|0:0,0:0:0:0:
148,296,379200,2,0,P|208:287|268:287,1,120.000004577637,8|0,0:0|0:0,0:0:0:0:
380,320,379500,5,2,0:2:0:0:
396,224,379600,1,2,0:2:0:0:
384,328,379700,54,0,L|408:384,1,60.0000022888184,8|2,0:0|0:2,0:0:0:0:
392,220,379900,2,0,L|368:164,1,60.0000022888184,0|2,0:0|0:2,0:0:0:0:
292,36,380100,5,0,0:0:0:0:
288,60,380200,1,0,0:0:0:0:
284,84,380300,1,0,0:0:0:0:
280,108,380400,1,0,0:0:0:0:
256,104,380500,6,0,P|208:136|144:132,1,120.000004577637,8|0,0:0|0:0,0:0:0:0:
256,104,380800,2,0,P|200:93|158:45,2,120.000004577637,8|8|2,0:0|0:0|0:2,0:0:0:0:
88,88,381300,2,0,P|76:116|76:160,1,60.0000022888184
152,320,381500,54,0,B|156:300|156:300|148:280|148:280|164:244|164:244|158:195,1,120.000004577637,2|0,0:0|0:0,0:0:0:0:
164,320,381800,6,0,B|168:300|168:300|160:280|160:280|176:244|176:244|170:195,1,120.000004577637,2|0,0:2|0:0,0:0:0:0:
176,320,382100,6,0,B|180:300|180:300|172:280|172:280|188:244|188:244|182:195,1,120.000004577637,8|0,0:0|0:0,0:0:0:0:
272,284,382400,53,0,0:0:0:0:
300,296,382500,1,0,0:0:0:0:
328,308,382600,1,0,0:0:0:0:
356,320,382700,5,8,0:0:0:0:
432,296,382800,1,2,0:2:0:0:
508,272,382900,2,0,P|512:236|508:200,1,70.000000667572,2|2,0:0|0:2,0:0:0:0:
372,72,383100,2,0,P|368:108|372:144,1,70.000000667572,2|2,0:0|0:2,0:0:0:0:
200,156,383300,5,0,0:0:0:0:
172,168,383400,1,0,0:0:0:0:
144,184,383500,1,0,0:0:0:0:
120,200,383600,1,0,0:0:0:0:
112,228,383700,54,0,P|56:184|0:176,1,120.000004577637,8|0,0:0|0:0,0:0:0:0:
108,120,384000,2,0,P|151:79|170:23,2,120.000004577637,8|8|2,0:0|0:0|0:2,0:0:0:0:
240,76,384500,2,0,L|312:72,1,60.0000022888184
240,76,384700,6,0,L|380:84,1,140.000001335144,8|0,0:0|0:0,0:0:0:0:
484,156,385000,2,0,L|408:152,1,73.9999997177124,8|0,0:0|0:0,0:0:0:0:
248,192,385200,5,0,0:0:0:0:
248,192,385300,2,0,B|308:196|308:196|362:221,1,120.000004577637,8|0,0:0|0:0,0:0:0:0:
168,272,385600,2,0,B|108:268|108:268|53:242,1,120.000004577637,8|0,0:0|0:0,0:0:0:0:
156,48,385901,54,0,L|184:36,1,30.0000011444092,2|0,0:0|2:0,0:0:0:0:
168,60,386001,2,0,L|196:48,1,30.0000011444092,2|0,0:0|2:0,0:0:0:0:
180,72,386101,2,0,L|240:76,1,60.0000022888184,8|2,0:0|0:2,0:0:0:0:
484,156,386301,2,0,L|424:152,1,60.0000022888184,8|2,0:0|0:2,0:0:0:0:
156,196,386501,5,4,0:0:0:0:
204,184,386601,1,0,0:0:0:0:
252,172,386701,1,0,0:0:0:0:
300,160,386801,5,0,0:0:0:0:
300,160,386901,2,0,L|332:36,1,120.000004577637,8|0,0:0|0:0,0:0:0:0:
336,192,387201,2,0,L|365:75,2,120.000004577637,8|2|2,0:0|0:2|0:2,0:0:0:0:
400,92,387701,54,0,L|416:28,1,60.0000022888184,8|0,0:0|0:0,0:0:0:0:
484,156,387901,2,0,L|448:300,1,140.000001335144,2|0,0:0|0:0,0:0:0:0:
440,124,388201,2,0,L|454:65,2,60.0000022888184,8|0|0,0:0|0:0|0:0,0:0:0:0:
336,192,388501,1,8,0:0:0:0:
336,192,388701,5,0,0:0:0:0:
316,212,388801,1,0,0:0:0:0:
296,232,388901,2,0,P|232:244|176:224,1,120.000004577637,8|0,0:0|0:0,0:0:0:0:
240,144,389201,1,0,0:0:0:0:
176,232,389301,6,0,L|154:253,1,30.0000011444092,2|0,0:0|2:0,0:0:0:0:
104,136,389501,2,0,L|101:166,1,30.0000011444092,2|0,0:0|2:0,0:0:0:0:
32,40,389701,53,8,0:0:0:0:
56,56,389801,1,8,0:0:0:0:
84,48,389901,1,8,0:0:0:0:
108,64,390001,1,8,0:0:0:0:
136,56,390101,6,0,B|160:72|160:72|216:48|216:48|244:68,1,120.000004577637,8|0,0:0|0:0,0:0:0:0:
344,153,390401,2,0,B|320:137|320:137|264:161|264:161|240:144,1,120.000004577637,8|8,0:0|0:0,0:0:0:0:
316,40,390701,5,0,0:0:0:0:
316,40,390801,1,0,0:0:0:0:
316,40,390901,2,0,L|432:124,1,120.000004577637,8|0,0:0|0:0,0:0:0:0:
256,252,391201,1,0,0:0:0:0:
256,252,391301,2,0,L|310:227,1,60.0000022888184
472,232,391501,2,0,L|417:256,1,60.0000022888184
158,181,391701,54,0,L|256:252,1,120.000004577637,8|0,0:0|0:0,0:0:0:0:
233,126,392001,2,0,L|136:56,1,120.000004577637,8|0,0:0|0:0,0:0:0:0:
264,120,392301,6,0,L|320:160,1,60.0000022888184
472,232,392501,2,0,L|483:241,4,15.0000005722046
472,232,392701,2,0,L|423:197,1,60.0000022888184
481,66,392901,6,0,L|364:92,1,120.000004577637,12|0,0:0|0:0,0:0:0:0:
364,92,393201,53,0,0:0:0:0:
253,30,393301,2,0,L|136:56,1,120.000004577637,8|0,0:0|0:0,0:0:0:0:
44,172,393601,2,0,L|161:146,1,120.000004577637,8|0,0:0|0:0,0:0:0:0:
288,232,393901,6,0,L|216:216,1,70.000000667572,2|0,0:0|0:0,0:0:0:0:
403,216,394101,2,0,L|472:232,1,70.000000667572
336,128,394301,5,0,0:0:0:0:
328,148,394401,1,0,0:0:0:0:
320,168,394501,2,0,L|452:108,1,120.000004577637,8|0,0:0|0:0,0:0:0:0:
216,80,394801,1,0,0:0:0:0:
208,100,394901,2,0,L|340:40,1,120.000004577637,8|0,0:0|0:0,0:0:0:0:
336,128,395201,54,0,L|468:68,1,120.000004577637
216,80,395501,1,0,0:0:0:0:
208,100,395601,1,0,0:0:0:0:
200,120,395701,6,0,B|156:136|156:136|136:136|136:136|76:160,1,120,8|0,0:0|0:0,0:0:0:0:
76,152,396101,6,0,L|208:212,1,120.000004577637,4|0,0:0|0:0,0:0:0:0:
164,296,396401,1,0,0:0:0:0:
164,296,396501,2,0,B|232:276|232:276|284:276,1,120.000004577637,8|0,0:0|0:0,0:0:0:0:
380,344,396801,2,0,B|312:364|312:364|260:364,1,120.000004577637,8|0,0:0|0:0,0:0:0:0:
432,264,397101,2,0,L|452:320,1,60.0000022888184,8|0,0:0|0:0,0:0:0:0:
404,192,397301,1,2,0:2:0:0:
396,196,397501,53,0,0:0:0:0:
368,212,397601,1,0,0:0:0:0:
340,228,397701,2,0,P|282:198|224:196,1,120.000004577637,8|0,0:0|0:0,0:0:0:0:
52,264,398001,1,0,0:0:0:0:
52,264,398101,2,0,P|104:292|163:296,1,120.000004577637,8|0,0:0|0:0,0:0:0:0:
18,206,398401,6,0,P|28:265|16:324,2,120.000004577637,8|8|0,0:0|0:0|0:0,0:0:0:0:
132,215,398901,2,0,P|182:184|208:128,1,120.000004577637,10|0,0:2|0:0,0:0:0:0:
112,120,399201,5,0,0:0:0:0:
212,136,399301,2,0,L|288:152,1,60.0000022888184,4|0,0:0|0:0,0:0:0:0:
428,112,399501,2,0,L|369:99,1,60.0000022888184
216,144,399701,54,0,B|276:156|276:156|316:204,1,120.000004577637,8|0,0:0|0:0,0:0:0:0:
432,104,400001,2,0,B|372:92|372:92|332:44,1,120.000004577637,8|0,0:0|0:0,0:0:0:0:
392,180,400301,5,0,0:0:0:0:
412,204,400401,1,0,0:0:0:0:
432,228,400501,2,0,L|508:244,1,70.000000667572,2|0,0:0|0:0,0:0:0:0:
192,228,400702,2,0,L|123:213,1,70.000000667572
360,268,400902,5,8,0:0:0:0:
368,288,401102,53,0,0:0:0:0:
376,308,401302,6,0,L|444:352,1,60.0000022888184,8|0,0:0|0:0,0:0:0:0:
280,276,401502,5,0,0:0:0:0:
272,256,401602,1,0,0:0:0:0:
264,236,401702,1,0,0:0:0:0:
328,44,401902,1,0,0:0:0:0:
336,64,402002,1,0,0:0:0:0:
344,84,402102,1,0,0:0:0:0:
192,228,402302,53,0,0:0:0:0:
180,200,402402,1,0,0:0:0:0:
168,172,402502,2,0,L|184:100,1,60.0000022888184,10|0,0:2|0:0,0:0:0:0:
36,268,402702,2,0,L|22:326,1,60.0000022888184
156,144,402902,6,0,L|188:12,1,120.000004577637,8|0,0:0|0:0,0:0:0:0:
56,192,403202,2,0,L|88:60,1,120.000004577637,8|0,0:0|0:0,0:0:0:0:
112,304,403502,2,0,L|98:362,1,60.0000022888184,8|0,0:0|0:0,0:0:0:0:
192,228,403702,1,8,0:0:0:0:
192,228,403902,5,0,0:0:0:0:
220,240,404002,1,0,0:0:0:0:
248,240,404102,1,0,0:0:0:0:
276,248,404202,1,0,0:0:0:0:
304,248,404302,1,0,0:0:0:0:
332,256,404402,1,0,0:0:0:0:
368,236,404502,54,0,L|496:220,1,120.000004577637,8|0,0:0|0:0,0:0:0:0:
304,340,404802,2,0,L|184:354,1,120.000004577637,8|0,0:0|0:0,0:0:0:0:
52,312,405102,6,0,L|111:303,1,60.0000022888184
20,296,405302,2,0,P|82:301|136:272,1,120.000004577637,2|0,0:0|0:0,0:0:0:0:
112,152,405602,5,0,0:0:0:0:
112,152,405702,2,0,P|50:147|-4:176,1,120.000004577637,4|0,0:0|0:0,0:0:0:0:
68,224,406002,1,0,0:0:0:0:
112,151,406102,54,0,P|120:92|103:33,1,120.000004577637,8|0,0:0|0:0,0:0:0:0:
212,184,406402,2,0,P|204:243|220:302,1,120.000004577637,8|0,0:0|0:0,0:0:0:0:
132,276,406702,6,0,L|80:332,1,60.0000022888184
212,184,406902,1,8,0:0:0:0:
212,184,407102,6,0,L|252:140,1,60.0000022888184
144,288,407302,1,0,0:0:0:0:
116,300,407402,1,0,0:0:0:0:
88,308,407502,1,0,0:0:0:0:
60,316,407602,1,0,0:0:0:0:
32,324,407702,54,0,B|62:268|62:268|72:204,1,120.000004577637,8|0,0:0|0:0,0:0:0:0:
40,88,408002,2,0,B|9:143|9:143|0:208,1,120.000004577637,8|0,0:0|0:0,0:0:0:0:
136,96,408302,2,0,L|147:25,1,60.0000022888184,8|0,0:0|0:0,0:0:0:0:
145,36,408502,2,0,P|175:103|296:76,1,180.000006866455,8|0,0:0|0:0,0:0:0:0:
336,40,408902,1,4,0:0:0:0:
336,40,409102,5,0,0:0:0:0:
344,56,409202,1,0,0:0:0:0:
352,72,409302,2,0,B|420:88|420:88|448:136,1,120.000004577637,8|0,0:0|0:0,0:0:0:0:
448,256,409602,2,0,B|380:240|380:240|354:196,1,120.000004577637,8|0,0:0|0:0,0:0:0:0:
192,156,409902,6,0,L|236:232,1,60.0000022888184
200,208,410102,2,0,L|128:88,1,120.000004577637,10|0,0:2|0:0,0:0:0:0:
304,288,410402,54,0,L|348:364,1,60.0000022888184
176,208,410602,2,0,L|104:88,1,120.000004577637,8|0,0:0|0:0,0:0:0:0:
88,224,410902,2,0,L|20:346,1,120.000004577637,8|0,0:0|0:0,0:0:0:0:
144,292,411202,2,0,L|283:289,2,120.000004577637,8|0|0,0:0|0:0|0:0,0:0:0:0:
352,288,411702,1,8,0:0:0:0:
352,288,411902,5,0,0:0:0:0:
380,300,412002,1,0,0:0:0:0:
408,312,412102,2,0,L|484:292,1,64,2|0,0:2|0:0,0:0:0:0:
244,172,412302,2,0,L|182:188,1,64,2|0,0:2|0:0,0:0:0:0:
344,208,412502,6,0,L|476:172,1,128,10|0,0:2|0:0,0:0:0:0:
212,160,412802,2,0,L|150:176,1,64,8|0,0:0|0:0,0:0:0:0:
150,176,413002,2,0,L|0:152,1,128,10|0,0:2|0:0,0:0:0:0:
192,84,413302,54,0,L|264:96,1,64
416,156,413502,2,0,L|352:145,1,64,0|0,0:0|0:0,0:0:0:0:
240,72,413702,6,0,L|312:84,1,64
464,144,413902,2,0,L|400:133,1,64,0|0,0:0|0:0,0:0:0:0:
217,185,414102,2,2,L|344:208,1,128,0|2,0:0|0:0,0:0:0:0:
217,185,414402,5,8,0:0:0:0:
232,212,414502,1,2,0:2:0:0:
232,244,414602,1,0,0:0:0:0:
224,276,414702,1,2,0:2:0:0:
204,300,414802,1,10,0:2:0:0:
176,316,414902,2,0,P|144:320|100:308,1,64,0|2,0:0|0:2,0:0:0:0:
312,280,415102,2,0,P|344:276|388:288,1,64
379,291,415302,54,0,P|388:229|460:200,1,128,8|0,0:0|0:0,0:0:0:0:
324,192,415602,1,0,0:0:0:0:
324,192,415703,2,0,P|272:168|252:88,1,128,8|0,0:0|0:0,0:0:0:0:
240,112,416003,2,0,B|176:120|176:120|112:98,2,128,8|10|0,0:0|0:2|0:0,0:0:0:0:
316,32,416503,5,8,0:0:0:0:
316,32,416603,1,0,0:0:0:0:
352,64,416703,2,0,L|432:56,1,70.000000667572,8|0,0:0|0:0,0:0:0:0:
212,208,416903,1,0,0:0:0:0:
192,232,417003,2,2,B|126:215|126:215|48:224,1,128,2|0,0:2|0:0,0:0:0:0:
212,208,417303,2,0,B|278:224|278:224|356:216,1,128,8|0,0:0|0:0,0:0:0:0:
472,196,417603,5,2,0:2:0:0:
456,224,417703,1,2,0:2:0:0:
440,252,417803,1,2,0:2:0:0:
484,240,417903,53,2,0:2:0:0:
460,280,418003,1,2,0:2:0:0:
436,320,418103,2,0,L|309:342,1,128,10|0,0:2|0:0,0:0:0:0:
212,296,418403,5,0,0:0:0:0:
200,304,418503,2,0,L|128:296,1,64,8|0,0:0|0:0,0:0:0:0:
352,232,418703,2,0,L|280:224,1,64
188,312,418903,6,0,L|52:292,1,128,8|0,0:0|0:0,0:0:0:0:
280,232,419203,2,0,L|406:250,2,128,10|2|8,0:2|0:2|0:0,0:2:0:0:
192,148,419703,53,2,0:2:0:0:
160,168,419803,1,2,0:2:0:0:
128,188,419903,2,0,P|68:152|64:88,1,128,8|0,0:0|0:0,0:0:0:0:
127,188,420203,2,0,P|66:221|9:193,1,128,10|0,0:2|0:0,0:0:0:0:
127,188,420503,2,0,P|126:257|73:293,1,128,8|0,0:0|0:0,0:0:0:0:
224,224,420803,1,2,0:2:0:0:
224,224,420903,5,2,0:2:0:0:
272,240,421003,1,2,0:2:0:0:
320,252,421103,1,2,0:2:0:0:
368,268,421203,1,2,0:2:0:0:
416,284,421303,2,0,L|504:268,1,64,8|0,0:0|0:0,0:0:0:0:
340,376,421503,2,0,L|428:360,1,64
240,320,421703,5,4,0:0:0:0:
208,324,421803,1,0,0:0:0:0:
176,328,421903,1,0,0:0:0:0:
144,332,422003,1,0,0:0:0:0:
112,336,422103,2,0,B|60:308|60:308|40:240,1,128,8|0,0:0|0:0,0:0:0:0:
88,132,422403,2,0,L|128:262,2,128,8|10|0,0:0|0:2|0:0,0:0:0:0:
156,224,422903,54,0,L|228:236,1,64,8|0,0:0|0:0,0:0:0:0:
320,140,423103,2,0,L|254:172,1,64
444,120,423303,5,0,0:0:0:0:
444,120,423403,2,0,L|324:24,1,128,8|0,0:0|0:0,0:0:0:0:
380,192,423703,6,0,B|420:224|420:224|432:224|432:224|484:268,1,120,8|0,0:0|0:0,0:0:0:0:
484,268,424103,54,0,L|404:264,1,64,10|2,0:2|0:2,0:0:0:0:
232,316,424303,2,0,L|295:319,1,64,10|2,0:2|0:2,0:0:0:0:
496,280,424503,6,0,L|348:272,1,128,10|0,0:2|0:0,0:0:0:0:
248,204,424803,1,0,0:0:0:0:
248,204,424903,5,8,0:0:0:0:
224,216,425003,1,0,0:0:0:0:
200,224,425103,1,0,0:0:0:0:
176,228,425203,1,0,0:0:0:0:
152,228,425303,54,0,P|92:184|92:136,1,128,8|0,0:0|0:0,0:0:0:0:
116,296,425603,2,0,P|92:340|20:348,1,128,8|2,0:0|0:2,0:0:0:0:
192,336,425903,6,0,L|255:339,1,64,2|0,0:2|0:0,0:0:0:0:
308,272,426103,2,0,L|371:275,1,64,2|0,0:2|0:0,0:0:0:0:
404,188,426303,5,0,0:0:0:0:
416,200,426403,1,0,0:0:0:0:
428,212,426503,2,0,L|491:215,1,64,0|8,0:0|0:0,0:0:0:0:
344,116,426703,1,8,0:0:0:0:
344,116,426903,54,0,L|268:112,1,71.9999978027344,8|0,0:3|0:0,0:0:0:0:
168,268,427103,2,0,L|240:272,1,71.9999978027344,8|0,0:3|0:0,0:0:0:0:
252,24,427303,2,0,L|192:91,1,71.9999978027344,8|0,0:3|0:0,0:0:0:0:
258,358,427503,2,0,L|318:291,1,71.9999978027344,8|0,0:3|0:0,0:0:0:0:
128,56,427703,2,0,L|139:140,1,71.9999978027344,8|0,0:3|0:0,0:0:0:0:
384,328,427903,2,0,L|372:243,1,71.9999978027344,8|0,0:3|0:0,0:0:0:0:
68,188,428103,6,0,L|80:276,1,80,2|0,0:2|0:0,0:0:0:0:
444,196,428303,2,0,L|432:108,1,80,2|0,0:2|0:0,0:0:0:0:
88,208,428503,6,0,L|100:296,1,80,2|0,0:2|0:0,0:0:0:0:
424,176,428703,2,0,L|412:88,1,80,2|0,0:2|0:0,0:0:0:0:
108,228,428903,54,0,L|120:316,1,80,2|0,0:2|0:0,0:0:0:0:
404,156,429103,2,0,L|392:68,1,80,2|0,0:2|0:0,0:0:0:0:
128,248,429303,6,0,L|140:336,1,80,2|0,0:2|0:0,0:0:0:0:
384,136,429503,2,0,L|372:48,1,80,2|0,0:2|0:0,0:0:0:0:
256,192,429703,5,8,0:0:0:0:
256,192,429803,1,0,0:0:0:0:
256,192,430003,53,0,0:0:0:0:
256,192,430103,2,0,L|265:259,1,68.0000012969971,10|0,0:2|0:0,0:0:0:0:
364,284,430303,2,0,L|354:216,1,68.0000012969971
136,232,430503,2,0,L|296:272,1,136.000002593994,8|0,0:0|0:0,0:0:0:0:
116,188,430804,5,8,0:0:0:0:
96,196,430904,2,0,L|30:178,1,68.0000012969971,2|2,0:2|0:2,0:0:0:0:
176,120,431104,2,0,L|110:102,1,68.0000012969971,2|2,0:2|0:2,0:0:0:0:
256,44,431304,5,0,0:0:0:0:
288,36,431404,1,0,0:0:0:0:
320,36,431504,1,0,0:0:0:0:
352,40,431604,1,0,0:0:0:0:
384,52,431704,1,0,0:0:0:0:
412,72,431804,1,0,0:0:0:0:
432,100,431904,1,0,0:0:0:0:
440,132,432004,1,0,0:0:0:0:
440,164,432104,1,0,0:0:0:0:
428,196,432204,1,0,0:0:0:0:
408,224,432304,1,0,0:0:0:0:
380,244,432404,1,0,0:0:0:0:
348,252,432504,54,0,P|312:248|279:232,1,68.0000012969971,0|0,0:3|0:0,0:0:0:0:
92,256,432704,2,0,P|128:260|160:275,1,68.0000012969971,0|0,0:3|0:0,0:0:0:0:
163,279,432904,6,0,P|136:218|149:153,1,136.000002593994,4|0,0:0|0:0,0:0:0:0:
338,131,433204,2,0,P|299:186|236:208,1,136.000002593994
122,57,433504,2,0,P|189:64|240:108,1,136.000002593994
168,280,433804,5,0,0:0:0:0:
136,264,433904,1,0,0:0:0:0:
104,248,434004,1,0,0:0:0:0:
76,228,434104,2,0,L|40:152,1,68.0000012969971,8|2,0:0|0:2,0:0:0:0:
32,308,434304,2,0,L|61:369,1,68.0000012969971
152,152,434504,53,8,0:0:0:0:
160,164,434604,2,0,L|204:32,1,136.000002593994
268,172,434904,2,0,L|412:180,1,136.000002593994,8|0,0:0|0:0,0:0:0:0:
232,212,435204,1,0,0:0:0:0:
196,252,435304,6,0,L|88:248,1,95.9999970703126,2|0,0:0|0:0,0:0:0:0:
80,264,435604,2,0,L|12:260,1,68.0000012969971,8|0,0:0|0:0,0:0:0:0:
244,228,435804,2,0,L|316:232,1,68.0000012969971,10|0,0:2|0:0,0:0:0:0:
480,140,436004,5,2,0:2:0:0:
448,144,436104,1,0,0:0:0:0:
416,140,436204,1,2,0:2:0:0:
384,128,436304,1,0,0:0:0:0:
356,108,436404,1,2,0:2:0:0:
332,84,436504,1,0,0:0:0:0:
316,52,436604,1,2,0:2:0:0:
304,20,436704,1,0,0:0:0:0:
296,52,436804,53,0,0:0:0:0:
280,84,436904,2,0,P|224:112|144:96,1,136.000002593994,8|0,0:0|0:0,0:0:0:0:
264,184,437204,1,0,0:0:0:0:
276,216,437304,2,0,P|327:259|393:267,1,136.000002593994,10|2,0:2|0:0,0:0:0:0:
216,312,437604,6,0,L|142:336,1,68.0000012969971,8|0,0:0|0:0,0:0:0:0:
112,256,437804,2,0,L|47:276,1,68.0000012969971
0,216,438004,6,0,L|74:240,1,68.0000012969971
104,160,438204,2,0,L|168:180,1,68.0000012969971
304,288,438404,53,0,0:0:0:0:
304,288,438504,2,0,L|372:169,1,136.000002593994,8|0,0:0|0:0,0:0:0:0:
384,152,438804,2,0,L|404:220,1,68.0000012969971,8|0,0:0|0:0,0:0:0:0:
416,256,439004,2,0,L|484:137,1,136.000002593994,10|0,0:2|0:0,0:0:0:0:
440,44,439304,5,0,0:0:0:0:
428,44,439404,1,0,0:0:0:0:
416,44,439504,1,0,0:0:0:0:
404,44,439604,1,0,0:0:0:0:
392,48,439704,1,0,0:0:0:0:
380,56,439804,1,0,0:0:0:0:
372,64,439904,1,0,0:0:0:0:
364,76,440004,1,0,0:0:0:0:
360,88,440104,6,0,B|276:86|272:8|272:8|216:64,1,204.000003890991,8|0,0:0|0:0,0:0:0:0:
168,204,440504,2,0,L|216:155,1,68.0000012969971,8|0,0:0|0:0,0:0:0:0:
240,12,440704,2,0,L|191:60,1,68.0000012969971
196,200,440904,53,0,0:0:0:0:
196,212,441004,1,0,0:0:0:0:
196,224,441104,1,0,0:0:0:0:
196,236,441204,1,0,0:0:0:0:
184,228,441304,6,0,L|64:344,1,136.000002593994,8|0,0:0|0:0,0:0:0:0:
212,308,441604,2,0,L|280:300,1,68.0000012969971
296,308,441804,2,0,L|364:300,1,68.0000012969971,2|0,0:2|0:0,0:0:0:0:
508,244,442004,5,0,0:0:0:0:
504,256,442104,1,0,0:0:0:0:
468,264,442204,1,0,0:0:0:0:
464,276,442304,1,0,0:0:0:0:
432,292,442404,54,0,L|524:308,1,68.0000012969971,2|0,0:2|0:0,0:0:0:0:
372,216,442604,2,0,L|305:204,1,68.0000012969971,10|0,0:2|0:0,0:0:0:0:
204,184,442804,1,0,0:0:0:0:
204,184,442904,1,0,0:0:0:0:
204,184,443004,1,0,0:0:0:0:
204,184,443104,1,0,0:0:0:0:
172,208,443204,5,2,0:2:0:0:
140,232,443304,1,2,0:2:0:0:
104,216,443404,1,2,0:2:0:0:
68,200,443504,1,2,0:2:0:0:
32,180,443604,6,0,L|12:92,1,68.0000012969971,10|0,0:2|0:0,0:0:0:0:
140,232,443804,2,0,L|155:298,1,68.0000012969971
236,276,444004,53,0,0:0:0:0:
260,288,444104,2,0,L|356:280,1,68.0000012969971
512,252,444304,2,0,L|444:246,1,68.0000012969971
296,192,444504,2,0,P|316:128|276:56,1,136.000002593994,8|0,0:0|0:0,0:0:0:0:
316,128,444804,2,0,P|368:87|435:90,2,136.000002593994,8|2|8,0:0|0:2|0:0,0:0:0:0:
396,172,445304,1,0,0:0:0:0:
436,92,445404,6,0,L|444:20,1,68.0000012969971,8|0,0:0|0:0,0:0:0:0:
504,160,445604,2,0,L|512:88,1,68.0000012969971
496,176,445805,6,0,B|488:240|488:240|417:286,1,136.000002593994,2|0,0:2|0:0,0:0:0:0:
360,252,446105,1,0,0:0:0:0:
328,264,446205,2,0,P|271:226|198:222,1,136.000002593994,8|0,0:0|0:0,0:0:0:0:
48,272,446505,2,0,P|104:309|177:313,1,136.000002593994,8|0,0:0|0:0,0:0:0:0:
48,272,446805,54,0,P|49:311|40:352,1,68.0000012969971,2|0,0:2|0:0,0:0:0:0:
88,184,447005,2,0,P|86:144|96:104,1,68.0000012969971,2|0,0:2|0:0,0:0:0:0:
148,28,447205,5,0,0:0:0:0:
180,36,447305,1,0,0:0:0:0:
208,56,447405,1,0,0:0:0:0:
220,88,447505,1,0,0:0:0:0:
216,120,447605,1,0,0:0:0:0:
196,148,447705,5,0,0:0:0:0:
228,144,447805,1,0,0:0:0:0:
260,144,447905,1,0,0:0:0:0:
292,152,448005,1,0,0:0:0:0:
324,152,448105,1,0,0:0:0:0:
356,144,448205,54,0,P|376:120|400:72,1,68.0000012969971,2|0,0:2|0:0,0:0:0:0:
336,0,448405,2,0,P|316:24|292:72,1,68.0000012969971
248,228,448605,5,2,0:2:0:0:
252,240,448705,1,0,0:0:0:0:
256,252,448805,1,0,0:0:0:0:
260,264,448905,1,0,0:0:0:0:
280,268,449005,6,0,L|356:308,1,68.0000012969971
488,339,449205,2,0,L|428:308,3,68.0000012969971
464,224,449605,1,0,0:0:0:0:
464,224,449705,2,0,P|397:224|345:182,1,136.000002593994,10|0,0:2|0:0,0:0:0:0:
223,66,450005,2,0,P|263:121|264:188,1,136.000002593994,10|0,0:2|0:0,0:0:0:0:
264,188,450305,2,0,L|193:216,1,68.0000012969971
120,188,450504,53,4,0:0:0:0:
88,188,450605,1,0,0:0:0:0:
56,200,450705,1,0,0:0:0:0:
32,224,450805,1,0,0:0:0:0:
24,256,450905,2,0,P|48:312|120:308,1,136.000002593994,8|0,0:0|0:0,0:0:0:0:
176,248,451205,2,0,P|240:245|267:303,2,136.000002593994,8|10|8,0:0|0:2|0:0,0:0:0:0:
320,216,451705,2,0,P|351:202|376:164,1,68.0000012969971,8|8,0:0|0:0,0:0:0:0:
376,160,451905,2,0,P|434:191|496:169,1,136.000002593994
292,132,452205,6,0,P|260:145|236:184,1,68.0000012969971,8|0,0:0|0:0,0:0:0:0:
292,132,452405,2,0,P|296:98|274:57,1,68.0000012969971
292,132,452605,2,0,P|319:152|365:154,1,68.0000012969971,10|0,0:2|0:0,0:0:0:0:
440,108,452805,5,2,0:2:0:0:
448,128,452905,1,10,0:2:0:0:
452,148,453005,1,0,0:0:0:0:
460,168,453105,1,2,0:2:0:0:
444,180,453205,54,0,L|417:247,1,68.0000012969971,8|0,0:0|0:0,0:0:0:0:
448,360,453405,2,0,L|473:296,1,68.0000012969971,2|0,0:2|0:0,0:0:0:0:
340,248,453605,1,0,0:0:0:0:
340,248,453705,5,4,0:0:0:0:
324,260,453803,1,0,0:0:0:0:
308,272,453901,1,0,0:0:0:0:
292,284,454000,1,0,0:0:0:0:
276,276,454098,2,0,L|128:268,1,143.999995605469,8|0,0:0|0:0,0:0:0:0:
0,260,454393,2,0,L|160:228,2,143.999995605469,8|10|0,0:0|0:2|0:0,0:0:0:0:
168,152,454885,5,8,0:0:0:0:
200,168,454983,1,0,0:0:0:0:
232,184,455082,1,0,0:0:0:0:
264,200,455180,1,0,0:0:0:0:
296,180,455278,2,0,L|368:172,1,71.9999978027344
472,160,455475,53,10,0:2:0:0:
260,265,455672,1,8,0:0:0:0:
368,56,455868,1,8,0:0:0:0:
404,289,456065,1,8,0:0:0:0:
239,121,456262,1,8,0:0:0:0:
472,160,456459,5,8,0:0:0:0:
476,180,456557,1,0,0:0:0:0:
480,200,456655,1,0,0:0:0:0:
484,220,456754,1,0,0:0:0:0:
488,240,456852,6,0,P|436:196|348:208,1,143.999995605469,8|0,0:0|0:0,0:0:0:0:
488,240,457145,2,0,P|436:284|348:272,2,143.999995605469,8|10|2,0:0|0:2|0:2,0:0:0:0:
296,240,457635,54,0,P|261:244|224:272,1,71.9999978027344,10|0,0:2|0:0,0:0:0:0:
288,320,457830,1,0,0:0:0:0:
364,280,457928,2,0,P|367:211|316:164,1,143.999995605469,8|0,0:0|0:0,0:0:0:0:
228,176,458222,5,10,0:2:0:0:
96,264,458418,1,8,0:0:0:0:
224,168,458613,1,8,0:0:0:0:
76,104,458809,1,8,0:0:0:0:
220,160,459005,5,8,0:0:0:0:
248,164,459103,1,0,0:0:0:0:
276,160,459201,1,2,0:0:0:0:
300,144,459298,1,0,0:0:0:0:
316,120,459396,1,0,0:0:0:0:
344,128,459494,1,0,0:0:0:0:
364,148,459592,1,0,0:0:0:0:
376,176,459690,54,0,P|372:220|356:256,1,71.9999978027344,2|0,0:2|0:0,0:0:0:0:
452,116,459886,2,0,P|456:72|472:36,1,71.9999978027344
316,120,460082,5,4,0:0:0:0:
288,120,460179,1,0,0:0:0:0:
260,116,460277,2,0,P|224:104|184:72,1,71.9999978027344,8|0,0:0|0:0,0:0:0:0:
24,152,460473,2,0,P|60:140|111:142,1,71.9999978027344,8|0,0:0|0:0,0:0:0:0:
188,200,460669,5,0,0:0:0:0:
204,224,460767,1,0,0:0:0:0:
220,248,460865,2,0,L|304:264,1,71.9999978027344
496,276,461060,1,2,0:2:0:0:
504,292,461158,2,0,P|424:276|360:303,1,143.999995605469,8|0,0:0|0:0,0:0:0:0:
448,192,461452,2,0,P|463:120|432:56,1,143.999995605469,10|0,0:2|0:0,0:0:0:0:
348,24,461745,53,10,0:2:0:0:
264,104,461941,1,8,0:0:0:0:
376,136,462137,1,8,0:0:0:0:
296,32,462333,5,8,0:0:0:0:
195,111,462528,1,8,0:0:0:0:
275,215,462724,1,8,0:0:0:0:
376,136,462919,1,8,0:0:0:0:
244,40,463116,5,12,0:0:0:0:
216,36,463214,1,0,0:0:0:0:
188,32,463312,1,0,0:0:0:0:
160,28,463411,1,0,0:0:0:0:
132,24,463509,54,0,L|92:-4,1,35.9999989013672,8|8,0:0|0:0,0:0:0:0:
104,44,463607,2,0,L|64:16,1,35.9999989013672,8|0,0:0|0:0,0:0:0:0:
76,64,463706,1,0,0:0:0:0:
48,84,463804,2,0,L|-40:72,1,71.9999978027344,8|0,0:0|0:0,0:0:0:0:
148,96,464001,1,2,0:2:0:0:
148,96,464197,5,0,0:0:0:0:
180,128,464296,1,0,0:0:0:0:
208,160,464394,1,0,0:0:0:0:
236,192,464493,1,0,0:0:0:0:
248,168,464591,1,0,0:0:0:0:
260,140,464689,1,0,0:0:0:0:
272,116,464788,1,0,0:0:0:0:
284,88,464886,2,0,L|252:24,1,71.9999978027344,2|0,0:2|0:0,0:0:0:0:
332,176,465083,5,10,0:2:0:0:
419,326,465279,1,8,0:0:0:0:
507,175,465476,1,8,0:0:0:0:
318,226,465673,53,8,0:0:0:0:
469,312,465869,1,8,0:0:0:0:
468,136,466066,1,8,0:0:0:0:
312,52,466263,38,0,P|224:52|160:100,1,160,2|2,0:2|0:3,0:0:0:0:
118,195,466863,2,0,P|197:198|264:156,1,160
168,92,467463,2,0,P|130:84|68:84,1,80,0|2,0:0|0:3,0:0:0:0:
264,156,467863,6,0,P|344:172|428:144,1,160,2|0,0:0|0:0,0:0:0:0:
264,156,468463,2,0,P|290:233|356:292,1,160,2|0,0:3|0:0,0:0:0:0:
336,84,469063,2,0,P|324:40|304:8,1,80
336,84,469433,6,0,P|418:92|504:40,1,160,2|0,0:0|0:0,0:0:0:0:
264,156,470014,2,0,P|181:147|96:200,1,160,2|0,0:3|0:0,0:0:0:0:
332,244,470596,2,0,P|358:214|369:176,1,80
264,156,470984,54,0,P|216:220|236:312,1,160,2|0,0:0|0:0,0:0:0:0:
111,184,471566,2,0,P|36:175|4:105,1,160,8|0,0:3|0:0,0:0:0:0:
136,48,472147,1,8,0:3:0:0:
136,48,472341,1,2,0:3:0:0:
268,76,472535,53,12,0:0:0:0:
272,80,472632,1,0,0:0:0:0:
276,84,472730,1,0,0:0:0:0:
364,160,472926,1,8,0:0:0:0:
376,152,473024,1,8,0:0:0:0:
388,144,473122,1,8,0:0:0:0:
400,136,473220,1,8,0:0:0:0:
412,128,473318,1,8,0:0:0:0:
364,160,473710,5,8,0:0:0:0:
388,156,473808,1,8,0:0:0:0:
412,152,473906,1,8,0:0:0:0:
296,240,474102,1,8,0:0:0:0:
264,244,474200,1,8,0:0:0:0:
232,248,474298,1,8,0:0:0:0:
128,300,474494,1,8,0:0:0:0:
104,272,474592,1,8,0:0:0:0:
80,244,474690,1,8,0:0:0:0:
56,216,474788,1,8,0:0:0:0:
32,188,474886,1,8,0:0:0:0:
84,240,475082,69,8,0:0:0:0:
68,204,475180,1,8,0:0:0:0:
56,168,475278,1,8,0:0:0:0:
128,16,475474,1,12,0:0:0:0:
124,40,475572,1,8,0:0:0:0:
120,64,475670,1,8,0:0:0:0:
116,88,475768,1,8,0:0:0:0:
112,112,475866,1,8,0:0:0:0:
232,60,476062,1,8,0:0:0:0:
256,56,476160,1,8,0:0:0:0:
280,52,476258,1,8,0:0:0:0:
304,48,476356,1,8,0:0:0:0:
328,44,476454,6,0,L|432:28,1,75.9999979705811,10|0,0:2|0:0,0:0:0:0:
432,204,476649,2,0,L|536:188,1,75.9999979705811,10|0,0:2|0:0,0:0:0:0:
380,124,476845,2,0,L|484:108,1,75.9999979705811,10|0,0:2|0:0,0:0:0:0:
380,300,477041,2,0,L|484:284,1,75.9999979705811,10|0,0:2|0:0,0:0:0:0:
88,256,477335,70,0,L|12:267,1,75.9999979705811,10|0,0:2|0:0,0:0:0:0:
184,240,477531,5,8,0:0:0:0:
204,248,477629,1,8,0:0:0:0:
228,252,477727,1,8,0:0:0:0:
252,248,477825,1,8,0:0:0:0:
272,236,477923,1,8,0:0:0:0:
288,220,478021,1,8,0:0:0:0:
296,200,478119,1,8,0:0:0:0:
296,176,478217,1,8,0:0:0:0:
288,156,478315,1,8,0:0:0:0:
268,140,478413,70,2,P|228:128|176:144,1,90.0000034332277,2|0,0:0|0:0,0:0:0:0:
124,196,478805,21,8,0:0:0:0:
112,176,478901,1,8,0:0:0:0:
100,156,478997,1,8,0:0:0:0:
88,136,479093,1,8,0:0:0:0:
76,116,479189,1,8,0:0:0:0:
52,112,479285,2,0,L|72:24,1,80,10|0,0:0|0:0,0:0:0:0:
164,88,479478,1,0,0:0:0:0:
180,92,479574,1,0,0:0:0:0:
196,96,479670,54,0,B|260:72|260:72|352:96,1,160,8|0,0:0|0:0,0:0:0:0:
476,212,479958,2,0,L|308:168,1,160,8|2,0:0|0:2,0:0:0:0:
432,284,480247,2,0,L|532:312,1,80,10|0,0:2|0:0,0:0:0:0:
340,260,480439,1,0,0:0:0:0:
340,260,480535,6,0,L|244:300,1,80,10|0,0:2|0:0,0:0:0:0:
156,180,480728,2,0,L|252:220,1,80,10|0,0:2|0:0,0:0:0:0:
364,264,480920,6,0,L|268:304,1,80,10|0,0:2|0:0,0:0:0:0:
132,184,481113,2,0,L|228:224,1,80,10|0,0:2|0:0,0:0:0:0:
388,268,481305,54,0,L|292:308,1,80,10|0,0:2|0:0,0:0:0:0:
108,188,481497,1,8,0:0:0:0:
92,192,481593,1,8,0:0:0:0:
76,196,481689,1,8,0:0:0:0:
60,200,481785,1,8,0:0:0:0:
44,204,481881,2,0,B|88:136|88:136|60:48,1,160,8|0,0:0|0:0,0:0:0:0:
168,116,482170,6,0,L|192:192,1,80,8|0,0:0|0:0,0:0:0:0:
168,116,482362,2,0,B|248:116|248:116|328:80,1,160,10|0,0:2|0:0,0:0:0:0:
468,80,482651,1,8,0:0:0:0:
460,92,482747,2,0,L|388:127,1,80,8|0,0:0|0:0,0:0:0:0:
388,140,482939,2,0,B|380:216|380:216|284:268,1,160,8|0,0:0|0:0,0:0:0:0:
208,300,483228,6,0,L|220:216,1,80,10|0,0:2|0:0,0:0:0:0:
20,240,483420,2,0,L|8:160,1,80,10|0,0:2|0:0,0:0:0:0:
176,164,483612,2,0,L|188:80,1,80,10|0,0:2|0:0,0:0:0:0:
56,104,483805,2,0,L|44:24,1,80,10|0,0:2|0:0,0:0:0:0:
288,72,483997,53,0,0:0:0:0:
292,104,484093,1,0,0:0:0:0:
296,136,484189,5,8,0:0:0:0:
332,116,484285,1,8,0:0:0:0:
372,116,484381,1,8,0:0:0:0:
416,136,484478,1,8,0:0:0:0:
432,180,484574,1,8,0:0:0:0:
428,228,484670,2,0,B|416:272|377:283|377:283|336:232|288:252,1,160,10|8,0:2|0:0,0:0:0:0:
248,196,484958,5,8,0:0:0:0:
228,220,485055,1,10,0:2:0:0:
204,244,485151,1,8,0:0:0:0:
180,264,485247,1,8,0:0:0:0:
220,272,485343,53,8,0:0:0:0:
252,292,485439,1,8,0:0:0:0:
276,324,485535,1,8,0:0:0:0:
284,364,485631,1,8,0:0:0:0:
332,368,485728,5,8,0:0:0:0:
380,356,485824,1,8,0:0:0:0:
420,332,485920,1,8,0:0:0:0:
452,296,486016,1,8,0:0:0:0:
460,248,486112,6,0,B|444:176|444:176|356:120,1,160,10|0,0:2|0:0,0:0:0:0:
240,88,486401,2,0,B|256:160|256:160|344:216,1,160,10|0,0:2|0:0,0:0:0:0:
160,120,486689,54,0,L|184:228,1,80,10|0,0:2|0:0,0:0:0:0:
12,96,486881,2,0,L|92:148,1,80,10|0,0:2|0:0,0:0:0:0:
160,136,487074,6,0,L|184:244,1,80,10|0,0:2|0:0,0:0:0:0:
12,112,487266,2,0,L|92:164,1,80,10|0,0:2|0:0,0:0:0:0:
160,152,487458,6,0,L|184:260,1,80,10|0,0:2|0:0,0:0:0:0:
12,128,487650,2,0,L|92:180,1,80,10|0,0:2|0:0,0:0:0:0:
280,324,487843,2,0,L|262:245,1,80,10|0,0:2|0:0,0:0:0:0:
296,100,488035,53,8,0:0:0:0:
304,124,488131,1,8,0:0:0:0:
312,148,488228,1,8,0:0:0:0:
320,172,488324,1,8,0:0:0:0:
328,196,488420,2,0,B|392:192|392:192|362:283,1,160,8|0,0:0|0:0,0:0:0:0:
384,120,488708,2,0,L|476:116,1,80,8|0,0:0|0:0,0:0:0:0:
420,344,488901,2,0,L|448:256,1,80,10|0,0:2|0:0,0:0:0:0:
288,76,489093,5,8,0:0:0:0:
256,80,489189,1,8,0:0:0:0:
224,84,489285,1,8,0:0:0:0:
192,88,489381,1,8,0:0:0:0:
160,92,489478,2,0,P|236:136|256:204,1,160,8|8,0:0|0:0,0:0:0:0:
320,72,489766,6,0,L|368:8,1,80,10|0,0:2|0:0,0:0:0:0:
476,144,489958,2,0,L|428:80,1,80,10|0,0:2|0:0,0:0:0:0:
328,208,490151,2,0,L|376:144,1,80,10|0,0:2|0:0,0:0:0:0:
476,272,490343,54,0,L|428:208,1,80,10|0,0:2|0:0,0:0:0:0:
224,224,490535,2,0,L|272:288,1,80,10|0,0:2|0:0,0:0:0:0:
416,340,490728,2,0,L|368:276,1,80,2|0,0:2|0:0,0:0:0:0:
164,292,490920,2,0,L|212:356,1,80,10|0,0:2|0:0,0:0:0:0:
92,192,491112,5,8,0:0:0:0:
80,212,491208,1,8,0:0:0:0:
68,232,491305,1,8,0:0:0:0:
56,252,491401,1,8,0:0:0:0:
44,272,491497,2,0,L|36:100,1,160,8|0,0:0|0:0,0:0:0:0:
100,12,491785,2,0,L|108:108,1,80,10|0,0:2|0:0,0:0:0:0:
106,91,491978,2,0,B|176:64|176:64|264:124,1,160,10|0,0:2|0:0,0:0:0:0:
456,84,492266,5,8,0:0:0:0:
432,92,492362,1,8,0:0:0:0:
408,100,492458,1,8,0:0:0:0:
384,108,492555,2,0,L|312:64,1,80,8|0,0:0|0:0,0:0:0:0:
308,160,492747,1,8,0:0:0:0:
308,160,492843,54,0,L|304:244,1,80,10|0,0:2|0:0,0:0:0:0:
136,252,493035,2,0,L|210:213,1,80,10|0,0:2|0:0,0:0:0:0:
296,360,493228,2,0,L|225:314,1,80,10|0,0:2|0:0,0:0:0:0:
347,204,493420,6,0,L|304:272,1,80,10|0,0:2|0:0,0:0:0:0:
152,198,493612,2,0,L|232:202,1,80,10|0,0:2|0:0,0:0:0:0:
236,371,493805,2,0,L|200:300,1,80,10|0,0:2|0:0,0:0:0:0:
72,80,493997,5,2,0:2:0:0:
68,96,494093,1,2,0:2:0:0:
64,112,494189,53,10,0:2:0:0:
68,128,494285,1,8,0:0:0:0:
72,144,494381,1,8,0:0:0:0:
64,160,494478,1,8,0:0:0:0:
72,176,494574,1,8,0:0:0:0:
80,188,494670,2,0,P|162:129|236:164,1,160,10|0,0:2|0:0,0:0:0:0:
264,204,494958,5,8,0:0:0:0:
312,216,495055,1,8,0:0:0:0:
360,208,495151,1,8,0:0:0:0:
396,176,495247,1,8,0:0:0:0:
416,132,495343,2,0,P|412:92|392:44,1,80,8|0,0:0|0:0,0:0:0:0:
312,216,495535,6,0,P|316:256|336:304,1,80,10|0,0:2|0:0,0:0:0:0:
424,136,495728,2,0,P|420:96|400:48,1,80,10|0,0:2|0:0,0:0:0:0:
404,232,495920,54,0,P|444:228|492:208,1,80,10|0,0:2|0:0,0:0:0:0:
324,120,496113,2,0,P|284:124|236:144,1,80,10|0,0:2|0:0,0:0:0:0:
124,80,496305,5,8,0:0:0:0:
96,108,496401,1,8,0:0:0:0:
56,112,496497,1,8,0:0:0:0:
16,104,496593,2,0,L|-8:24,1,80,8|0,0:0|0:0,0:0:0:0:
24,280,496785,2,0,L|0:200,1,80,8|0,0:0|0:0,0:0:0:0:
248,232,496978,2,0,B|177:275|177:275|100:240,1,160,10|8,0:2|0:0,0:0:0:0:
172,192,497266,5,8,0:0:0:0:
248,232,497362,2,0,L|340:280,1,80,8|0,0:0|0:0,0:0:0:0:
480,264,497555,2,0,L|409:226,1,80
260,252,497747,54,0,B|336:292|336:292|368:364,1,160,8|0,0:0|0:0,0:0:0:0:
472,244,498035,2,0,B|396:204|396:204|364:132,1,160,8|0,0:0|0:0,0:0:0:0:
336,52,498324,1,8,0:0:0:0:
308,188,498420,2,0,L|272:104,1,80,10|2,0:2|0:2,0:0:0:0:
244,32,498612,1,10,0:2:0:0:
184,104,498708,2,0,L|24:89,1,160,10|0,0:2|0:0,0:0:0:0:
8,232,498997,6,0,L|92:176,1,80,10|0,0:2|0:0,0:0:0:0:
212,176,499189,2,0,L|145:220,1,80,10|0,0:2|0:0,0:0:0:0:
8,232,499381,6,0,L|100:191,1,80,10|0,0:2|0:0,0:0:0:0:
218,212,499574,2,0,L|144:244,1,80,10|0,0:2|0:0,0:0:0:0:
8,232,499766,54,0,L|106:208,1,80,10|0,0:2|0:0,0:0:0:0:
218,248,499959,2,0,L|140:266,1,80,10|0,0:2|0:0,0:0:0:0:
8,232,500151,6,0,L|108:225,1,80,10|0,0:2|0:0,0:0:0:0:
212,284,500343,1,8,0:0:0:0:
260,292,500439,1,8,0:0:0:0:
308,284,500535,1,8,0:0:0:0:
344,252,500631,1,8,0:0:0:0:
356,204,500728,6,0,P|324:124|232:128,1,160,8|0,0:0|0:0,0:0:0:0:
356,204,501016,2,0,P|352:120|416:84,2,160,8|10|0,0:0|0:2|0:0,0:0:0:0:
260,116,501497,53,10,0:2:0:0:
240,124,501593,1,8,0:0:0:0:
216,132,501689,1,8,0:0:0:0:
192,140,501785,1,8,0:0:0:0:
168,136,501881,1,8,0:0:0:0:
144,132,501978,1,8,0:0:0:0:
120,128,502074,6,0,L|32:176,1,80,10|0,0:2|0:0,0:0:0:0:
240,208,502266,2,0,L|310:169,1,80,10|0,0:2|0:0,0:0:0:0:
112,216,502458,2,0,L|24:264,1,80,10|0,0:2|0:0,0:0:0:0:
304,256,502650,2,2,L|374:217,1,80,10|2,0:2|0:2,0:2:0:0:
104,304,502843,5,2,0:2:0:0:
76,320,502939,1,2,0:2:0:0:
48,336,503035,1,8,0:0:0:0:
368,304,503228,1,2,0:2:0:0:
404,284,503324,1,2,0:2:0:0:
440,264,503420,1,4,0:0:0:0:
256,192,503520,12,0,512227,0:0:0:0:
120,260,512446,6,0,L|191:271,1,60.0000022888184,2|2,0:0|0:0,0:0:0:0:
252,232,512780,2,0,L|320:240,1,60.0000022888184,2|0,0:0|0:0,0:0:0:0:
380,196,513159,2,0,B|444:204|444:204|496:176,2,120.000004577637,2|2|2,0:3|0:2|0:0,0:0:0:0:
132,84,514106,6,0,L|64:120,1,60.0000022888184,2|2,0:0|0:0,0:0:0:0:
136,256,514490,2,0,L|136:192,1,60.0000022888184,2|0,0:3|0:0,0:0:0:0:
204,52,514834,2,0,L|204:112,1,60.0000022888184,2|0,0:0|0:0,0:0:0:0:
212,228,515134,2,0,B|284:200|284:200|324:216,2,120.000004577637,2|2|2,0:0|0:0|0:0,0:0:0:0:
200,328,516005,54,0,L|269:300,1,60.0000022888184,2|2,0:0|0:0,0:0:0:0:
380,236,516395,2,0,L|308:208,1,60.0000022888184,2|2,0:0|0:0,0:0:0:0:
168,164,516688,6,0,L|108:141,2,40,2|2|2,0:0|0:0|0:0,0:0:0:0:
8,184,516974,2,0,L|49:198,2,40,2|2|2,0:0|0:0|0:0,0:0:0:0:
20,176,517249,38,0,L|72:292,1,120.000004577637,4|0,1:0|0:0,0:0:0:0:
132,248,517583,6,0,L|216:248,1,70.000000667572,8|0,1:1|0:0,0:0:0:0:
344,296,517784,2,2,L|280:296,1,60,2|0,0:1|0:0,0:0:0:0:
392,220,518062,6,0,P|436:260|512:256,2,120.000004577637,2|2|2,0:0|0:0|0:0,0:0:0:0:
388,128,518866,2,0,P|336:160|272:152,1,120.000004577637,2|2,0:0|0:0,0:0:0:0:
216,104,519259,2,0,L|148:104,1,60.0000022888184,2|2,0:0|0:0,0:0:0:0:
92,168,519523,2,0,L|28:168,1,60.0000022888184,2|2,0:0|0:0,0:0:0:0:
64,256,519764,6,0,L|53:297,2,40,2|2|2,0:0|0:0|0:0,0:0:0:0:
168,296,520103,2,0,L|177:257,2,40,2|2|2,0:0|0:0|0:0,0:0:0:0:
200,184,520423,6,0,B|260:176|260:176|324:136,1,120.000004577637,2|2,0:0|0:0,0:0:0:0:
472,168,520921,2,0,B|412:176|412:176|348:216,1,120.000004577637,2|2,0:0|0:0,0:0:0:0:
304,252,521323,1,2,0:0:0:0:
416,264,521464,54,0,L|459:236,2,40.000001525879,2|2|2,0:0|0:0|0:0,0:0:0:0:
356,308,521724,2,0,P|300:328|236:292,1,120.000004577637,2|2,0:0|0:0,0:0:0:0:
92,40,522369,6,0,L|116:136,1,95.9999970703126,2|2,0:0|0:0,0:0:0:0:
180,196,522809,2,0,L|168:282,2,80,2|2|2,0:0|0:0|0:0,0:0:0:0:
316,100,523489,6,0,L|269:20,1,88.000002685547,2|2,0:0|0:0,0:0:0:0:
380,180,524065,2,0,L|412:80,1,95.9999970703126,2|2,0:0|0:0,0:0:0:0:
328,292,524630,54,0,L|268:192,1,103.999995239258,2|0,0:0|0:0,0:0:0:0:
408,352,525112,2,0,L|456:232,1,120.000004577637,2|0,0:0|0:0,0:0:0:0:
256,192,525718,12,0,527859,0:0:0:0:
256,192,528022,12,0,531120,0:0:0:0:
256,192,531283,53,12,1:0:0:0:
