osu file format v9

[General]
AudioFilename: chipscape.mp3
AudioLeadIn: 1500
PreviewTime: 196582
Countdown: 0
SampleSet: Normal
StackLeniency: 0.7
Mode: 0
LetterboxInBreaks: 1

[Editor]
Bookmarks: 9795,21520,21588,22066,22134,22202,22270,22611,22884,23770,23838,24656,24997,25542,25883,27247,35972,44698,53424,69648,70330,70466,79601,88326,89281,89417,97052,123229,131409,131955,149406,165767,166585,166620,176711,177765,177901,178855,208852,217646,217714,226440
DistanceSpacing: 1
BeatDivisor: 4
GridSize: 3

[Metadata]
Title:chipscape
Artist:t+pazolite
Creator:Shiirn
Version:Ragnarok
Source:
Tags:onosakihito Gotta Maze

[Difficulty]
HPDrainRate:4
CircleSize:4
OverallDifficulty:8
ApproachRate:9
SliderMultiplier:0.85
SliderTickRate:0.5

[Events]
//Background and Video events
0,0,"1272232826494.jpg"
//Break Periods
2,44936,46863
2,123481,130863
2,166845,178318
//Storyboard Layer 0 (Background)
Sprite,Background,Centre,"SB\1fKj.png",320,240 F,0,166620,0,1 F,0,176711,176715,1,0
Animation,Background,Centre,"SB\static\static.jpg",320,240,10,120,LoopForever F,0,177795,177873,0,1 F,0,199088,199224,1,0 F,0,199224,199360,0,1 F,0,199360,199497,1,0
//Storyboard Layer 1 (Fail)
//Storyboard Layer 2 (Pass)
//Storyboard Layer 3 (Foreground)
Sprite,Foreground,Centre,"SB\white.jpg",320,240 F,0,176711,176715,0,1 F,0,177873,178148,1,0
//Storyboard Sound Samples
//Background Colour Transformations
3,100,163,162,255

[TimingPoints]
1100,272.727272727273,4,1,0,80,1,0
1190,-50,4,1,0,80,0,0
35990,-50,4,2,0,100,0,0
53463,-50,4,1,1,80,0,1
53854,-50,4,1,2,80,0,1
54263,-50,4,1,1,80,0,1
54363,-50,4,1,2,80,0,1
54945,-50,4,1,1,80,0,1
55045,-50,4,1,2,80,0,1
55490,-50,4,1,1,80,0,1
56036,-50,4,1,2,80,0,1
56990,-50,4,1,1,80,0,1
57536,-50,4,1,2,80,0,1
57945,-50,4,1,1,80,0,1
58217,-50,4,1,2,80,0,1
58626,-50,4,1,1,80,0,1
58726,-50,4,1,2,80,0,1
59308,-50,4,1,1,80,0,1
59408,-50,4,1,2,80,0,1
59854,-50,4,1,1,80,0,1
60399,-50,4,1,2,80,0,1
61217,-50,4,1,1,80,0,1
61317,-50,4,1,2,80,0,1
61763,-50,4,1,1,80,0,1
62581,-50,4,1,2,80,0,1
62990,-50,4,1,1,80,0,1
63090,-50,4,1,2,80,0,1
63672,-50,4,1,1,80,0,1
63772,-50,4,1,2,80,0,1
64217,-50,4,1,1,80,0,1
64763,-50,4,1,2,80,0,1
65717,-50,4,1,1,80,0,1
66263,-50,4,1,2,80,0,1
66672,-50,4,1,1,80,0,1
66772,-50,4,1,2,80,0,1
67354,-50,4,1,1,80,0,1
67454,-50,4,1,2,80,0,1
68036,-50,4,1,1,80,0,1
68136,-50,4,1,2,80,0,1
68854,-50,4,1,1,80,0,1
69126,-50,4,1,2,80,0,1
69536,-50,4,1,1,80,0,1
70899,-50,4,1,0,80,0,0
88354,-200,4,1,0,80,0,0
88852,-200,4,2,0,10,0,0
88896,-200,4,1,0,80,0,0
89308,-50,4,1,0,80,0,0
105827,-50,4,1,1,75,0,1
106081,-50,4,1,0,75,0,1
106149,-50,4,1,1,75,0,1
106763,-50,4,1,0,75,0,1
106831,-50,4,1,1,75,0,1
107172,-50,4,1,0,75,0,1
107240,-50,4,1,1,75,0,1
107581,-50,4,1,0,75,0,1
107649,-50,4,1,1,75,0,1
107717,-50,4,1,0,75,0,1
107786,-50,4,1,1,75,0,1
107854,-50,4,1,0,75,0,1
107922,-50,4,1,1,75,0,1
108808,-50,4,1,0,75,0,1
108876,-50,4,1,1,75,0,1
109490,-50,4,1,0,75,0,1
109558,-50,4,1,1,75,0,1
109899,-50,4,1,0,75,0,1
109967,-50,4,1,1,75,0,1
110036,-50,4,1,0,75,0,1
110104,-50,4,1,1,75,0,1
111126,-50,4,1,0,75,0,1
111195,-50,4,1,1,75,0,1
111941,-50,4,1,0,75,0,1
112013,-50,4,1,1,75,0,1
112081,-50,4,1,0,75,0,1
112149,-50,4,1,1,75,0,1
112217,-50,4,1,0,75,0,1
112286,-50,4,1,1,75,0,1
113172,-50,4,1,0,75,0,1
113240,-50,4,1,1,75,0,1
114263,-50,4,1,0,75,0,1
114331,-50,4,1,1,75,0,1
114399,-50,4,1,0,75,0,1
114467,-50,4,1,1,75,0,1
114536,-50,4,2,0,100,0,0
131990,-50,4,1,0,90,0,0
149411,-50,4,1,0,90,0,0
149463,-50,4,1,1,90,0,1
149854,-50,4,1,2,90,0,1
150263,-50,4,1,1,90,0,1
150363,-50,4,1,2,90,0,1
150945,-50,4,1,1,90,0,1
151045,-50,4,1,2,90,0,1
151490,-50,4,1,1,90,0,1
152036,-50,4,1,2,90,0,1
153263,-50,4,1,1,90,0,1
153536,-50,4,1,2,90,0,1
153945,-50,4,1,1,90,0,1
154217,-50,4,1,2,90,0,1
154626,-50,4,1,1,90,0,1
154726,-50,4,1,2,90,0,1
155308,-50,4,1,1,90,0,1
155408,-50,4,1,2,90,0,1
155854,-50,4,1,1,90,0,1
156399,-50,4,1,2,90,0,1
157217,-50,4,1,1,90,0,1
157317,-50,4,1,2,90,0,1
158308,-50,4,1,1,90,0,1
158581,-50,4,1,2,90,0,1
158990,-50,4,1,1,90,0,1
159090,-50,4,1,2,90,0,1
159672,-50,4,1,1,90,0,1
159772,-50,4,1,2,90,0,1
160217,-50,4,1,1,90,0,1
160763,-50,4,1,2,90,0,1
161990,-50,4,1,1,90,0,1
162263,-50,4,1,2,90,0,1
162808,-50,4,1,1,90,0,1
162908,-50,4,1,2,90,0,1
163354,-50,4,1,1,90,0,1
163454,-50,4,1,2,90,0,1
164036,-50,4,1,1,90,0,1
164136,-50,4,1,2,90,0,1
164581,-50,4,1,1,90,0,1
165126,-50,4,1,2,90,0,1
165536,-50,4,1,1,90,0,1
165636,-50,4,1,2,90,0,1
165672,-50,4,1,0,90,0,0
178918,315.789473684211,4,1,0,55,1,0
179700,-50,4,1,1,55,0,0
180173,-50,4,1,0,55,0,0
180487,-50,4,1,2,55,0,0
180587,-50,4,1,0,55,0,0
180960,-50,4,1,1,55,0,0
181196,-50,4,1,0,55,0,0
199126,272.727272727273,4,1,1,100,1,0
200164,-50,4,1,0,80,0,0
243837,-200,4,1,0,80,0,0
243871,-200,4,2,0,40,0,0

[Colours]
Combo1 : 48,48,48
Combo2 : 231,135,88
Combo3 : 36,36,208
Combo4 : 221,23,23
Combo5 : 228,228,228

[HitObjects]
200,64,1100,1,2
128,112,1236,1,0
116,132,1304,1,0
104,148,1372,1,8
213,182,1509,2,0,B|144:232,2,85,0|0|0
126,330,1918,2,0,B|68:268,1,85,0|8
326,134,2327,6,0,B|392:80,1,85,8|0
349,262,2600,2,0,B|284:208,1,85,0|0
428,228,2872,1,0
452,192,2940,1,0
460,152,3009,2,0,B|460:104|432:68,1,85,8|8
232,64,3281,5,2
164,116,3418,1,0
164,116,3486,1,0
164,116,3554,2,0,B|128:144|116:192,1,85,8|0
203,187,3827,2,0,B|208:236|183:268,2,85
433,127,4236,2,0,B|344:96|268:132,1,170,8|8
330,259,4645,38,0,B|376:188,1,85
268,200,4918,1,0
200,252,5054,1,0
160,268,5122,1,0
116,272,5190,1,8
100,48,5463,5,2
40,120,5599,1,0
40,120,5668,1,0
40,120,5736,1,8
124,136,5872,1,0
72,204,6009,1,0
156,220,6145,1,0
216,160,6281,1,0
356,64,6418,2,8,B|268:32|192:72,1,170
288,131,6827,6,0,B|272:176|286:215,2,85
360,176,7236,2,0,B|404:184,2,42.5,0|0|8
404,104,7509,1,0
408,252,7645,37,2
336,296,7781,1,0
296,308,7849,1,0
256,316,7918,1,8
172,320,8054,2,0,B|124:320|88:300,1,85
88,180,8327,2,0,B|108:216|148:240,1,85
84,96,8599,1,8
180,152,8736,5,2
168,112,8804,1,0
156,72,8872,1,0
260,204,9009,5,0
248,164,9077,1,0
236,124,9145,1,0
340,256,9281,37,2
328,216,9349,1,0
316,176,9418,1,0
420,304,9554,5,0
408,264,9622,1,0
396,224,9690,1,0
59,263,9827,6,0,B|72:312|103:335,2,85,2|0|8
60,160,10236,1,0
80,152,10304,1,0
100,144,10372,1,0
120,136,10440,1,0
140,128,10509,1,8
148,228,10645,1,0
204,316,10781,1,8
204,316,10849,1,8
256,36,12009,37,2
212,108,12145,1,0
296,108,12281,1,8
256,184,12418,1,0
236,196,12486,1,0
220,208,12554,1,0
200,220,12622,1,0
180,232,12690,1,8
272,288,12827,1,0
380,260,12963,1,8
380,260,13031,1,8
64,56,13645,5,8
60,140,13781,1,0
60,140,13849,1,0
60,140,13918,1,8
96,152,13986,1,0
96,152,14054,1,0
96,152,14122,1,0
96,152,14190,5,2
68,232,14327,1,0
120,300,14463,1,0
192,252,14599,1,0
212,244,14668,1,0
232,236,14736,1,0
252,228,14804,1,0
272,220,14872,1,8
228,148,15009,1,0
220,64,15145,1,0
220,64,15213,1,0
220,64,15281,38,0,B|256:88|300:88,1,85,8|0
316,100,15486,1,0
316,100,15554,1,0
388,148,15690,1,0
424,224,15827,1,0
424,224,15895,1,0
424,224,15963,1,8
360,280,16099,1,0
280,304,16236,1,0
280,304,16304,1,0
236,304,16372,5,10
236,220,16509,1,0
232,136,16645,1,0
160,92,16781,1,0
144,104,16849,1,0
128,120,16918,1,0
112,136,16986,1,0
96,148,17054,1,8
88,232,17190,1,0
168,204,17327,1,0
208,196,17395,1,0
248,184,17463,5,8
320,140,17599,1,0
320,140,17668,1,0
320,140,17736,1,8
348,60,17804,1,0
256,56,18009,37,0
256,76,18077,1,0
256,96,18145,1,0
256,116,18213,1,0
256,136,18281,1,0
256,156,18350,1,0
256,176,18418,1,0
256,196,18486,1,0
256,220,18554,5,2
200,280,18690,1,0
160,288,18759,1,0
116,296,18827,1,8
144,216,18963,1,0
124,132,19100,1,0
144,216,19236,1,0
124,132,19372,1,0
111,48,19509,2,0,B|192:20|278:47,1,170,8|8
228,116,19918,5,0
220,200,20054,1,0
272,268,20190,1,0
348,308,20327,2,0,B|348:284,2,21.25,0|0|0
388,320,20463,2,0,B|416:292,2,21.25,0|0|0
432,320,20600,2,0,B|464:316,2,21.25,0|0|0
432,248,20736,37,2
432,164,20872,1,0
404,160,20940,1,0
380,160,21009,1,8
340,84,21145,1,0
296,156,21281,1,0
252,84,21418,1,0
204,156,21554,2,8,B|216:184,2,21.25,0|0|0
163,79,21690,2,0,B|72:80|60:190,1,170,8|8
132,236,22100,6,8,B|128:268,2,21.25,0|0|0
176,240,22236,2,8,B|180:272,2,21.25,0|0|0
240,240,22372,2,0,B|328:240,1,85,0|8
404,216,22645,2,0,B|400:176,1,28.3333333333333
424,240,22781,2,0,B|456:204,1,28.3333333333333
392,288,22918,5,2
320,284,23054,2,0,B|292:328,2,42.5,0|0|8
340,200,23327,1,0
344,116,23463,1,0
268,152,23600,1,0
264,68,23736,1,0
196,116,23872,1,8
64,320,24145,37,8
40,240,24281,1,0
36,156,24418,1,0
68,76,24554,1,0
120,144,24690,2,0,B|104:112,2,21.25
148,112,24827,2,0,B|132:84,2,21.25
168,76,24963,2,0,B|152:48,2,21.25
224,40,25100,5,2
232,124,25236,1,0
272,108,25304,1,0
300,76,25372,1,8
316,160,25509,1,0
372,224,25645,1,0
428,288,25781,1,0
344,292,25918,2,0,B|344:312,2,21.25
276,252,26054,1,8
208,300,26190,5,2
208,300,26259,1,0
208,300,26327,1,0
108,276,26463,37,0
108,276,26531,1,0
108,276,26600,1,0
60,176,26736,5,2
60,176,26804,1,0
60,176,26872,1,0
120,64,27009,5,0
120,64,27077,1,0
120,64,27145,1,0
352,80,27281,37,2
280,120,27418,1,0
280,120,27486,1,0
280,120,27554,2,0,B|308:152|352:160,2,85,8|0|0
220,60,27963,1,0
184,140,28100,1,0
244,200,28236,1,8
440,328,28509,5,8
468,248,28645,1,0
484,164,28781,1,0
480,80,28918,1,0
404,124,29054,2,0,B|412:148,2,21.25
364,132,29190,2,0,B|356:164,2,21.25
320,128,29327,2,0,B|308:160,2,21.25
256,72,29463,6,0,B|224:48|168:64,1,85,2|0
144,64,29668,1,0
164,92,29736,1,8
88,132,29872,1,0
52,208,30009,1,0
88,284,30145,1,0
132,212,30281,2,0,B|156:212,2,21.25
168,288,30418,2,0,B|224:360|320:337,1,170,8|8
268,240,30827,37,0
348,208,30963,1,0
280,160,31100,1,0
360,128,31236,1,8
292,80,31372,2,0,B|324:48,1,28.3333333333333
252,72,31509,2,0,B|232:44,1,28.3333333333333
172,104,31645,5,2
100,164,31781,1,0
100,164,31850,1,0
100,164,31918,1,8
188,200,32054,1,0
108,248,32190,1,0
196,284,32327,1,0
112,328,32463,1,0
200,360,32600,1,8
393,113,32872,6,0,B|448:48,2,85,8|0|0
356,44,33281,1,0
292,100,33418,2,0,B|264:88,2,21.25
288,144,33554,2,0,B|260:148,2,21.25
300,184,33690,2,0,B|284:208,2,21.25
368,136,33827,38,0,B|396:216,1,85,2|0
368,232,34031,1,0
368,232,34100,1,8
296,280,34236,1,0
220,324,34372,1,0
136,332,34509,1,0
64,284,34645,1,8
32,204,34781,1,8
116,200,34918,5,2
148,228,34986,1,0
184,252,35054,1,0
128,124,35190,5,0
160,152,35259,1,0
196,176,35327,1,0
144,48,35463,37,2
176,73,35531,1,0
212,97,35600,1,0
244,121,35668,1,0
283,144,35736,1,0
320,169,35804,1,0
356,193,35872,1,0
256,56,36009,5,6
256,56,36554,1,0
256,124,36690,1,0
256,192,36827,1,0
256,260,36963,1,2
84,136,37236,1,0
428,136,37509,1,2
120,192,37781,1,0
392,192,38054,1,0
328,304,38190,1,2
48,192,38736,5,0
120,192,38872,1,0
192,192,39009,1,0
264,192,39145,1,2
224,64,39418,1,0
224,320,39690,1,2
296,64,39963,1,0
296,320,40236,1,0
296,320,40372,1,2
192,192,40918,37,0
264,192,41054,1,0
332,192,41190,1,0
400,192,41327,1,2
145,271,41600,1,0
298,62,41872,1,2
295,322,42145,1,0
148,108,42418,1,0
256,192,42554,1,2
448,48,43100,5,0
448,132,43236,1,0
376,84,43372,1,0
376,168,43509,1,2
216,116,43781,1,0
216,288,44054,1,2
300,344,44190,1,0
372,268,44327,1,2
372,268,44463,1,2
372,268,44600,1,2
372,268,44736,1,6
256,48,47463,5,0
204,92,47599,1,0
152,136,47736,1,0
100,180,47872,1,2
180,292,48145,1,0
270,187,48418,1,2
401,276,48690,1,0
430,121,48963,1,0
364,192,49099,1,2
120,192,49645,37,0
188,192,49781,1,0
256,192,49918,1,0
324,192,50054,1,2
435,113,50327,1,0
282,322,50599,1,2
285,62,50872,1,0
432,276,51145,1,0
324,192,51281,1,2
108,68,51827,5,0
84,132,51963,1,0
80,200,52099,1,0
96,264,52236,1,2
228,300,52509,1,0
364,280,52781,1,2
324,224,52918,1,0
276,176,53054,1,2
228,128,53190,1,2
176,84,53327,1,2
96,64,53463,5,8
64,144,53599,1,8
148,132,53736,1,8
116,212,53872,1,0
112,232,53940,1,2
108,252,54009,1,2
104,272,54077,1,2
100,292,54145,1,8
180,328,54281,1,8
256,288,54418,1,2
248,268,54486,1,0
240,248,54554,37,8
228,96,54690,1,2
240,112,54759,1,0
252,128,54827,1,8
344,160,54963,1,8
432,172,55099,1,0
428,192,55168,1,0
424,212,55236,1,0
420,232,55304,1,0
416,252,55372,1,0
396,160,55509,6,8,B|442:89,1,85
344,88,55781,1,8
344,88,55918,1,8
184,88,56054,1,0
176,108,56122,1,2
168,128,56190,1,2
160,148,56259,1,2
152,168,56327,1,8
84,220,56463,5,2
104,232,56531,1,8
124,244,56599,1,2
144,256,56668,1,0
164,268,56736,1,2
184,280,56804,1,8
204,292,56872,1,2
224,304,56940,1,0
244,312,57009,2,0,B|272:328,4,21.25
324,280,57281,37,8
404,256,57418,1,8
420,172,57554,1,0
400,172,57622,1,2
380,172,57690,1,2
360,172,57759,1,2
340,172,57827,5,8
396,108,57963,1,8
312,92,58099,1,8
260,156,58236,1,0
244,172,58304,1,2
228,188,58372,1,0
212,204,58440,1,2
196,220,58509,1,8
156,144,58645,1,8
100,208,58781,1,2
100,228,58849,1,0
100,248,58918,5,8
152,316,59054,1,2
172,320,59122,1,0
192,324,59190,1,8
252,264,59327,1,8
328,304,59463,1,0
336,284,59531,1,2
344,264,59599,1,0
352,244,59668,1,2
360,224,59736,1,8
440,192,59872,1,8
448,108,60009,38,8,B|496:36,2,85
364,144,60418,1,0
344,152,60486,1,2
324,160,60554,1,0
304,168,60622,1,2
284,176,60690,1,8
232,108,60827,1,0
220,124,60895,1,2
208,144,60963,1,0
196,160,61031,1,2
184,176,61099,5,8
192,260,61236,1,0
248,324,61372,1,2
264,312,61440,1,2
280,300,61509,1,2
296,288,61577,1,2
312,276,61645,1,0
328,264,61713,1,8
344,252,61781,2,0,B|372:264,2,21.25
352,232,61918,2,0,B|384:232,2,21.25
356,212,62054,2,0,B|388:204,2,21.25
348,172,62190,5,8
288,112,62327,1,8
372,92,62463,1,8
312,32,62599,1,0
292,32,62668,1,2
272,32,62736,1,0
252,32,62804,1,2
232,32,62872,1,8
224,116,63009,1,8
180,44,63145,1,2
160,56,63213,1,0
140,68,63281,37,8
156,152,63418,1,2
144,168,63486,1,0
132,184,63554,1,8
216,200,63690,1,8
172,272,63827,1,0
192,276,63895,1,0
212,280,63963,1,0
232,284,64031,1,0
252,288,64099,1,8
304,220,64236,1,8
352,315,64372,6,8,B|356:272|388:240,2,85
428,164,64781,1,0
412,152,64849,1,2
396,140,64918,1,2
380,128,64986,1,2
364,116,65054,1,8
344,32,65190,5,2
324,40,65259,1,2
304,48,65327,1,2
284,56,65395,1,2
264,64,65463,1,2
244,72,65531,1,0
224,80,65599,1,0
204,88,65668,1,8
184,96,65736,2,0,B|164:104,4,21.25
211,127,66009,38,8,B|223:212,1,85
144,180,66281,1,0
132,196,66349,1,2
116,212,66418,1,0
100,228,66486,1,2
84,244,66554,5,8
164,272,66690,1,8
276,272,66827,1,2
260,284,66895,1,0
244,296,66963,1,8
212,216,67099,1,2
228,204,67168,1,0
244,192,67236,1,8
324,220,67372,1,8
380,156,67509,1,2
364,140,67577,1,0
348,124,67645,5,8
264,132,67781,1,2
244,132,67849,1,0
224,132,67918,1,8
192,52,68054,1,8
112,84,68190,1,2
104,104,68259,1,2
96,124,68327,1,2
88,144,68395,1,2
80,164,68463,1,0
72,184,68531,1,0
64,204,68599,1,0
56,224,68668,1,8
48,244,68736,38,8,B|112:304,1,85
151,227,69009,2,8,B|210:290,1,85,8|0
252,288,69213,1,0
296,284,69281,2,0,B|296:332,2,42.5
292,200,69554,1,8
292,200,69690,1,8
204,48,70372,5,8
308,48,70509,5,8
256,184,70645,37,0
256,164,70713,1,0
256,144,70781,1,0
256,124,70849,1,0
256,104,70918,5,2
172,124,71054,1,0
152,128,71122,1,0
132,132,71190,1,8
156,212,71327,2,0,B|104:284,2,85
196,288,71736,1,0
268,332,71872,2,8,B|356:332|420:264,1,170
364,200,72281,6,0,B|332:236|272:248,1,85
292,156,72554,1,0
268,76,72690,2,0,B|288:56,2,21.25
224,72,72827,2,0,B|240:40,2,21.25
180,72,72963,2,0,B|196:48,2,21.25
140,88,73100,37,2
76,144,73236,1,0
64,164,73304,1,0
52,180,73372,1,8
136,192,73509,2,0,B|100:272,2,85
208,148,73918,2,0,B|176:136,2,21.25
208,192,74054,2,8,B|236:276|312:324,1,170
340,244,74463,6,0,B|364:260,2,21.25
312,212,74600,2,0,B|296:192,2,21.25
356,208,74736,1,0
324,128,74872,1,8
328,108,74940,1,0
332,88,75009,1,8
88,308,75281,5,2
80,224,75418,1,0
92,208,75486,1,0
104,192,75554,1,8
168,248,75690,1,0
220,316,75827,1,0
304,332,75963,1,0
384,308,76100,1,0
320,252,76236,1,8
136,48,76509,37,8
100,124,76645,1,0
156,188,76781,1,0
196,112,76918,1,0
236,188,77054,2,0,B|240:220,2,21.25
276,172,77190,2,0,B|292:192,2,21.25
288,132,77327,2,0,B|320:136,2,21.25
268,92,77463,6,0,B|340:48,1,85
340,47,77736,1,2
340,47,77872,2,0,B|420:88,1,85,0|8
360,148,78145,1,0
436,188,78281,2,0,B|472:188,2,21.25
372,244,78418,1,0
216,288,78554,5,2
260,292,78622,1,0
304,296,78690,1,0
184,208,78827,37,0
228,212,78895,1,0
272,216,78963,1,0
164,128,79100,5,2
208,132,79168,1,0
252,136,79236,1,0
148,52,79372,5,0
192,56,79440,1,0
236,60,79509,1,0
320,52,79645,37,2
340,124,79781,1,0
360,128,79850,1,0
380,132,79918,1,8
356,212,80054,2,0,B|408:284,2,85
316,288,80463,1,0
244,332,80600,2,8,B|156:332|92:264,1,170
148,184,81009,6,0,B|180:148|240:136,1,85
220,228,81281,1,0
244,308,81418,2,0,B|224:328,2,21.25
288,312,81554,2,0,B|272:344,2,21.25
332,312,81690,2,0,B|316:336,2,21.25
372,296,81827,5,2
436,240,81963,1,0
448,220,82031,1,0
460,204,82100,1,8
376,192,82236,2,0,B|412:112,2,85
304,236,82645,2,0,B|336:248,2,21.25
304,192,82781,2,8,B|276:108|200:60,1,170
172,140,83190,38,0,B|148:124,2,21.25
200,172,83327,2,0,B|216:192,2,21.25
156,176,83463,1,0
188,256,83600,1,8
184,276,83668,1,0
180,296,83736,1,8
424,76,84009,5,2
432,160,84145,1,0
420,176,84213,1,0
408,192,84281,1,8
344,136,84418,1,0
292,68,84554,1,0
208,52,84690,1,0
128,76,84827,1,0
192,132,84963,1,8
376,336,85236,5,8
412,260,85372,1,0
356,196,85509,1,0
316,272,85645,1,0
276,196,85781,2,0,B|272:164,2,21.25
236,212,85918,2,0,B|220:192,2,21.25
224,252,86054,2,0,B|192:248,2,21.25
244,292,86190,38,0,B|172:336,1,85,2|0
172,337,86463,1,0
172,337,86600,2,0,B|92:296,1,85,8|0
152,236,86872,1,0
76,196,87009,2,0,B|40:196,2,21.25
140,140,87145,1,8
296,96,87281,5,2
252,92,87350,1,0
208,88,87418,1,0
360,168,87554,5,0
316,164,87622,1,0
272,160,87690,1,0
440,244,87827,37,2
396,240,87895,1,0
352,236,87963,1,0
308,232,88031,1,0
264,228,88100,1,0
220,224,88168,1,0
176,220,88236,1,0
136,216,88304,1,0
96,212,88372,6,0,B|24:204,2,74.375
24,112,89463,6,0,B|60:84|104:80,1,85
96,164,89736,2,0,B|144:168|180:160,2,85,8|0|0
56,240,90145,1,0
84,276,90213,1,0
112,308,90281,1,8
152,232,90418,1,0
204,300,90554,37,2
252,232,90690,1,0
284,260,90759,1,0
312,288,90827,1,8
396,284,90963,1,0
452,220,91100,1,0
460,136,91236,1,0
444,52,91372,1,0
360,52,91509,2,8,B|376:136|336:220,1,170
288,84,91918,6,0,B|296:126|276:167,1,85
216,112,92190,1,0
132,132,92327,1,0
120,148,92395,1,0
108,164,92463,1,8
412,328,92736,5,2
428,244,92872,1,0
412,232,92940,1,0
392,220,93009,1,8
340,284,93145,1,0
280,344,93281,1,0
212,296,93418,1,0
140,344,93554,1,0
72,296,93690,1,8
72,88,93963,53,8
72,172,94100,1,0
72,256,94236,1,0
148,216,94372,1,0
148,132,94509,1,0
168,140,94577,1,0
188,148,94645,1,8
260,192,94781,1,0
396,192,94918,5,2
312,192,95054,2,0,B|296:252,2,42.5,0|0|8
312,108,95327,1,0
232,80,95463,1,0
152,104,95600,1,0
112,180,95736,1,0
208,200,95872,1,8
436,192,96009,37,2
436,148,96077,1,0
436,104,96145,1,0
360,192,96281,5,0
360,236,96350,1,0
360,280,96418,1,0
280,188,96554,53,2
280,144,96622,1,0
280,100,96690,1,0
196,196,96827,5,0
196,240,96895,1,0
196,284,96963,1,0
256,40,97100,5,2
176,64,97236,1,0
140,84,97304,1,0
108,112,97372,1,8
52,176,97509,1,0
48,260,97645,1,0
120,304,97781,1,0
120,220,97918,1,0
120,136,98054,2,8,B|208:100|292:136,1,170
200,200,98463,38,0,B|182:244|200:288,1,85
276,244,98736,1,0
348,196,98872,2,0,B|380:212,2,21.25
364,156,99009,2,0,B|400:152,2,21.25
360,112,99145,2,0,B|392:96,2,21.25
336,76,99281,6,0,B|252:56,1,85,2|0
253,56,99486,1,0
253,56,99554,2,0,B|176:96,1,85,8|0
112,44,99827,2,0,B|92:132,1,85
88,212,100100,2,0,B|64:236,2,21.25
120,240,100236,1,8
384,292,100509,5,8
384,292,100645,1,0
384,292,100781,2,0,B|428:216,1,85
420,132,101054,1,0
404,92,101122,1,0
368,112,101190,2,0,B|328:92,1,28.3333333333333
336,148,101327,2,0,B|352:180,1,28.3333333333333
304,116,101463,37,2
220,96,101600,1,0
184,116,101668,1,0
152,140,101736,1,8
96,204,101872,1,0
52,276,102009,1,0
136,276,102145,1,0
192,212,102281,2,0,B|228:192|252:224|276:184,1,85,0|8
348,40,102690,5,8
264,60,102827,1,0
180,84,102963,1,0
240,144,103100,1,0
324,124,103236,2,0,B|344:128,2,21.25
328,168,103372,2,0,B|336:196,2,21.25
288,184,103509,2,0,B|264:268,1,85
188,228,103781,5,2
148,244,103850,1,0
112,264,103918,1,8
80,184,104054,1,0
156,152,104190,1,0
232,116,104327,1,0
168,60,104463,1,8
260,44,104600,1,8
332,88,104736,37,2
340,132,104804,1,0
348,172,104872,1,0
280,184,105009,5,0
288,228,105077,1,0
296,268,105145,1,0
240,344,105281,5,2
232,304,105350,1,0
224,260,105418,1,0
208,216,105486,1,0
192,168,105554,1,0
184,128,105622,1,0
176,84,105690,1,0
108,76,105827,37,0
100,100,105895,1,0
92,124,105963,1,0
84,148,106031,1,0
80,172,106100,1,0
76,196,106168,1,0
76,220,106236,1,0
80,244,106304,5,0
88,268,106372,1,0
100,292,106440,1,0
116,312,106509,1,0
136,328,106577,1,0
160,340,106645,1,0
184,348,106713,1,0
208,352,106781,1,0
232,356,106850,1,0
264,308,106918,5,0
240,308,106986,1,0
216,304,107054,1,0
192,300,107122,1,0
168,292,107190,1,0
148,280,107259,1,0
128,264,107327,1,0
112,244,107395,1,0
104,220,107463,37,0
120,200,107531,1,0
136,180,107600,1,0
152,160,107668,1,0
168,140,107736,1,0
180,120,107804,1,0
192,100,107872,1,0
204,80,107940,1,0
236,120,108009,5,0
252,140,108077,1,0
272,156,108145,1,0
292,172,108213,1,0
316,184,108281,1,0
340,188,108350,1,0
364,180,108418,1,2
384,164,108486,1,0
400,144,108554,5,0
408,120,108622,1,0
412,96,108690,1,0
396,76,108759,1,0
372,64,108827,1,0
348,60,108895,1,0
320,52,108963,1,0
296,52,109031,1,0
272,56,109100,37,0
248,60,109168,1,0
224,68,109236,1,0
200,76,109304,1,0
180,92,109372,1,0
164,108,109440,1,0
148,128,109509,1,0
132,148,109577,5,0
116,168,109645,1,0
108,192,109713,1,0
104,216,109781,1,0
108,240,109850,1,0
120,264,109918,1,0
140,280,109986,1,0
164,292,110054,1,0
188,300,110122,1,0
248,336,110190,6,0,B|204:336,1,42.5
264,296,110327,2,0,B|308:296,1,42.5,0|0
248,240,110463,2,0,B|204:240,1,42.5
264,200,110600,2,0,B|308:200,1,42.5,0|0
248,152,110736,38,0,B|204:152,1,42.5
264,112,110872,2,0,B|308:112,1,42.5,0|0
248,56,111009,2,0,B|204:56,1,42.5
264,16,111145,2,0,B|308:16,1,42.5,0|0
324,24,111281,5,0
336,48,111350,1,0
348,72,111418,1,0
360,96,111486,1,0
372,120,111554,1,0
384,144,111622,1,0
392,168,111690,1,0
400,192,111759,5,0
404,216,111827,1,0
404,240,111895,1,0
400,264,111963,1,0
388,288,112031,1,0
372,308,112100,1,0
352,320,112168,1,0
328,328,112236,1,0
304,332,112304,1,0
280,336,112372,37,0
264,316,112440,1,0
248,296,112509,1,0
232,276,112577,1,0
216,256,112645,1,0
200,236,112713,1,0
184,216,112781,1,0
168,196,112850,1,0
160,220,112918,5,0
144,200,112986,1,0
128,180,113054,1,0
112,160,113122,1,0
96,140,113190,1,0
84,120,113259,1,0
72,100,113327,1,0
56,80,113395,1,0
72,60,113463,5,0
96,64,113531,1,0
120,72,113600,1,0
144,80,113668,1,0
168,88,113736,1,0
192,100,113804,1,0
216,108,113872,1,0
240,120,113940,1,0
244,144,114009,37,0
248,168,114077,1,0
252,192,114145,1,0
260,216,114213,1,0
280,232,114281,1,0
300,248,114350,1,0
324,260,114418,1,0
348,268,114486,1,0
368,276,114554,5,4
376,56,115100,1,0
328,104,115236,1,0
280,152,115372,1,0
232,200,115509,1,2
96,204,115781,1,0
136,76,116054,1,2
272,72,116327,1,0
320,200,116600,1,0
292,264,116736,1,2
28,196,117281,5,0
96,196,117418,1,0
164,196,117554,1,0
232,196,117690,1,2
368,196,117963,1,0
304,76,118236,1,2
168,72,118509,1,0
96,196,118781,1,0
96,264,118918,1,2
392,92,119463,37,0
340,156,119600,1,0
288,220,119736,1,0
236,288,119872,1,2
136,148,120145,1,0
300,108,120418,1,2
316,276,120690,1,0
224,132,120963,1,0
176,64,121100,1,2
16,364,121645,5,0
28,280,121781,1,0
40,196,121918,1,0
52,112,122054,1,2
216,64,122327,1,0
380,104,122600,1,2
300,156,122736,1,0
380,200,122872,1,2
380,200,123009,1,2
380,200,123145,1,2
380,200,123281,1,6
256,168,131463,5,0
256,188,131531,1,0
256,208,131600,1,0
256,228,131668,1,0
256,248,131736,1,0
256,268,131804,1,0
256,288,131872,1,0
256,308,131940,1,0
256,328,132009,37,0
360,308,132145,1,0
420,248,132281,1,0
372,128,132418,1,0
392,136,132486,1,0
412,144,132554,1,0
432,152,132622,1,0
452,160,132690,1,0
468,76,132827,1,0
388,48,132963,1,0
368,48,133031,1,0
348,48,133100,5,0
284,104,133236,1,0
272,120,133304,1,0
260,136,133372,1,0
200,76,133509,1,0
120,52,133645,1,0
92,132,133781,1,0
92,152,133850,1,0
92,172,133918,1,0
92,192,133986,1,0
92,212,134054,1,0
92,232,134122,1,0
92,252,134190,5,0
140,324,134327,1,0
188,252,134463,1,0
228,324,134600,1,0
244,312,134668,1,0
260,300,134736,1,0
276,288,134804,1,0
292,276,134872,1,0
260,196,135009,1,0
280,204,135077,1,0
300,212,135145,1,0
372,260,135281,37,0
432,200,135418,1,0
424,180,135486,1,0
416,160,135554,1,0
336,144,135690,1,0
300,68,135827,1,0
280,72,135895,1,0
260,80,135963,1,0
240,84,136031,1,0
228,68,136100,2,0,B|204:76,2,21.25
236,108,136236,2,0,B|204:116,2,21.25
192,140,136372,5,0
176,156,136440,1,0
160,172,136509,1,0
144,188,136577,1,0
128,204,136645,1,0
196,256,136781,1,0
276,284,136918,1,0
276,304,136986,1,0
276,324,137054,1,0
356,300,137190,1,0
412,236,137327,1,0
412,216,137395,1,0
412,196,137463,5,0
332,168,137600,1,0
312,168,137668,1,0
292,168,137736,1,0
272,168,137804,1,0
252,168,137872,1,0
276,88,138009,1,0
192,72,138145,1,0
172,80,138213,1,0
152,88,138281,1,0
164,172,138418,2,0,B|172:192,4,21.25
104,236,138690,37,0
164,296,138827,1,0
248,296,138963,1,0
268,288,139031,1,0
288,280,139100,1,0
308,272,139168,1,0
328,264,139236,1,0
356,184,139372,6,0,B|372:152,2,21.25
284,140,139577,2,0,B|280:104,2,21.25
200,120,139781,2,0,B|192:92,2,21.25
120,144,139986,2,0,B|104:124,2,21.25
92,176,140122,2,0,B|72:176,2,21.25
88,220,140259,2,0,B|60:224,2,21.25
116,252,140395,1,0
136,256,140463,1,0
156,260,140531,1,0
176,264,140600,1,0
196,268,140668,1,0
216,272,140736,5,0
240,192,140872,1,0
324,188,141009,1,0
388,132,141145,1,0
396,152,141213,1,0
404,172,141281,1,0
412,192,141350,1,0
420,212,141418,1,0
356,272,141554,1,0
276,240,141690,1,0
268,220,141759,1,0
260,200,141827,37,0
176,204,141963,1,0
160,216,142031,1,0
144,228,142100,1,0
80,172,142236,1,0
60,256,142372,1,0
76,268,142440,1,0
92,280,142509,1,0
176,288,142645,1,0
260,308,142781,2,0,B|236:284,2,21.25
304,308,142918,6,0,B|369:370,1,85
432,313,143190,1,0
428,228,143327,2,0,B|460:244,2,21.25
424,184,143463,1,0
380,112,143600,1,0
328,180,143736,1,0
300,100,143872,6,0,B|224:60|136:112,2,170
248,168,144554,1,0
240,188,144622,1,0
232,208,144690,1,0
224,228,144759,1,0
208,240,144827,2,0,B|176:244,2,21.25
228,252,144963,2,0,B|252:280,2,21.25
352,280,145236,37,0
364,260,145304,1,0
376,240,145372,1,0
396,156,145509,1,0
380,72,145645,1,0
360,72,145713,1,0
340,72,145781,1,0
288,140,145918,1,0
236,72,146054,1,0
216,80,146122,1,0
196,88,146190,5,0
128,136,146327,1,0
116,156,146395,1,0
104,176,146463,1,0
92,196,146531,1,0
80,216,146600,1,0
160,240,146736,1,0
180,248,146804,1,0
200,256,146872,1,0
216,172,147009,1,0
288,220,147145,2,0,B|296:260,2,42.5
312,136,147418,5,0
396,152,147554,1,0
428,232,147690,1,0
408,236,147759,1,0
388,240,147827,1,0
368,240,147895,1,0
348,240,147963,1,0
328,236,148031,1,0
308,228,148100,1,0
288,220,148168,1,0
268,212,148236,1,0
248,204,148304,1,0
228,204,148372,37,0
208,204,148440,1,0
188,204,148509,1,0
168,196,148577,1,0
148,184,148645,1,0
132,172,148713,1,0
120,156,148781,1,0
112,136,148850,1,0
108,116,148918,1,0
108,96,148986,1,0
112,76,149054,1,0
120,56,149122,1,0
132,40,149190,1,0
148,28,149259,1,0
168,20,149327,1,0
188,16,149395,1,0
208,20,149463,6,8,B|184:100,2,85
244,132,149872,1,8
240,152,149940,1,0
236,172,150009,1,2
232,192,150077,1,0
228,212,150145,1,8
308,188,150281,1,8
372,244,150418,1,8
392,240,150486,1,0
412,236,150554,5,8
432,152,150690,1,8
440,128,150759,1,0
448,104,150827,1,8
364,112,150963,1,8
308,48,151100,1,8
288,52,151168,1,0
268,56,151236,1,2
248,60,151304,1,0
228,64,151372,1,0
192,140,151509,1,8
124,92,151645,37,8
60,148,151781,1,8
72,232,151918,1,8
148,272,152054,1,8
168,276,152122,1,0
188,280,152190,1,2
208,284,152259,1,0
228,288,152327,1,8
292,232,152463,1,8
308,216,152531,1,0
324,200,152600,1,0
340,184,152668,1,8
356,168,152736,5,0
368,152,152804,1,8
380,136,152872,1,0
392,120,152940,1,8
408,104,153009,2,8,B|420:84,4,21.25
324,92,153281,1,8
244,64,153418,1,8
156,44,153554,1,8
148,64,153622,1,0
140,84,153690,1,2
132,104,153759,1,0
124,124,153827,5,8
184,188,153963,1,8
212,108,154100,1,8
280,148,154236,1,8
284,168,154304,1,0
288,188,154372,1,2
292,208,154440,1,0
296,228,154509,1,8
216,252,154645,1,8
132,256,154781,1,8
116,244,154850,1,0
100,232,154918,37,8
80,148,155054,1,8
100,144,155122,1,0
120,140,155190,1,8
168,68,155327,1,8
252,52,155463,1,8
272,64,155531,1,0
292,76,155600,1,2
308,88,155668,1,0
328,100,155736,1,8
256,148,155872,1,8
392,192,156009,5,8
408,276,156145,1,8
328,248,156281,1,8
244,272,156418,1,8
224,260,156486,1,0
204,248,156554,1,2
188,236,156622,1,0
172,224,156690,1,8
196,140,156827,1,8
216,156,156895,1,0
232,172,156963,1,2
248,188,157031,1,0
264,204,157100,6,0,B|284:292,2,85,8|8|8
280,188,157440,1,0
292,172,157509,1,8
304,152,157577,1,0
316,132,157645,1,8
328,112,157713,1,0
348,104,157781,2,8,B|368:96,2,21.25
332,92,157918,2,8,B|316:72,2,21.25
348,76,158054,2,8,B|368:48,4,21.25
272,40,158327,37,8
196,80,158463,1,8
120,116,158600,1,8
132,132,158668,1,0
144,148,158736,1,2
156,164,158804,1,0
168,180,158872,1,8
88,216,159009,1,8
120,296,159145,1,8
140,296,159213,1,0
160,296,159281,5,8
228,248,159418,1,8
240,264,159486,1,0
252,280,159554,1,8
316,228,159690,1,8
336,148,159827,1,8
332,128,159895,1,0
324,108,159963,1,2
312,92,160031,1,0
300,76,160100,1,8
252,148,160236,1,8
188,92,160372,6,0,B|76:84,2,85
156,172,160781,1,8
136,184,160850,1,0
116,196,160918,1,0
96,208,160986,1,0
80,224,161054,2,8,B|80:288|128:272,1,85
148,268,161259,1,0
168,264,161327,1,8
188,260,161395,1,0
208,256,161463,37,8
228,252,161531,1,0
248,248,161600,1,8
268,244,161668,1,0
288,240,161736,2,8,B|312:236,4,21.25
368,200,162009,1,8
300,148,162145,1,8
384,116,162281,1,8
360,104,162350,1,0
336,92,162418,1,0
312,80,162486,1,0
288,68,162554,6,0,B|248:44|196:52,1,85,8|8
232,132,162827,1,8
152,96,162963,1,8
136,112,163031,1,0
120,128,163100,1,0
104,144,163168,1,2
88,160,163236,1,8
168,188,163372,1,8
112,252,163509,1,8
128,264,163577,1,0
144,276,163645,5,8
224,240,163781,1,8
244,244,163850,1,0
264,248,163918,1,8
308,176,164054,1,8
384,136,164190,1,8
364,128,164259,1,0
344,120,164327,1,2
324,116,164395,1,0
304,108,164463,1,8
256,40,164600,1,8
268,124,164736,37,8
300,204,164872,1,8
216,224,165009,1,0
192,144,165145,1,8
172,136,165213,1,0
152,128,165281,1,2
132,120,165350,1,0
112,112,165418,1,8
32,144,165554,1,8
96,200,165690,6,0,B|112:112|196:72,1,170
218,139,166100,2,0,B|176:160|168:204,1,85
248,212,166372,1,0
312,256,166509,1,0
312,256,166577,1,0
312,256,166645,1,0
68,68,178918,21,0
44,168,179075,1,0
44,168,179154,1,0
44,168,179233,1,0
100,232,179391,1,0
152,300,179549,1,0
228,260,179707,1,4
276,192,179865,1,2
260,108,180023,1,0
424,320,180339,5,0
448,240,180496,1,4
456,156,180654,1,0
440,72,180812,1,0
372,132,180970,1,8
364,92,181049,1,8
356,52,181128,1,8
364,216,181286,1,0
332,296,181444,54,0,B|296:324|252:324,1,85
253,323,181681,1,0
253,323,181760,1,0
288,176,181917,1,0
232,240,182075,1,0
208,144,182233,1,0
276,92,182391,1,0
81,183,182549,2,0,B|112:96|192:60,1,170
164,208,183023,6,0,B|116:280,2,85
252,348,183496,1,0
216,328,183575,1,0
196,288,183654,1,0
332,196,183970,53,0
432,232,184128,1,0
424,188,184207,1,0
404,152,184286,1,0
344,324,184444,2,0,B|384:332|428:316,1,85
360,240,184760,2,0,B|320:256|260:248,1,85
138,176,185075,2,0,B|232:184|308:172,1,170
70,187,185549,6,0,B|56:144|88:108,2,85
164,144,186023,2,0,B|172:184,2,42.5
204,68,186339,1,0
384,316,186496,54,0,B|332:284|348:228,1,85
344,246,186733,1,0
344,246,186812,2,0,B|352:200|332:164,2,85
255,136,187286,2,0,B|240:180|252:220,2,85
48,192,187760,5,0
48,236,187839,1,0
48,280,187917,1,0
124,192,188075,53,0
124,148,188154,1,0
124,104,188233,1,0
196,192,188391,5,0
196,236,188470,1,0
196,280,188549,1,0
272,192,188707,53,0
272,148,188786,1,0
272,104,188865,1,0
344,240,189023,5,0
400,176,189181,1,0
432,204,189260,1,0
444,164,189339,1,0
428,80,189496,2,0,B|360:32,2,85
267,120,189970,2,0,B|352:120,1,85
80,48,190444,54,0,B|36:112|36:164,1,85
84,204,190760,2,0,B|92:164|120:128,1,85
164,200,191075,2,0,B|168:244,2,42.5
224,140,191391,2,0,B|264:120|264:68,2,85
224,140,191786,1,0
224,140,191865,5,0
283,292,192023,2,0,B|272:208,1,85
347,239,192339,2,0,B|359:324,2,85
56,145,192970,54,0,B|56:60,1,85
163,190,193286,2,0,B|132:112,1,85
264,160,193602,1,0
248,148,193681,1,0
232,136,193760,1,0
408,320,194075,6,0,B|448:232|440:228,1,85
439,241,194312,1,0
439,241,194391,2,0,B|452:156,1,85
408,84,194707,1,0
364,156,194865,1,0
320,84,195023,1,0
272,156,195181,1,0
64,332,195496,53,0
84,252,195654,1,0
112,332,195812,1,0
128,248,195970,1,0
272,304,196128,1,0
228,308,196207,1,0
184,312,196286,1,0
236,228,196444,1,0
210,90,196602,6,0,B|176:168,1,85
248,72,196839,1,0
280,93,196917,2,0,B|323:167,1,85
407,199,197233,2,0,B|392:116,1,85
304,294,197549,2,0,B|324:212,1,85
404,356,197865,53,0
364,340,197944,1,0
324,324,198023,1,0
304,244,198181,5,0
344,260,198260,1,0
384,276,198339,1,0
340,196,198496,53,0
300,176,198575,1,0
260,160,198654,1,0
220,144,198733,1,0
180,128,198812,1,0
140,112,198891,1,0
100,100,198970,1,0
64,84,199049,1,0
160,44,199126,5,0
180,44,199194,1,0
200,44,199262,1,0
352,44,199398,5,0
332,44,199466,1,0
312,44,199535,1,0
256,92,199671,5,0
268,108,199739,1,0
280,124,199807,1,0
288,144,199876,1,0
292,164,199944,1,0
292,184,200012,1,0
284,204,200080,1,0
272,220,200148,1,0
260,240,200216,5,2
208,180,200353,1,0
200,224,200421,1,0
192,264,200489,1,8
144,168,200626,1,0
124,252,200762,1,0
144,168,200898,1,0
124,252,201035,1,0
112,336,201171,2,8,B|192:364|280:336,1,170
228,268,201580,37,0
220,184,201716,1,0
272,116,201853,1,0
348,76,201989,2,0,B|348:100,2,21.25
388,64,202126,2,0,B|416:92,2,21.25
432,64,202262,2,0,B|464:68,2,21.25
432,136,202398,5,2
432,220,202535,1,0
412,220,202603,1,0
392,224,202671,1,8
340,300,202807,1,0
296,228,202944,1,0
252,300,203080,1,0
204,228,203216,2,0,B|216:200,2,21.25
164,304,203353,2,8,B|72:304|60:192,1,170
132,148,203762,6,0,B|128:116,2,21.25
176,144,203898,2,0,B|180:112,2,21.25
240,144,204035,2,0,B|328:144,1,85
388,148,204307,2,0,B|380:176,1,28.3333333333333
420,120,204444,2,0,B|444:156,1,28.3333333333333
404,80,204580,37,2
320,100,204716,2,0,B|292:56,2,42.5,0|0|8
340,184,204989,1,0
344,268,205126,1,0
268,232,205262,1,0
264,316,205398,1,0
196,268,205535,1,8
64,64,205807,5,8
40,144,205944,1,0
36,228,206080,1,0
68,308,206216,1,0
120,240,206353,2,0,B|104:208,2,21.25
136,252,206489,2,0,B|160:232,2,21.25
144,272,206626,2,0,B|116:292,2,21.25
196,328,206762,5,2
232,260,206898,1,0
272,276,206966,1,0
300,308,207035,1,8
316,224,207171,1,0
372,160,207307,1,0
428,96,207444,1,0
344,92,207580,2,0,B|344:72,2,21.25
276,132,207716,1,8
208,84,207853,37,2
208,84,207921,1,0
208,84,207989,1,0
108,108,208126,5,0
108,108,208194,1,0
108,108,208262,1,0
60,208,208398,5,2
60,208,208466,1,0
60,208,208535,1,0
48,316,208671,37,0
48,316,208739,1,0
48,316,208807,1,0
160,304,208944,5,2
232,264,209080,1,0
232,264,209148,1,0
232,264,209216,2,0,B|204:232|160:224,2,85,8|0|0
292,324,209626,1,0
328,244,209762,1,0
268,184,209898,1,8
72,56,210171,5,8
44,136,210307,1,0
28,220,210444,1,0
32,304,210580,1,0
108,260,210716,2,0,B|100:236,2,21.25
148,252,210853,2,0,B|156:220,2,21.25
192,256,210989,2,0,B|204:224,2,21.25
256,312,211126,38,0,B|288:336|344:320,1,85,2|0
368,320,211330,1,0
348,292,211398,1,8
424,252,211535,1,0
460,176,211671,1,0
424,100,211807,1,0
380,172,211944,2,0,B|356:172,2,21.25
344,96,212080,2,8,B|288:24|184:48,1,170
244,144,212489,5,0
164,176,212626,1,0
232,224,212762,1,0
152,256,212898,1,0
220,304,213035,2,0,B|196:336,1,28.3333333333333
260,312,213171,2,0,B|276:344,1,28.3333333333333
340,280,213307,5,2
412,220,213444,1,0
412,220,213512,1,0
412,220,213580,1,8
324,184,213716,1,0
404,136,213853,1,0
316,100,213989,1,0
400,56,214126,1,0
312,24,214262,1,8
64,336,214535,38,0,B|120:268,2,85,8|0|0
156,340,214944,1,0
220,284,215080,2,0,B|248:296,2,21.25
224,240,215216,2,0,B|252:236,2,21.25
212,200,215353,2,0,B|228:176,2,21.25
144,248,215489,6,0,B|116:168,1,85,2|0
144,152,215694,1,0
144,152,215762,1,8
216,104,215898,1,0
292,60,216035,1,0
376,52,216171,1,0
448,100,216307,1,0
480,180,216444,1,8
396,184,216580,5,2
364,156,216648,1,0
328,132,216716,1,8
384,260,216853,37,0
352,232,216921,1,0
316,208,216989,1,8
368,336,217126,5,2
336,311,217194,1,0
300,287,217262,1,8
268,263,217330,1,0
229,240,217398,1,0
192,215,217466,1,8
156,191,217535,1,0
124,164,217603,1,0
92,140,217671,6,0,B|120:56|224:48,2,170,8|0|8
432,304,218489,1,0
432,304,218626,2,0,B|472:224,1,85,0|8
432,120,218898,2,0,B|396:196,1,85,0|8
316,168,219171,1,0
232,148,219307,1,8
232,232,219444,1,0
212,240,219512,1,0
192,248,219580,1,8
172,164,219716,1,0
64,48,219853,37,2
40,128,219989,1,0
28,168,220057,1,0
36,212,220126,1,8
112,172,220262,1,0
144,92,220398,2,0,B|192:108|200:156,1,85
284,148,220671,2,0,B|292:88|364:88,1,85,0|8
337,90,221080,5,8
424,88,221216,2,0,B|460:164,1,85
376,164,221489,2,0,B|404:248,1,85
364,264,221694,1,0
364,264,221762,1,8
144,72,222035,5,2
64,56,222171,1,0
64,80,222239,1,0
64,104,222307,1,8
144,72,222444,1,0
192,140,222580,1,0
108,156,222716,1,0
188,184,222853,1,0
120,236,222989,2,8,B|132:324|236:344,1,170
224,244,223398,38,0,B|296:276|320:276,1,85
292,188,223671,1,0
344,120,223807,1,0
360,108,223876,1,0
376,96,223944,1,8
88,64,224216,5,2
56,140,224353,1,0
56,140,224421,1,0
56,140,224489,1,8
140,132,224626,1,0
96,204,224762,1,0
180,220,224898,1,0
132,292,225035,1,0
216,296,225171,1,8
280,144,225307,5,2
264,184,225376,1,0
248,224,225444,1,0
356,124,225580,37,0
340,164,225648,1,0
324,204,225716,1,0
436,80,225853,5,2
424,120,225921,1,0
412,160,225989,1,0
464,324,226126,5,0
448,284,226194,1,0
432,244,226262,1,0
352,304,226398,37,2
280,264,226535,1,0
280,264,226603,1,0
280,264,226671,2,0,B|308:232|352:224,2,85,8|0|0
220,324,227080,1,0
184,244,227216,1,0
244,184,227353,1,8
440,56,227626,5,8
468,136,227762,1,0
484,220,227898,1,0
480,304,228035,1,0
404,260,228171,2,0,B|412:236,2,21.25
364,252,228307,2,0,B|356:220,2,21.25
320,256,228444,2,0,B|308:224,2,21.25
256,312,228580,6,0,B|224:336|168:320,1,85,2|0
144,320,228785,1,0
164,292,228853,1,8
88,252,228989,1,0
52,176,229126,1,0
88,100,229262,1,0
132,172,229398,2,0,B|156:172,2,21.25
168,96,229535,2,8,B|224:24|328:48,1,170
268,144,229944,37,0
348,176,230080,1,0
280,224,230216,1,0
360,256,230353,1,0
292,304,230489,2,0,B|316:344,1,28.3333333333333
252,312,230626,2,0,B|240:344,1,28.3333333333333
172,280,230762,5,2
100,220,230898,1,0
100,220,230966,1,0
100,220,231035,1,8
188,184,231171,1,0
108,136,231307,1,0
196,100,231444,1,0
112,56,231580,1,0
200,24,231716,1,8
393,270,231989,6,0,B|448:336,2,85,8|0|0
356,340,232398,1,0
292,284,232535,2,0,B|264:296,2,21.25
288,240,232671,2,0,B|260:236,2,21.25
300,200,232807,2,0,B|284:176,2,21.25
368,248,232944,38,0,B|396:168,1,85,2|0
368,152,233148,1,0
368,152,233216,1,8
296,104,233353,1,0
220,60,233489,1,0
136,52,233626,1,0
64,100,233762,1,0
32,180,233898,1,8
116,184,234035,5,2
148,156,234103,1,0
184,132,234171,1,8
128,260,234307,5,0
160,232,234376,1,0
196,208,234444,1,8
144,336,234580,37,2
176,311,234648,1,0
212,287,234716,1,8
244,263,234785,1,0
283,240,234853,1,0
320,215,234921,1,8
356,191,234989,1,0
352,80,235126,5,10
280,120,235262,1,0
280,120,235330,1,0
280,120,235398,2,0,B|308:152|352:160,2,85,8|0|0
220,60,235807,1,0
184,140,235944,1,0
244,200,236080,1,8
440,328,236353,5,8
468,248,236489,1,0
484,164,236626,1,0
480,80,236762,1,0
404,124,236898,2,0,B|412:148,2,21.25
364,132,237035,2,0,B|356:164,2,21.25
320,128,237171,2,0,B|308:160,2,21.25
256,72,237307,38,0,B|224:48|168:64,1,85,2|0
144,64,237512,1,0
164,92,237580,1,8
88,132,237716,1,0
52,208,237853,1,0
88,284,237989,1,0
132,212,238126,2,0,B|156:212,2,21.25
168,288,238262,2,8,B|224:360|328:336,1,170
268,240,238671,5,0
348,208,238807,1,0
280,160,238944,1,0
360,128,239080,1,0
292,80,239216,2,0,B|320:40,1,28.3333333333333
252,72,239353,2,0,B|236:36,1,28.3333333333333
172,104,239489,5,2
100,164,239626,1,0
100,164,239694,1,0
100,164,239762,1,8
188,200,239898,1,0
108,248,240035,1,0
196,284,240171,1,0
112,328,240307,1,0
200,360,240444,1,8
393,113,240716,38,0,B|448:48,2,85,8|0|0
356,44,241126,1,0
292,100,241262,2,0,B|264:88,2,21.25
288,144,241398,2,0,B|260:148,2,21.25
300,184,241535,2,0,B|284:208,2,21.25
368,136,241671,6,0,B|396:216,1,85,2|0
368,232,241876,1,0
368,232,241944,1,8
296,280,242080,1,0
220,324,242216,1,0
136,332,242353,1,0
64,284,242489,1,0
32,204,242626,1,8
116,200,242762,5,2
148,228,242830,1,0
184,252,242898,1,8
128,124,243035,37,0
160,152,243103,1,0
196,176,243171,1,8
144,48,243307,5,2
176,73,243376,1,0
212,97,243444,1,8
244,121,243512,1,0
283,144,243580,1,0
320,169,243648,1,8
356,193,243716,1,0
384,208,243785,1,0
420,228,243853,6,0,B|466:268|464:308|436:335|375:328,1,170,10|0
256,192,245012,12,0,246035
