osu file format v14

[General]
AudioFilename: tpazolite - Ultrasonic Anthem.mp3
AudioLeadIn: 0
PreviewTime: 126777
Countdown: 0
SampleSet: Normal
StackLeniency: 0.7
Mode: 3
LetterboxInBreaks: 0
SpecialStyle: 0
WidescreenStoryboard: 1

[Editor]
DistanceSpacing: 1.3
BeatDivisor: 4
GridSize: 4
TimelineZoom: 1.1

[Metadata]
Title:Xcaliboor pack
TitleUnicode:Xcaliboor pack
Artist:t+pazolite
ArtistUnicode:t+pazolite
Creator:Xcaliboor
Version:Ultrasonic Anthem (Challenge)
Source:
Tags:
BeatmapID:817753
BeatmapSetID:373282

[Difficulty]
HPDrainRate:5
CircleSize:4
OverallDifficulty:7
ApproachRate:5
SliderMultiplier:1.4
SliderTickRate:1

[Events]
//Background and Video events
0,0,"m1000x1000.jpg",0,0
//Break Periods
2,77227,93577
//Storyboard Layer 0 (Background)
//Storyboard Layer 1 (Fail)
//Storyboard Layer 2 (Pass)
//Storyboard Layer 3 (Foreground)
//Storyboard Sound Samples

[TimingPoints]
-159.52517870626,250,4,1,0,20,1,0

[HitObjects]
64,192,1027,5,0,0:0:0:0:
448,192,1027,128,0,4965:0:0:0:0:
192,192,1027,128,0,1527:0:0:0:0:
320,192,1027,1,0,0:0:0:0:
64,192,1527,128,0,4965:0:0:0:0:
320,192,1527,1,0,0:0:0:0:
320,192,4965,1,0,0:0:0:0:
192,192,4965,128,0,5465:0:0:0:0:
320,192,5465,128,0,9027:0:0:0:0:
64,192,5465,1,0,0:0:0:0:
448,192,5465,1,0,0:0:0:0:
448,192,9027,1,0,0:0:0:0:
192,192,9027,1,0,0:0:0:0:
64,192,9027,1,0,0:0:0:0:
64,192,9277,1,0,0:0:0:0:
320,192,9277,1,0,0:0:0:0:
448,192,9527,1,0,0:0:0:0:
192,192,9527,1,0,0:0:0:0:
320,192,9527,1,0,0:0:0:0:
64,192,9777,1,0,0:0:0:0:
192,192,9777,1,0,0:0:0:0:
320,192,9777,1,0,0:0:0:0:
448,192,9902,1,0,0:0:0:0:
192,192,9902,1,0,0:0:0:0:
64,192,10027,1,0,0:0:0:0:
192,192,10027,1,0,0:0:0:0:
192,192,10277,1,0,0:0:0:0:
448,192,10277,1,0,0:0:0:0:
320,192,10277,1,0,0:0:0:0:
64,192,10527,1,0,0:0:0:0:
192,192,10527,1,0,0:0:0:0:
448,192,10527,1,0,0:0:0:0:
64,192,10965,1,0,0:0:0:0:
320,192,10965,1,0,0:0:0:0:
192,192,11215,1,0,0:0:0:0:
320,192,11215,1,0,0:0:0:0:
64,192,11215,1,0,0:0:0:0:
448,192,11465,1,0,0:0:0:0:
320,192,11465,1,0,0:0:0:0:
192,192,11840,1,0,0:0:0:0:
320,192,11840,1,0,0:0:0:0:
64,192,11965,1,0,0:0:0:0:
192,192,11965,1,0,0:0:0:0:
448,192,11965,1,0,0:0:0:0:
64,192,12215,1,0,0:0:0:0:
192,192,12215,1,0,0:0:0:0:
320,192,12215,1,0,0:0:0:0:
192,192,12465,1,0,0:0:0:0:
448,192,12465,1,0,0:0:0:0:
320,192,12465,1,0,0:0:0:0:
192,192,12840,1,0,0:0:0:0:
320,192,12840,1,0,0:0:0:0:
448,192,12965,1,0,0:0:0:0:
64,192,12965,1,0,0:0:0:0:
64,192,13215,1,0,0:0:0:0:
192,192,13215,1,0,0:0:0:0:
320,192,13215,1,0,0:0:0:0:
448,192,13465,1,0,0:0:0:0:
192,192,13465,1,0,0:0:0:0:
64,192,13715,1,0,0:0:0:0:
192,192,13715,1,0,0:0:0:0:
320,192,13715,1,0,0:0:0:0:
448,192,13840,1,0,0:0:0:0:
64,192,13840,1,0,0:0:0:0:
192,192,13965,1,0,0:0:0:0:
320,192,13965,1,0,0:0:0:0:
448,192,14215,1,0,0:0:0:0:
320,192,14215,1,0,0:0:0:0:
192,192,14215,1,0,0:0:0:0:
64,192,14465,1,0,0:0:0:0:
192,192,14465,1,0,0:0:0:0:
448,192,14465,1,0,0:0:0:0:
192,192,14902,1,0,0:0:0:0:
448,192,14902,1,0,0:0:0:0:
64,192,15027,1,0,0:0:0:0:
320,192,15027,1,0,0:0:0:0:
64,192,15277,1,0,0:0:0:0:
192,192,15277,1,0,0:0:0:0:
448,192,15277,1,0,0:0:0:0:
192,192,15527,1,0,0:0:0:0:
320,192,15527,1,0,0:0:0:0:
64,192,15840,1,0,0:0:0:0:
192,192,15840,1,0,0:0:0:0:
192,192,15965,1,0,0:0:0:0:
448,192,15965,1,0,0:0:0:0:
64,192,16215,1,0,0:0:0:0:
192,192,16215,1,0,0:0:0:0:
320,192,16215,1,0,0:0:0:0:
64,192,16465,1,0,0:0:0:0:
192,192,16465,1,0,0:0:0:0:
192,192,16902,1,0,0:0:0:0:
320,192,16902,1,0,0:0:0:0:
64,192,17027,1,0,0:0:0:0:
320,192,17027,1,0,0:0:0:0:
192,192,17277,1,0,0:0:0:0:
448,192,17277,1,0,0:0:0:0:
64,192,17527,1,0,0:0:0:0:
192,192,17527,1,0,0:0:0:0:
320,192,17527,1,0,0:0:0:0:
192,192,17777,1,0,0:0:0:0:
64,192,17777,1,0,0:0:0:0:
448,192,17777,1,0,0:0:0:0:
192,192,17902,1,0,0:0:0:0:
320,192,17902,1,0,0:0:0:0:
64,192,18027,128,0,18402:0:0:0:0:
448,192,18027,1,0,0:0:0:0:
192,192,18402,128,0,18715:0:0:0:0:
320,192,18402,1,0,0:0:0:0:
320,192,18715,128,0,19215:0:0:0:0:
64,192,18715,1,0,0:0:0:0:
192,192,19215,1,0,0:0:0:0:
448,192,19215,128,0,22027:0:0:0:0:
64,192,19465,1,0,0:0:0:0:
320,192,19465,1,0,0:0:0:0:
192,192,19715,1,0,0:0:0:0:
64,192,19715,1,0,0:0:0:0:
64,192,19965,1,0,0:0:0:0:
320,192,19965,1,0,0:0:0:0:
64,192,20340,1,0,0:0:0:0:
320,192,20340,1,0,0:0:0:0:
192,192,20340,1,0,0:0:0:0:
64,192,20715,1,0,0:0:0:0:
192,192,20715,1,0,0:0:0:0:
320,192,20715,1,0,0:0:0:0:
64,192,21215,1,0,0:0:0:0:
320,192,21215,1,0,0:0:0:0:
64,192,21465,1,0,0:0:0:0:
320,192,21465,1,0,0:0:0:0:
192,192,21465,1,0,0:0:0:0:
192,192,21715,1,0,0:0:0:0:
320,192,21715,1,0,0:0:0:0:
320,192,22027,128,0,22340:0:0:0:0:
64,192,22027,1,0,0:0:0:0:
192,192,22340,128,0,22715:0:0:0:0:
64,192,22340,1,0,0:0:0:0:
64,192,22715,128,0,23277:0:0:0:0:
448,192,22715,1,0,0:0:0:0:
448,192,23277,128,0,26090:0:0:0:0:
320,192,23277,1,0,0:0:0:0:
320,192,23527,1,0,0:0:0:0:
64,192,23527,1,0,0:0:0:0:
192,192,23777,1,0,0:0:0:0:
64,192,23777,1,0,0:0:0:0:
320,192,24027,1,0,0:0:0:0:
64,192,24027,1,0,0:0:0:0:
64,192,24402,1,0,0:0:0:0:
320,192,24402,1,0,0:0:0:0:
192,192,24402,1,0,0:0:0:0:
320,192,24777,1,0,0:0:0:0:
192,192,24777,1,0,0:0:0:0:
64,192,24777,1,0,0:0:0:0:
64,192,25277,1,0,0:0:0:0:
320,192,25277,1,0,0:0:0:0:
320,192,25527,1,0,0:0:0:0:
64,192,25527,1,0,0:0:0:0:
192,192,25527,1,0,0:0:0:0:
320,192,25777,1,0,0:0:0:0:
192,192,25777,1,0,0:0:0:0:
320,192,26090,128,0,26402:0:0:0:0:
64,192,26090,1,0,0:0:0:0:
192,192,26090,1,0,0:0:0:0:
64,192,26402,1,0,0:0:0:0:
192,192,26402,128,0,26777:0:0:0:0:
64,192,26777,128,0,27277:0:0:0:0:
448,192,26777,1,0,0:0:0:0:
448,192,27277,128,0,30090:0:0:0:0:
192,192,27277,1,0,0:0:0:0:
320,192,27527,1,0,0:0:0:0:
64,192,27527,1,0,0:0:0:0:
64,192,27777,1,0,0:0:0:0:
192,192,27777,1,0,0:0:0:0:
64,192,28027,1,0,0:0:0:0:
320,192,28027,1,0,0:0:0:0:
192,192,28027,1,0,0:0:0:0:
192,192,28402,1,0,0:0:0:0:
64,192,28402,1,0,0:0:0:0:
64,192,28777,1,0,0:0:0:0:
192,192,28777,1,0,0:0:0:0:
320,192,28777,1,0,0:0:0:0:
320,192,29277,1,0,0:0:0:0:
64,192,29277,1,0,0:0:0:0:
192,192,29527,1,0,0:0:0:0:
320,192,29527,1,0,0:0:0:0:
64,192,29777,1,0,0:0:0:0:
192,192,29777,1,0,0:0:0:0:
320,192,29777,1,0,0:0:0:0:
320,192,30090,128,0,30402:0:0:0:0:
64,192,30090,1,0,0:0:0:0:
64,192,30402,1,0,0:0:0:0:
192,192,30402,128,0,30777:0:0:0:0:
64,192,30777,128,0,31340:0:0:0:0:
448,192,30777,1,0,0:0:0:0:
320,192,31340,128,0,32965:0:0:0:0:
448,192,31340,1,0,0:0:0:0:
192,192,31340,1,0,0:0:0:0:
64,192,31590,1,0,0:0:0:0:
192,192,31590,1,0,0:0:0:0:
448,192,31840,1,0,0:0:0:0:
192,192,31840,1,0,0:0:0:0:
64,192,32090,1,0,0:0:0:0:
192,192,32090,1,0,0:0:0:0:
448,192,32090,1,0,0:0:0:0:
64,192,32402,1,0,0:0:0:0:
448,192,32402,1,0,0:0:0:0:
64,192,32715,1,0,0:0:0:0:
192,192,32715,1,0,0:0:0:0:
64,192,32965,1,0,0:0:0:0:
448,192,32965,1,0,0:0:0:0:
192,192,32965,128,0,33402:0:0:0:0:
64,192,33402,1,0,0:0:0:0:
448,192,33402,128,0,34215:0:0:0:0:
320,192,33402,1,0,0:0:0:0:
64,192,34215,128,0,34465:0:0:0:0:
192,192,34215,1,0,0:0:0:0:
320,192,34215,1,0,0:0:0:0:
448,192,34465,1,0,0:0:0:0:
192,192,34465,128,0,34715:0:0:0:0:
320,192,34465,1,0,0:0:0:0:
448,192,34715,1,0,0:0:0:0:
320,192,34715,128,0,34965:0:0:0:0:
64,192,34715,1,0,0:0:0:0:
448,192,34965,128,0,36465:0:0:0:0:
192,192,34965,1,0,0:0:0:0:
64,192,34965,1,0,0:0:0:0:
64,192,36465,1,0,0:0:0:0:
320,192,36465,1,0,0:0:0:0:
192,192,36465,1,0,0:0:0:0:
64,192,36965,5,0,0:0:0:0:
192,192,36965,1,0,0:0:0:0:
320,192,36965,1,0,0:0:0:0:
448,192,36965,1,0,0:0:0:0:
64,192,38027,1,0,0:0:0:0:
192,192,38027,1,0,0:0:0:0:
320,192,38027,1,0,0:0:0:0:
448,192,38027,1,0,0:0:0:0:
64,192,38715,1,0,0:0:0:0:
192,192,38715,1,0,0:0:0:0:
320,192,38715,1,0,0:0:0:0:
448,192,38715,1,0,0:0:0:0:
64,192,39402,1,0,0:0:0:0:
192,192,39402,1,0,0:0:0:0:
320,192,39402,1,0,0:0:0:0:
448,192,39402,1,0,0:0:0:0:
64,192,39902,1,0,0:0:0:0:
192,192,39902,1,0,0:0:0:0:
320,192,39902,1,0,0:0:0:0:
448,192,39902,1,0,0:0:0:0:
64,192,40340,1,0,0:0:0:0:
192,192,40340,1,0,0:0:0:0:
320,192,40340,1,0,0:0:0:0:
448,192,40340,1,0,0:0:0:0:
64,192,40715,1,0,0:0:0:0:
192,192,40715,1,0,0:0:0:0:
320,192,40715,1,0,0:0:0:0:
448,192,40715,1,0,0:0:0:0:
64,192,41027,1,0,0:0:0:0:
192,192,41027,1,0,0:0:0:0:
320,192,41027,1,0,0:0:0:0:
448,192,41027,1,0,0:0:0:0:
64,192,41277,1,0,0:0:0:0:
192,192,41277,1,0,0:0:0:0:
448,192,41277,1,0,0:0:0:0:
320,192,41277,1,0,0:0:0:0:
448,192,41465,1,0,0:0:0:0:
320,192,41465,1,0,0:0:0:0:
192,192,41465,1,0,0:0:0:0:
64,192,41465,1,0,0:0:0:0:
192,192,41590,1,0,0:0:0:0:
64,192,41590,1,0,0:0:0:0:
320,192,41652,1,0,0:0:0:0:
448,192,41652,1,0,0:0:0:0:
192,192,41715,1,0,0:0:0:0:
64,192,41715,1,0,0:0:0:0:
320,192,41777,1,0,0:0:0:0:
448,192,41777,1,0,0:0:0:0:
64,192,41840,1,0,0:0:0:0:
192,192,41871,1,0,0:0:0:0:
320,192,41902,1,0,0:0:0:0:
448,192,41934,1,0,0:0:0:0:
64,192,41965,1,0,0:0:0:0:
192,192,41996,1,0,0:0:0:0:
320,192,42027,1,0,0:0:0:0:
448,192,42059,1,0,0:0:0:0:
64,192,42090,1,0,0:0:0:0:
192,192,42121,1,0,0:0:0:0:
320,192,42152,1,0,0:0:0:0:
448,192,42184,1,0,0:0:0:0:
64,192,42215,1,0,0:0:0:0:
192,192,42246,1,0,0:0:0:0:
320,192,42277,1,0,0:0:0:0:
448,192,42309,1,0,0:0:0:0:
64,192,42340,1,0,0:0:0:0:
192,192,42371,1,0,0:0:0:0:
448,192,42402,1,0,0:0:0:0:
320,192,42434,1,0,0:0:0:0:
192,192,42465,1,0,0:0:0:0:
64,192,42496,1,0,0:0:0:0:
448,192,42527,1,0,0:0:0:0:
320,192,42559,1,0,0:0:0:0:
192,192,42590,1,0,0:0:0:0:
64,192,42621,1,0,0:0:0:0:
448,192,42652,1,0,0:0:0:0:
320,192,42684,1,0,0:0:0:0:
192,192,42715,1,0,0:0:0:0:
64,192,42746,1,0,0:0:0:0:
448,192,42777,1,0,0:0:0:0:
320,192,42809,1,0,0:0:0:0:
192,192,42840,1,0,0:0:0:0:
64,192,42871,1,0,0:0:0:0:
448,192,42902,1,0,0:0:0:0:
320,192,42934,1,0,0:0:0:0:
192,192,42965,1,0,0:0:0:0:
64,192,42996,1,0,0:0:0:0:
448,192,43027,1,0,0:0:0:0:
320,192,43059,1,0,0:0:0:0:
192,192,43090,1,0,0:0:0:0:
64,192,43121,1,0,0:0:0:0:
448,192,43152,1,0,0:0:0:0:
320,192,43184,1,0,0:0:0:0:
192,192,43215,1,0,0:0:0:0:
64,192,43246,1,0,0:0:0:0:
448,192,43277,1,0,0:0:0:0:
320,192,43309,1,0,0:0:0:0:
192,192,43340,1,0,0:0:0:0:
64,192,43371,1,0,0:0:0:0:
448,192,43402,1,0,0:0:0:0:
320,192,43434,1,0,0:0:0:0:
192,192,43465,1,0,0:0:0:0:
64,192,43496,1,0,0:0:0:0:
448,192,43527,1,0,0:0:0:0:
320,192,43590,1,0,0:0:0:0:
192,192,43652,1,0,0:0:0:0:
64,192,43715,1,0,0:0:0:0:
448,192,43715,1,0,0:0:0:0:
320,192,43777,1,0,0:0:0:0:
192,192,43840,1,0,0:0:0:0:
64,192,43902,1,0,0:0:0:0:
320,192,44090,1,0,0:0:0:0:
448,192,44121,1,0,0:0:0:0:
192,192,44340,1,0,0:0:0:0:
64,192,44371,1,0,0:0:0:0:
320,192,44590,1,0,0:0:0:0:
448,192,44621,1,0,0:0:0:0:
64,192,44652,1,0,0:0:0:0:
192,192,44684,1,0,0:0:0:0:
320,192,44715,1,0,0:0:0:0:
448,192,44746,1,0,0:0:0:0:
64,192,44777,1,0,0:0:0:0:
192,192,44809,1,0,0:0:0:0:
320,192,44840,1,0,0:0:0:0:
448,192,44871,1,0,0:0:0:0:
192,192,45027,1,0,0:0:0:0:
320,192,45027,1,0,0:0:0:0:
64,192,45090,5,0,0:0:0:0:
448,192,45152,1,0,0:0:0:0:
320,192,45215,1,0,0:0:0:0:
64,192,45277,1,0,0:0:0:0:
192,192,45340,1,0,0:0:0:0:
448,192,45340,1,0,0:0:0:0:
320,192,45402,1,0,0:0:0:0:
192,192,45465,1,0,0:0:0:0:
64,192,45527,1,0,0:0:0:0:
448,192,45527,1,0,0:0:0:0:
320,192,45590,1,0,0:0:0:0:
192,192,45652,1,0,0:0:0:0:
64,192,45715,1,0,0:0:0:0:
192,192,45777,1,0,0:0:0:0:
448,192,45777,1,0,0:0:0:0:
320,192,45840,1,0,0:0:0:0:
64,192,45902,1,0,0:0:0:0:
320,192,45965,1,0,0:0:0:0:
448,192,46027,1,0,0:0:0:0:
64,192,46027,1,0,0:0:0:0:
192,192,46090,1,0,0:0:0:0:
320,192,46152,1,0,0:0:0:0:
448,192,46215,1,0,0:0:0:0:
64,192,46277,1,0,0:0:0:0:
320,192,46277,1,0,0:0:0:0:
192,192,46340,1,0,0:0:0:0:
64,192,46402,1,0,0:0:0:0:
448,192,46465,1,0,0:0:0:0:
192,192,46527,1,0,0:0:0:0:
320,192,46527,1,0,0:0:0:0:
64,192,47027,1,0,0:0:0:0:
320,192,47027,1,0,0:0:0:0:
192,192,47090,1,0,0:0:0:0:
448,192,47152,1,0,0:0:0:0:
64,192,47215,1,0,0:0:0:0:
448,192,47277,1,0,0:0:0:0:
192,192,47277,1,0,0:0:0:0:
320,192,47340,1,0,0:0:0:0:
64,192,47402,1,0,0:0:0:0:
448,192,47465,1,0,0:0:0:0:
64,192,47527,1,0,0:0:0:0:
192,192,47527,1,0,0:0:0:0:
320,192,47590,1,0,0:0:0:0:
448,192,47652,1,0,0:0:0:0:
192,192,47715,1,0,0:0:0:0:
320,192,47777,1,0,0:0:0:0:
64,192,47777,1,0,0:0:0:0:
448,192,47840,1,0,0:0:0:0:
64,192,47902,1,0,0:0:0:0:
192,192,47965,1,0,0:0:0:0:
64,192,48027,1,0,0:0:0:0:
448,192,48027,1,0,0:0:0:0:
320,192,48090,1,0,0:0:0:0:
192,192,48152,1,0,0:0:0:0:
64,192,48215,1,0,0:0:0:0:
448,192,48277,1,0,0:0:0:0:
320,192,48340,1,0,0:0:0:0:
192,192,48402,1,0,0:0:0:0:
320,192,48465,1,0,0:0:0:0:
448,192,48527,1,0,0:0:0:0:
64,192,48590,1,0,0:0:0:0:
192,192,48652,1,0,0:0:0:0:
320,192,48715,1,0,0:0:0:0:
448,192,48777,1,0,0:0:0:0:
64,192,48840,1,0,0:0:0:0:
192,192,48902,1,0,0:0:0:0:
320,192,48965,1,0,0:0:0:0:
192,192,49027,1,0,0:0:0:0:
448,192,49027,1,0,0:0:0:0:
64,192,49090,1,0,0:0:0:0:
320,192,49152,1,0,0:0:0:0:
448,192,49215,1,0,0:0:0:0:
64,192,49277,1,0,0:0:0:0:
192,192,49277,1,0,0:0:0:0:
448,192,49340,1,0,0:0:0:0:
192,192,49402,1,0,0:0:0:0:
320,192,49465,1,0,0:0:0:0:
64,192,49527,1,0,0:0:0:0:
448,192,49527,1,0,0:0:0:0:
320,192,49590,1,0,0:0:0:0:
192,192,49652,1,0,0:0:0:0:
64,192,49715,1,0,0:0:0:0:
192,192,49777,1,0,0:0:0:0:
448,192,49777,1,0,0:0:0:0:
320,192,49840,1,0,0:0:0:0:
192,192,49902,1,0,0:0:0:0:
64,192,49965,1,0,0:0:0:0:
192,192,50027,1,0,0:0:0:0:
320,192,50027,1,0,0:0:0:0:
64,192,50090,1,0,0:0:0:0:
448,192,50152,1,0,0:0:0:0:
192,192,50215,1,0,0:0:0:0:
64,192,50277,1,0,0:0:0:0:
320,192,50277,1,0,0:0:0:0:
448,192,50340,1,0,0:0:0:0:
192,192,50402,1,0,0:0:0:0:
320,192,50465,1,0,0:0:0:0:
192,192,50527,1,0,0:0:0:0:
448,192,50527,1,0,0:0:0:0:
64,192,51027,1,0,0:0:0:0:
320,192,51027,1,0,0:0:0:0:
192,192,51090,1,0,0:0:0:0:
320,192,51152,1,0,0:0:0:0:
64,192,51215,1,0,0:0:0:0:
192,192,51277,1,0,0:0:0:0:
448,192,51277,1,0,0:0:0:0:
64,192,51340,1,0,0:0:0:0:
448,192,51402,1,0,0:0:0:0:
320,192,51465,1,0,0:0:0:0:
64,192,51527,1,0,0:0:0:0:
448,192,51527,1,0,0:0:0:0:
192,192,51590,1,0,0:0:0:0:
320,192,51652,1,0,0:0:0:0:
448,192,51715,1,0,0:0:0:0:
192,192,51777,1,0,0:0:0:0:
320,192,51777,1,0,0:0:0:0:
64,192,51840,1,0,0:0:0:0:
448,192,51902,1,0,0:0:0:0:
320,192,51965,1,0,0:0:0:0:
64,192,52027,1,0,0:0:0:0:
192,192,52027,1,0,0:0:0:0:
320,192,52090,1,0,0:0:0:0:
448,192,52152,1,0,0:0:0:0:
64,192,52215,1,0,0:0:0:0:
192,192,52277,1,0,0:0:0:0:
320,192,52340,1,0,0:0:0:0:
64,192,52402,1,0,0:0:0:0:
448,192,52465,1,0,0:0:0:0:
64,192,52527,1,0,0:0:0:0:
192,192,52527,1,0,0:0:0:0:
320,192,52590,1,0,0:0:0:0:
448,192,52590,1,0,0:0:0:0:
192,192,52652,1,0,0:0:0:0:
64,192,52652,1,0,0:0:0:0:
320,192,52715,1,0,0:0:0:0:
448,192,52715,1,0,0:0:0:0:
64,192,53027,1,0,0:0:0:0:
320,192,53027,1,0,0:0:0:0:
192,192,53090,1,0,0:0:0:0:
448,192,53152,1,0,0:0:0:0:
192,192,53215,1,0,0:0:0:0:
448,192,53277,1,0,0:0:0:0:
64,192,53277,1,0,0:0:0:0:
320,192,53340,1,0,0:0:0:0:
192,192,53402,1,0,0:0:0:0:
64,192,53465,1,0,0:0:0:0:
448,192,53527,1,0,0:0:0:0:
192,192,53527,1,0,0:0:0:0:
320,192,53590,1,0,0:0:0:0:
448,192,53652,1,0,0:0:0:0:
64,192,53715,1,0,0:0:0:0:
320,192,53777,1,0,0:0:0:0:
448,192,53777,1,0,0:0:0:0:
192,192,53840,1,0,0:0:0:0:
64,192,53902,1,0,0:0:0:0:
320,192,53965,1,0,0:0:0:0:
448,192,54027,1,0,0:0:0:0:
192,192,54027,1,0,0:0:0:0:
320,192,54090,1,0,0:0:0:0:
64,192,54152,1,0,0:0:0:0:
192,192,54215,1,0,0:0:0:0:
448,192,54277,1,0,0:0:0:0:
320,192,54277,1,0,0:0:0:0:
192,192,54340,1,0,0:0:0:0:
64,192,54402,1,0,0:0:0:0:
320,192,54465,1,0,0:0:0:0:
64,192,54527,1,0,0:0:0:0:
448,192,54527,1,0,0:0:0:0:
192,192,54590,1,0,0:0:0:0:
320,192,54652,1,0,0:0:0:0:
448,192,54715,1,0,0:0:0:0:
64,192,54777,1,0,0:0:0:0:
192,192,54777,1,0,0:0:0:0:
320,192,54840,1,0,0:0:0:0:
64,192,54902,1,0,0:0:0:0:
192,192,54902,1,0,0:0:0:0:
320,192,54965,1,0,0:0:0:0:
64,192,55027,1,0,0:0:0:0:
192,192,55027,1,0,0:0:0:0:
448,192,55090,1,0,0:0:0:0:
320,192,55152,1,0,0:0:0:0:
64,192,55215,1,0,0:0:0:0:
192,192,55277,1,0,0:0:0:0:
448,192,55277,1,0,0:0:0:0:
320,192,55340,1,0,0:0:0:0:
448,192,55402,1,0,0:0:0:0:
320,192,55465,1,0,0:0:0:0:
64,192,55527,1,0,0:0:0:0:
192,192,55527,1,0,0:0:0:0:
320,192,55590,1,0,0:0:0:0:
448,192,55652,1,0,0:0:0:0:
192,192,55715,1,0,0:0:0:0:
64,192,55777,1,0,0:0:0:0:
320,192,55777,1,0,0:0:0:0:
448,192,55840,1,0,0:0:0:0:
192,192,55902,1,0,0:0:0:0:
448,192,55965,1,0,0:0:0:0:
64,192,56027,1,0,0:0:0:0:
192,192,56027,1,0,0:0:0:0:
320,192,56090,1,0,0:0:0:0:
448,192,56152,1,0,0:0:0:0:
320,192,56215,1,0,0:0:0:0:
64,192,56277,1,0,0:0:0:0:
448,192,56277,1,0,0:0:0:0:
192,192,56340,1,0,0:0:0:0:
320,192,56402,1,0,0:0:0:0:
448,192,56465,1,0,0:0:0:0:
64,192,56527,1,0,0:0:0:0:
192,192,56527,1,0,0:0:0:0:
320,192,56652,5,0,0:0:0:0:
448,192,56652,1,0,0:0:0:0:
192,192,56715,1,0,0:0:0:0:
64,192,56715,1,0,0:0:0:0:
320,192,56777,1,0,0:0:0:0:
448,192,56777,1,0,0:0:0:0:
192,192,56902,1,0,0:0:0:0:
64,192,56902,1,0,0:0:0:0:
448,192,57027,1,0,0:0:0:0:
64,192,57027,1,0,0:0:0:0:
320,192,57090,1,0,0:0:0:0:
192,192,57152,1,0,0:0:0:0:
448,192,57215,1,0,0:0:0:0:
64,192,57277,1,0,0:0:0:0:
192,192,57277,1,0,0:0:0:0:
320,192,57340,1,0,0:0:0:0:
448,192,57402,1,0,0:0:0:0:
320,192,57465,1,0,0:0:0:0:
64,192,57527,1,0,0:0:0:0:
448,192,57527,1,0,0:0:0:0:
192,192,57590,1,0,0:0:0:0:
320,192,57652,1,0,0:0:0:0:
448,192,57715,1,0,0:0:0:0:
320,192,57777,1,0,0:0:0:0:
64,192,57777,1,0,0:0:0:0:
192,192,57840,1,0,0:0:0:0:
64,192,57902,1,0,0:0:0:0:
448,192,57965,1,0,0:0:0:0:
320,192,58027,1,0,0:0:0:0:
64,192,58027,1,0,0:0:0:0:
192,192,58090,1,0,0:0:0:0:
64,192,58152,1,0,0:0:0:0:
448,192,58215,1,0,0:0:0:0:
320,192,58277,1,0,0:0:0:0:
192,192,58277,1,0,0:0:0:0:
448,192,58340,1,0,0:0:0:0:
64,192,58402,1,0,0:0:0:0:
192,192,58465,1,0,0:0:0:0:
320,192,58527,1,0,0:0:0:0:
448,192,58527,1,0,0:0:0:0:
192,192,58590,1,0,0:0:0:0:
64,192,58652,1,0,0:0:0:0:
448,192,58715,1,0,0:0:0:0:
320,192,58777,1,0,0:0:0:0:
192,192,58777,1,0,0:0:0:0:
64,192,58840,1,0,0:0:0:0:
448,192,58902,1,0,0:0:0:0:
320,192,58965,1,0,0:0:0:0:
64,192,59027,1,0,0:0:0:0:
448,192,59027,1,0,0:0:0:0:
192,192,59090,1,0,0:0:0:0:
64,192,59402,1,0,0:0:0:0:
320,192,59402,1,0,0:0:0:0:
448,192,59402,1,0,0:0:0:0:
192,192,59777,1,0,0:0:0:0:
64,192,59777,1,0,0:0:0:0:
320,192,59777,1,0,0:0:0:0:
192,192,60027,1,0,0:0:0:0:
64,192,60027,1,0,0:0:0:0:
448,192,60027,1,0,0:0:0:0:
64,192,60277,1,0,0:0:0:0:
320,192,60277,1,0,0:0:0:0:
448,192,60277,1,0,0:0:0:0:
64,192,60527,1,0,0:0:0:0:
192,192,60527,1,0,0:0:0:0:
320,192,60527,1,0,0:0:0:0:
448,192,60527,1,0,0:0:0:0:
64,192,60777,1,0,0:0:0:0:
192,192,60777,1,0,0:0:0:0:
448,192,60777,1,0,0:0:0:0:
64,192,61027,1,0,0:0:0:0:
320,192,61027,1,0,0:0:0:0:
448,192,61027,1,0,0:0:0:0:
192,192,61090,1,0,0:0:0:0:
448,192,61152,1,0,0:0:0:0:
64,192,61215,1,0,0:0:0:0:
192,192,61277,1,0,0:0:0:0:
320,192,61277,1,0,0:0:0:0:
448,192,61340,1,0,0:0:0:0:
64,192,61402,1,0,0:0:0:0:
192,192,61465,1,0,0:0:0:0:
64,192,61527,1,0,0:0:0:0:
448,192,61527,1,0,0:0:0:0:
320,192,61590,1,0,0:0:0:0:
192,192,61652,1,0,0:0:0:0:
448,192,61715,1,0,0:0:0:0:
320,192,61777,1,0,0:0:0:0:
64,192,61777,1,0,0:0:0:0:
448,192,61840,1,0,0:0:0:0:
192,192,61902,1,0,0:0:0:0:
320,192,61965,1,0,0:0:0:0:
192,192,62027,1,0,0:0:0:0:
448,192,62027,1,0,0:0:0:0:
64,192,62090,1,0,0:0:0:0:
320,192,62152,1,0,0:0:0:0:
448,192,62215,1,0,0:0:0:0:
192,192,62277,1,0,0:0:0:0:
320,192,62277,1,0,0:0:0:0:
64,192,62340,1,0,0:0:0:0:
448,192,62402,1,0,0:0:0:0:
320,192,62465,1,0,0:0:0:0:
64,192,62527,1,0,0:0:0:0:
448,192,62527,1,0,0:0:0:0:
192,192,62590,1,0,0:0:0:0:
320,192,62652,1,0,0:0:0:0:
64,192,62715,1,0,0:0:0:0:
192,192,62777,1,0,0:0:0:0:
448,192,62777,1,0,0:0:0:0:
64,192,62840,1,0,0:0:0:0:
192,192,62902,1,0,0:0:0:0:
448,192,62902,1,0,0:0:0:0:
320,192,62965,1,0,0:0:0:0:
448,192,63027,1,0,0:0:0:0:
192,192,63027,1,0,0:0:0:0:
64,192,63090,1,0,0:0:0:0:
320,192,63152,1,0,0:0:0:0:
448,192,63215,1,0,0:0:0:0:
64,192,63277,1,0,0:0:0:0:
192,192,63277,1,0,0:0:0:0:
448,192,63340,1,0,0:0:0:0:
320,192,63402,1,0,0:0:0:0:
448,192,63465,1,0,0:0:0:0:
64,192,63527,1,0,0:0:0:0:
192,192,63527,1,0,0:0:0:0:
320,192,63590,1,0,0:0:0:0:
448,192,63652,1,0,0:0:0:0:
320,192,63715,1,0,0:0:0:0:
64,192,63777,1,0,0:0:0:0:
192,192,63777,1,0,0:0:0:0:
448,192,63840,1,0,0:0:0:0:
320,192,63902,1,0,0:0:0:0:
192,192,63965,1,0,0:0:0:0:
448,192,64027,1,0,0:0:0:0:
64,192,64027,1,0,0:0:0:0:
192,192,64090,1,0,0:0:0:0:
320,192,64152,1,0,0:0:0:0:
448,192,64215,1,0,0:0:0:0:
64,192,64277,1,0,0:0:0:0:
320,192,64277,1,0,0:0:0:0:
192,192,64340,1,0,0:0:0:0:
320,192,64402,1,0,0:0:0:0:
448,192,64465,1,0,0:0:0:0:
64,192,64527,1,0,0:0:0:0:
192,192,64527,1,0,0:0:0:0:
192,192,64652,1,0,0:0:0:0:
448,192,64652,1,0,0:0:0:0:
320,192,64715,1,0,0:0:0:0:
64,192,64715,1,0,0:0:0:0:
192,192,64777,1,0,0:0:0:0:
448,192,64777,1,0,0:0:0:0:
64,192,64902,1,0,0:0:0:0:
192,192,64902,1,0,0:0:0:0:
320,192,65027,1,0,0:0:0:0:
448,192,65027,1,0,0:0:0:0:
192,192,65090,1,0,0:0:0:0:
64,192,65152,1,0,0:0:0:0:
448,192,65215,1,0,0:0:0:0:
64,192,65277,1,0,0:0:0:0:
192,192,65277,1,0,0:0:0:0:
320,192,65340,1,0,0:0:0:0:
448,192,65402,1,0,0:0:0:0:
192,192,65465,1,0,0:0:0:0:
64,192,65527,1,0,0:0:0:0:
320,192,65527,1,0,0:0:0:0:
448,192,65590,1,0,0:0:0:0:
64,192,65652,1,0,0:0:0:0:
448,192,65715,1,0,0:0:0:0:
192,192,65777,1,0,0:0:0:0:
320,192,65777,1,0,0:0:0:0:
64,192,65840,1,0,0:0:0:0:
448,192,65902,1,0,0:0:0:0:
320,192,65965,1,0,0:0:0:0:
192,192,66027,1,0,0:0:0:0:
64,192,66027,1,0,0:0:0:0:
448,192,66090,1,0,0:0:0:0:
320,192,66152,1,0,0:0:0:0:
192,192,66215,1,0,0:0:0:0:
64,192,66277,1,0,0:0:0:0:
448,192,66277,1,0,0:0:0:0:
192,192,66340,1,0,0:0:0:0:
320,192,66402,1,0,0:0:0:0:
448,192,66465,1,0,0:0:0:0:
64,192,66527,5,0,0:0:0:0:
320,192,66527,1,0,0:0:0:0:
192,192,66590,1,0,0:0:0:0:
64,192,66652,1,0,0:0:0:0:
320,192,66715,1,0,0:0:0:0:
192,192,66777,1,0,0:0:0:0:
448,192,66777,1,0,0:0:0:0:
64,192,66840,1,0,0:0:0:0:
192,192,66902,1,0,0:0:0:0:
320,192,66965,1,0,0:0:0:0:
192,192,67027,1,0,0:0:0:0:
64,192,67027,1,0,0:0:0:0:
448,192,67027,1,0,0:0:0:0:
320,192,67402,1,0,0:0:0:0:
192,192,67402,1,0,0:0:0:0:
448,192,67402,1,0,0:0:0:0:
192,192,67777,1,0,0:0:0:0:
64,192,67777,1,0,0:0:0:0:
320,192,67777,1,0,0:0:0:0:
448,192,67777,1,0,0:0:0:0:
64,192,68152,1,0,0:0:0:0:
320,192,68152,1,0,0:0:0:0:
448,192,68152,1,0,0:0:0:0:
64,192,68527,1,0,0:0:0:0:
192,192,68527,1,0,0:0:0:0:
448,192,68527,1,0,0:0:0:0:
64,192,69027,1,0,0:0:0:0:
320,192,69090,1,0,0:0:0:0:
192,192,69152,1,0,0:0:0:0:
448,192,69215,1,0,0:0:0:0:
64,192,69215,1,0,0:0:0:0:
320,192,69277,1,0,0:0:0:0:
192,192,69340,1,0,0:0:0:0:
320,192,69402,1,0,0:0:0:0:
448,192,69465,1,0,0:0:0:0:
64,192,69527,1,0,0:0:0:0:
192,192,69590,1,0,0:0:0:0:
320,192,69652,1,0,0:0:0:0:
448,192,69715,1,0,0:0:0:0:
64,192,69777,1,0,0:0:0:0:
192,192,69840,1,0,0:0:0:0:
320,192,69902,1,0,0:0:0:0:
448,192,69965,1,0,0:0:0:0:
320,192,70027,1,0,0:0:0:0:
192,192,70090,1,0,0:0:0:0:
64,192,70152,1,0,0:0:0:0:
448,192,70215,1,0,0:0:0:0:
320,192,70277,1,0,0:0:0:0:
192,192,70340,1,0,0:0:0:0:
320,192,70402,1,0,0:0:0:0:
448,192,70465,1,0,0:0:0:0:
64,192,70527,1,0,0:0:0:0:
192,192,70590,1,0,0:0:0:0:
64,192,70652,1,0,0:0:0:0:
448,192,70715,1,0,0:0:0:0:
320,192,70777,1,0,0:0:0:0:
192,192,70840,1,0,0:0:0:0:
64,192,70902,1,0,0:0:0:0:
192,192,70965,1,0,0:0:0:0:
320,192,71027,1,0,0:0:0:0:
64,192,71090,1,0,0:0:0:0:
192,192,71152,1,0,0:0:0:0:
320,192,71215,1,0,0:0:0:0:
448,192,71277,1,0,0:0:0:0:
64,192,71340,5,0,0:0:0:0:
192,192,71402,1,0,0:0:0:0:
448,192,71465,1,0,0:0:0:0:
320,192,71527,1,0,0:0:0:0:
192,192,71590,1,0,0:0:0:0:
64,192,71652,1,0,0:0:0:0:
192,192,71715,1,0,0:0:0:0:
320,192,71777,1,0,0:0:0:0:
448,192,71840,1,0,0:0:0:0:
320,192,71902,1,0,0:0:0:0:
192,192,71965,1,0,0:0:0:0:
64,192,72027,1,0,0:0:0:0:
448,192,72090,1,0,0:0:0:0:
320,192,72152,1,0,0:0:0:0:
448,192,72215,1,0,0:0:0:0:
64,192,72277,1,0,0:0:0:0:
192,192,72340,1,0,0:0:0:0:
320,192,72402,1,0,0:0:0:0:
64,192,72465,1,0,0:0:0:0:
320,192,72527,5,0,0:0:0:0:
448,192,72527,1,0,0:0:0:0:
192,192,72652,1,0,0:0:0:0:
64,192,72652,1,0,0:0:0:0:
320,192,72715,1,0,0:0:0:0:
448,192,72715,1,0,0:0:0:0:
192,192,72777,1,0,0:0:0:0:
64,192,72777,1,0,0:0:0:0:
320,192,72902,1,0,0:0:0:0:
448,192,72902,1,0,0:0:0:0:
192,192,73027,1,0,0:0:0:0:
64,192,73027,1,0,0:0:0:0:
448,192,73027,1,0,0:0:0:0:
64,192,73152,1,0,0:0:0:0:
320,192,73152,1,0,0:0:0:0:
192,192,73215,1,0,0:0:0:0:
448,192,73215,1,0,0:0:0:0:
320,192,73277,1,0,0:0:0:0:
64,192,73277,1,0,0:0:0:0:
192,192,73402,1,0,0:0:0:0:
448,192,73402,1,0,0:0:0:0:
320,192,73402,1,0,0:0:0:0:
64,192,73527,1,0,0:0:0:0:
192,192,73527,1,0,0:0:0:0:
320,192,73590,1,0,0:0:0:0:
448,192,73590,1,0,0:0:0:0:
192,192,73652,1,0,0:0:0:0:
64,192,73652,1,0,0:0:0:0:
448,192,73777,1,0,0:0:0:0:
320,192,73777,1,0,0:0:0:0:
64,192,73777,1,0,0:0:0:0:
320,192,73902,5,0,0:0:0:0:
448,192,73902,1,0,0:0:0:0:
192,192,73965,1,0,0:0:0:0:
64,192,73965,1,0,0:0:0:0:
320,192,74027,1,0,0:0:0:0:
448,192,74027,1,0,0:0:0:0:
64,192,74152,1,0,0:0:0:0:
320,192,74152,1,0,0:0:0:0:
192,192,74215,1,0,0:0:0:0:
448,192,74215,1,0,0:0:0:0:
64,192,74277,1,0,0:0:0:0:
320,192,74277,1,0,0:0:0:0:
192,192,74402,1,0,0:0:0:0:
320,192,74402,1,0,0:0:0:0:
64,192,74465,1,0,0:0:0:0:
448,192,74465,1,0,0:0:0:0:
320,192,74527,1,0,0:0:0:0:
192,192,74527,1,0,0:0:0:0:
64,192,74652,1,0,0:0:0:0:
320,192,74652,1,0,0:0:0:0:
448,192,74652,1,0,0:0:0:0:
64,192,74777,1,0,0:0:0:0:
448,192,74777,1,0,0:0:0:0:
320,192,74840,1,0,0:0:0:0:
192,192,74840,1,0,0:0:0:0:
64,192,74902,1,0,0:0:0:0:
448,192,74902,1,0,0:0:0:0:
192,192,75027,5,0,0:0:0:0:
64,192,75027,1,0,0:0:0:0:
320,192,75090,5,0,0:0:0:0:
448,192,75090,1,0,0:0:0:0:
64,192,75152,1,0,0:0:0:0:
192,192,75152,1,0,0:0:0:0:
320,192,75215,1,0,0:0:0:0:
448,192,75215,1,0,0:0:0:0:
192,192,75277,1,0,0:0:0:0:
64,192,75277,1,0,0:0:0:0:
320,192,75340,1,0,0:0:0:0:
448,192,75340,1,0,0:0:0:0:
192,192,75402,1,0,0:0:0:0:
64,192,75402,1,0,0:0:0:0:
320,192,75465,1,0,0:0:0:0:
448,192,75465,1,0,0:0:0:0:
192,192,75527,1,0,0:0:0:0:
64,192,75527,1,0,0:0:0:0:
448,192,75590,1,0,0:0:0:0:
320,192,75590,1,0,0:0:0:0:
192,192,75652,1,0,0:0:0:0:
64,192,75652,1,0,0:0:0:0:
320,192,75715,1,0,0:0:0:0:
448,192,75715,1,0,0:0:0:0:
192,192,75777,1,0,0:0:0:0:
64,192,75777,1,0,0:0:0:0:
320,192,75840,1,0,0:0:0:0:
448,192,75840,1,0,0:0:0:0:
192,192,75902,1,0,0:0:0:0:
64,192,75902,1,0,0:0:0:0:
320,192,75965,1,0,0:0:0:0:
448,192,75965,1,0,0:0:0:0:
192,192,76027,1,0,0:0:0:0:
64,192,76027,1,0,0:0:0:0:
448,192,76090,1,0,0:0:0:0:
320,192,76121,1,0,0:0:0:0:
192,192,76152,1,0,0:0:0:0:
64,192,76184,1,0,0:0:0:0:
448,192,76215,1,0,0:0:0:0:
320,192,76246,1,0,0:0:0:0:
192,192,76277,1,0,0:0:0:0:
64,192,76309,1,0,0:0:0:0:
448,192,76340,1,0,0:0:0:0:
320,192,76371,1,0,0:0:0:0:
192,192,76402,1,0,0:0:0:0:
64,192,76434,1,0,0:0:0:0:
448,192,76465,1,0,0:0:0:0:
320,192,76496,1,0,0:0:0:0:
192,192,76527,1,0,0:0:0:0:
64,192,76559,1,0,0:0:0:0:
448,192,76590,1,0,0:0:0:0:
320,192,76621,1,0,0:0:0:0:
192,192,76652,1,0,0:0:0:0:
64,192,76684,1,0,0:0:0:0:
448,192,76715,1,0,0:0:0:0:
320,192,76746,1,0,0:0:0:0:
192,192,76777,1,0,0:0:0:0:
64,192,76809,1,0,0:0:0:0:
448,192,76840,1,0,0:0:0:0:
320,192,76871,1,0,0:0:0:0:
192,192,76902,1,0,0:0:0:0:
64,192,76934,1,0,0:0:0:0:
320,192,77027,1,0,0:0:0:0:
448,192,77027,1,0,0:0:0:0:
320,192,94777,5,0,0:0:0:0:
448,192,94777,1,0,0:0:0:0:
192,192,94902,1,0,0:0:0:0:
448,192,94902,1,0,0:0:0:0:
64,192,94902,1,0,0:0:0:0:
320,192,95027,1,0,0:0:0:0:
64,192,95027,1,0,0:0:0:0:
448,192,95090,1,0,0:0:0:0:
192,192,95152,1,0,0:0:0:0:
320,192,95215,1,0,0:0:0:0:
448,192,95277,1,0,0:0:0:0:
192,192,95340,1,0,0:0:0:0:
64,192,95340,1,0,0:0:0:0:
320,192,95402,1,0,0:0:0:0:
448,192,95465,1,0,0:0:0:0:
64,192,95527,1,0,0:0:0:0:
192,192,95590,1,0,0:0:0:0:
320,192,95652,1,0,0:0:0:0:
64,192,95715,1,0,0:0:0:0:
448,192,95715,1,0,0:0:0:0:
192,192,95777,1,0,0:0:0:0:
320,192,95840,1,0,0:0:0:0:
64,192,95902,1,0,0:0:0:0:
448,192,95965,1,0,0:0:0:0:
320,192,96027,1,0,0:0:0:0:
192,192,96027,1,0,0:0:0:0:
64,192,96090,1,0,0:0:0:0:
448,192,96152,1,0,0:0:0:0:
320,192,96152,1,0,0:0:0:0:
192,192,96215,1,0,0:0:0:0:
64,192,96277,1,0,0:0:0:0:
448,192,96340,1,0,0:0:0:0:
320,192,96402,1,0,0:0:0:0:
192,192,96465,1,0,0:0:0:0:
64,192,96465,1,0,0:0:0:0:
320,192,96527,1,0,0:0:0:0:
448,192,96590,1,0,0:0:0:0:
64,192,96652,1,0,0:0:0:0:
192,192,96715,1,0,0:0:0:0:
320,192,96777,1,0,0:0:0:0:
448,192,96840,1,0,0:0:0:0:
64,192,96840,1,0,0:0:0:0:
192,192,96902,1,0,0:0:0:0:
64,192,96965,1,0,0:0:0:0:
448,192,97027,1,0,0:0:0:0:
192,192,97090,1,0,0:0:0:0:
64,192,97152,1,0,0:0:0:0:
320,192,97152,1,0,0:0:0:0:
192,192,97215,1,0,0:0:0:0:
448,192,97277,1,0,0:0:0:0:
64,192,97277,1,0,0:0:0:0:
320,192,97340,1,0,0:0:0:0:
192,192,97402,1,0,0:0:0:0:
448,192,97402,1,0,0:0:0:0:
64,192,97465,1,0,0:0:0:0:
320,192,97527,1,0,0:0:0:0:
448,192,97590,1,0,0:0:0:0:
192,192,97652,1,0,0:0:0:0:
64,192,97652,1,0,0:0:0:0:
320,192,97715,1,0,0:0:0:0:
448,192,97777,1,0,0:0:0:0:
64,192,97840,1,0,0:0:0:0:
192,192,97902,1,0,0:0:0:0:
320,192,97965,1,0,0:0:0:0:
448,192,97965,1,0,0:0:0:0:
192,192,98027,1,0,0:0:0:0:
448,192,98090,1,0,0:0:0:0:
320,192,98152,1,0,0:0:0:0:
64,192,98215,1,0,0:0:0:0:
448,192,98215,1,0,0:0:0:0:
192,192,98277,1,0,0:0:0:0:
320,192,98340,1,0,0:0:0:0:
448,192,98402,1,0,0:0:0:0:
192,192,98465,1,0,0:0:0:0:
64,192,98465,1,0,0:0:0:0:
320,192,98527,1,0,0:0:0:0:
64,192,98590,1,0,0:0:0:0:
192,192,98652,1,0,0:0:0:0:
320,192,98715,1,0,0:0:0:0:
448,192,98715,1,0,0:0:0:0:
64,192,98777,1,0,0:0:0:0:
448,192,98840,1,0,0:0:0:0:
320,192,98902,1,0,0:0:0:0:
192,192,98965,1,0,0:0:0:0:
64,192,98965,1,0,0:0:0:0:
448,192,99027,1,0,0:0:0:0:
320,192,99090,1,0,0:0:0:0:
64,192,99152,1,0,0:0:0:0:
448,192,99152,1,0,0:0:0:0:
192,192,99215,1,0,0:0:0:0:
448,192,99277,1,0,0:0:0:0:
64,192,99340,1,0,0:0:0:0:
320,192,99340,1,0,0:0:0:0:
192,192,99402,1,0,0:0:0:0:
64,192,99465,1,0,0:0:0:0:
192,192,99527,1,0,0:0:0:0:
320,192,99527,1,0,0:0:0:0:
448,192,99590,1,0,0:0:0:0:
320,192,99652,1,0,0:0:0:0:
64,192,99715,1,0,0:0:0:0:
448,192,99715,1,0,0:0:0:0:
192,192,99777,1,0,0:0:0:0:
448,192,99840,1,0,0:0:0:0:
320,192,99902,1,0,0:0:0:0:
64,192,99902,1,0,0:0:0:0:
192,192,99965,1,0,0:0:0:0:
64,192,100027,1,0,0:0:0:0:
320,192,100090,1,0,0:0:0:0:
448,192,100152,1,0,0:0:0:0:
192,192,100152,1,0,0:0:0:0:
64,192,100215,1,0,0:0:0:0:
192,192,100277,1,0,0:0:0:0:
320,192,100340,1,0,0:0:0:0:
64,192,100402,1,0,0:0:0:0:
448,192,100402,1,0,0:0:0:0:
192,192,100465,1,0,0:0:0:0:
320,192,100527,1,0,0:0:0:0:
64,192,100590,1,0,0:0:0:0:
192,192,100652,1,0,0:0:0:0:
320,192,100652,1,0,0:0:0:0:
448,192,100715,1,0,0:0:0:0:
64,192,100777,1,0,0:0:0:0:
192,192,100777,1,0,0:0:0:0:
320,192,100840,1,0,0:0:0:0:
64,192,101027,1,0,0:0:0:0:
192,192,101027,1,0,0:0:0:0:
448,192,101027,1,0,0:0:0:0:
320,192,101402,1,0,0:0:0:0:
192,192,101402,1,0,0:0:0:0:
448,192,101402,1,0,0:0:0:0:
64,192,101777,1,0,0:0:0:0:
192,192,101777,1,0,0:0:0:0:
320,192,101777,1,0,0:0:0:0:
448,192,102152,1,0,0:0:0:0:
192,192,102152,1,0,0:0:0:0:
320,192,102152,1,0,0:0:0:0:
64,192,102527,1,0,0:0:0:0:
192,192,102527,1,0,0:0:0:0:
448,192,102527,1,0,0:0:0:0:
320,192,102777,1,0,0:0:0:0:
64,192,102777,1,0,0:0:0:0:
448,192,102777,1,0,0:0:0:0:
192,192,102902,1,0,0:0:0:0:
448,192,102902,1,0,0:0:0:0:
320,192,103027,1,0,0:0:0:0:
448,192,103027,1,0,0:0:0:0:
192,192,103090,1,0,0:0:0:0:
64,192,103152,1,0,0:0:0:0:
448,192,103215,1,0,0:0:0:0:
64,192,103277,1,0,0:0:0:0:
320,192,103277,1,0,0:0:0:0:
192,192,103340,1,0,0:0:0:0:
64,192,103402,1,0,0:0:0:0:
320,192,103465,1,0,0:0:0:0:
64,192,103527,1,0,0:0:0:0:
448,192,103527,1,0,0:0:0:0:
192,192,103590,1,0,0:0:0:0:
320,192,103652,1,0,0:0:0:0:
64,192,103715,1,0,0:0:0:0:
320,192,103777,1,0,0:0:0:0:
192,192,103777,1,0,0:0:0:0:
448,192,103840,1,0,0:0:0:0:
64,192,103902,1,0,0:0:0:0:
320,192,103965,1,0,0:0:0:0:
64,192,104027,1,0,0:0:0:0:
192,192,104027,1,0,0:0:0:0:
448,192,104090,1,0,0:0:0:0:
320,192,104152,1,0,0:0:0:0:
192,192,104215,1,0,0:0:0:0:
448,192,104277,1,0,0:0:0:0:
64,192,104277,1,0,0:0:0:0:
192,192,104340,1,0,0:0:0:0:
320,192,104402,1,0,0:0:0:0:
448,192,104465,1,0,0:0:0:0:
64,192,104527,1,0,0:0:0:0:
320,192,104527,1,0,0:0:0:0:
192,192,104590,1,0,0:0:0:0:
64,192,104652,1,0,0:0:0:0:
320,192,104715,1,0,0:0:0:0:
192,192,104777,1,0,0:0:0:0:
448,192,104777,1,0,0:0:0:0:
320,192,104840,1,0,0:0:0:0:
64,192,104902,1,0,0:0:0:0:
448,192,104965,1,0,0:0:0:0:
64,192,105027,1,0,0:0:0:0:
320,192,105027,1,0,0:0:0:0:
192,192,105090,1,0,0:0:0:0:
320,192,105152,1,0,0:0:0:0:
192,192,105215,1,0,0:0:0:0:
448,192,105277,1,0,0:0:0:0:
64,192,105277,1,0,0:0:0:0:
320,192,105340,1,0,0:0:0:0:
192,192,105402,1,0,0:0:0:0:
64,192,105465,1,0,0:0:0:0:
320,192,105527,1,0,0:0:0:0:
448,192,105527,1,0,0:0:0:0:
64,192,105590,1,0,0:0:0:0:
192,192,105652,1,0,0:0:0:0:
320,192,105715,1,0,0:0:0:0:
192,192,105777,1,0,0:0:0:0:
448,192,105777,1,0,0:0:0:0:
64,192,105840,1,0,0:0:0:0:
320,192,105902,1,0,0:0:0:0:
192,192,105965,1,0,0:0:0:0:
64,192,106027,1,0,0:0:0:0:
448,192,106027,1,0,0:0:0:0:
320,192,106090,1,0,0:0:0:0:
192,192,106152,1,0,0:0:0:0:
64,192,106215,1,0,0:0:0:0:
192,192,106277,1,0,0:0:0:0:
448,192,106277,1,0,0:0:0:0:
64,192,106340,1,0,0:0:0:0:
320,192,106402,1,0,0:0:0:0:
448,192,106465,1,0,0:0:0:0:
192,192,106527,1,0,0:0:0:0:
64,192,106527,1,0,0:0:0:0:
320,192,106590,1,0,0:0:0:0:
64,192,106652,1,0,0:0:0:0:
192,192,106715,1,0,0:0:0:0:
448,192,106777,1,0,0:0:0:0:
320,192,106777,1,0,0:0:0:0:
192,192,106840,1,0,0:0:0:0:
64,192,106902,1,0,0:0:0:0:
448,192,106965,1,0,0:0:0:0:
320,192,107027,1,0,0:0:0:0:
64,192,107027,1,0,0:0:0:0:
192,192,107090,1,0,0:0:0:0:
64,192,107152,1,0,0:0:0:0:
448,192,107215,1,0,0:0:0:0:
320,192,107277,1,0,0:0:0:0:
192,192,107277,1,0,0:0:0:0:
64,192,107340,1,0,0:0:0:0:
448,192,107402,1,0,0:0:0:0:
320,192,107465,1,0,0:0:0:0:
192,192,107527,1,0,0:0:0:0:
64,192,107527,1,0,0:0:0:0:
320,192,107590,1,0,0:0:0:0:
448,192,107652,1,0,0:0:0:0:
64,192,107715,1,0,0:0:0:0:
192,192,107777,1,0,0:0:0:0:
320,192,107777,1,0,0:0:0:0:
448,192,107840,1,0,0:0:0:0:
64,192,107902,1,0,0:0:0:0:
192,192,107965,1,0,0:0:0:0:
320,192,108027,1,0,0:0:0:0:
448,192,108027,1,0,0:0:0:0:
64,192,108090,1,0,0:0:0:0:
448,192,108152,1,0,0:0:0:0:
320,192,108215,1,0,0:0:0:0:
192,192,108277,1,0,0:0:0:0:
64,192,108277,1,0,0:0:0:0:
448,192,108340,1,0,0:0:0:0:
320,192,108402,1,0,0:0:0:0:
192,192,108465,1,0,0:0:0:0:
64,192,108527,1,0,0:0:0:0:
320,192,108527,1,0,0:0:0:0:
448,192,108590,1,0,0:0:0:0:
192,192,108652,1,0,0:0:0:0:
320,192,108715,1,0,0:0:0:0:
448,192,108777,1,0,0:0:0:0:
64,192,108777,1,0,0:0:0:0:
320,192,108840,1,0,0:0:0:0:
192,192,108902,1,0,0:0:0:0:
448,192,108965,1,0,0:0:0:0:
64,192,109027,1,0,0:0:0:0:
192,192,109027,1,0,0:0:0:0:
320,192,109152,1,0,0:0:0:0:
448,192,109152,1,0,0:0:0:0:
192,192,109215,1,0,0:0:0:0:
64,192,109215,1,0,0:0:0:0:
320,192,109277,1,0,0:0:0:0:
448,192,109277,1,0,0:0:0:0:
192,192,109402,1,0,0:0:0:0:
64,192,109402,1,0,0:0:0:0:
448,192,109527,1,0,0:0:0:0:
320,192,109527,1,0,0:0:0:0:
192,192,109590,1,0,0:0:0:0:
64,192,109590,1,0,0:0:0:0:
448,192,109652,1,0,0:0:0:0:
320,192,109652,1,0,0:0:0:0:
64,192,109777,1,0,0:0:0:0:
448,192,109777,1,0,0:0:0:0:
192,192,109840,1,0,0:0:0:0:
320,192,109840,1,0,0:0:0:0:
64,192,109902,1,0,0:0:0:0:
448,192,109902,1,0,0:0:0:0:
320,192,110027,1,0,0:0:0:0:
192,192,110027,1,0,0:0:0:0:
64,192,110027,1,0,0:0:0:0:
448,192,110152,1,0,0:0:0:0:
320,192,110152,1,0,0:0:0:0:
192,192,110215,1,0,0:0:0:0:
64,192,110215,1,0,0:0:0:0:
320,192,110277,1,0,0:0:0:0:
448,192,110277,1,0,0:0:0:0:
192,192,110340,1,0,0:0:0:0:
64,192,110340,1,0,0:0:0:0:
320,192,110402,1,0,0:0:0:0:
448,192,110402,1,0,0:0:0:0:
64,192,110465,1,0,0:0:0:0:
192,192,110465,1,0,0:0:0:0:
320,192,110527,1,0,0:0:0:0:
448,192,110527,1,0,0:0:0:0:
64,192,110590,1,0,0:0:0:0:
192,192,110590,1,0,0:0:0:0:
320,192,110652,1,0,0:0:0:0:
448,192,110652,1,0,0:0:0:0:
64,192,110715,1,0,0:0:0:0:
192,192,110715,1,0,0:0:0:0:
320,192,110777,1,0,0:0:0:0:
448,192,110777,1,0,0:0:0:0:
64,192,110840,1,0,0:0:0:0:
192,192,110840,1,0,0:0:0:0:
320,192,110902,1,0,0:0:0:0:
448,192,110902,1,0,0:0:0:0:
64,192,111027,1,0,0:0:0:0:
192,192,111027,1,0,0:0:0:0:
320,192,111090,1,0,0:0:0:0:
192,192,111152,1,0,0:0:0:0:
448,192,111215,1,0,0:0:0:0:
192,192,111277,1,0,0:0:0:0:
64,192,111277,1,0,0:0:0:0:
448,192,111340,1,0,0:0:0:0:
320,192,111402,1,0,0:0:0:0:
64,192,111465,1,0,0:0:0:0:
448,192,111527,1,0,0:0:0:0:
192,192,111527,1,0,0:0:0:0:
320,192,111590,1,0,0:0:0:0:
64,192,111652,1,0,0:0:0:0:
448,192,111715,1,0,0:0:0:0:
192,192,111777,1,0,0:0:0:0:
64,192,111777,1,0,0:0:0:0:
64,192,112027,1,0,0:0:0:0:
192,192,112027,1,0,0:0:0:0:
448,192,112027,1,0,0:0:0:0:
320,192,112090,1,0,0:0:0:0:
192,192,112152,1,0,0:0:0:0:
64,192,112215,1,0,0:0:0:0:
320,192,112277,1,0,0:0:0:0:
448,192,112277,1,0,0:0:0:0:
192,192,112340,1,0,0:0:0:0:
64,192,112402,1,0,0:0:0:0:
320,192,112465,1,0,0:0:0:0:
64,192,112527,1,0,0:0:0:0:
192,192,112527,1,0,0:0:0:0:
448,192,112590,1,0,0:0:0:0:
320,192,112652,1,0,0:0:0:0:
64,192,112715,1,0,0:0:0:0:
320,192,112777,1,0,0:0:0:0:
448,192,112777,1,0,0:0:0:0:
64,192,113027,1,0,0:0:0:0:
320,192,113027,1,0,0:0:0:0:
448,192,113027,1,0,0:0:0:0:
192,192,113090,1,0,0:0:0:0:
320,192,113152,1,0,0:0:0:0:
448,192,113215,1,0,0:0:0:0:
64,192,113277,1,0,0:0:0:0:
192,192,113277,1,0,0:0:0:0:
448,192,113340,1,0,0:0:0:0:
320,192,113402,1,0,0:0:0:0:
192,192,113465,1,0,0:0:0:0:
64,192,113527,1,0,0:0:0:0:
448,192,113527,1,0,0:0:0:0:
320,192,113590,1,0,0:0:0:0:
192,192,113652,1,0,0:0:0:0:
320,192,113715,1,0,0:0:0:0:
64,192,113777,1,0,0:0:0:0:
448,192,113777,1,0,0:0:0:0:
320,192,114027,1,0,0:0:0:0:
192,192,114027,1,0,0:0:0:0:
64,192,114027,1,0,0:0:0:0:
448,192,114090,1,0,0:0:0:0:
320,192,114152,1,0,0:0:0:0:
192,192,114215,1,0,0:0:0:0:
64,192,114277,1,0,0:0:0:0:
448,192,114277,1,0,0:0:0:0:
192,192,114340,1,0,0:0:0:0:
192,192,114527,1,0,0:0:0:0:
64,192,114527,1,0,0:0:0:0:
320,192,114527,1,0,0:0:0:0:
192,192,114777,1,0,0:0:0:0:
320,192,114777,1,0,0:0:0:0:
448,192,114777,1,0,0:0:0:0:
320,192,115027,1,0,0:0:0:0:
448,192,115027,1,0,0:0:0:0:
192,192,115277,1,0,0:0:0:0:
64,192,115277,1,0,0:0:0:0:
320,192,115277,1,0,0:0:0:0:
192,192,115402,1,0,0:0:0:0:
448,192,115402,1,0,0:0:0:0:
192,192,115652,1,0,0:0:0:0:
448,192,115652,1,0,0:0:0:0:
64,192,115652,1,0,0:0:0:0:
192,192,115777,1,0,0:0:0:0:
320,192,115777,1,0,0:0:0:0:
64,192,116027,1,0,0:0:0:0:
320,192,116027,1,0,0:0:0:0:
448,192,116027,1,0,0:0:0:0:
192,192,116152,1,0,0:0:0:0:
448,192,116152,1,0,0:0:0:0:
64,192,116402,1,0,0:0:0:0:
320,192,116402,1,0,0:0:0:0:
448,192,116402,1,0,0:0:0:0:
192,192,116527,1,0,0:0:0:0:
320,192,116527,1,0,0:0:0:0:
192,192,116777,1,0,0:0:0:0:
448,192,116777,1,0,0:0:0:0:
64,192,116777,1,0,0:0:0:0:
320,192,116777,1,0,0:0:0:0:
64,192,117027,1,0,0:0:0:0:
192,192,117027,1,0,0:0:0:0:
448,192,117027,1,0,0:0:0:0:
320,192,117090,1,0,0:0:0:0:
448,192,117152,1,0,0:0:0:0:
320,192,117215,1,0,0:0:0:0:
192,192,117277,1,0,0:0:0:0:
64,192,117277,1,0,0:0:0:0:
320,192,117340,1,0,0:0:0:0:
448,192,117402,1,0,0:0:0:0:
320,192,117465,1,0,0:0:0:0:
192,192,117527,1,0,0:0:0:0:
448,192,117527,1,0,0:0:0:0:
64,192,117590,1,0,0:0:0:0:
320,192,117652,1,0,0:0:0:0:
192,192,117715,1,0,0:0:0:0:
64,192,117777,1,0,0:0:0:0:
448,192,117777,1,0,0:0:0:0:
64,192,118027,1,0,0:0:0:0:
320,192,118027,1,0,0:0:0:0:
448,192,118027,1,0,0:0:0:0:
192,192,118152,1,0,0:0:0:0:
320,192,118152,1,0,0:0:0:0:
448,192,118277,1,0,0:0:0:0:
64,192,118277,1,0,0:0:0:0:
192,192,118402,1,0,0:0:0:0:
448,192,118402,1,0,0:0:0:0:
64,192,118527,1,0,0:0:0:0:
192,192,118527,1,0,0:0:0:0:
320,192,118527,1,0,0:0:0:0:
64,192,118777,1,0,0:0:0:0:
448,192,118777,1,0,0:0:0:0:
320,192,118902,1,0,0:0:0:0:
192,192,118902,1,0,0:0:0:0:
64,192,119027,1,0,0:0:0:0:
320,192,119027,1,0,0:0:0:0:
192,192,119090,1,0,0:0:0:0:
64,192,119152,1,0,0:0:0:0:
448,192,119215,1,0,0:0:0:0:
320,192,119277,1,0,0:0:0:0:
64,192,119277,1,0,0:0:0:0:
192,192,119340,1,0,0:0:0:0:
64,192,119402,1,0,0:0:0:0:
192,192,119465,1,0,0:0:0:0:
320,192,119527,1,0,0:0:0:0:
448,192,119527,1,0,0:0:0:0:
192,192,119590,1,0,0:0:0:0:
64,192,119652,1,0,0:0:0:0:
448,192,119715,1,0,0:0:0:0:
320,192,119777,1,0,0:0:0:0:
192,192,119777,1,0,0:0:0:0:
64,192,119840,1,0,0:0:0:0:
320,192,119902,1,0,0:0:0:0:
448,192,119902,1,0,0:0:0:0:
448,192,120777,1,0,0:0:0:0:
320,192,120777,1,0,0:0:0:0:
192,192,120840,1,0,0:0:0:0:
64,192,120902,1,0,0:0:0:0:
320,192,120965,1,0,0:0:0:0:
192,192,121027,1,0,0:0:0:0:
448,192,121027,1,0,0:0:0:0:
320,192,121090,1,0,0:0:0:0:
64,192,121152,1,0,0:0:0:0:
448,192,121215,1,0,0:0:0:0:
192,192,121277,1,0,0:0:0:0:
320,192,121277,1,0,0:0:0:0:
64,192,121340,1,0,0:0:0:0:
448,192,121402,1,0,0:0:0:0:
320,192,121465,1,0,0:0:0:0:
192,192,121527,1,0,0:0:0:0:
448,192,121527,1,0,0:0:0:0:
64,192,121590,1,0,0:0:0:0:
192,192,121652,1,0,0:0:0:0:
320,192,121715,1,0,0:0:0:0:
64,192,121777,1,0,0:0:0:0:
448,192,121777,1,0,0:0:0:0:
320,192,121902,1,0,0:0:0:0:
192,192,121902,1,0,0:0:0:0:
192,192,122152,1,0,0:0:0:0:
320,192,122152,1,0,0:0:0:0:
64,192,122277,1,0,0:0:0:0:
448,192,122277,1,0,0:0:0:0:
192,192,122527,1,0,0:0:0:0:
320,192,122527,1,0,0:0:0:0:
192,192,122777,1,0,0:0:0:0:
448,192,122777,1,0,0:0:0:0:
64,192,123027,1,0,0:0:0:0:
320,192,123027,1,0,0:0:0:0:
192,192,123152,1,0,0:0:0:0:
320,192,123152,1,0,0:0:0:0:
448,192,123152,1,0,0:0:0:0:
64,192,123277,1,0,0:0:0:0:
448,192,123277,1,0,0:0:0:0:
192,192,123402,1,0,0:0:0:0:
320,192,123402,1,0,0:0:0:0:
64,192,123527,1,0,0:0:0:0:
192,192,123527,1,0,0:0:0:0:
64,192,123652,1,0,0:0:0:0:
448,192,123652,1,0,0:0:0:0:
192,192,123777,1,0,0:0:0:0:
320,192,123777,1,0,0:0:0:0:
448,192,123777,1,0,0:0:0:0:
64,192,123902,1,0,0:0:0:0:
320,192,123902,1,0,0:0:0:0:
192,192,124027,1,0,0:0:0:0:
320,192,124027,1,0,0:0:0:0:
64,192,124152,1,0,0:0:0:0:
448,192,124152,1,0,0:0:0:0:
192,192,124277,1,0,0:0:0:0:
64,192,124277,1,0,0:0:0:0:
320,192,124277,1,0,0:0:0:0:
448,192,124402,1,0,0:0:0:0:
320,192,124402,1,0,0:0:0:0:
64,192,124527,5,0,0:0:0:0:
192,192,124527,1,0,0:0:0:0:
320,192,124590,1,0,0:0:0:0:
448,192,124590,1,0,0:0:0:0:
192,192,124652,1,0,0:0:0:0:
64,192,124652,1,0,0:0:0:0:
320,192,124715,1,0,0:0:0:0:
448,192,124715,1,0,0:0:0:0:
64,192,124777,1,0,0:0:0:0:
192,192,124809,1,0,0:0:0:0:
320,192,124840,1,0,0:0:0:0:
448,192,124871,1,0,0:0:0:0:
64,192,124902,1,0,0:0:0:0:
192,192,124934,1,0,0:0:0:0:
320,192,124965,1,0,0:0:0:0:
448,192,124996,1,0,0:0:0:0:
64,192,125027,1,0,0:0:0:0:
192,192,125027,1,0,0:0:0:0:
320,192,126777,1,0,0:0:0:0:
448,192,126777,1,0,0:0:0:0:
192,192,126840,1,0,0:0:0:0:
64,192,126902,1,0,0:0:0:0:
448,192,126902,1,0,0:0:0:0:
320,192,126965,1,0,0:0:0:0:
192,192,127027,5,0,0:0:0:0:
64,192,127027,1,0,0:0:0:0:
320,192,127090,1,0,0:0:0:0:
448,192,127152,1,0,0:0:0:0:
64,192,127152,1,0,0:0:0:0:
192,192,127215,1,0,0:0:0:0:
320,192,127277,1,0,0:0:0:0:
192,192,127340,1,0,0:0:0:0:
64,192,127340,1,0,0:0:0:0:
448,192,127402,1,0,0:0:0:0:
320,192,127465,1,0,0:0:0:0:
192,192,127465,1,0,0:0:0:0:
64,192,127527,1,0,0:0:0:0:
448,192,127590,1,0,0:0:0:0:
320,192,127590,1,0,0:0:0:0:
192,192,127652,1,0,0:0:0:0:
64,192,127715,1,0,0:0:0:0:
448,192,127715,1,0,0:0:0:0:
320,192,127777,1,0,0:0:0:0:
448,192,127840,1,0,0:0:0:0:
64,192,127840,1,0,0:0:0:0:
192,192,127902,1,0,0:0:0:0:
320,192,127965,1,0,0:0:0:0:
448,192,127965,1,0,0:0:0:0:
192,192,128027,1,0,0:0:0:0:
64,192,128090,1,0,0:0:0:0:
448,192,128090,1,0,0:0:0:0:
320,192,128152,1,0,0:0:0:0:
192,192,128215,1,0,0:0:0:0:
64,192,128215,1,0,0:0:0:0:
448,192,128277,1,0,0:0:0:0:
320,192,128340,1,0,0:0:0:0:
64,192,128340,1,0,0:0:0:0:
192,192,128402,1,0,0:0:0:0:
64,192,128465,1,0,0:0:0:0:
448,192,128465,1,0,0:0:0:0:
320,192,128527,1,0,0:0:0:0:
192,192,128590,1,0,0:0:0:0:
448,192,128652,1,0,0:0:0:0:
320,192,128652,1,0,0:0:0:0:
192,192,128715,1,0,0:0:0:0:
64,192,128777,1,0,0:0:0:0:
448,192,128777,1,0,0:0:0:0:
320,192,128840,1,0,0:0:0:0:
192,192,128840,1,0,0:0:0:0:
64,192,128902,1,0,0:0:0:0:
448,192,128902,1,0,0:0:0:0:
192,192,128965,1,0,0:0:0:0:
320,192,128965,1,0,0:0:0:0:
64,192,129027,1,0,0:0:0:0:
448,192,129027,1,0,0:0:0:0:
192,192,129090,1,0,0:0:0:0:
320,192,129152,1,0,0:0:0:0:
448,192,129152,1,0,0:0:0:0:
192,192,129215,1,0,0:0:0:0:
64,192,129277,1,0,0:0:0:0:
448,192,129277,1,0,0:0:0:0:
320,192,129340,1,0,0:0:0:0:
192,192,129402,1,0,0:0:0:0:
320,192,129465,1,0,0:0:0:0:
448,192,129465,1,0,0:0:0:0:
64,192,129527,1,0,0:0:0:0:
192,192,129590,1,0,0:0:0:0:
448,192,129590,1,0,0:0:0:0:
320,192,129652,1,0,0:0:0:0:
448,192,129715,1,0,0:0:0:0:
64,192,129715,1,0,0:0:0:0:
320,192,129777,1,0,0:0:0:0:
192,192,129840,1,0,0:0:0:0:
64,192,129840,1,0,0:0:0:0:
320,192,129902,1,0,0:0:0:0:
448,192,129965,1,0,0:0:0:0:
64,192,129965,1,0,0:0:0:0:
192,192,130027,1,0,0:0:0:0:
320,192,130090,1,0,0:0:0:0:
64,192,130090,1,0,0:0:0:0:
448,192,130152,1,0,0:0:0:0:
64,192,130215,1,0,0:0:0:0:
192,192,130215,1,0,0:0:0:0:
320,192,130277,1,0,0:0:0:0:
448,192,130340,1,0,0:0:0:0:
192,192,130340,1,0,0:0:0:0:
64,192,130402,1,0,0:0:0:0:
320,192,130402,1,0,0:0:0:0:
192,192,130465,1,0,0:0:0:0:
320,192,130527,1,0,0:0:0:0:
448,192,130527,1,0,0:0:0:0:
64,192,130652,1,0,0:0:0:0:
448,192,130652,1,0,0:0:0:0:
320,192,130715,1,0,0:0:0:0:
192,192,130715,1,0,0:0:0:0:
64,192,130777,1,0,0:0:0:0:
448,192,130777,1,0,0:0:0:0:
64,192,130902,1,0,0:0:0:0:
192,192,130902,1,0,0:0:0:0:
320,192,131027,1,0,0:0:0:0:
448,192,131027,1,0,0:0:0:0:
192,192,131090,1,0,0:0:0:0:
64,192,131152,1,0,0:0:0:0:
448,192,131152,1,0,0:0:0:0:
320,192,131215,1,0,0:0:0:0:
192,192,131277,1,0,0:0:0:0:
64,192,131277,1,0,0:0:0:0:
448,192,131340,1,0,0:0:0:0:
320,192,131402,1,0,0:0:0:0:
192,192,131402,1,0,0:0:0:0:
64,192,131465,1,0,0:0:0:0:
448,192,131527,1,0,0:0:0:0:
320,192,131527,1,0,0:0:0:0:
192,192,131590,1,0,0:0:0:0:
64,192,131652,1,0,0:0:0:0:
320,192,131652,1,0,0:0:0:0:
448,192,131715,1,0,0:0:0:0:
64,192,131777,1,0,0:0:0:0:
192,192,131840,1,0,0:0:0:0:
448,192,131840,1,0,0:0:0:0:
320,192,131902,1,0,0:0:0:0:
448,192,131965,1,0,0:0:0:0:
192,192,131965,1,0,0:0:0:0:
64,192,132027,1,0,0:0:0:0:
320,192,132090,1,0,0:0:0:0:
448,192,132090,1,0,0:0:0:0:
192,192,132152,1,0,0:0:0:0:
64,192,132215,1,0,0:0:0:0:
448,192,132215,1,0,0:0:0:0:
320,192,132277,1,0,0:0:0:0:
64,192,132340,1,0,0:0:0:0:
448,192,132340,1,0,0:0:0:0:
192,192,132402,1,0,0:0:0:0:
320,192,132465,1,0,0:0:0:0:
64,192,132465,1,0,0:0:0:0:
448,192,132527,1,0,0:0:0:0:
192,192,132590,1,0,0:0:0:0:
64,192,132590,1,0,0:0:0:0:
320,192,132652,1,0,0:0:0:0:
448,192,132715,1,0,0:0:0:0:
64,192,132715,1,0,0:0:0:0:
192,192,132777,1,0,0:0:0:0:
320,192,132840,1,0,0:0:0:0:
448,192,132840,1,0,0:0:0:0:
192,192,132902,1,0,0:0:0:0:
64,192,132965,1,0,0:0:0:0:
320,192,133027,1,0,0:0:0:0:
448,192,133027,1,0,0:0:0:0:
192,192,133027,1,0,0:0:0:0:
64,192,133402,1,0,0:0:0:0:
192,192,133402,1,0,0:0:0:0:
448,192,133402,1,0,0:0:0:0:
192,192,133777,1,0,0:0:0:0:
320,192,133777,1,0,0:0:0:0:
448,192,133777,1,0,0:0:0:0:
64,192,134027,1,0,0:0:0:0:
192,192,134027,1,0,0:0:0:0:
320,192,134027,1,0,0:0:0:0:
64,192,134277,1,0,0:0:0:0:
320,192,134277,1,0,0:0:0:0:
192,192,134402,1,0,0:0:0:0:
320,192,134402,1,0,0:0:0:0:
448,192,134402,1,0,0:0:0:0:
64,192,134652,1,0,0:0:0:0:
320,192,134652,1,0,0:0:0:0:
448,192,134652,1,0,0:0:0:0:
192,192,134777,1,0,0:0:0:0:
64,192,134777,1,0,0:0:0:0:
448,192,134777,1,0,0:0:0:0:
64,192,134902,1,0,0:0:0:0:
320,192,134902,1,0,0:0:0:0:
320,192,135027,1,0,0:0:0:0:
448,192,135027,1,0,0:0:0:0:
192,192,135090,1,0,0:0:0:0:
64,192,135152,1,0,0:0:0:0:
448,192,135152,1,0,0:0:0:0:
320,192,135215,1,0,0:0:0:0:
448,192,135277,1,0,0:0:0:0:
64,192,135277,1,0,0:0:0:0:
192,192,135340,1,0,0:0:0:0:
320,192,135402,1,0,0:0:0:0:
64,192,135402,1,0,0:0:0:0:
448,192,135465,1,0,0:0:0:0:
64,192,135527,1,0,0:0:0:0:
192,192,135527,1,0,0:0:0:0:
320,192,135590,1,0,0:0:0:0:
448,192,135652,1,0,0:0:0:0:
64,192,135652,1,0,0:0:0:0:
192,192,135715,1,0,0:0:0:0:
320,192,135777,1,0,0:0:0:0:
64,192,135777,1,0,0:0:0:0:
448,192,135840,1,0,0:0:0:0:
192,192,135902,1,0,0:0:0:0:
64,192,135902,1,0,0:0:0:0:
320,192,135965,1,0,0:0:0:0:
448,192,136027,1,0,0:0:0:0:
64,192,136027,1,0,0:0:0:0:
320,192,136090,1,0,0:0:0:0:
192,192,136152,1,0,0:0:0:0:
64,192,136152,1,0,0:0:0:0:
448,192,136215,1,0,0:0:0:0:
320,192,136277,1,0,0:0:0:0:
192,192,136277,1,0,0:0:0:0:
64,192,136340,1,0,0:0:0:0:
448,192,136402,1,0,0:0:0:0:
320,192,136402,1,0,0:0:0:0:
192,192,136465,1,0,0:0:0:0:
320,192,136527,1,0,0:0:0:0:
448,192,136527,1,0,0:0:0:0:
64,192,136590,1,0,0:0:0:0:
320,192,136652,1,0,0:0:0:0:
448,192,136652,1,0,0:0:0:0:
192,192,136715,1,0,0:0:0:0:
64,192,136777,1,0,0:0:0:0:
320,192,136777,1,0,0:0:0:0:
192,192,136840,1,0,0:0:0:0:
448,192,136840,1,0,0:0:0:0:
320,192,136902,1,0,0:0:0:0:
64,192,136902,1,0,0:0:0:0:
192,192,136965,1,0,0:0:0:0:
448,192,137027,1,0,0:0:0:0:
320,192,137027,1,0,0:0:0:0:
64,192,137090,1,0,0:0:0:0:
192,192,137152,1,0,0:0:0:0:
320,192,137152,1,0,0:0:0:0:
448,192,137215,1,0,0:0:0:0:
192,192,137277,1,0,0:0:0:0:
64,192,137277,1,0,0:0:0:0:
320,192,137340,1,0,0:0:0:0:
448,192,137402,1,0,0:0:0:0:
64,192,137402,1,0,0:0:0:0:
192,192,137465,1,0,0:0:0:0:
320,192,137527,1,0,0:0:0:0:
192,192,137590,1,0,0:0:0:0:
64,192,137590,1,0,0:0:0:0:
448,192,137652,1,0,0:0:0:0:
320,192,137715,1,0,0:0:0:0:
192,192,137715,1,0,0:0:0:0:
64,192,137777,1,0,0:0:0:0:
448,192,137840,1,0,0:0:0:0:
320,192,137902,1,0,0:0:0:0:
64,192,137902,1,0,0:0:0:0:
192,192,137965,1,0,0:0:0:0:
64,192,138027,1,0,0:0:0:0:
448,192,138090,1,0,0:0:0:0:
320,192,138152,1,0,0:0:0:0:
64,192,138152,1,0,0:0:0:0:
192,192,138215,1,0,0:0:0:0:
320,192,138277,1,0,0:0:0:0:
448,192,138277,1,0,0:0:0:0:
192,192,138340,1,0,0:0:0:0:
64,192,138402,1,0,0:0:0:0:
448,192,138402,1,0,0:0:0:0:
192,192,138465,1,0,0:0:0:0:
320,192,138527,5,0,0:0:0:0:
448,192,138527,1,0,0:0:0:0:
448,192,138652,1,0,0:0:0:0:
192,192,138652,1,0,0:0:0:0:
320,192,138715,1,0,0:0:0:0:
64,192,138715,1,0,0:0:0:0:
192,192,138777,1,0,0:0:0:0:
448,192,138777,1,0,0:0:0:0:
64,192,138902,1,0,0:0:0:0:
320,192,138902,1,0,0:0:0:0:
64,192,139027,1,0,0:0:0:0:
192,192,139027,1,0,0:0:0:0:
320,192,139090,1,0,0:0:0:0:
448,192,139152,1,0,0:0:0:0:
64,192,139152,1,0,0:0:0:0:
192,192,139215,1,0,0:0:0:0:
320,192,139277,1,0,0:0:0:0:
448,192,139277,1,0,0:0:0:0:
192,192,139340,1,0,0:0:0:0:
64,192,139402,1,0,0:0:0:0:
448,192,139402,1,0,0:0:0:0:
320,192,139465,1,0,0:0:0:0:
192,192,139527,1,0,0:0:0:0:
64,192,139527,1,0,0:0:0:0:
448,192,139590,1,0,0:0:0:0:
320,192,139652,1,0,0:0:0:0:
192,192,139652,1,0,0:0:0:0:
64,192,139715,1,0,0:0:0:0:
448,192,139777,1,0,0:0:0:0:
320,192,139777,1,0,0:0:0:0:
192,192,139840,1,0,0:0:0:0:
64,192,139902,1,0,0:0:0:0:
448,192,139902,1,0,0:0:0:0:
320,192,139965,1,0,0:0:0:0:
192,192,140027,1,0,0:0:0:0:
448,192,140027,1,0,0:0:0:0:
64,192,140090,1,0,0:0:0:0:
192,192,140152,1,0,0:0:0:0:
448,192,140152,1,0,0:0:0:0:
320,192,140215,1,0,0:0:0:0:
192,192,140277,1,0,0:0:0:0:
64,192,140277,1,0,0:0:0:0:
448,192,140340,1,0,0:0:0:0:
320,192,140402,1,0,0:0:0:0:
192,192,140402,1,0,0:0:0:0:
64,192,140465,1,0,0:0:0:0:
192,192,140527,1,0,0:0:0:0:
448,192,140527,1,0,0:0:0:0:
320,192,140590,1,0,0:0:0:0:
448,192,140652,1,0,0:0:0:0:
64,192,140652,1,0,0:0:0:0:
192,192,140715,1,0,0:0:0:0:
320,192,140777,1,0,0:0:0:0:
448,192,140777,1,0,0:0:0:0:
192,192,140840,1,0,0:0:0:0:
64,192,140902,1,0,0:0:0:0:
448,192,140902,1,0,0:0:0:0:
320,192,140965,1,0,0:0:0:0:
64,192,141027,1,0,0:0:0:0:
192,192,141027,1,0,0:0:0:0:
64,192,141402,1,0,0:0:0:0:
192,192,141402,1,0,0:0:0:0:
320,192,141402,1,0,0:0:0:0:
64,192,141777,1,0,0:0:0:0:
192,192,141777,1,0,0:0:0:0:
448,192,141777,1,0,0:0:0:0:
320,192,142152,1,0,0:0:0:0:
448,192,142152,1,0,0:0:0:0:
64,192,142152,1,0,0:0:0:0:
192,192,142527,1,0,0:0:0:0:
64,192,142527,1,0,0:0:0:0:
448,192,142527,1,0,0:0:0:0:
320,192,142777,1,0,0:0:0:0:
448,192,142777,1,0,0:0:0:0:
64,192,142777,1,0,0:0:0:0:
64,192,142902,1,0,0:0:0:0:
192,192,142902,1,0,0:0:0:0:
320,192,143027,1,0,0:0:0:0:
448,192,143027,1,0,0:0:0:0:
192,192,143090,1,0,0:0:0:0:
64,192,143152,1,0,0:0:0:0:
448,192,143152,1,0,0:0:0:0:
320,192,143215,1,0,0:0:0:0:
192,192,143277,1,0,0:0:0:0:
64,192,143277,1,0,0:0:0:0:
320,192,143340,1,0,0:0:0:0:
448,192,143402,1,0,0:0:0:0:
64,192,143402,1,0,0:0:0:0:
192,192,143465,1,0,0:0:0:0:
320,192,143527,1,0,0:0:0:0:
448,192,143527,1,0,0:0:0:0:
64,192,143590,1,0,0:0:0:0:
192,192,143652,1,0,0:0:0:0:
448,192,143652,1,0,0:0:0:0:
320,192,143715,1,0,0:0:0:0:
448,192,143777,1,0,0:0:0:0:
64,192,143777,1,0,0:0:0:0:
192,192,143840,1,0,0:0:0:0:
320,192,143902,1,0,0:0:0:0:
448,192,143902,1,0,0:0:0:0:
192,192,143965,1,0,0:0:0:0:
64,192,144027,1,0,0:0:0:0:
320,192,144090,1,0,0:0:0:0:
192,192,144090,1,0,0:0:0:0:
64,192,144152,1,0,0:0:0:0:
448,192,144215,1,0,0:0:0:0:
320,192,144215,1,0,0:0:0:0:
64,192,144277,1,0,0:0:0:0:
192,192,144340,1,0,0:0:0:0:
320,192,144340,1,0,0:0:0:0:
448,192,144402,1,0,0:0:0:0:
64,192,144465,1,0,0:0:0:0:
192,192,144465,1,0,0:0:0:0:
320,192,144527,1,0,0:0:0:0:
448,192,144590,1,0,0:0:0:0:
64,192,144590,1,0,0:0:0:0:
192,192,144652,1,0,0:0:0:0:
320,192,144652,1,0,0:0:0:0:
64,192,144715,1,0,0:0:0:0:
320,192,144777,1,0,0:0:0:0:
448,192,144777,1,0,0:0:0:0:
64,192,144840,1,0,0:0:0:0:
192,192,144840,1,0,0:0:0:0:
320,192,144902,1,0,0:0:0:0:
448,192,144902,1,0,0:0:0:0:
192,192,144965,1,0,0:0:0:0:
64,192,144965,1,0,0:0:0:0:
320,192,145027,1,0,0:0:0:0:
448,192,145027,1,0,0:0:0:0:
64,192,145090,1,0,0:0:0:0:
192,192,145152,1,0,0:0:0:0:
320,192,145215,1,0,0:0:0:0:
448,192,145215,1,0,0:0:0:0:
192,192,145277,1,0,0:0:0:0:
64,192,145340,1,0,0:0:0:0:
448,192,145340,1,0,0:0:0:0:
320,192,145402,1,0,0:0:0:0:
192,192,145465,1,0,0:0:0:0:
64,192,145465,1,0,0:0:0:0:
448,192,145527,1,0,0:0:0:0:
320,192,145590,1,0,0:0:0:0:
64,192,145590,1,0,0:0:0:0:
192,192,145652,1,0,0:0:0:0:
320,192,145715,1,0,0:0:0:0:
448,192,145715,1,0,0:0:0:0:
64,192,145777,1,0,0:0:0:0:
192,192,145840,1,0,0:0:0:0:
448,192,145840,1,0,0:0:0:0:
320,192,145902,1,0,0:0:0:0:
448,192,145965,1,0,0:0:0:0:
64,192,146027,1,0,0:0:0:0:
192,192,146027,1,0,0:0:0:0:
320,192,146090,1,0,0:0:0:0:
448,192,146152,1,0,0:0:0:0:
64,192,146152,1,0,0:0:0:0:
192,192,146215,1,0,0:0:0:0:
320,192,146277,1,0,0:0:0:0:
448,192,146277,1,0,0:0:0:0:
64,192,146340,1,0,0:0:0:0:
192,192,146402,1,0,0:0:0:0:
320,192,146402,1,0,0:0:0:0:
448,192,146465,1,0,0:0:0:0:
64,192,146527,1,0,0:0:0:0:
192,192,146527,1,0,0:0:0:0:
192,192,146652,1,0,0:0:0:0:
320,192,146652,1,0,0:0:0:0:
64,192,146715,1,0,0:0:0:0:
448,192,146715,1,0,0:0:0:0:
320,192,146777,1,0,0:0:0:0:
192,192,146777,1,0,0:0:0:0:
64,192,146902,1,0,0:0:0:0:
448,192,146902,1,0,0:0:0:0:
192,192,147027,1,0,0:0:0:0:
320,192,147027,1,0,0:0:0:0:
64,192,147090,1,0,0:0:0:0:
448,192,147090,1,0,0:0:0:0:
320,192,147152,1,0,0:0:0:0:
192,192,147215,1,0,0:0:0:0:
64,192,147215,1,0,0:0:0:0:
320,192,147277,1,0,0:0:0:0:
448,192,147340,1,0,0:0:0:0:
192,192,147340,1,0,0:0:0:0:
64,192,147402,1,0,0:0:0:0:
320,192,147402,1,0,0:0:0:0:
192,192,147465,1,0,0:0:0:0:
64,192,147527,1,0,0:0:0:0:
448,192,147527,1,0,0:0:0:0:
320,192,147590,1,0,0:0:0:0:
192,192,147652,1,0,0:0:0:0:
64,192,147652,1,0,0:0:0:0:
320,192,147715,1,0,0:0:0:0:
448,192,147777,1,0,0:0:0:0:
64,192,147777,1,0,0:0:0:0:
192,192,147840,1,0,0:0:0:0:
320,192,147902,1,0,0:0:0:0:
448,192,147902,1,0,0:0:0:0:
64,192,147965,1,0,0:0:0:0:
192,192,147965,1,0,0:0:0:0:
448,192,148027,1,0,0:0:0:0:
320,192,148090,1,0,0:0:0:0:
192,192,148090,1,0,0:0:0:0:
64,192,148152,1,0,0:0:0:0:
448,192,148152,1,0,0:0:0:0:
320,192,148215,1,0,0:0:0:0:
192,192,148215,1,0,0:0:0:0:
448,192,148277,1,0,0:0:0:0:
64,192,148277,1,0,0:0:0:0:
192,192,148340,1,0,0:0:0:0:
320,192,148402,1,0,0:0:0:0:
448,192,148402,1,0,0:0:0:0:
192,192,148465,1,0,0:0:0:0:
64,192,148527,1,0,0:0:0:0:
448,192,148527,1,0,0:0:0:0:
320,192,148590,1,0,0:0:0:0:
192,192,148590,1,0,0:0:0:0:
64,192,148652,1,0,0:0:0:0:
448,192,148715,1,0,0:0:0:0:
320,192,148715,1,0,0:0:0:0:
192,192,148777,1,0,0:0:0:0:
64,192,148840,1,0,0:0:0:0:
448,192,148840,1,0,0:0:0:0:
320,192,148902,1,0,0:0:0:0:
448,192,148965,1,0,0:0:0:0:
192,192,148965,1,0,0:0:0:0:
64,192,149027,1,0,0:0:0:0:
320,192,149027,1,0,0:0:0:0:
64,192,149402,1,0,0:0:0:0:
192,192,149402,1,0,0:0:0:0:
448,192,149402,1,0,0:0:0:0:
64,192,149777,1,0,0:0:0:0:
320,192,149777,1,0,0:0:0:0:
448,192,149777,1,0,0:0:0:0:
192,192,149902,1,0,0:0:0:0:
448,192,149902,1,0,0:0:0:0:
64,192,150027,1,0,0:0:0:0:
192,192,150027,1,0,0:0:0:0:
320,192,150027,1,0,0:0:0:0:
192,192,150277,1,0,0:0:0:0:
320,192,150277,1,0,0:0:0:0:
448,192,150277,1,0,0:0:0:0:
64,192,150402,1,0,0:0:0:0:
320,192,150402,1,0,0:0:0:0:
192,192,150652,1,0,0:0:0:0:
320,192,150715,1,0,0:0:0:0:
448,192,150777,1,0,0:0:0:0:
64,192,150840,1,0,0:0:0:0:
320,192,150902,1,0,0:0:0:0:
192,192,150965,1,0,0:0:0:0:
320,192,151027,1,0,0:0:0:0:
64,192,151027,1,0,0:0:0:0:
448,192,151090,1,0,0:0:0:0:
320,192,151152,1,0,0:0:0:0:
192,192,151152,1,0,0:0:0:0:
64,192,151215,1,0,0:0:0:0:
448,192,151277,1,0,0:0:0:0:
320,192,151277,1,0,0:0:0:0:
192,192,151340,1,0,0:0:0:0:
64,192,151402,1,0,0:0:0:0:
448,192,151402,1,0,0:0:0:0:
320,192,151465,1,0,0:0:0:0:
192,192,151527,1,0,0:0:0:0:
64,192,151527,1,0,0:0:0:0:
448,192,151590,1,0,0:0:0:0:
320,192,151652,1,0,0:0:0:0:
64,192,151652,1,0,0:0:0:0:
192,192,151715,1,0,0:0:0:0:
448,192,151715,1,0,0:0:0:0:
64,192,151777,1,0,0:0:0:0:
320,192,151840,1,0,0:0:0:0:
192,192,151902,1,0,0:0:0:0:
320,192,151965,1,0,0:0:0:0:
448,192,151965,1,0,0:0:0:0:
64,192,152027,1,0,0:0:0:0:
192,192,152090,1,0,0:0:0:0:
448,192,152090,1,0,0:0:0:0:
320,192,152152,1,0,0:0:0:0:
192,192,152215,1,0,0:0:0:0:
64,192,152215,1,0,0:0:0:0:
448,192,152277,1,0,0:0:0:0:
320,192,152340,1,0,0:0:0:0:
64,192,152340,1,0,0:0:0:0:
192,192,152402,1,0,0:0:0:0:
320,192,152465,1,0,0:0:0:0:
448,192,152465,1,0,0:0:0:0:
64,192,152527,1,0,0:0:0:0:
192,192,152590,1,0,0:0:0:0:
320,192,152590,1,0,0:0:0:0:
448,192,152652,1,0,0:0:0:0:
192,192,152715,1,0,0:0:0:0:
64,192,152777,1,0,0:0:0:0:
320,192,152777,1,0,0:0:0:0:
192,192,152840,1,0,0:0:0:0:
64,192,152902,1,0,0:0:0:0:
320,192,152902,1,0,0:0:0:0:
448,192,152965,1,0,0:0:0:0:
320,192,153027,1,0,0:0:0:0:
64,192,153027,1,0,0:0:0:0:
192,192,153090,1,0,0:0:0:0:
64,192,153152,1,0,0:0:0:0:
448,192,153152,1,0,0:0:0:0:
320,192,153215,1,0,0:0:0:0:
192,192,153215,1,0,0:0:0:0:
448,192,153277,1,0,0:0:0:0:
64,192,153340,1,0,0:0:0:0:
192,192,153340,1,0,0:0:0:0:
320,192,153402,1,0,0:0:0:0:
448,192,153465,1,0,0:0:0:0:
64,192,153465,1,0,0:0:0:0:
192,192,153527,1,0,0:0:0:0:
320,192,153590,1,0,0:0:0:0:
448,192,153590,1,0,0:0:0:0:
64,192,153652,1,0,0:0:0:0:
192,192,153715,1,0,0:0:0:0:
320,192,153715,1,0,0:0:0:0:
448,192,153777,1,0,0:0:0:0:
64,192,153840,1,0,0:0:0:0:
192,192,153902,1,0,0:0:0:0:
448,192,153902,1,0,0:0:0:0:
320,192,153965,1,0,0:0:0:0:
192,192,154027,1,0,0:0:0:0:
64,192,154027,1,0,0:0:0:0:
448,192,154090,1,0,0:0:0:0:
320,192,154152,1,0,0:0:0:0:
64,192,154152,1,0,0:0:0:0:
192,192,154215,1,0,0:0:0:0:
64,192,154277,1,0,0:0:0:0:
448,192,154277,1,0,0:0:0:0:
320,192,154340,1,0,0:0:0:0:
64,192,154402,1,0,0:0:0:0:
192,192,154402,1,0,0:0:0:0:
448,192,154465,1,0,0:0:0:0:
192,192,154527,1,0,0:0:0:0:
320,192,154527,1,0,0:0:0:0:
448,192,154652,1,0,0:0:0:0:
64,192,154652,1,0,0:0:0:0:
192,192,154715,1,0,0:0:0:0:
320,192,154715,1,0,0:0:0:0:
64,192,154777,1,0,0:0:0:0:
448,192,154777,1,0,0:0:0:0:
64,192,154902,1,0,0:0:0:0:
192,192,154902,1,0,0:0:0:0:
192,192,155027,1,0,0:0:0:0:
448,192,155027,1,0,0:0:0:0:
320,192,155090,1,0,0:0:0:0:
64,192,155152,1,0,0:0:0:0:
448,192,155152,1,0,0:0:0:0:
320,192,155215,1,0,0:0:0:0:
64,192,155277,1,0,0:0:0:0:
192,192,155277,1,0,0:0:0:0:
320,192,155340,1,0,0:0:0:0:
448,192,155402,1,0,0:0:0:0:
64,192,155402,1,0,0:0:0:0:
192,192,155465,1,0,0:0:0:0:
320,192,155527,1,0,0:0:0:0:
448,192,155527,1,0,0:0:0:0:
192,192,155590,1,0,0:0:0:0:
64,192,155652,1,0,0:0:0:0:
448,192,155652,1,0,0:0:0:0:
320,192,155715,1,0,0:0:0:0:
192,192,155777,1,0,0:0:0:0:
64,192,155777,1,0,0:0:0:0:
448,192,155840,1,0,0:0:0:0:
320,192,155902,1,0,0:0:0:0:
192,192,155902,1,0,0:0:0:0:
64,192,155965,1,0,0:0:0:0:
320,192,156027,1,0,0:0:0:0:
448,192,156027,1,0,0:0:0:0:
192,192,156090,1,0,0:0:0:0:
320,192,156152,1,0,0:0:0:0:
448,192,156152,1,0,0:0:0:0:
64,192,156215,1,0,0:0:0:0:
320,192,156277,1,0,0:0:0:0:
448,192,156277,1,0,0:0:0:0:
192,192,156340,1,0,0:0:0:0:
320,192,156402,1,0,0:0:0:0:
448,192,156402,1,0,0:0:0:0:
192,192,156465,1,0,0:0:0:0:
64,192,156527,1,0,0:0:0:0:
320,192,156527,1,0,0:0:0:0:
448,192,156652,1,0,0:0:0:0:
192,192,156652,1,0,0:0:0:0:
320,192,156715,1,0,0:0:0:0:
64,192,156715,1,0,0:0:0:0:
192,192,156777,1,0,0:0:0:0:
448,192,156777,1,0,0:0:0:0:
64,192,156902,1,0,0:0:0:0:
320,192,156902,1,0,0:0:0:0:
448,192,157027,1,0,0:0:0:0:
192,192,157027,1,0,0:0:0:0:
320,192,157027,1,0,0:0:0:0:
64,192,157402,1,0,0:0:0:0:
320,192,157402,1,0,0:0:0:0:
448,192,157402,1,0,0:0:0:0:
192,192,157777,1,0,0:0:0:0:
64,192,157777,1,0,0:0:0:0:
320,192,157777,1,0,0:0:0:0:
320,192,158027,1,0,0:0:0:0:
448,192,158027,1,0,0:0:0:0:
64,192,158027,1,0,0:0:0:0:
192,192,158152,1,0,0:0:0:0:
448,192,158152,1,0,0:0:0:0:
64,192,158277,1,0,0:0:0:0:
320,192,158277,1,0,0:0:0:0:
192,192,158402,1,0,0:0:0:0:
320,192,158402,1,0,0:0:0:0:
448,192,158527,1,0,0:0:0:0:
64,192,158527,1,0,0:0:0:0:
64,192,158652,1,0,0:0:0:0:
192,192,158652,1,0,0:0:0:0:
320,192,158715,1,0,0:0:0:0:
448,192,158715,1,0,0:0:0:0:
64,192,158777,1,0,0:0:0:0:
192,192,158809,1,0,0:0:0:0:
320,192,158840,1,0,0:0:0:0:
448,192,158871,1,0,0:0:0:0:
64,192,158902,1,0,0:0:0:0:
192,192,158934,1,0,0:0:0:0:
320,192,158965,1,0,0:0:0:0:
448,192,158996,1,0,0:0:0:0:
64,192,159090,1,0,0:0:0:0:
192,192,159152,1,0,0:0:0:0:
320,192,159215,1,0,0:0:0:0:
448,192,159277,1,0,0:0:0:0:
192,192,159340,1,0,0:0:0:0:
64,192,159402,1,0,0:0:0:0:
192,192,159465,1,0,0:0:0:0:
448,192,159527,1,0,0:0:0:0:
320,192,159590,1,0,0:0:0:0:
192,192,159652,1,0,0:0:0:0:
448,192,159715,1,0,0:0:0:0:
320,192,159777,1,0,0:0:0:0:
448,192,159840,1,0,0:0:0:0:
64,192,159902,1,0,0:0:0:0:
192,192,159965,1,0,0:0:0:0:
320,192,160027,1,0,0:0:0:0:
448,192,160090,1,0,0:0:0:0:
320,192,160152,1,0,0:0:0:0:
192,192,160215,1,0,0:0:0:0:
448,192,160277,1,0,0:0:0:0:
320,192,160340,1,0,0:0:0:0:
192,192,160402,1,0,0:0:0:0:
64,192,160465,1,0,0:0:0:0:
192,192,160527,1,0,0:0:0:0:
320,192,160590,1,0,0:0:0:0:
448,192,160652,1,0,0:0:0:0:
64,192,160715,1,0,0:0:0:0:
192,192,160777,1,0,0:0:0:0:
320,192,160840,1,0,0:0:0:0:
192,192,160902,1,0,0:0:0:0:
64,192,160965,1,0,0:0:0:0:
448,192,161027,1,0,0:0:0:0:
320,192,161090,1,0,0:0:0:0:
192,192,161152,1,0,0:0:0:0:
320,192,161215,1,0,0:0:0:0:
64,192,161277,1,0,0:0:0:0:
192,192,161340,1,0,0:0:0:0:
64,192,161402,1,0,0:0:0:0:
448,192,161465,1,0,0:0:0:0:
320,192,161527,1,0,0:0:0:0:
192,192,161590,1,0,0:0:0:0:
64,192,161652,1,0,0:0:0:0:
192,192,161715,1,0,0:0:0:0:
320,192,161777,1,0,0:0:0:0:
64,192,161840,1,0,0:0:0:0:
192,192,161902,1,0,0:0:0:0:
320,192,161965,1,0,0:0:0:0:
192,192,162027,1,0,0:0:0:0:
64,192,162090,1,0,0:0:0:0:
448,192,162152,1,0,0:0:0:0:
320,192,162215,1,0,0:0:0:0:
192,192,162277,1,0,0:0:0:0:
64,192,162340,1,0,0:0:0:0:
192,192,162402,1,0,0:0:0:0:
320,192,162465,1,0,0:0:0:0:
448,192,162527,1,0,0:0:0:0:
64,192,162590,1,0,0:0:0:0:
192,192,162652,1,0,0:0:0:0:
64,192,162715,1,0,0:0:0:0:
448,192,162777,1,0,0:0:0:0:
320,192,162840,1,0,0:0:0:0:
192,192,162902,1,0,0:0:0:0:
320,192,162965,1,0,0:0:0:0:
448,192,163027,1,0,0:0:0:0:
64,192,163090,1,0,0:0:0:0:
320,192,163152,1,0,0:0:0:0:
192,192,163215,1,0,0:0:0:0:
448,192,163277,1,0,0:0:0:0:
320,192,163340,1,0,0:0:0:0:
448,192,163402,1,0,0:0:0:0:
64,192,163465,1,0,0:0:0:0:
192,192,163527,1,0,0:0:0:0:
320,192,163590,1,0,0:0:0:0:
448,192,163652,1,0,0:0:0:0:
320,192,163715,1,0,0:0:0:0:
192,192,163777,1,0,0:0:0:0:
448,192,163840,1,0,0:0:0:0:
320,192,163902,1,0,0:0:0:0:
192,192,163965,1,0,0:0:0:0:
64,192,164027,1,0,0:0:0:0:
192,192,164090,1,0,0:0:0:0:
320,192,164152,1,0,0:0:0:0:
448,192,164215,1,0,0:0:0:0:
64,192,164277,1,0,0:0:0:0:
192,192,164340,1,0,0:0:0:0:
320,192,164402,1,0,0:0:0:0:
192,192,164465,1,0,0:0:0:0:
64,192,164527,1,0,0:0:0:0:
448,192,164590,1,0,0:0:0:0:
320,192,164652,1,0,0:0:0:0:
192,192,164715,1,0,0:0:0:0:
320,192,164777,1,0,0:0:0:0:
64,192,164840,1,0,0:0:0:0:
192,192,164902,1,0,0:0:0:0:
64,192,164965,1,0,0:0:0:0:
448,192,165027,1,0,0:0:0:0:
320,192,165090,1,0,0:0:0:0:
192,192,165152,1,0,0:0:0:0:
64,192,165215,1,0,0:0:0:0:
192,192,165277,1,0,0:0:0:0:
320,192,165340,1,0,0:0:0:0:
64,192,165402,1,0,0:0:0:0:
192,192,165465,1,0,0:0:0:0:
320,192,165527,1,0,0:0:0:0:
192,192,165590,1,0,0:0:0:0:
64,192,165652,1,0,0:0:0:0:
448,192,165715,1,0,0:0:0:0:
320,192,165777,1,0,0:0:0:0:
192,192,165840,1,0,0:0:0:0:
64,192,165902,1,0,0:0:0:0:
192,192,165965,1,0,0:0:0:0:
320,192,166027,1,0,0:0:0:0:
448,192,166090,1,0,0:0:0:0:
64,192,166152,1,0,0:0:0:0:
192,192,166215,1,0,0:0:0:0:
64,192,166277,1,0,0:0:0:0:
448,192,166340,1,0,0:0:0:0:
320,192,166402,1,0,0:0:0:0:
192,192,166465,1,0,0:0:0:0:
320,192,166527,1,0,0:0:0:0:
64,192,166590,1,0,0:0:0:0:
192,192,166652,1,0,0:0:0:0:
320,192,166715,1,0,0:0:0:0:
448,192,166777,1,0,0:0:0:0:
320,192,166840,1,0,0:0:0:0:
192,192,166902,1,0,0:0:0:0:
448,192,166965,1,0,0:0:0:0:
64,192,167027,1,0,0:0:0:0:
320,192,167527,1,0,0:0:0:0:
192,192,168277,1,0,0:0:0:0:
64,192,168527,1,0,0:0:0:0:
448,192,168777,1,0,0:0:0:0:
64,192,169027,1,0,0:0:0:0:
320,192,169777,1,0,0:0:0:0:
64,192,170027,1,0,0:0:0:0:
320,192,171027,1,0,0:0:0:0:
64,192,171527,1,0,0:0:0:0:
320,192,172277,1,0,0:0:0:0:
448,192,172527,1,0,0:0:0:0:
64,192,172777,5,0,0:0:0:0:
448,192,173027,1,0,0:0:0:0:
448,192,173777,5,0,0:0:0:0:
320,192,173809,1,0,0:0:0:0:
192,192,173840,1,0,0:0:0:0:
64,192,173871,1,0,0:0:0:0:
448,192,173902,1,0,0:0:0:0:
320,192,173934,1,0,0:0:0:0:
192,192,173965,1,0,0:0:0:0:
64,192,173996,1,0,0:0:0:0:
192,192,174152,1,0,0:0:0:0:
64,192,174152,1,0,0:0:0:0:
448,192,174152,1,0,0:0:0:0:
320,192,174402,1,0,0:0:0:0:
192,192,174402,1,0,0:0:0:0:
448,192,174402,1,0,0:0:0:0:
320,192,174652,1,0,0:0:0:0:
448,192,174652,1,0,0:0:0:0:
64,192,174777,1,0,0:0:0:0:
320,192,174777,1,0,0:0:0:0:
192,192,174902,1,0,0:0:0:0:
448,192,174902,1,0,0:0:0:0:
64,192,174902,1,0,0:0:0:0:
64,192,175027,1,0,0:0:0:0:
448,192,175027,1,0,0:0:0:0:
192,192,175090,1,0,0:0:0:0:
448,192,175152,1,0,0:0:0:0:
64,192,175215,1,0,0:0:0:0:
192,192,175277,1,0,0:0:0:0:
320,192,175277,1,0,0:0:0:0:
448,192,175340,1,0,0:0:0:0:
64,192,175402,1,0,0:0:0:0:
192,192,175465,1,0,0:0:0:0:
448,192,175527,1,0,0:0:0:0:
64,192,175527,1,0,0:0:0:0:
320,192,175590,1,0,0:0:0:0:
192,192,175652,1,0,0:0:0:0:
448,192,175715,1,0,0:0:0:0:
320,192,175777,1,0,0:0:0:0:
64,192,175777,1,0,0:0:0:0:
448,192,175840,1,0,0:0:0:0:
192,192,175902,1,0,0:0:0:0:
320,192,175965,1,0,0:0:0:0:
192,192,176027,1,0,0:0:0:0:
448,192,176027,1,0,0:0:0:0:
64,192,176090,1,0,0:0:0:0:
320,192,176152,1,0,0:0:0:0:
448,192,176215,1,0,0:0:0:0:
192,192,176277,1,0,0:0:0:0:
320,192,176277,1,0,0:0:0:0:
64,192,176340,1,0,0:0:0:0:
448,192,176402,1,0,0:0:0:0:
320,192,176465,1,0,0:0:0:0:
448,192,176527,1,0,0:0:0:0:
64,192,176527,1,0,0:0:0:0:
192,192,176590,1,0,0:0:0:0:
320,192,176652,1,0,0:0:0:0:
64,192,176715,1,0,0:0:0:0:
448,192,176777,1,0,0:0:0:0:
192,192,176777,1,0,0:0:0:0:
64,192,176840,1,0,0:0:0:0:
192,192,176902,1,0,0:0:0:0:
448,192,176902,1,0,0:0:0:0:
320,192,176965,1,0,0:0:0:0:
192,192,177027,1,0,0:0:0:0:
448,192,177027,1,0,0:0:0:0:
64,192,177090,1,0,0:0:0:0:
320,192,177152,1,0,0:0:0:0:
448,192,177215,1,0,0:0:0:0:
64,192,177277,1,0,0:0:0:0:
192,192,177277,1,0,0:0:0:0:
448,192,177340,1,0,0:0:0:0:
320,192,177402,1,0,0:0:0:0:
448,192,177465,1,0,0:0:0:0:
64,192,177527,1,0,0:0:0:0:
192,192,177527,1,0,0:0:0:0:
320,192,177590,1,0,0:0:0:0:
448,192,177652,1,0,0:0:0:0:
320,192,177715,1,0,0:0:0:0:
64,192,177777,1,0,0:0:0:0:
192,192,177777,1,0,0:0:0:0:
448,192,177840,1,0,0:0:0:0:
320,192,177902,1,0,0:0:0:0:
192,192,177965,1,0,0:0:0:0:
448,192,178027,1,0,0:0:0:0:
64,192,178027,1,0,0:0:0:0:
192,192,178090,1,0,0:0:0:0:
320,192,178152,1,0,0:0:0:0:
448,192,178215,1,0,0:0:0:0:
64,192,178277,1,0,0:0:0:0:
320,192,178277,1,0,0:0:0:0:
192,192,178340,1,0,0:0:0:0:
320,192,178402,1,0,0:0:0:0:
448,192,178465,1,0,0:0:0:0:
64,192,178527,1,0,0:0:0:0:
192,192,178527,1,0,0:0:0:0:
192,192,178652,1,0,0:0:0:0:
448,192,178652,1,0,0:0:0:0:
320,192,178715,1,0,0:0:0:0:
64,192,178715,1,0,0:0:0:0:
448,192,178777,1,0,0:0:0:0:
192,192,178777,1,0,0:0:0:0:
192,192,178902,1,0,0:0:0:0:
64,192,178902,1,0,0:0:0:0:
320,192,179027,1,0,0:0:0:0:
448,192,179027,1,0,0:0:0:0:
192,192,179090,1,0,0:0:0:0:
64,192,179152,1,0,0:0:0:0:
448,192,179215,1,0,0:0:0:0:
64,192,179277,1,0,0:0:0:0:
192,192,179277,1,0,0:0:0:0:
320,192,179340,1,0,0:0:0:0:
448,192,179402,1,0,0:0:0:0:
192,192,179465,1,0,0:0:0:0:
320,192,179527,1,0,0:0:0:0:
64,192,179527,1,0,0:0:0:0:
448,192,179590,1,0,0:0:0:0:
64,192,179652,1,0,0:0:0:0:
448,192,179715,1,0,0:0:0:0:
192,192,179777,1,0,0:0:0:0:
320,192,179777,1,0,0:0:0:0:
64,192,179840,1,0,0:0:0:0:
448,192,179902,1,0,0:0:0:0:
320,192,179965,1,0,0:0:0:0:
192,192,180027,1,0,0:0:0:0:
64,192,180027,1,0,0:0:0:0:
448,192,180090,1,0,0:0:0:0:
320,192,180152,1,0,0:0:0:0:
192,192,180215,1,0,0:0:0:0:
64,192,180277,1,0,0:0:0:0:
448,192,180277,1,0,0:0:0:0:
192,192,180340,1,0,0:0:0:0:
320,192,180402,1,0,0:0:0:0:
448,192,180465,1,0,0:0:0:0:
64,192,180527,5,0,0:0:0:0:
320,192,180527,1,0,0:0:0:0:
192,192,180590,1,0,0:0:0:0:
64,192,180652,1,0,0:0:0:0:
320,192,180715,1,0,0:0:0:0:
448,192,180777,1,0,0:0:0:0:
192,192,180777,1,0,0:0:0:0:
64,192,180840,1,0,0:0:0:0:
192,192,180902,1,0,0:0:0:0:
320,192,180965,1,0,0:0:0:0:
64,192,181027,1,0,0:0:0:0:
192,192,181027,1,0,0:0:0:0:
448,192,181027,1,0,0:0:0:0:
64,192,181402,1,0,0:0:0:0:
320,192,181402,1,0,0:0:0:0:
448,192,181402,1,0,0:0:0:0:
192,192,181777,1,0,0:0:0:0:
64,192,181777,1,0,0:0:0:0:
320,192,181777,1,0,0:0:0:0:
64,192,182027,1,0,0:0:0:0:
448,192,182027,1,0,0:0:0:0:
192,192,182027,1,0,0:0:0:0:
64,192,182277,1,0,0:0:0:0:
320,192,182277,1,0,0:0:0:0:
448,192,182277,1,0,0:0:0:0:
64,192,182527,1,0,0:0:0:0:
192,192,182527,1,0,0:0:0:0:
320,192,182527,1,0,0:0:0:0:
448,192,182527,1,0,0:0:0:0:
64,192,183027,1,0,0:0:0:0:
320,192,183027,1,0,0:0:0:0:
448,192,183027,1,0,0:0:0:0:
192,192,183090,1,0,0:0:0:0:
448,192,183152,1,0,0:0:0:0:
64,192,183215,1,0,0:0:0:0:
320,192,183277,1,0,0:0:0:0:
192,192,183277,1,0,0:0:0:0:
448,192,183340,1,0,0:0:0:0:
64,192,183402,1,0,0:0:0:0:
192,192,183465,1,0,0:0:0:0:
64,192,183527,1,0,0:0:0:0:
448,192,183527,1,0,0:0:0:0:
320,192,183590,1,0,0:0:0:0:
192,192,183652,1,0,0:0:0:0:
448,192,183715,1,0,0:0:0:0:
64,192,183777,1,0,0:0:0:0:
320,192,183777,1,0,0:0:0:0:
448,192,183840,1,0,0:0:0:0:
192,192,183902,1,0,0:0:0:0:
320,192,183965,1,0,0:0:0:0:
448,192,184027,1,0,0:0:0:0:
192,192,184027,1,0,0:0:0:0:
64,192,184090,1,0,0:0:0:0:
320,192,184152,1,0,0:0:0:0:
448,192,184215,1,0,0:0:0:0:
320,192,184277,1,0,0:0:0:0:
192,192,184277,1,0,0:0:0:0:
64,192,184340,1,0,0:0:0:0:
192,192,184402,1,0,0:0:0:0:
448,192,184465,1,0,0:0:0:0:
64,192,184527,1,0,0:0:0:0:
320,192,184527,1,0,0:0:0:0:
192,192,184590,1,0,0:0:0:0:
320,192,184652,1,0,0:0:0:0:
64,192,184715,1,0,0:0:0:0:
320,192,184777,1,0,0:0:0:0:
448,192,184777,1,0,0:0:0:0:
64,192,184840,1,0,0:0:0:0:
448,192,184902,1,0,0:0:0:0:
192,192,184902,1,0,0:0:0:0:
320,192,184965,1,0,0:0:0:0:
448,192,185027,1,0,0:0:0:0:
192,192,185027,1,0,0:0:0:0:
64,192,185090,1,0,0:0:0:0:
320,192,185152,1,0,0:0:0:0:
448,192,185215,1,0,0:0:0:0:
192,192,185277,1,0,0:0:0:0:
64,192,185277,1,0,0:0:0:0:
320,192,185340,1,0,0:0:0:0:
192,192,185402,1,0,0:0:0:0:
448,192,185465,1,0,0:0:0:0:
320,192,185527,1,0,0:0:0:0:
64,192,185527,1,0,0:0:0:0:
192,192,185590,1,0,0:0:0:0:
448,192,185652,1,0,0:0:0:0:
320,192,185715,1,0,0:0:0:0:
192,192,185777,1,0,0:0:0:0:
64,192,185777,1,0,0:0:0:0:
448,192,185840,1,0,0:0:0:0:
320,192,185902,1,0,0:0:0:0:
192,192,185965,1,0,0:0:0:0:
64,192,186027,1,0,0:0:0:0:
448,192,186027,1,0,0:0:0:0:
192,192,186090,1,0,0:0:0:0:
320,192,186152,1,0,0:0:0:0:
448,192,186215,1,0,0:0:0:0:
320,192,186277,1,0,0:0:0:0:
64,192,186277,1,0,0:0:0:0:
192,192,186340,1,0,0:0:0:0:
320,192,186402,1,0,0:0:0:0:
448,192,186465,1,0,0:0:0:0:
192,192,186527,1,0,0:0:0:0:
64,192,186527,1,0,0:0:0:0:
448,192,186652,1,0,0:0:0:0:
320,192,186652,1,0,0:0:0:0:
64,192,186715,1,0,0:0:0:0:
192,192,186715,1,0,0:0:0:0:
320,192,186777,1,0,0:0:0:0:
448,192,186777,1,0,0:0:0:0:
64,192,186902,1,0,0:0:0:0:
192,192,186902,1,0,0:0:0:0:
448,192,187027,1,0,0:0:0:0:
320,192,187027,1,0,0:0:0:0:
192,192,187090,1,0,0:0:0:0:
64,192,187152,1,0,0:0:0:0:
448,192,187215,1,0,0:0:0:0:
192,192,187277,1,0,0:0:0:0:
64,192,187277,1,0,0:0:0:0:
320,192,187340,1,0,0:0:0:0:
448,192,187402,1,0,0:0:0:0:
192,192,187465,1,0,0:0:0:0:
64,192,187527,1,0,0:0:0:0:
320,192,187527,1,0,0:0:0:0:
448,192,187590,1,0,0:0:0:0:
64,192,187652,1,0,0:0:0:0:
448,192,187715,1,0,0:0:0:0:
320,192,187777,1,0,0:0:0:0:
192,192,187777,1,0,0:0:0:0:
64,192,187840,1,0,0:0:0:0:
448,192,187902,1,0,0:0:0:0:
320,192,187965,1,0,0:0:0:0:
64,192,188027,1,0,0:0:0:0:
192,192,188027,1,0,0:0:0:0:
448,192,188090,1,0,0:0:0:0:
320,192,188152,1,0,0:0:0:0:
192,192,188215,1,0,0:0:0:0:
448,192,188277,1,0,0:0:0:0:
64,192,188277,1,0,0:0:0:0:
192,192,188340,1,0,0:0:0:0:
320,192,188402,1,0,0:0:0:0:
448,192,188465,1,0,0:0:0:0:
64,192,188527,5,0,0:0:0:0:
320,192,188527,1,0,0:0:0:0:
192,192,188590,1,0,0:0:0:0:
64,192,188652,1,0,0:0:0:0:
320,192,188715,1,0,0:0:0:0:
192,192,188777,1,0,0:0:0:0:
448,192,188777,1,0,0:0:0:0:
64,192,188840,1,0,0:0:0:0:
192,192,188902,1,0,0:0:0:0:
320,192,188965,1,0,0:0:0:0:
448,192,189027,1,0,0:0:0:0:
64,192,189027,1,0,0:0:0:0:
192,192,189027,1,0,0:0:0:0:
64,192,189152,1,0,0:0:0:0:
320,192,189152,1,0,0:0:0:0:
64,192,189277,1,0,0:0:0:0:
192,192,189277,1,0,0:0:0:0:
448,192,189402,1,0,0:0:0:0:
320,192,189402,1,0,0:0:0:0:
64,192,189402,1,0,0:0:0:0:
64,192,189527,1,0,0:0:0:0:
192,192,189527,1,0,0:0:0:0:
320,192,189590,5,0,0:0:0:0:
448,192,189590,1,0,0:0:0:0:
192,192,189652,1,0,0:0:0:0:
64,192,189652,1,0,0:0:0:0:
320,192,189715,1,0,0:0:0:0:
448,192,189715,1,0,0:0:0:0:
192,192,189777,1,0,0:0:0:0:
64,192,189777,1,0,0:0:0:0:
320,192,189840,1,0,0:0:0:0:
448,192,189840,1,0,0:0:0:0:
64,192,189902,1,0,0:0:0:0:
192,192,189934,1,0,0:0:0:0:
320,192,189965,1,0,0:0:0:0:
448,192,189996,1,0,0:0:0:0:
64,192,190027,1,0,0:0:0:0:
192,192,190059,1,0,0:0:0:0:
320,192,190090,1,0,0:0:0:0:
448,192,190121,1,0,0:0:0:0:
64,192,190152,1,0,0:0:0:0:
192,192,190184,1,0,0:0:0:0:
320,192,190215,1,0,0:0:0:0:
448,192,190246,1,0,0:0:0:0:
64,192,190277,1,0,0:0:0:0:
192,192,190309,1,0,0:0:0:0:
320,192,190340,1,0,0:0:0:0:
448,192,190371,1,0,0:0:0:0:
64,192,190402,1,0,0:0:0:0:
192,192,190434,1,0,0:0:0:0:
320,192,190465,1,0,0:0:0:0:
448,192,190496,1,0,0:0:0:0:
64,192,190527,1,0,0:0:0:0:
192,192,190559,1,0,0:0:0:0:
320,192,190590,1,0,0:0:0:0:
448,192,190621,1,0,0:0:0:0:
64,192,190652,1,0,0:0:0:0:
192,192,190684,1,0,0:0:0:0:
320,192,190715,1,0,0:0:0:0:
448,192,190746,1,0,0:0:0:0:
64,192,190777,5,0,0:0:0:0:
192,192,190777,1,0,0:0:0:0:
320,192,191027,1,0,0:0:0:0:
192,192,191027,1,0,0:0:0:0:
64,192,191027,1,0,0:0:0:0:
448,192,191090,1,0,0:0:0:0:
192,192,191152,1,0,0:0:0:0:
320,192,191215,1,0,0:0:0:0:
448,192,191277,1,0,0:0:0:0:
64,192,191340,1,0,0:0:0:0:
192,192,191340,1,0,0:0:0:0:
320,192,191402,1,0,0:0:0:0:
448,192,191465,1,0,0:0:0:0:
64,192,191527,1,0,0:0:0:0:
192,192,191590,1,0,0:0:0:0:
320,192,191652,1,0,0:0:0:0:
64,192,191715,1,0,0:0:0:0:
448,192,191715,1,0,0:0:0:0:
192,192,191777,1,0,0:0:0:0:
320,192,191840,1,0,0:0:0:0:
64,192,191902,1,0,0:0:0:0:
448,192,191965,1,0,0:0:0:0:
320,192,192027,1,0,0:0:0:0:
192,192,192027,1,0,0:0:0:0:
64,192,192090,1,0,0:0:0:0:
448,192,192152,1,0,0:0:0:0:
320,192,192152,1,0,0:0:0:0:
192,192,192215,1,0,0:0:0:0:
64,192,192277,1,0,0:0:0:0:
448,192,192340,1,0,0:0:0:0:
320,192,192402,1,0,0:0:0:0:
64,192,192465,1,0,0:0:0:0:
192,192,192465,1,0,0:0:0:0:
320,192,192527,1,0,0:0:0:0:
448,192,192590,1,0,0:0:0:0:
64,192,192652,1,0,0:0:0:0:
192,192,192715,1,0,0:0:0:0:
320,192,192777,1,0,0:0:0:0:
64,192,192840,1,0,0:0:0:0:
448,192,192840,1,0,0:0:0:0:
192,192,192902,1,0,0:0:0:0:
64,192,192965,1,0,0:0:0:0:
448,192,193027,1,0,0:0:0:0:
192,192,193090,1,0,0:0:0:0:
320,192,193152,1,0,0:0:0:0:
64,192,193152,1,0,0:0:0:0:
192,192,193215,1,0,0:0:0:0:
64,192,193277,1,0,0:0:0:0:
448,192,193277,1,0,0:0:0:0:
320,192,193340,1,0,0:0:0:0:
192,192,193402,1,0,0:0:0:0:
448,192,193402,1,0,0:0:0:0:
64,192,193465,1,0,0:0:0:0:
320,192,193527,1,0,0:0:0:0:
448,192,193590,1,0,0:0:0:0:
64,192,193652,1,0,0:0:0:0:
192,192,193652,1,0,0:0:0:0:
320,192,193715,1,0,0:0:0:0:
448,192,193777,1,0,0:0:0:0:
64,192,193840,1,0,0:0:0:0:
192,192,193902,1,0,0:0:0:0:
320,192,193965,1,0,0:0:0:0:
448,192,193965,1,0,0:0:0:0:
192,192,194027,1,0,0:0:0:0:
448,192,194090,1,0,0:0:0:0:
320,192,194152,1,0,0:0:0:0:
448,192,194215,1,0,0:0:0:0:
64,192,194215,1,0,0:0:0:0:
192,192,194277,1,0,0:0:0:0:
320,192,194340,1,0,0:0:0:0:
448,192,194402,1,0,0:0:0:0:
192,192,194465,1,0,0:0:0:0:
64,192,194465,1,0,0:0:0:0:
320,192,194527,1,0,0:0:0:0:
64,192,194590,1,0,0:0:0:0:
192,192,194652,1,0,0:0:0:0:
448,192,194715,1,0,0:0:0:0:
320,192,194715,1,0,0:0:0:0:
64,192,194777,1,0,0:0:0:0:
448,192,194840,1,0,0:0:0:0:
320,192,194902,1,0,0:0:0:0:
64,192,194965,1,0,0:0:0:0:
192,192,194965,1,0,0:0:0:0:
448,192,195027,1,0,0:0:0:0:
320,192,195090,1,0,0:0:0:0:
448,192,195152,1,0,0:0:0:0:
64,192,195152,1,0,0:0:0:0:
192,192,195215,1,0,0:0:0:0:
448,192,195277,1,0,0:0:0:0:
320,192,195340,1,0,0:0:0:0:
64,192,195340,1,0,0:0:0:0:
192,192,195402,1,0,0:0:0:0:
64,192,195465,1,0,0:0:0:0:
192,192,195527,1,0,0:0:0:0:
320,192,195527,1,0,0:0:0:0:
448,192,195590,1,0,0:0:0:0:
320,192,195652,1,0,0:0:0:0:
448,192,195715,1,0,0:0:0:0:
64,192,195715,1,0,0:0:0:0:
192,192,195777,1,0,0:0:0:0:
448,192,195840,1,0,0:0:0:0:
320,192,195902,1,0,0:0:0:0:
64,192,195902,1,0,0:0:0:0:
192,192,195965,1,0,0:0:0:0:
64,192,196027,1,0,0:0:0:0:
320,192,196090,1,0,0:0:0:0:
448,192,196152,1,0,0:0:0:0:
192,192,196152,1,0,0:0:0:0:
64,192,196215,1,0,0:0:0:0:
192,192,196277,1,0,0:0:0:0:
320,192,196340,1,0,0:0:0:0:
448,192,196402,1,0,0:0:0:0:
64,192,196402,1,0,0:0:0:0:
192,192,196465,1,0,0:0:0:0:
320,192,196527,1,0,0:0:0:0:
64,192,196590,1,0,0:0:0:0:
320,192,196652,1,0,0:0:0:0:
192,192,196652,1,0,0:0:0:0:
448,192,196715,1,0,0:0:0:0:
192,192,196777,1,0,0:0:0:0:
64,192,196777,1,0,0:0:0:0:
320,192,196840,1,0,0:0:0:0:
448,192,197027,1,0,0:0:0:0:
64,192,197027,1,0,0:0:0:0:
192,192,197027,1,0,0:0:0:0:
320,192,197402,1,0,0:0:0:0:
448,192,197402,1,0,0:0:0:0:
192,192,197402,1,0,0:0:0:0:
64,192,197777,1,0,0:0:0:0:
192,192,197777,1,0,0:0:0:0:
320,192,197777,1,0,0:0:0:0:
192,192,198152,5,0,0:0:0:0:
448,192,198152,1,0,0:0:0:0:
320,192,198152,1,0,0:0:0:0:
192,192,198527,1,0,0:0:0:0:
64,192,198527,1,0,0:0:0:0:
448,192,198527,1,0,0:0:0:0:
64,192,198777,1,0,0:0:0:0:
448,192,198777,1,0,0:0:0:0:
320,192,198777,1,0,0:0:0:0:
192,192,198902,1,0,0:0:0:0:
448,192,198902,1,0,0:0:0:0:
64,192,199027,1,0,0:0:0:0:
448,192,199027,1,0,0:0:0:0:
320,192,199027,1,0,0:0:0:0:
192,192,199090,1,0,0:0:0:0:
64,192,199152,1,0,0:0:0:0:
448,192,199215,1,0,0:0:0:0:
64,192,199277,1,0,0:0:0:0:
320,192,199277,1,0,0:0:0:0:
192,192,199340,1,0,0:0:0:0:
64,192,199402,1,0,0:0:0:0:
320,192,199465,1,0,0:0:0:0:
64,192,199527,1,0,0:0:0:0:
448,192,199527,1,0,0:0:0:0:
192,192,199590,1,0,0:0:0:0:
320,192,199652,1,0,0:0:0:0:
64,192,199715,1,0,0:0:0:0:
192,192,199777,1,0,0:0:0:0:
320,192,199777,1,0,0:0:0:0:
448,192,199840,1,0,0:0:0:0:
64,192,199902,1,0,0:0:0:0:
320,192,199965,1,0,0:0:0:0:
192,192,200027,1,0,0:0:0:0:
64,192,200027,1,0,0:0:0:0:
448,192,200090,1,0,0:0:0:0:
320,192,200152,1,0,0:0:0:0:
192,192,200215,1,0,0:0:0:0:
64,192,200277,1,0,0:0:0:0:
448,192,200277,1,0,0:0:0:0:
192,192,200340,1,0,0:0:0:0:
320,192,200402,1,0,0:0:0:0:
448,192,200465,1,0,0:0:0:0:
320,192,200527,1,0,0:0:0:0:
64,192,200527,1,0,0:0:0:0:
192,192,200590,1,0,0:0:0:0:
64,192,200652,1,0,0:0:0:0:
320,192,200715,1,0,0:0:0:0:
192,192,200777,1,0,0:0:0:0:
448,192,200777,1,0,0:0:0:0:
320,192,200840,1,0,0:0:0:0:
64,192,200902,1,0,0:0:0:0:
448,192,200965,1,0,0:0:0:0:
320,192,201027,1,0,0:0:0:0:
64,192,201027,1,0,0:0:0:0:
192,192,201090,1,0,0:0:0:0:
320,192,201152,1,0,0:0:0:0:
192,192,201215,1,0,0:0:0:0:
448,192,201277,1,0,0:0:0:0:
64,192,201277,1,0,0:0:0:0:
320,192,201340,1,0,0:0:0:0:
192,192,201402,1,0,0:0:0:0:
64,192,201465,1,0,0:0:0:0:
320,192,201527,1,0,0:0:0:0:
448,192,201527,1,0,0:0:0:0:
64,192,201590,1,0,0:0:0:0:
192,192,201652,1,0,0:0:0:0:
320,192,201715,1,0,0:0:0:0:
448,192,201777,1,0,0:0:0:0:
192,192,201777,1,0,0:0:0:0:
64,192,201840,1,0,0:0:0:0:
320,192,201902,1,0,0:0:0:0:
192,192,201965,1,0,0:0:0:0:
448,192,202027,1,0,0:0:0:0:
64,192,202027,1,0,0:0:0:0:
320,192,202090,1,0,0:0:0:0:
192,192,202152,1,0,0:0:0:0:
64,192,202215,1,0,0:0:0:0:
448,192,202277,1,0,0:0:0:0:
192,192,202277,1,0,0:0:0:0:
64,192,202340,1,0,0:0:0:0:
320,192,202402,1,0,0:0:0:0:
448,192,202465,1,0,0:0:0:0:
64,192,202527,1,0,0:0:0:0:
192,192,202527,1,0,0:0:0:0:
320,192,202590,1,0,0:0:0:0:
64,192,202652,1,0,0:0:0:0:
192,192,202715,1,0,0:0:0:0:
448,192,202777,1,0,0:0:0:0:
320,192,202777,1,0,0:0:0:0:
192,192,202840,1,0,0:0:0:0:
64,192,202902,1,0,0:0:0:0:
448,192,202965,1,0,0:0:0:0:
320,192,203027,1,0,0:0:0:0:
64,192,203027,1,0,0:0:0:0:
192,192,203090,1,0,0:0:0:0:
64,192,203152,1,0,0:0:0:0:
448,192,203215,1,0,0:0:0:0:
320,192,203277,1,0,0:0:0:0:
192,192,203277,1,0,0:0:0:0:
64,192,203340,1,0,0:0:0:0:
448,192,203402,1,0,0:0:0:0:
320,192,203465,1,0,0:0:0:0:
192,192,203527,1,0,0:0:0:0:
64,192,203527,1,0,0:0:0:0:
320,192,203590,1,0,0:0:0:0:
448,192,203652,1,0,0:0:0:0:
64,192,203715,1,0,0:0:0:0:
192,192,203777,1,0,0:0:0:0:
320,192,203777,1,0,0:0:0:0:
448,192,203840,1,0,0:0:0:0:
64,192,203902,1,0,0:0:0:0:
192,192,203965,1,0,0:0:0:0:
448,192,204027,1,0,0:0:0:0:
320,192,204027,1,0,0:0:0:0:
64,192,204090,1,0,0:0:0:0:
448,192,204152,1,0,0:0:0:0:
320,192,204215,1,0,0:0:0:0:
64,192,204277,1,0,0:0:0:0:
192,192,204277,1,0,0:0:0:0:
448,192,204340,1,0,0:0:0:0:
320,192,204402,1,0,0:0:0:0:
192,192,204465,1,0,0:0:0:0:
64,192,204527,1,0,0:0:0:0:
320,192,204527,1,0,0:0:0:0:
448,192,204590,1,0,0:0:0:0:
192,192,204652,1,0,0:0:0:0:
320,192,204715,1,0,0:0:0:0:
448,192,204777,1,0,0:0:0:0:
64,192,204777,1,0,0:0:0:0:
320,192,204840,1,0,0:0:0:0:
192,192,204902,1,0,0:0:0:0:
448,192,204965,1,0,0:0:0:0:
64,192,205027,1,0,0:0:0:0:
192,192,205027,1,0,0:0:0:0:
320,192,205152,1,0,0:0:0:0:
448,192,205152,1,0,0:0:0:0:
64,192,205215,1,0,0:0:0:0:
192,192,205215,1,0,0:0:0:0:
320,192,205277,1,0,0:0:0:0:
448,192,205277,1,0,0:0:0:0:
64,192,205402,1,0,0:0:0:0:
192,192,205402,1,0,0:0:0:0:
320,192,205527,1,0,0:0:0:0:
448,192,205527,1,0,0:0:0:0:
64,192,205590,5,0,0:0:0:0:
192,192,205590,1,0,0:0:0:0:
320,192,205652,1,0,0:0:0:0:
448,192,205652,1,0,0:0:0:0:
448,192,205777,1,0,0:0:0:0:
64,192,205777,1,0,0:0:0:0:
320,192,205840,1,0,0:0:0:0:
192,192,205840,1,0,0:0:0:0:
448,192,205902,1,0,0:0:0:0:
64,192,205902,1,0,0:0:0:0:
320,192,206027,1,0,0:0:0:0:
64,192,206027,1,0,0:0:0:0:
192,192,206027,1,0,0:0:0:0:
320,192,206152,1,0,0:0:0:0:
448,192,206152,1,0,0:0:0:0:
64,192,206215,1,0,0:0:0:0:
192,192,206215,1,0,0:0:0:0:
448,192,206277,1,0,0:0:0:0:
320,192,206277,1,0,0:0:0:0:
192,192,206340,1,0,0:0:0:0:
64,192,206340,1,0,0:0:0:0:
320,192,206402,1,0,0:0:0:0:
448,192,206402,1,0,0:0:0:0:
192,192,206465,1,0,0:0:0:0:
64,192,206465,1,0,0:0:0:0:
320,192,206527,1,0,0:0:0:0:
448,192,206527,1,0,0:0:0:0:
192,192,206590,1,0,0:0:0:0:
64,192,206590,1,0,0:0:0:0:
320,192,206652,1,0,0:0:0:0:
448,192,206652,1,0,0:0:0:0:
448,192,206777,1,0,0:0:0:0:
320,192,206777,1,0,0:0:0:0:
192,192,206840,1,0,0:0:0:0:
448,192,206902,1,0,0:0:0:0:
64,192,206902,1,0,0:0:0:0:
320,192,206965,1,0,0:0:0:0:
192,192,207027,5,0,0:0:0:0:
64,192,207027,1,0,0:0:0:0:
320,192,207090,1,0,0:0:0:0:
448,192,207152,1,0,0:0:0:0:
64,192,207152,1,0,0:0:0:0:
192,192,207215,1,0,0:0:0:0:
320,192,207277,1,0,0:0:0:0:
192,192,207340,1,0,0:0:0:0:
64,192,207340,1,0,0:0:0:0:
448,192,207402,1,0,0:0:0:0:
192,192,207465,1,0,0:0:0:0:
320,192,207465,1,0,0:0:0:0:
64,192,207527,1,0,0:0:0:0:
320,192,207590,1,0,0:0:0:0:
448,192,207590,1,0,0:0:0:0:
192,192,207652,1,0,0:0:0:0:
64,192,207715,1,0,0:0:0:0:
448,192,207715,1,0,0:0:0:0:
320,192,207777,1,0,0:0:0:0:
448,192,207840,1,0,0:0:0:0:
64,192,207840,1,0,0:0:0:0:
192,192,207902,1,0,0:0:0:0:
320,192,207965,1,0,0:0:0:0:
448,192,207965,1,0,0:0:0:0:
192,192,208027,1,0,0:0:0:0:
64,192,208090,1,0,0:0:0:0:
448,192,208090,1,0,0:0:0:0:
320,192,208152,1,0,0:0:0:0:
192,192,208215,1,0,0:0:0:0:
64,192,208215,1,0,0:0:0:0:
448,192,208277,1,0,0:0:0:0:
320,192,208340,1,0,0:0:0:0:
64,192,208340,1,0,0:0:0:0:
192,192,208402,1,0,0:0:0:0:
64,192,208465,1,0,0:0:0:0:
448,192,208465,1,0,0:0:0:0:
320,192,208527,1,0,0:0:0:0:
192,192,208590,1,0,0:0:0:0:
448,192,208652,1,0,0:0:0:0:
320,192,208652,1,0,0:0:0:0:
192,192,208715,1,0,0:0:0:0:
64,192,208777,1,0,0:0:0:0:
448,192,208777,1,0,0:0:0:0:
320,192,208840,1,0,0:0:0:0:
192,192,208840,1,0,0:0:0:0:
64,192,208902,1,0,0:0:0:0:
448,192,208902,1,0,0:0:0:0:
192,192,208965,1,0,0:0:0:0:
320,192,208965,1,0,0:0:0:0:
448,192,209027,1,0,0:0:0:0:
64,192,209027,1,0,0:0:0:0:
192,192,209090,1,0,0:0:0:0:
320,192,209152,1,0,0:0:0:0:
448,192,209152,1,0,0:0:0:0:
192,192,209215,1,0,0:0:0:0:
64,192,209277,1,0,0:0:0:0:
448,192,209277,1,0,0:0:0:0:
320,192,209340,1,0,0:0:0:0:
192,192,209402,1,0,0:0:0:0:
448,192,209465,1,0,0:0:0:0:
320,192,209465,1,0,0:0:0:0:
64,192,209527,1,0,0:0:0:0:
448,192,209590,1,0,0:0:0:0:
192,192,209590,1,0,0:0:0:0:
320,192,209652,1,0,0:0:0:0:
64,192,209715,1,0,0:0:0:0:
448,192,209715,1,0,0:0:0:0:
320,192,209777,1,0,0:0:0:0:
64,192,209840,1,0,0:0:0:0:
192,192,209840,1,0,0:0:0:0:
320,192,209902,1,0,0:0:0:0:
448,192,209965,1,0,0:0:0:0:
64,192,209965,1,0,0:0:0:0:
192,192,210027,1,0,0:0:0:0:
320,192,210090,1,0,0:0:0:0:
64,192,210090,1,0,0:0:0:0:
448,192,210152,1,0,0:0:0:0:
192,192,210215,1,0,0:0:0:0:
64,192,210215,1,0,0:0:0:0:
320,192,210277,1,0,0:0:0:0:
448,192,210340,1,0,0:0:0:0:
192,192,210340,1,0,0:0:0:0:
64,192,210402,1,0,0:0:0:0:
320,192,210402,1,0,0:0:0:0:
192,192,210465,1,0,0:0:0:0:
320,192,210527,1,0,0:0:0:0:
448,192,210527,1,0,0:0:0:0:
64,192,210652,1,0,0:0:0:0:
448,192,210652,1,0,0:0:0:0:
320,192,210715,1,0,0:0:0:0:
192,192,210715,1,0,0:0:0:0:
64,192,210777,1,0,0:0:0:0:
448,192,210777,1,0,0:0:0:0:
192,192,210902,1,0,0:0:0:0:
64,192,210902,1,0,0:0:0:0:
320,192,211027,1,0,0:0:0:0:
448,192,211027,1,0,0:0:0:0:
192,192,211090,1,0,0:0:0:0:
64,192,211152,1,0,0:0:0:0:
448,192,211152,1,0,0:0:0:0:
320,192,211215,1,0,0:0:0:0:
192,192,211277,1,0,0:0:0:0:
64,192,211277,1,0,0:0:0:0:
448,192,211340,1,0,0:0:0:0:
192,192,211402,1,0,0:0:0:0:
320,192,211402,1,0,0:0:0:0:
64,192,211465,1,0,0:0:0:0:
320,192,211527,1,0,0:0:0:0:
448,192,211527,1,0,0:0:0:0:
192,192,211590,1,0,0:0:0:0:
64,192,211652,1,0,0:0:0:0:
320,192,211652,1,0,0:0:0:0:
448,192,211715,1,0,0:0:0:0:
64,192,211777,1,0,0:0:0:0:
448,192,211840,1,0,0:0:0:0:
192,192,211840,1,0,0:0:0:0:
320,192,211902,1,0,0:0:0:0:
192,192,211965,1,0,0:0:0:0:
448,192,211965,1,0,0:0:0:0:
64,192,212027,1,0,0:0:0:0:
320,192,212090,1,0,0:0:0:0:
448,192,212090,1,0,0:0:0:0:
192,192,212152,1,0,0:0:0:0:
448,192,212215,1,0,0:0:0:0:
64,192,212215,1,0,0:0:0:0:
320,192,212277,1,0,0:0:0:0:
64,192,212340,1,0,0:0:0:0:
448,192,212340,1,0,0:0:0:0:
192,192,212402,1,0,0:0:0:0:
320,192,212465,1,0,0:0:0:0:
64,192,212465,1,0,0:0:0:0:
448,192,212527,1,0,0:0:0:0:
192,192,212590,1,0,0:0:0:0:
64,192,212590,1,0,0:0:0:0:
320,192,212652,1,0,0:0:0:0:
448,192,212715,1,0,0:0:0:0:
64,192,212715,1,0,0:0:0:0:
192,192,212777,1,0,0:0:0:0:
320,192,212840,1,0,0:0:0:0:
448,192,212840,1,0,0:0:0:0:
192,192,212902,1,0,0:0:0:0:
64,192,212965,1,0,0:0:0:0:
448,192,213027,1,0,0:0:0:0:
192,192,213027,1,0,0:0:0:0:
320,192,213027,1,0,0:0:0:0:
192,192,213402,1,0,0:0:0:0:
64,192,213402,1,0,0:0:0:0:
448,192,213402,1,0,0:0:0:0:
448,192,213777,1,0,0:0:0:0:
192,192,213777,1,0,0:0:0:0:
320,192,213777,1,0,0:0:0:0:
64,192,213902,1,0,0:0:0:0:
448,192,213902,1,0,0:0:0:0:
64,192,214027,1,0,0:0:0:0:
192,192,214027,1,0,0:0:0:0:
320,192,214027,1,0,0:0:0:0:
320,192,214277,1,0,0:0:0:0:
64,192,214277,1,0,0:0:0:0:
320,192,214402,1,0,0:0:0:0:
192,192,214402,1,0,0:0:0:0:
448,192,214402,1,0,0:0:0:0:
64,192,214652,1,0,0:0:0:0:
320,192,214652,1,0,0:0:0:0:
448,192,214652,1,0,0:0:0:0:
192,192,214777,1,0,0:0:0:0:
64,192,214777,1,0,0:0:0:0:
448,192,214777,1,0,0:0:0:0:
64,192,214902,1,0,0:0:0:0:
320,192,214902,1,0,0:0:0:0:
448,192,215027,1,0,0:0:0:0:
320,192,215027,1,0,0:0:0:0:
192,192,215090,1,0,0:0:0:0:
448,192,215152,1,0,0:0:0:0:
64,192,215152,1,0,0:0:0:0:
320,192,215215,1,0,0:0:0:0:
448,192,215277,1,0,0:0:0:0:
64,192,215277,1,0,0:0:0:0:
192,192,215340,1,0,0:0:0:0:
320,192,215402,1,0,0:0:0:0:
64,192,215402,1,0,0:0:0:0:
448,192,215465,1,0,0:0:0:0:
192,192,215527,1,0,0:0:0:0:
64,192,215527,1,0,0:0:0:0:
320,192,215590,1,0,0:0:0:0:
448,192,215652,1,0,0:0:0:0:
64,192,215652,1,0,0:0:0:0:
192,192,215715,1,0,0:0:0:0:
64,192,215777,1,0,0:0:0:0:
320,192,215777,1,0,0:0:0:0:
448,192,215840,1,0,0:0:0:0:
192,192,215902,1,0,0:0:0:0:
64,192,215902,1,0,0:0:0:0:
320,192,215965,1,0,0:0:0:0:
448,192,216027,1,0,0:0:0:0:
64,192,216027,1,0,0:0:0:0:
320,192,216090,1,0,0:0:0:0:
64,192,216152,1,0,0:0:0:0:
192,192,216152,1,0,0:0:0:0:
448,192,216215,1,0,0:0:0:0:
320,192,216277,1,0,0:0:0:0:
192,192,216277,1,0,0:0:0:0:
64,192,216340,1,0,0:0:0:0:
320,192,216402,1,0,0:0:0:0:
448,192,216402,1,0,0:0:0:0:
192,192,216465,1,0,0:0:0:0:
320,192,216527,1,0,0:0:0:0:
448,192,216527,1,0,0:0:0:0:
64,192,216590,1,0,0:0:0:0:
448,192,216652,1,0,0:0:0:0:
320,192,216652,1,0,0:0:0:0:
192,192,216715,1,0,0:0:0:0:
320,192,216777,1,0,0:0:0:0:
64,192,216777,1,0,0:0:0:0:
448,192,216840,1,0,0:0:0:0:
192,192,216840,1,0,0:0:0:0:
64,192,216902,1,0,0:0:0:0:
320,192,216902,1,0,0:0:0:0:
192,192,216965,1,0,0:0:0:0:
320,192,217027,1,0,0:0:0:0:
448,192,217027,1,0,0:0:0:0:
64,192,217090,1,0,0:0:0:0:
320,192,217152,1,0,0:0:0:0:
192,192,217152,1,0,0:0:0:0:
448,192,217215,1,0,0:0:0:0:
192,192,217277,1,0,0:0:0:0:
64,192,217277,1,0,0:0:0:0:
320,192,217340,1,0,0:0:0:0:
448,192,217402,1,0,0:0:0:0:
64,192,217402,1,0,0:0:0:0:
192,192,217465,1,0,0:0:0:0:
320,192,217527,1,0,0:0:0:0:
192,192,217590,1,0,0:0:0:0:
64,192,217590,1,0,0:0:0:0:
448,192,217652,1,0,0:0:0:0:
192,192,217715,1,0,0:0:0:0:
320,192,217715,1,0,0:0:0:0:
64,192,217777,1,0,0:0:0:0:
448,192,217840,1,0,0:0:0:0:
64,192,217902,1,0,0:0:0:0:
320,192,217902,1,0,0:0:0:0:
192,192,217965,1,0,0:0:0:0:
64,192,218027,1,0,0:0:0:0:
448,192,218090,1,0,0:0:0:0:
320,192,218152,1,0,0:0:0:0:
64,192,218152,1,0,0:0:0:0:
192,192,218215,1,0,0:0:0:0:
320,192,218277,1,0,0:0:0:0:
448,192,218277,1,0,0:0:0:0:
192,192,218340,1,0,0:0:0:0:
64,192,218402,1,0,0:0:0:0:
448,192,218402,1,0,0:0:0:0:
192,192,218465,1,0,0:0:0:0:
320,192,218527,5,0,0:0:0:0:
448,192,218527,1,0,0:0:0:0:
192,192,218652,1,0,0:0:0:0:
448,192,218652,1,0,0:0:0:0:
64,192,218715,1,0,0:0:0:0:
320,192,218715,1,0,0:0:0:0:
192,192,218777,1,0,0:0:0:0:
448,192,218777,1,0,0:0:0:0:
64,192,218902,1,0,0:0:0:0:
320,192,218902,1,0,0:0:0:0:
192,192,219027,1,0,0:0:0:0:
64,192,219027,1,0,0:0:0:0:
320,192,219090,1,0,0:0:0:0:
64,192,219152,1,0,0:0:0:0:
448,192,219152,1,0,0:0:0:0:
192,192,219215,1,0,0:0:0:0:
320,192,219277,1,0,0:0:0:0:
448,192,219277,1,0,0:0:0:0:
192,192,219340,1,0,0:0:0:0:
448,192,219402,1,0,0:0:0:0:
64,192,219402,1,0,0:0:0:0:
320,192,219465,1,0,0:0:0:0:
64,192,219527,1,0,0:0:0:0:
192,192,219527,1,0,0:0:0:0:
448,192,219590,1,0,0:0:0:0:
192,192,219652,1,0,0:0:0:0:
320,192,219652,1,0,0:0:0:0:
64,192,219715,1,0,0:0:0:0:
320,192,219777,1,0,0:0:0:0:
448,192,219777,1,0,0:0:0:0:
192,192,219840,1,0,0:0:0:0:
448,192,219902,1,0,0:0:0:0:
64,192,219902,1,0,0:0:0:0:
320,192,219965,1,0,0:0:0:0:
192,192,220027,1,0,0:0:0:0:
448,192,220027,1,0,0:0:0:0:
64,192,220090,1,0,0:0:0:0:
448,192,220152,1,0,0:0:0:0:
192,192,220152,1,0,0:0:0:0:
320,192,220215,1,0,0:0:0:0:
64,192,220277,1,0,0:0:0:0:
192,192,220277,1,0,0:0:0:0:
448,192,220340,1,0,0:0:0:0:
320,192,220402,1,0,0:0:0:0:
192,192,220402,1,0,0:0:0:0:
64,192,220465,1,0,0:0:0:0:
448,192,220527,1,0,0:0:0:0:
192,192,220527,1,0,0:0:0:0:
320,192,220590,1,0,0:0:0:0:
448,192,220652,1,0,0:0:0:0:
64,192,220652,1,0,0:0:0:0:
192,192,220715,1,0,0:0:0:0:
448,192,220777,1,0,0:0:0:0:
320,192,220777,1,0,0:0:0:0:
192,192,220840,1,0,0:0:0:0:
64,192,220902,1,0,0:0:0:0:
448,192,220902,1,0,0:0:0:0:
320,192,220965,1,0,0:0:0:0:
64,192,221027,1,0,0:0:0:0:
192,192,221027,1,0,0:0:0:0:
64,192,221402,1,0,0:0:0:0:
192,192,221402,1,0,0:0:0:0:
320,192,221402,1,0,0:0:0:0:
192,192,221777,1,0,0:0:0:0:
64,192,221777,1,0,0:0:0:0:
448,192,221777,1,0,0:0:0:0:
64,192,221902,1,0,0:0:0:0:
320,192,221902,1,0,0:0:0:0:
448,192,221902,1,0,0:0:0:0:
192,192,222027,1,0,0:0:0:0:
320,192,222027,1,0,0:0:0:0:
320,192,222277,5,0,0:0:0:0:
448,192,222277,1,0,0:0:0:0:
64,192,222277,1,0,0:0:0:0:
192,192,222402,1,0,0:0:0:0:
448,192,222402,1,0,0:0:0:0:
64,192,222527,1,0,0:0:0:0:
448,192,222527,1,0,0:0:0:0:
192,192,222527,1,0,0:0:0:0:
320,192,222777,1,0,0:0:0:0:
64,192,222777,1,0,0:0:0:0:
448,192,222777,1,0,0:0:0:0:
64,192,222902,1,0,0:0:0:0:
192,192,222902,1,0,0:0:0:0:
320,192,223027,1,0,0:0:0:0:
448,192,223027,1,0,0:0:0:0:
192,192,223090,1,0,0:0:0:0:
448,192,223152,1,0,0:0:0:0:
64,192,223152,1,0,0:0:0:0:
320,192,223215,1,0,0:0:0:0:
64,192,223277,1,0,0:0:0:0:
192,192,223277,1,0,0:0:0:0:
320,192,223340,1,0,0:0:0:0:
448,192,223402,1,0,0:0:0:0:
64,192,223402,1,0,0:0:0:0:
192,192,223465,1,0,0:0:0:0:
320,192,223527,1,0,0:0:0:0:
448,192,223527,1,0,0:0:0:0:
64,192,223590,1,0,0:0:0:0:
192,192,223652,1,0,0:0:0:0:
448,192,223652,1,0,0:0:0:0:
320,192,223715,1,0,0:0:0:0:
64,192,223777,1,0,0:0:0:0:
448,192,223777,1,0,0:0:0:0:
192,192,223840,1,0,0:0:0:0:
448,192,223902,1,0,0:0:0:0:
320,192,223902,1,0,0:0:0:0:
192,192,223965,1,0,0:0:0:0:
64,192,224027,1,0,0:0:0:0:
192,192,224090,1,0,0:0:0:0:
320,192,224090,1,0,0:0:0:0:
64,192,224152,1,0,0:0:0:0:
448,192,224215,1,0,0:0:0:0:
320,192,224215,1,0,0:0:0:0:
64,192,224277,1,0,0:0:0:0:
320,192,224340,1,0,0:0:0:0:
192,192,224340,1,0,0:0:0:0:
448,192,224402,1,0,0:0:0:0:
192,192,224465,1,0,0:0:0:0:
64,192,224465,1,0,0:0:0:0:
320,192,224527,1,0,0:0:0:0:
64,192,224590,1,0,0:0:0:0:
448,192,224590,1,0,0:0:0:0:
192,192,224652,1,0,0:0:0:0:
320,192,224652,1,0,0:0:0:0:
64,192,224715,1,0,0:0:0:0:
320,192,224777,1,0,0:0:0:0:
448,192,224777,1,0,0:0:0:0:
192,192,224840,1,0,0:0:0:0:
64,192,224840,1,0,0:0:0:0:
320,192,224902,1,0,0:0:0:0:
448,192,224902,1,0,0:0:0:0:
64,192,224965,1,0,0:0:0:0:
192,192,224965,1,0,0:0:0:0:
448,192,225027,1,0,0:0:0:0:
320,192,225027,1,0,0:0:0:0:
64,192,225090,1,0,0:0:0:0:
192,192,225152,1,0,0:0:0:0:
448,192,225215,1,0,0:0:0:0:
320,192,225215,1,0,0:0:0:0:
192,192,225277,1,0,0:0:0:0:
448,192,225340,1,0,0:0:0:0:
64,192,225340,1,0,0:0:0:0:
320,192,225402,1,0,0:0:0:0:
64,192,225465,1,0,0:0:0:0:
192,192,225465,1,0,0:0:0:0:
448,192,225527,1,0,0:0:0:0:
320,192,225590,1,0,0:0:0:0:
64,192,225590,1,0,0:0:0:0:
192,192,225652,1,0,0:0:0:0:
448,192,225715,1,0,0:0:0:0:
320,192,225715,1,0,0:0:0:0:
64,192,225777,1,0,0:0:0:0:
448,192,225840,1,0,0:0:0:0:
192,192,225840,1,0,0:0:0:0:
320,192,225902,1,0,0:0:0:0:
448,192,225965,1,0,0:0:0:0:
192,192,226027,1,0,0:0:0:0:
64,192,226027,1,0,0:0:0:0:
320,192,226090,1,0,0:0:0:0:
448,192,226152,1,0,0:0:0:0:
64,192,226152,1,0,0:0:0:0:
192,192,226215,1,0,0:0:0:0:
448,192,226277,1,0,0:0:0:0:
320,192,226277,1,0,0:0:0:0:
64,192,226340,1,0,0:0:0:0:
192,192,226402,1,0,0:0:0:0:
320,192,226402,1,0,0:0:0:0:
448,192,226465,1,0,0:0:0:0:
64,192,226527,1,0,0:0:0:0:
192,192,226527,1,0,0:0:0:0:
320,192,226652,1,0,0:0:0:0:
192,192,226652,1,0,0:0:0:0:
448,192,226715,1,0,0:0:0:0:
64,192,226715,1,0,0:0:0:0:
320,192,226777,1,0,0:0:0:0:
192,192,226777,1,0,0:0:0:0:
448,192,226902,1,0,0:0:0:0:
64,192,226902,1,0,0:0:0:0:
320,192,227027,1,0,0:0:0:0:
192,192,227027,1,0,0:0:0:0:
448,192,227090,1,0,0:0:0:0:
64,192,227090,1,0,0:0:0:0:
320,192,227152,1,0,0:0:0:0:
192,192,227215,1,0,0:0:0:0:
64,192,227215,1,0,0:0:0:0:
320,192,227277,1,0,0:0:0:0:
448,192,227340,1,0,0:0:0:0:
192,192,227340,1,0,0:0:0:0:
64,192,227402,1,0,0:0:0:0:
320,192,227402,1,0,0:0:0:0:
192,192,227465,1,0,0:0:0:0:
64,192,227527,1,0,0:0:0:0:
448,192,227527,1,0,0:0:0:0:
320,192,227590,1,0,0:0:0:0:
192,192,227652,1,0,0:0:0:0:
64,192,227652,1,0,0:0:0:0:
320,192,227715,1,0,0:0:0:0:
64,192,227777,1,0,0:0:0:0:
448,192,227777,1,0,0:0:0:0:
192,192,227840,1,0,0:0:0:0:
448,192,227902,1,0,0:0:0:0:
320,192,227902,1,0,0:0:0:0:
192,192,227965,1,0,0:0:0:0:
64,192,227965,1,0,0:0:0:0:
448,192,228027,1,0,0:0:0:0:
320,192,228090,1,0,0:0:0:0:
192,192,228090,1,0,0:0:0:0:
448,192,228152,1,0,0:0:0:0:
64,192,228152,1,0,0:0:0:0:
192,192,228215,1,0,0:0:0:0:
320,192,228215,1,0,0:0:0:0:
64,192,228277,1,0,0:0:0:0:
448,192,228277,1,0,0:0:0:0:
192,192,228340,1,0,0:0:0:0:
448,192,228402,1,0,0:0:0:0:
320,192,228402,1,0,0:0:0:0:
192,192,228465,1,0,0:0:0:0:
448,192,228527,1,0,0:0:0:0:
64,192,228527,1,0,0:0:0:0:
320,192,228590,1,0,0:0:0:0:
192,192,228590,1,0,0:0:0:0:
64,192,228652,1,0,0:0:0:0:
320,192,228715,1,0,0:0:0:0:
448,192,228715,1,0,0:0:0:0:
192,192,228777,1,0,0:0:0:0:
448,192,228840,1,0,0:0:0:0:
64,192,228840,1,0,0:0:0:0:
320,192,228902,1,0,0:0:0:0:
192,192,228965,1,0,0:0:0:0:
448,192,228965,1,0,0:0:0:0:
64,192,229027,1,0,0:0:0:0:
320,192,229027,1,0,0:0:0:0:
320,192,229402,1,0,0:0:0:0:
448,192,229402,1,0,0:0:0:0:
192,192,229402,1,0,0:0:0:0:
64,192,229777,1,0,0:0:0:0:
192,192,229777,1,0,0:0:0:0:
448,192,229777,1,0,0:0:0:0:
64,192,229902,1,0,0:0:0:0:
320,192,229902,1,0,0:0:0:0:
192,192,230027,1,0,0:0:0:0:
448,192,230027,1,0,0:0:0:0:
64,192,230027,1,0,0:0:0:0:
64,192,230277,1,0,0:0:0:0:
192,192,230277,1,0,0:0:0:0:
320,192,230277,1,0,0:0:0:0:
192,192,230402,1,0,0:0:0:0:
448,192,230402,1,0,0:0:0:0:
64,192,230527,1,0,0:0:0:0:
192,192,230527,1,0,0:0:0:0:
320,192,230527,1,0,0:0:0:0:
448,192,230777,1,0,0:0:0:0:
320,192,230777,1,0,0:0:0:0:
192,192,230777,1,0,0:0:0:0:
64,192,230902,1,0,0:0:0:0:
448,192,230902,1,0,0:0:0:0:
192,192,231027,1,0,0:0:0:0:
64,192,231027,1,0,0:0:0:0:
320,192,231090,1,0,0:0:0:0:
448,192,231090,1,0,0:0:0:0:
192,192,231152,1,0,0:0:0:0:
64,192,231215,1,0,0:0:0:0:
448,192,231215,1,0,0:0:0:0:
320,192,231277,1,0,0:0:0:0:
448,192,231340,1,0,0:0:0:0:
64,192,231340,1,0,0:0:0:0:
192,192,231402,1,0,0:0:0:0:
64,192,231465,1,0,0:0:0:0:
320,192,231465,1,0,0:0:0:0:
448,192,231527,1,0,0:0:0:0:
192,192,231590,1,0,0:0:0:0:
64,192,231590,1,0,0:0:0:0:
320,192,231652,1,0,0:0:0:0:
448,192,231715,1,0,0:0:0:0:
64,192,231715,1,0,0:0:0:0:
192,192,231777,1,0,0:0:0:0:
320,192,231840,1,0,0:0:0:0:
64,192,231840,1,0,0:0:0:0:
448,192,231902,1,0,0:0:0:0:
192,192,231965,1,0,0:0:0:0:
64,192,231965,1,0,0:0:0:0:
320,192,232027,1,0,0:0:0:0:
64,192,232090,1,0,0:0:0:0:
448,192,232090,1,0,0:0:0:0:
320,192,232152,1,0,0:0:0:0:
192,192,232215,1,0,0:0:0:0:
64,192,232215,1,0,0:0:0:0:
448,192,232277,1,0,0:0:0:0:
320,192,232340,1,0,0:0:0:0:
192,192,232340,1,0,0:0:0:0:
64,192,232402,1,0,0:0:0:0:
448,192,232465,1,0,0:0:0:0:
320,192,232465,1,0,0:0:0:0:
192,192,232527,1,0,0:0:0:0:
448,192,232590,1,0,0:0:0:0:
320,192,232590,1,0,0:0:0:0:
64,192,232652,1,0,0:0:0:0:
448,192,232715,1,0,0:0:0:0:
320,192,232715,1,0,0:0:0:0:
192,192,232777,1,0,0:0:0:0:
64,192,232840,1,0,0:0:0:0:
320,192,232840,1,0,0:0:0:0:
192,192,232902,1,0,0:0:0:0:
448,192,232902,1,0,0:0:0:0:
64,192,232965,1,0,0:0:0:0:
320,192,232965,1,0,0:0:0:0:
192,192,233027,1,0,0:0:0:0:
320,192,233090,1,0,0:0:0:0:
448,192,233090,1,0,0:0:0:0:
64,192,233152,1,0,0:0:0:0:
192,192,233215,1,0,0:0:0:0:
320,192,233215,1,0,0:0:0:0:
448,192,233277,1,0,0:0:0:0:
64,192,233340,1,0,0:0:0:0:
192,192,233340,1,0,0:0:0:0:
320,192,233402,1,0,0:0:0:0:
64,192,233465,1,0,0:0:0:0:
448,192,233465,1,0,0:0:0:0:
192,192,233527,1,0,0:0:0:0:
320,192,233590,1,0,0:0:0:0:
192,192,233652,1,0,0:0:0:0:
64,192,233652,1,0,0:0:0:0:
448,192,233715,1,0,0:0:0:0:
192,192,233777,1,0,0:0:0:0:
320,192,233777,1,0,0:0:0:0:
64,192,233840,1,0,0:0:0:0:
448,192,233902,1,0,0:0:0:0:
320,192,233965,1,0,0:0:0:0:
64,192,233965,1,0,0:0:0:0:
192,192,234027,1,0,0:0:0:0:
64,192,234090,1,0,0:0:0:0:
448,192,234090,1,0,0:0:0:0:
320,192,234152,1,0,0:0:0:0:
192,192,234215,1,0,0:0:0:0:
64,192,234215,1,0,0:0:0:0:
320,192,234277,1,0,0:0:0:0:
448,192,234340,1,0,0:0:0:0:
64,192,234340,1,0,0:0:0:0:
192,192,234402,1,0,0:0:0:0:
320,192,234465,1,0,0:0:0:0:
64,192,234465,1,0,0:0:0:0:
448,192,234465,1,0,0:0:0:0:
192,192,234527,1,0,0:0:0:0:
320,192,234590,1,0,0:0:0:0:
64,192,234652,1,0,0:0:0:0:
448,192,234652,1,0,0:0:0:0:
192,192,234715,1,0,0:0:0:0:
320,192,234715,1,0,0:0:0:0:
64,192,234777,1,0,0:0:0:0:
448,192,234777,1,0,0:0:0:0:
64,192,234902,1,0,0:0:0:0:
192,192,234902,1,0,0:0:0:0:
448,192,234902,1,0,0:0:0:0:
448,192,235027,1,0,0:0:0:0:
192,192,235027,1,0,0:0:0:0:
64,192,235152,1,0,0:0:0:0:
320,192,235152,1,0,0:0:0:0:
320,192,235277,1,0,0:0:0:0:
192,192,235277,1,0,0:0:0:0:
64,192,235277,1,0,0:0:0:0:
64,192,235402,1,0,0:0:0:0:
320,192,235402,1,0,0:0:0:0:
448,192,235402,1,0,0:0:0:0:
192,192,235527,1,0,0:0:0:0:
320,192,235527,1,0,0:0:0:0:
64,192,235652,1,0,0:0:0:0:
448,192,235652,1,0,0:0:0:0:
192,192,235777,1,0,0:0:0:0:
64,192,235777,1,0,0:0:0:0:
320,192,235777,1,0,0:0:0:0:
192,192,235902,1,0,0:0:0:0:
64,192,235902,1,0,0:0:0:0:
320,192,236027,5,0,0:0:0:0:
448,192,236027,1,0,0:0:0:0:
192,192,236090,1,0,0:0:0:0:
64,192,236090,1,0,0:0:0:0:
320,192,236152,1,0,0:0:0:0:
448,192,236152,1,0,0:0:0:0:
192,192,236215,1,0,0:0:0:0:
64,192,236215,1,0,0:0:0:0:
320,192,236277,1,0,0:0:0:0:
448,192,236277,1,0,0:0:0:0:
192,192,236340,1,0,0:0:0:0:
64,192,236340,1,0,0:0:0:0:
320,192,236402,1,0,0:0:0:0:
448,192,236402,1,0,0:0:0:0:
192,192,236465,1,0,0:0:0:0:
64,192,236465,1,0,0:0:0:0:
448,192,236527,1,0,0:0:0:0:
320,192,236559,1,0,0:0:0:0:
192,192,236590,1,0,0:0:0:0:
64,192,236621,1,0,0:0:0:0:
448,192,236652,1,0,0:0:0:0:
320,192,236684,1,0,0:0:0:0:
192,192,236715,1,0,0:0:0:0:
64,192,236746,1,0,0:0:0:0:
448,192,236777,1,0,0:0:0:0:
320,192,236809,1,0,0:0:0:0:
64,192,236840,1,0,0:0:0:0:
192,192,236871,1,0,0:0:0:0:
320,192,236902,1,0,0:0:0:0:
448,192,236934,1,0,0:0:0:0:
64,192,236965,1,0,0:0:0:0:
192,192,236996,1,0,0:0:0:0:
448,192,237027,1,0,0:0:0:0:
320,192,237027,1,0,0:0:0:0:
64,192,237402,1,0,0:0:0:0:
192,192,237402,1,0,0:0:0:0:
448,192,237402,1,0,0:0:0:0:
320,192,237777,1,0,0:0:0:0:
64,192,237777,1,0,0:0:0:0:
448,192,237777,1,0,0:0:0:0:
64,192,238152,1,0,0:0:0:0:
192,192,238152,1,0,0:0:0:0:
320,192,238152,1,0,0:0:0:0:
448,192,238152,1,0,0:0:0:0:
64,192,238527,1,0,0:0:0:0:
320,192,238527,1,0,0:0:0:0:
192,192,238527,1,0,0:0:0:0:
64,192,239027,1,0,0:0:0:0:
320,192,239027,1,0,0:0:0:0:
448,192,239027,1,0,0:0:0:0:
192,192,239090,1,0,0:0:0:0:
448,192,239152,1,0,0:0:0:0:
64,192,239215,1,0,0:0:0:0:
192,192,239277,1,0,0:0:0:0:
320,192,239277,1,0,0:0:0:0:
448,192,239340,1,0,0:0:0:0:
64,192,239402,1,0,0:0:0:0:
192,192,239465,1,0,0:0:0:0:
64,192,239527,1,0,0:0:0:0:
448,192,239527,1,0,0:0:0:0:
320,192,239590,1,0,0:0:0:0:
192,192,239652,1,0,0:0:0:0:
448,192,239715,1,0,0:0:0:0:
320,192,239777,1,0,0:0:0:0:
64,192,239777,1,0,0:0:0:0:
448,192,239840,1,0,0:0:0:0:
192,192,239902,1,0,0:0:0:0:
320,192,239965,1,0,0:0:0:0:
448,192,240027,1,0,0:0:0:0:
192,192,240027,1,0,0:0:0:0:
64,192,240090,1,0,0:0:0:0:
320,192,240152,1,0,0:0:0:0:
448,192,240215,1,0,0:0:0:0:
192,192,240277,1,0,0:0:0:0:
320,192,240277,1,0,0:0:0:0:
64,192,240340,1,0,0:0:0:0:
448,192,240402,1,0,0:0:0:0:
320,192,240465,1,0,0:0:0:0:
448,192,240527,1,0,0:0:0:0:
64,192,240527,1,0,0:0:0:0:
192,192,240590,1,0,0:0:0:0:
320,192,240652,1,0,0:0:0:0:
64,192,240715,1,0,0:0:0:0:
192,192,240777,1,0,0:0:0:0:
448,192,240777,1,0,0:0:0:0:
64,192,240840,1,0,0:0:0:0:
192,192,240902,1,0,0:0:0:0:
448,192,240902,1,0,0:0:0:0:
320,192,240965,1,0,0:0:0:0:
192,192,241027,1,0,0:0:0:0:
448,192,241027,1,0,0:0:0:0:
64,192,241090,1,0,0:0:0:0:
320,192,241152,1,0,0:0:0:0:
448,192,241215,1,0,0:0:0:0:
64,192,241277,1,0,0:0:0:0:
192,192,241277,1,0,0:0:0:0:
448,192,241340,1,0,0:0:0:0:
320,192,241402,1,0,0:0:0:0:
448,192,241465,1,0,0:0:0:0:
64,192,241527,1,0,0:0:0:0:
192,192,241527,1,0,0:0:0:0:
320,192,241590,1,0,0:0:0:0:
448,192,241652,1,0,0:0:0:0:
320,192,241715,1,0,0:0:0:0:
64,192,241777,1,0,0:0:0:0:
192,192,241777,1,0,0:0:0:0:
448,192,241840,1,0,0:0:0:0:
320,192,241902,1,0,0:0:0:0:
192,192,241965,1,0,0:0:0:0:
64,192,242027,1,0,0:0:0:0:
448,192,242027,1,0,0:0:0:0:
192,192,242090,1,0,0:0:0:0:
320,192,242152,1,0,0:0:0:0:
448,192,242215,1,0,0:0:0:0:
320,192,242277,1,0,0:0:0:0:
64,192,242277,1,0,0:0:0:0:
192,192,242340,1,0,0:0:0:0:
320,192,242402,1,0,0:0:0:0:
448,192,242465,1,0,0:0:0:0:
192,192,242527,1,0,0:0:0:0:
64,192,242527,1,0,0:0:0:0:
192,192,242652,1,0,0:0:0:0:
448,192,242652,1,0,0:0:0:0:
320,192,242715,1,0,0:0:0:0:
64,192,242715,1,0,0:0:0:0:
448,192,242777,1,0,0:0:0:0:
192,192,242777,1,0,0:0:0:0:
192,192,242902,1,0,0:0:0:0:
64,192,242902,1,0,0:0:0:0:
448,192,243027,1,0,0:0:0:0:
320,192,243027,1,0,0:0:0:0:
192,192,243090,1,0,0:0:0:0:
64,192,243152,1,0,0:0:0:0:
448,192,243215,1,0,0:0:0:0:
192,192,243277,1,0,0:0:0:0:
64,192,243277,1,0,0:0:0:0:
320,192,243340,1,0,0:0:0:0:
448,192,243402,1,0,0:0:0:0:
192,192,243465,1,0,0:0:0:0:
64,192,243527,1,0,0:0:0:0:
320,192,243527,1,0,0:0:0:0:
448,192,243590,1,0,0:0:0:0:
64,192,243652,1,0,0:0:0:0:
448,192,243715,1,0,0:0:0:0:
192,192,243777,1,0,0:0:0:0:
320,192,243777,1,0,0:0:0:0:
64,192,243840,1,0,0:0:0:0:
448,192,243902,1,0,0:0:0:0:
320,192,243965,1,0,0:0:0:0:
64,192,244027,1,0,0:0:0:0:
192,192,244027,1,0,0:0:0:0:
448,192,244090,1,0,0:0:0:0:
320,192,244152,1,0,0:0:0:0:
192,192,244215,1,0,0:0:0:0:
64,192,244277,1,0,0:0:0:0:
448,192,244277,1,0,0:0:0:0:
192,192,244340,1,0,0:0:0:0:
320,192,244402,1,0,0:0:0:0:
448,192,244465,1,0,0:0:0:0:
64,192,244527,5,0,0:0:0:0:
320,192,244527,1,0,0:0:0:0:
192,192,244590,1,0,0:0:0:0:
64,192,244652,1,0,0:0:0:0:
320,192,244715,1,0,0:0:0:0:
448,192,244777,1,0,0:0:0:0:
192,192,244777,1,0,0:0:0:0:
64,192,244840,1,0,0:0:0:0:
192,192,244902,1,0,0:0:0:0:
320,192,244965,1,0,0:0:0:0:
448,192,245027,1,0,0:0:0:0:
192,192,245027,1,0,0:0:0:0:
64,192,245027,1,0,0:0:0:0:
448,192,245402,1,0,0:0:0:0:
192,192,245402,1,0,0:0:0:0:
320,192,245402,1,0,0:0:0:0:
320,192,245777,1,0,0:0:0:0:
64,192,245777,1,0,0:0:0:0:
192,192,245777,1,0,0:0:0:0:
448,192,245777,1,0,0:0:0:0:
448,192,246152,1,0,0:0:0:0:
320,192,246152,1,0,0:0:0:0:
64,192,246152,1,0,0:0:0:0:
64,192,246527,1,0,0:0:0:0:
192,192,246527,1,0,0:0:0:0:
448,192,246527,1,0,0:0:0:0:
64,192,247027,1,0,0:0:0:0:
448,192,247027,1,0,0:0:0:0:
320,192,247090,1,0,0:0:0:0:
192,192,247152,1,0,0:0:0:0:
448,192,247215,1,0,0:0:0:0:
64,192,247215,1,0,0:0:0:0:
320,192,247277,1,0,0:0:0:0:
192,192,247340,1,0,0:0:0:0:
64,192,247340,1,0,0:0:0:0:
320,192,247402,1,0,0:0:0:0:
448,192,247465,1,0,0:0:0:0:
64,192,247527,1,0,0:0:0:0:
192,192,247590,1,0,0:0:0:0:
320,192,247652,1,0,0:0:0:0:
64,192,247652,1,0,0:0:0:0:
448,192,247715,1,0,0:0:0:0:
64,192,247777,1,0,0:0:0:0:
192,192,247840,1,0,0:0:0:0:
320,192,247902,1,0,0:0:0:0:
448,192,247965,1,0,0:0:0:0:
64,192,247965,1,0,0:0:0:0:
320,192,248027,1,0,0:0:0:0:
192,192,248090,1,0,0:0:0:0:
64,192,248152,1,0,0:0:0:0:
448,192,248215,1,0,0:0:0:0:
320,192,248277,1,0,0:0:0:0:
192,192,248340,1,0,0:0:0:0:
448,192,248340,1,0,0:0:0:0:
64,192,248340,1,0,0:0:0:0:
320,192,248402,1,0,0:0:0:0:
448,192,248465,1,0,0:0:0:0:
64,192,248527,1,0,0:0:0:0:
192,192,248590,1,0,0:0:0:0:
64,192,248652,1,0,0:0:0:0:
448,192,248715,1,0,0:0:0:0:
320,192,248777,1,0,0:0:0:0:
192,192,248840,1,0,0:0:0:0:
448,192,248840,1,0,0:0:0:0:
64,192,248902,1,0,0:0:0:0:
192,192,248965,1,0,0:0:0:0:
320,192,249027,1,0,0:0:0:0:
64,192,249090,1,0,0:0:0:0:
192,192,249152,1,0,0:0:0:0:
320,192,249215,1,0,0:0:0:0:
64,192,249215,1,0,0:0:0:0:
448,192,249277,1,0,0:0:0:0:
64,192,249340,5,0,0:0:0:0:
192,192,249402,1,0,0:0:0:0:
448,192,249465,1,0,0:0:0:0:
320,192,249527,1,0,0:0:0:0:
64,192,249527,1,0,0:0:0:0:
192,192,249590,1,0,0:0:0:0:
64,192,249652,1,0,0:0:0:0:
192,192,249715,1,0,0:0:0:0:
320,192,249777,1,0,0:0:0:0:
448,192,249840,1,0,0:0:0:0:
64,192,249840,1,0,0:0:0:0:
320,192,249902,1,0,0:0:0:0:
192,192,249965,1,0,0:0:0:0:
64,192,250027,1,0,0:0:0:0:
448,192,250090,1,0,0:0:0:0:
320,192,250152,1,0,0:0:0:0:
192,192,250152,1,0,0:0:0:0:
448,192,250215,1,0,0:0:0:0:
64,192,250277,1,0,0:0:0:0:
192,192,250340,1,0,0:0:0:0:
320,192,250402,1,0,0:0:0:0:
64,192,250465,1,0,0:0:0:0:
192,192,250465,1,0,0:0:0:0:
320,192,250527,5,0,0:0:0:0:
448,192,250527,1,0,0:0:0:0:
192,192,250652,1,0,0:0:0:0:
64,192,250652,1,0,0:0:0:0:
448,192,250715,1,0,0:0:0:0:
320,192,250715,1,0,0:0:0:0:
64,192,250777,1,0,0:0:0:0:
192,192,250777,1,0,0:0:0:0:
320,192,250902,1,0,0:0:0:0:
448,192,250902,1,0,0:0:0:0:
448,192,251027,1,0,0:0:0:0:
192,192,251027,1,0,0:0:0:0:
64,192,251027,1,0,0:0:0:0:
64,192,251152,1,0,0:0:0:0:
320,192,251152,1,0,0:0:0:0:
448,192,251215,1,0,0:0:0:0:
192,192,251215,1,0,0:0:0:0:
320,192,251277,1,0,0:0:0:0:
64,192,251277,1,0,0:0:0:0:
320,192,251402,1,0,0:0:0:0:
192,192,251402,1,0,0:0:0:0:
448,192,251402,1,0,0:0:0:0:
64,192,251527,1,0,0:0:0:0:
192,192,251527,1,0,0:0:0:0:
448,192,251590,1,0,0:0:0:0:
320,192,251590,1,0,0:0:0:0:
64,192,251652,1,0,0:0:0:0:
192,192,251652,1,0,0:0:0:0:
320,192,251777,1,0,0:0:0:0:
64,192,251777,1,0,0:0:0:0:
448,192,251777,1,0,0:0:0:0:
320,192,251902,5,0,0:0:0:0:
448,192,251902,1,0,0:0:0:0:
192,192,251965,1,0,0:0:0:0:
64,192,251965,1,0,0:0:0:0:
448,192,252027,1,0,0:0:0:0:
320,192,252027,1,0,0:0:0:0:
64,192,252152,1,0,0:0:0:0:
320,192,252152,1,0,0:0:0:0:
448,192,252215,1,0,0:0:0:0:
192,192,252215,1,0,0:0:0:0:
320,192,252277,1,0,0:0:0:0:
64,192,252277,1,0,0:0:0:0:
192,192,252402,1,0,0:0:0:0:
320,192,252402,1,0,0:0:0:0:
448,192,252465,1,0,0:0:0:0:
64,192,252465,1,0,0:0:0:0:
192,192,252527,1,0,0:0:0:0:
320,192,252527,1,0,0:0:0:0:
64,192,252652,1,0,0:0:0:0:
320,192,252652,1,0,0:0:0:0:
448,192,252652,1,0,0:0:0:0:
64,192,252777,1,0,0:0:0:0:
448,192,252777,1,0,0:0:0:0:
320,192,252840,1,0,0:0:0:0:
192,192,252840,1,0,0:0:0:0:
448,192,252902,1,0,0:0:0:0:
64,192,252902,1,0,0:0:0:0:
192,192,253027,5,0,0:0:0:0:
64,192,253027,1,0,0:0:0:0:
320,192,253090,5,0,0:0:0:0:
448,192,253090,1,0,0:0:0:0:
192,192,253152,1,0,0:0:0:0:
64,192,253152,1,0,0:0:0:0:
448,192,253215,1,0,0:0:0:0:
320,192,253215,1,0,0:0:0:0:
64,192,253277,1,0,0:0:0:0:
192,192,253277,1,0,0:0:0:0:
448,192,253340,1,0,0:0:0:0:
320,192,253340,1,0,0:0:0:0:
64,192,253402,1,0,0:0:0:0:
192,192,253402,1,0,0:0:0:0:
320,192,253465,1,0,0:0:0:0:
448,192,253465,1,0,0:0:0:0:
64,192,253527,1,0,0:0:0:0:
192,192,253527,1,0,0:0:0:0:
448,192,253590,1,0,0:0:0:0:
320,192,253590,1,0,0:0:0:0:
64,192,253652,1,0,0:0:0:0:
192,192,253652,1,0,0:0:0:0:
448,192,253715,1,0,0:0:0:0:
320,192,253715,1,0,0:0:0:0:
192,192,253777,1,0,0:0:0:0:
64,192,253777,1,0,0:0:0:0:
320,192,253840,5,0,0:0:0:0:
448,192,253840,1,0,0:0:0:0:
192,192,253902,1,0,0:0:0:0:
64,192,253902,1,0,0:0:0:0:
320,192,253965,1,0,0:0:0:0:
448,192,253965,1,0,0:0:0:0:
64,192,254027,1,0,0:0:0:0:
192,192,254027,1,0,0:0:0:0:
448,192,254090,1,0,0:0:0:0:
320,192,254121,1,0,0:0:0:0:
192,192,254152,1,0,0:0:0:0:
64,192,254184,1,0,0:0:0:0:
448,192,254215,1,0,0:0:0:0:
320,192,254246,1,0,0:0:0:0:
192,192,254277,1,0,0:0:0:0:
64,192,254309,1,0,0:0:0:0:
448,192,254340,1,0,0:0:0:0:
320,192,254371,1,0,0:0:0:0:
192,192,254402,1,0,0:0:0:0:
64,192,254434,1,0,0:0:0:0:
448,192,254465,1,0,0:0:0:0:
320,192,254496,1,0,0:0:0:0:
192,192,254527,1,0,0:0:0:0:
64,192,254559,1,0,0:0:0:0:
448,192,254590,1,0,0:0:0:0:
320,192,254621,1,0,0:0:0:0:
192,192,254652,1,0,0:0:0:0:
64,192,254684,1,0,0:0:0:0:
448,192,254715,1,0,0:0:0:0:
320,192,254746,1,0,0:0:0:0:
192,192,254777,1,0,0:0:0:0:
64,192,254809,1,0,0:0:0:0:
448,192,254840,1,0,0:0:0:0:
320,192,254871,1,0,0:0:0:0:
192,192,254902,1,0,0:0:0:0:
64,192,254934,1,0,0:0:0:0:
64,192,255027,5,0,0:0:0:0:
192,192,255027,1,0,0:0:0:0:
448,192,255027,1,0,0:0:0:0:
320,192,255027,1,0,0:0:0:0:
