osu file format v14

[General]
AudioFilename: t pazolite vs RoughSketch - See you Never.mp3
AudioLeadIn: 0
PreviewTime: 134432
Countdown: 0
SampleSet: Normal
StackLeniency: 0.7
Mode: 1
LetterboxInBreaks: 0
WidescreenStoryboard: 1

[Editor]
Bookmarks: 109257,230096
DistanceSpacing: 1
BeatDivisor: 4
GridSize: 32
TimelineZoom: 4.499998

[Metadata]
Title:See you Never
TitleUnicode:See you Never
Artist:t+pazolite vs RoughSketch
ArtistUnicode:t+pazolite vs RoughSketch
Creator:xWillx
Version:Inner Oni
Source:SPEED BALL EVOLUTION
Tags:HARDCORE TANO*C Speedcore
BeatmapID:686616
BeatmapSetID:306814

[Difficulty]
HPDrainRate:5
CircleSize:5
OverallDifficulty:5
ApproachRate:5
SliderMultiplier:1.4
SliderTickRate:1

[Events]
//Background and Video events
0,0,"bg.png",0,0
//Break Periods
//Storyboard Layer 0 (Background)
//Storyboard Layer 1 (Fail)
//Storyboard Layer 2 (Pass)
//Storyboard Layer 3 (Foreground)
//Storyboard Sound Samples

[TimingPoints]
1845,209.79020979021,4,1,0,40,1,0
1845,-133.333333333333,4,1,0,40,0,0
28278,-25,4,1,0,40,0,0
31425,-100,4,1,0,40,0,0
32107,-25,4,1,0,40,0,0
33942,-100,4,1,0,40,0,0
35516,-25,4,1,0,40,0,0
36250,-100,4,1,0,40,0,0
36303,-25,4,1,0,40,0,0
37089,-100,4,1,0,40,0,0
37142,-25,4,1,0,40,0,0
37928,-100,4,1,0,40,0,0
37981,-25,4,1,0,40,0,0
38768,-66.6666666666667,4,1,0,40,0,0
39187,-62.5,4,1,0,40,0,0
39607,-58.8235294117647,4,1,0,40,0,0
40026,-66.6666666666667,4,1,0,40,0,0
42124,-100,4,1,0,40,0,0
48838,-90.9090909090909,4,1,0,40,0,0
55551,-100,4,1,0,40,0,0
62264,-90.9090909090909,4,1,0,40,0,0
68138,-90.9090909090909,4,1,0,40,0,0
68348,-100,4,1,0,40,0,0
68558,-105.263157894737,4,1,0,40,0,0
68663,-111.111111111111,4,1,0,40,0,0
68768,-117.647058823529,4,1,0,40,0,0
68977,-133.333333333333,4,1,0,40,0,0
92893,-117.647058823529,4,1,0,40,0,0
92998,-125,4,1,0,40,0,0
93103,-142.857142857143,4,1,0,40,0,0
93208,-166.666666666667,4,1,0,40,0,0
93313,-200,4,1,0,40,0,0
93628,-166.666666666667,4,1,0,40,0,0
94152,-133.333333333333,4,1,0,40,0,0
95831,-111.111111111111,4,1,0,40,0,0
98348,-111.111111111111,4,1,0,40,0,1
98610,-111.111111111111,4,1,0,40,0,0
98768,-111.111111111111,4,1,0,40,0,1
99030,-111.111111111111,4,1,0,40,0,0
109257,-100,4,1,0,70,0,0
129394,-95.2380952380952,4,1,0,70,0,0
129817,-90.9090909090909,4,1,0,70,0,0
130236,-86.9565217391304,4,1,0,70,0,0
130656,-83.3333333333333,4,1,0,70,0,0
131075,-80,4,1,0,70,0,0
131495,-76.9230769230769,4,1,0,70,0,0
131914,-74.0740740740741,4,1,0,70,0,0
132334,-71.4285714285714,4,1,0,70,0,0
132754,-66.6666666666667,4,1,0,70,0,0
132963,-62.5,4,1,0,70,0,0
133173,-58.8235294117647,4,1,0,70,0,0
133383,-55.5555555555556,4,1,0,70,0,0
133593,-52.6315789473684,4,1,0,70,0,0
133803,-50,4,1,0,70,0,0
134012,-47.6190476190476,4,1,0,70,0,0
134222,-45.4545454545455,4,1,0,70,0,0
134432,-25,4,1,0,70,0,0
135271,-50,4,1,0,70,0,1
135324,-25,4,1,0,70,0,0
135691,-50,4,1,0,70,0,1
135743,-25,4,1,0,70,0,0
136110,-100,4,1,0,70,0,0
149537,-100,4,1,0,70,0,1
156250,-100,4,1,0,70,0,0
157928,-100,4,1,0,70,0,1
162963,-133.333333333333,4,1,0,50,0,0
176390,-200,4,1,0,70,0,0
188977,-25,4,1,0,70,0,0
189817,-100,4,1,0,70,0,0
203243,-111.111111111111,4,1,0,70,0,0
204921,-100,4,1,0,70,0,0
223383,-100,4,1,0,70,0,1
230096,-133.333333333333,4,1,0,70,0,0

[HitObjects]
96,160,1845,5,0,0:0:0:0:
96,160,2054,1,0,0:0:0:0:
96,160,2159,1,0,0:0:0:0:
64,160,2264,1,8,0:0:0:0:
96,160,2474,1,0,0:0:0:0:
64,160,2684,1,8,0:0:0:0:
96,160,2893,1,8,0:0:0:0:
128,128,2998,1,0,0:0:0:0:
64,160,3103,1,8,0:0:0:0:
128,128,3313,1,0,0:0:0:0:
288,128,3523,1,8,0:0:0:0:
128,128,3733,1,0,0:0:0:0:
128,128,3838,1,0,0:0:0:0:
96,160,3942,1,8,0:0:0:0:
128,128,4152,1,0,0:0:0:0:
320,160,4362,1,8,0:0:0:0:
224,160,4572,1,0,0:0:0:0:
96,160,4782,1,8,0:0:0:0:
96,160,5201,1,0,0:0:0:0:
96,160,5410,1,0,0:0:0:0:
96,160,5515,1,0,0:0:0:0:
64,160,5620,1,8,0:0:0:0:
96,160,5830,1,0,0:0:0:0:
64,160,6040,1,8,0:0:0:0:
96,160,6249,1,8,0:0:0:0:
128,128,6354,1,0,0:0:0:0:
64,160,6459,1,8,0:0:0:0:
128,128,6669,1,0,0:0:0:0:
288,128,6879,1,8,0:0:0:0:
128,128,7089,1,0,0:0:0:0:
128,128,7194,1,0,0:0:0:0:
96,160,7298,1,8,0:0:0:0:
128,128,7509,1,0,0:0:0:0:
96,160,7719,1,8,0:0:0:0:
192,160,7928,1,8,0:0:0:0:
128,160,8033,1,0,0:0:0:0:
128,160,8138,1,8,0:0:0:0:
96,160,8558,1,0,0:0:0:0:
96,160,8767,1,0,0:0:0:0:
96,160,8872,1,0,0:0:0:0:
64,160,8977,1,8,0:0:0:0:
96,160,9187,1,0,0:0:0:0:
64,160,9397,1,8,0:0:0:0:
96,128,9502,1,8,0:0:0:0:
96,160,9606,1,8,0:0:0:0:
128,128,9711,1,0,0:0:0:0:
64,160,9816,1,8,0:0:0:0:
128,128,10026,1,0,0:0:0:0:
288,128,10236,1,8,0:0:0:0:
128,128,10446,1,0,0:0:0:0:
128,128,10551,1,8,0:0:0:0:
96,160,10655,1,8,0:0:0:0:
128,128,10865,1,0,0:0:0:0:
128,128,11075,1,8,0:0:0:0:
192,128,11180,1,8,0:0:0:0:
192,128,11285,1,0,0:0:0:0:
96,160,11495,1,8,0:0:0:0:
96,160,11705,1,0,0:0:0:0:
96,160,11914,1,8,0:0:0:0:
64,128,12019,1,0,0:0:0:0:
64,64,12124,1,0,0:0:0:0:
96,128,12229,1,0,0:0:0:0:
96,160,12334,1,8,0:0:0:0:
128,128,12544,1,0,0:0:0:0:
64,384,12754,1,8,0:0:0:0:
32,224,13068,1,0,0:0:0:0:
96,192,13173,1,8,0:0:0:0:
192,128,13383,1,0,0:0:0:0:
64,128,13593,1,8,0:0:0:0:
160,160,13803,1,0,0:0:0:0:
96,128,13907,1,0,0:0:0:0:
256,192,14012,1,8,0:0:0:0:
224,160,14117,1,8,0:0:0:0:
160,160,14222,1,0,0:0:0:0:
160,160,14327,1,0,0:0:0:0:
96,64,14432,1,8,0:0:0:0:
160,160,14642,1,0,0:0:0:0:
160,160,14851,1,8,0:0:0:0:
128,160,14921,1,8,0:0:0:0:
128,160,14991,1,8,0:0:0:0:
160,160,15061,1,8,0:0:0:0:
96,160,15166,1,8,0:0:0:0:
96,160,15271,1,0,0:0:0:0:
96,160,15481,1,0,0:0:0:0:
96,160,15586,1,0,0:0:0:0:
64,160,15691,1,8,0:0:0:0:
96,160,15901,1,0,0:0:0:0:
64,160,16111,1,8,0:0:0:0:
96,160,16320,1,8,0:0:0:0:
128,128,16425,1,0,0:0:0:0:
64,160,16530,1,8,0:0:0:0:
128,128,16740,1,0,0:0:0:0:
288,128,16950,1,8,0:0:0:0:
128,128,17160,1,0,0:0:0:0:
128,128,17265,1,0,0:0:0:0:
96,160,17369,1,8,0:0:0:0:
128,128,17579,1,0,0:0:0:0:
320,160,17789,1,8,0:0:0:0:
224,160,17999,1,0,0:0:0:0:
96,160,18209,1,8,0:0:0:0:
96,160,18628,1,0,0:0:0:0:
96,160,18837,1,0,0:0:0:0:
96,160,18942,1,0,0:0:0:0:
64,160,19047,1,8,0:0:0:0:
96,160,19257,1,0,0:0:0:0:
64,160,19467,1,8,0:0:0:0:
96,160,19676,1,8,0:0:0:0:
128,128,19781,1,0,0:0:0:0:
64,160,19886,1,8,0:0:0:0:
128,128,20096,1,0,0:0:0:0:
288,128,20306,1,8,0:0:0:0:
128,128,20516,1,0,0:0:0:0:
128,128,20621,1,0,0:0:0:0:
96,160,20725,1,8,0:0:0:0:
128,128,20936,1,0,0:0:0:0:
96,160,21146,1,8,0:0:0:0:
192,160,21355,1,8,0:0:0:0:
128,160,21460,1,0,0:0:0:0:
128,160,21565,1,8,0:0:0:0:
224,192,21775,1,8,0:0:0:0:
192,192,21845,1,8,0:0:0:0:
160,192,21914,1,8,0:0:0:0:
96,160,21985,1,0,0:0:0:0:
96,160,22194,1,0,0:0:0:0:
96,160,22299,1,0,0:0:0:0:
64,160,22404,1,8,0:0:0:0:
96,160,22614,1,0,0:0:0:0:
64,160,22824,1,8,0:0:0:0:
96,128,22929,1,8,0:0:0:0:
96,160,23033,1,8,0:0:0:0:
128,128,23138,1,0,0:0:0:0:
64,160,23243,1,8,0:0:0:0:
96,192,23313,1,8,0:0:0:0:
96,128,23383,1,8,0:0:0:0:
128,128,23453,1,0,0:0:0:0:
64,128,23558,1,0,0:0:0:0:
288,128,23663,1,8,0:0:0:0:
128,128,23873,1,0,0:0:0:0:
128,128,23978,1,0,0:0:0:0:
96,160,24082,1,8,0:0:0:0:
96,192,24152,1,8,0:0:0:0:
96,128,24222,1,8,0:0:0:0:
128,128,24292,1,0,0:0:0:0:
64,160,24397,1,0,0:0:0:0:
128,128,24502,1,8,0:0:0:0:
192,128,24712,1,0,0:0:0:0:
192,128,24817,1,0,0:0:0:0:
96,160,24922,1,8,0:0:0:0:
96,160,25132,1,0,0:0:0:0:
96,160,25341,1,8,0:0:0:0:
64,128,25446,1,0,0:0:0:0:
64,64,25551,1,0,0:0:0:0:
96,128,25656,1,0,0:0:0:0:
96,160,25761,1,8,0:0:0:0:
128,128,25971,1,0,0:0:0:0:
64,384,26181,1,8,0:0:0:0:
32,224,26495,1,0,0:0:0:0:
64,160,26600,1,8,0:0:0:0:
32,128,26810,1,0,0:0:0:0:
64,128,27019,1,8,0:0:0:0:
32,128,27229,1,0,0:0:0:0:
32,128,27334,1,0,0:0:0:0:
64,128,27439,1,8,0:0:0:0:
32,128,27649,1,0,0:0:0:0:
64,128,27858,1,8,0:0:0:0:
256,192,28278,12,0,28698,0:0:0:0:
96,160,31425,5,4,0:0:0:0:
96,160,31635,1,12,0:0:0:0:
96,160,31845,1,12,0:0:0:0:
96,160,32054,1,4,0:0:0:0:
64,160,33942,1,4,0:0:0:0:
96,256,34152,1,12,0:0:0:0:
64,160,34362,1,4,0:0:0:0:
96,256,34572,1,12,0:0:0:0:
32,160,34782,1,0,0:0:0:0:
32,192,34834,1,0,0:0:0:0:
64,192,34886,1,0,0:0:0:0:
64,192,34939,1,0,0:0:0:0:
64,192,34991,1,8,0:0:0:0:
64,192,35044,1,8,0:0:0:0:
64,192,35096,1,8,0:0:0:0:
64,192,35149,1,8,0:0:0:0:
64,192,35201,1,0,0:0:0:0:
64,192,35254,1,0,0:0:0:0:
64,192,35306,1,8,0:0:0:0:
64,192,35358,1,8,0:0:0:0:
128,160,35411,1,4,0:0:0:0:
128,160,36250,1,4,0:0:0:0:
128,160,37089,1,4,0:0:0:0:
128,160,37928,1,4,0:0:0:0:
128,160,38768,1,4,0:0:0:0:
128,160,39187,1,4,0:0:0:0:
160,352,39607,1,4,0:0:0:0:
128,160,40026,1,4,0:0:0:0:
32,192,40236,1,8,0:0:0:0:
256,192,40446,12,4,41495,0:0:0:0:
96,192,41705,5,8,0:0:0:0:
96,192,41757,1,8,0:0:0:0:
96,192,41810,1,8,0:0:0:0:
96,192,41862,1,8,0:0:0:0:
96,224,41914,1,8,0:0:0:0:
96,256,41967,1,8,0:0:0:0:
96,224,42019,1,8,0:0:0:0:
96,224,42072,1,8,0:0:0:0:
96,224,42124,1,0,0:0:0:0:
32,160,42334,1,0,0:0:0:0:
96,224,42544,1,0,0:0:0:0:
32,160,42754,1,0,0:0:0:0:
96,224,42964,1,0,0:0:0:0:
96,224,43173,1,0,0:0:0:0:
32,160,43383,1,0,0:0:0:0:
96,224,43593,1,0,0:0:0:0:
32,160,43803,1,0,0:0:0:0:
96,224,44013,1,0,0:0:0:0:
96,224,44222,1,0,0:0:0:0:
32,160,44432,1,0,0:0:0:0:
96,224,44642,1,0,0:0:0:0:
32,160,44852,1,0,0:0:0:0:
96,224,45062,1,0,0:0:0:0:
96,224,45271,1,0,0:0:0:0:
32,160,45376,1,0,0:0:0:0:
32,160,45481,1,0,0:0:0:0:
96,224,45691,1,0,0:0:0:0:
32,160,45901,1,0,0:0:0:0:
96,224,46111,1,0,0:0:0:0:
96,224,46320,1,0,0:0:0:0:
32,160,46530,1,0,0:0:0:0:
96,224,46740,1,0,0:0:0:0:
32,160,46950,1,0,0:0:0:0:
96,224,47160,1,0,0:0:0:0:
96,224,47369,1,0,0:0:0:0:
32,160,47579,1,0,0:0:0:0:
96,224,47789,1,0,0:0:0:0:
32,160,47999,1,0,0:0:0:0:
96,224,48209,1,0,0:0:0:0:
96,128,48418,1,0,0:0:0:0:
96,192,48838,1,0,0:0:0:0:
32,160,48942,1,0,0:0:0:0:
64,192,49047,1,0,0:0:0:0:
32,224,49152,1,0,0:0:0:0:
64,192,49257,1,0,0:0:0:0:
96,192,49310,1,0,0:0:0:0:
128,192,49362,1,8,0:0:0:0:
32,192,49467,1,0,0:0:0:0:
32,192,49572,1,0,0:0:0:0:
64,160,49677,1,0,0:0:0:0:
96,160,49729,1,0,0:0:0:0:
64,160,49782,1,8,0:0:0:0:
64,160,49886,1,0,0:0:0:0:
64,160,49991,1,0,0:0:0:0:
64,160,50096,1,0,0:0:0:0:
96,160,50149,1,0,0:0:0:0:
128,160,50201,1,8,0:0:0:0:
32,160,50306,1,0,0:0:0:0:
96,192,50411,1,8,0:0:0:0:
64,160,50516,1,0,0:0:0:0:
96,224,50568,1,0,0:0:0:0:
128,256,50621,1,8,0:0:0:0:
64,192,50673,1,8,0:0:0:0:
96,160,50726,1,0,0:0:0:0:
128,224,50831,1,8,0:0:0:0:
160,288,50935,1,0,0:0:0:0:
192,256,50988,1,0,0:0:0:0:
128,256,51040,1,8,0:0:0:0:
128,256,51145,1,0,0:0:0:0:
128,256,51198,1,0,0:0:0:0:
128,224,51250,1,8,0:0:0:0:
128,256,51355,1,0,0:0:0:0:
128,288,51460,1,0,0:0:0:0:
128,256,51512,1,0,0:0:0:0:
128,288,51565,1,0,0:0:0:0:
128,288,51670,1,8,0:0:0:0:
32,160,51775,1,0,0:0:0:0:
64,160,51827,1,0,0:0:0:0:
0,160,51879,1,8,0:0:0:0:
128,288,51932,1,8,0:0:0:0:
32,160,51984,1,0,0:0:0:0:
64,160,52037,1,0,0:0:0:0:
32,128,52089,1,8,0:0:0:0:
64,128,52142,1,8,0:0:0:0:
96,160,52194,1,0,0:0:0:0:
160,128,52404,1,0,0:0:0:0:
192,96,52509,1,0,0:0:0:0:
128,224,52614,1,8,0:0:0:0:
96,128,52824,1,0,0:0:0:0:
128,160,52928,1,0,0:0:0:0:
192,160,53033,1,8,0:0:0:0:
128,160,53138,1,0,0:0:0:0:
128,160,53243,1,0,0:0:0:0:
128,160,53348,1,0,0:0:0:0:
192,160,53453,1,8,0:0:0:0:
128,160,53505,1,8,0:0:0:0:
128,160,53558,1,0,0:0:0:0:
96,160,53663,1,8,0:0:0:0:
96,160,53715,1,8,0:0:0:0:
128,160,53768,1,0,0:0:0:0:
160,384,53872,1,0,0:0:0:0:
128,160,53977,1,0,0:0:0:0:
128,160,54082,1,8,0:0:0:0:
128,160,54187,1,0,0:0:0:0:
128,192,54292,1,8,0:0:0:0:
128,128,54397,1,0,0:0:0:0:
192,128,54502,1,0,0:0:0:0:
224,160,54607,1,0,0:0:0:0:
96,160,54712,1,8,0:0:0:0:
128,192,54764,1,8,0:0:0:0:
160,192,54817,1,8,0:0:0:0:
96,160,54869,1,8,0:0:0:0:
128,160,54921,1,0,0:0:0:0:
192,192,55026,1,8,0:0:0:0:
128,160,55131,5,0,0:0:0:0:
96,224,55551,1,0,0:0:0:0:
32,160,55761,1,0,0:0:0:0:
96,224,55971,1,0,0:0:0:0:
32,160,56181,1,0,0:0:0:0:
96,224,56391,1,0,0:0:0:0:
96,224,56600,1,0,0:0:0:0:
32,160,56810,1,0,0:0:0:0:
96,224,57020,1,0,0:0:0:0:
96,160,57124,1,0,0:0:0:0:
32,160,57230,1,0,0:0:0:0:
96,224,57440,1,0,0:0:0:0:
96,224,57649,1,0,0:0:0:0:
32,160,57859,1,0,0:0:0:0:
96,224,58069,1,0,0:0:0:0:
32,160,58279,1,0,0:0:0:0:
96,224,58489,1,0,0:0:0:0:
32,160,58593,1,0,0:0:0:0:
96,224,58698,1,0,0:0:0:0:
32,192,58803,1,0,0:0:0:0:
32,160,58908,1,0,0:0:0:0:
96,224,59118,1,0,0:0:0:0:
32,160,59328,1,0,0:0:0:0:
96,224,59538,1,0,0:0:0:0:
96,224,59747,1,0,0:0:0:0:
32,160,59957,1,0,0:0:0:0:
96,224,60167,1,0,0:0:0:0:
32,160,60377,1,0,0:0:0:0:
96,224,60587,1,0,0:0:0:0:
96,224,60796,1,0,0:0:0:0:
32,160,61006,1,0,0:0:0:0:
96,224,61216,1,0,0:0:0:0:
32,160,61426,1,0,0:0:0:0:
96,224,61636,1,0,0:0:0:0:
96,128,61845,1,0,0:0:0:0:
64,224,62264,1,0,0:0:0:0:
96,256,62317,1,0,0:0:0:0:
128,256,62369,1,0,0:0:0:0:
128,224,62421,1,0,0:0:0:0:
128,192,62474,1,8,0:0:0:0:
160,320,62579,1,0,0:0:0:0:
320,288,62684,1,0,0:0:0:0:
96,128,62736,1,0,0:0:0:0:
288,256,62789,1,0,0:0:0:0:
192,224,62893,1,0,0:0:0:0:
192,160,62998,1,8,0:0:0:0:
32,224,63103,1,0,0:0:0:0:
64,192,63156,1,0,0:0:0:0:
96,192,63208,1,0,0:0:0:0:
96,160,63261,1,0,0:0:0:0:
160,128,63313,1,8,0:0:0:0:
224,128,63418,1,0,0:0:0:0:
288,320,63523,1,8,0:0:0:0:
256,288,63628,1,0,0:0:0:0:
160,256,63733,1,0,0:0:0:0:
128,96,63942,1,0,0:0:0:0:
96,128,64047,1,8,0:0:0:0:
32,192,64152,1,0,0:0:0:0:
32,160,64205,1,0,0:0:0:0:
64,160,64257,1,8,0:0:0:0:
160,128,64362,1,0,0:0:0:0:
96,128,64467,1,8,0:0:0:0:
96,160,64572,1,0,0:0:0:0:
160,160,64677,1,8,0:0:0:0:
64,160,64782,1,0,0:0:0:0:
160,192,64834,1,0,0:0:0:0:
160,160,64886,1,0,0:0:0:0:
192,160,64991,1,0,0:0:0:0:
160,224,65096,1,8,0:0:0:0:
288,64,65201,1,0,0:0:0:0:
256,128,65306,1,8,0:0:0:0:
192,160,65411,1,0,0:0:0:0:
128,160,65516,1,0,0:0:0:0:
64,160,65621,1,0,0:0:0:0:
64,160,65726,1,0,0:0:0:0:
64,160,65831,1,0,0:0:0:0:
64,160,65935,1,0,0:0:0:0:
64,160,66040,1,0,0:0:0:0:
96,224,66145,1,0,0:0:0:0:
96,224,66250,1,0,0:0:0:0:
96,224,66355,1,0,0:0:0:0:
96,224,66460,1,0,0:0:0:0:
96,224,66565,1,0,0:0:0:0:
96,224,66670,1,0,0:0:0:0:
96,224,66775,1,0,0:0:0:0:
96,224,66879,1,0,0:0:0:0:
96,224,66984,1,0,0:0:0:0:
96,160,67089,1,0,0:0:0:0:
96,160,67194,1,0,0:0:0:0:
96,224,67299,5,0,0:0:0:0:
96,224,67351,1,0,0:0:0:0:
96,224,67404,1,0,0:0:0:0:
96,224,67456,1,0,0:0:0:0:
224,128,67509,5,0,0:0:0:0:
192,128,67561,1,0,0:0:0:0:
192,160,67614,1,0,0:0:0:0:
192,160,67666,1,0,0:0:0:0:
96,160,67719,1,0,0:0:0:0:
128,160,67754,1,0,0:0:0:0:
128,192,67789,1,0,0:0:0:0:
160,192,67824,1,0,0:0:0:0:
160,192,67858,1,0,0:0:0:0:
160,192,67893,1,0,0:0:0:0:
160,192,67928,1,0,0:0:0:0:
160,192,67963,1,0,0:0:0:0:
160,192,67998,1,0,0:0:0:0:
96,160,68033,1,0,0:0:0:0:
160,192,68068,1,0,0:0:0:0:
96,160,68103,1,0,0:0:0:0:
96,160,68138,1,8,0:0:0:0:
32,160,68348,1,0,0:0:0:0:
160,128,68558,1,0,0:0:0:0:
224,128,68663,1,8,0:0:0:0:
224,128,68768,1,0,0:0:0:0:
96,128,68977,1,0,0:0:0:0:
128,192,69082,1,0,0:0:0:0:
32,160,69187,1,8,0:0:0:0:
128,256,69397,1,0,0:0:0:0:
224,352,69607,1,8,0:0:0:0:
96,128,69817,1,0,0:0:0:0:
128,192,69921,1,0,0:0:0:0:
32,160,70027,1,8,0:0:0:0:
128,256,70237,1,0,0:0:0:0:
224,352,70447,1,8,0:0:0:0:
96,128,70656,1,0,0:0:0:0:
57,186,70761,1,0,0:0:0:0:
32,160,70866,1,8,0:0:0:0:
128,256,71076,1,0,0:0:0:0:
224,352,71286,1,8,0:0:0:0:
96,128,71495,1,0,0:0:0:0:
110,196,71600,1,0,0:0:0:0:
32,160,71705,1,8,0:0:0:0:
101,151,71810,1,8,0:0:0:0:
128,256,71915,1,0,0:0:0:0:
160,192,72019,1,0,0:0:0:0:
224,352,72125,1,8,0:0:0:0:
96,128,72334,1,0,0:0:0:0:
32,160,72544,1,8,0:0:0:0:
128,256,72754,1,0,0:0:0:0:
224,352,72858,1,8,0:0:0:0:
140,116,73068,1,8,0:0:0:0:
128,256,73173,1,0,0:0:0:0:
74,126,73383,1,8,0:0:0:0:
140,116,73593,1,0,0:0:0:0:
140,116,73698,1,8,0:0:0:0:
32,160,73907,1,8,0:0:0:0:
128,256,74012,1,0,0:0:0:0:
224,352,74222,1,8,0:0:0:0:
128,256,74431,1,0,0:0:0:0:
159,192,74537,1,0,0:0:0:0:
140,116,74641,1,8,0:0:0:0:
140,116,74851,1,8,0:0:0:0:
111,137,74921,1,8,0:0:0:0:
75,141,74991,1,8,0:0:0:0:
111,137,75061,1,0,0:0:0:0:
111,137,75166,1,0,0:0:0:0:
111,137,75271,1,8,0:0:0:0:
111,137,75376,1,0,0:0:0:0:
111,137,75481,1,8,0:0:0:0:
180,127,75586,1,0,0:0:0:0:
111,137,75691,1,8,0:0:0:0:
180,127,75900,1,0,0:0:0:0:
288,256,76110,1,8,0:0:0:0:
256,224,76215,1,8,0:0:0:0:
180,127,76320,1,0,0:0:0:0:
96,192,76530,1,8,0:0:0:0:
192,128,76740,1,0,0:0:0:0:
288,256,76949,1,8,0:0:0:0:
224,192,77054,1,8,0:0:0:0:
192,160,77159,1,0,0:0:0:0:
192,64,77369,1,8,0:0:0:0:
128,160,77579,1,0,0:0:0:0:
288,256,77789,1,8,0:0:0:0:
160,160,77893,1,8,0:0:0:0:
192,192,77998,1,0,0:0:0:0:
192,64,78208,1,8,0:0:0:0:
96,128,78418,1,0,0:0:0:0:
288,256,78628,1,8,0:0:0:0:
160,160,78733,1,8,0:0:0:0:
192,192,78838,1,0,0:0:0:0:
224,64,79047,1,8,0:0:0:0:
128,128,79257,1,0,0:0:0:0:
96,160,79362,1,0,0:0:0:0:
288,256,79467,1,8,0:0:0:0:
96,160,79677,1,0,0:0:0:0:
224,64,79886,1,8,0:0:0:0:
96,160,79991,1,0,0:0:0:0:
96,160,80201,1,0,0:0:0:0:
288,224,80306,1,8,0:0:0:0:
96,160,80516,1,0,0:0:0:0:
96,160,80726,1,8,0:0:0:0:
160,160,80831,1,0,0:0:0:0:
160,160,80935,1,8,0:0:0:0:
160,160,81040,1,8,0:0:0:0:
96,160,81145,1,8,0:0:0:0:
160,160,81250,1,0,0:0:0:0:
160,160,81355,1,8,0:0:0:0:
160,160,81460,1,8,0:0:0:0:
160,160,81565,1,0,0:0:0:0:
160,160,81670,1,8,0:0:0:0:
160,160,81775,1,0,0:0:0:0:
160,160,81879,1,0,0:0:0:0:
160,160,81984,1,8,0:0:0:0:
192,160,82054,1,8,0:0:0:0:
192,160,82124,1,8,0:0:0:0:
192,160,82194,1,8,0:0:0:0:
192,160,82264,1,8,0:0:0:0:
192,160,82334,1,8,0:0:0:0:
96,160,82404,1,0,0:0:0:0:
96,160,82614,1,0,0:0:0:0:
96,160,82719,1,0,0:0:0:0:
64,160,82824,1,12,0:0:0:0:
96,160,83034,1,0,0:0:0:0:
64,160,83244,1,8,0:0:0:0:
96,160,83453,1,8,0:0:0:0:
128,128,83558,1,0,0:0:0:0:
64,160,83663,1,12,0:0:0:0:
128,128,83873,1,0,0:0:0:0:
288,128,84083,1,8,0:0:0:0:
128,128,84293,1,0,0:0:0:0:
128,128,84398,1,0,0:0:0:0:
96,160,84502,1,12,0:0:0:0:
128,128,84712,1,0,0:0:0:0:
320,160,84922,1,8,0:0:0:0:
224,160,85132,1,0,0:0:0:0:
96,160,85342,1,12,0:0:0:0:
96,160,85761,1,0,0:0:0:0:
96,160,85970,1,0,0:0:0:0:
96,160,86075,1,0,0:0:0:0:
64,160,86180,1,12,0:0:0:0:
96,160,86390,1,0,0:0:0:0:
64,160,86600,1,8,0:0:0:0:
96,160,86809,1,8,0:0:0:0:
128,128,86914,1,0,0:0:0:0:
64,160,87019,1,12,0:0:0:0:
128,128,87229,1,0,0:0:0:0:
288,128,87439,1,8,0:0:0:0:
128,128,87649,1,0,0:0:0:0:
128,128,87754,1,0,0:0:0:0:
96,160,87858,1,12,0:0:0:0:
128,128,88069,1,0,0:0:0:0:
96,160,88279,1,8,0:0:0:0:
192,160,88488,1,8,0:0:0:0:
128,160,88593,1,0,0:0:0:0:
128,160,88698,1,12,0:0:0:0:
224,192,88908,1,8,0:0:0:0:
96,160,89118,1,0,0:0:0:0:
96,160,89327,1,0,0:0:0:0:
96,160,89432,1,0,0:0:0:0:
64,160,89537,1,12,0:0:0:0:
96,160,89747,1,0,0:0:0:0:
64,160,89957,1,8,0:0:0:0:
96,128,90062,1,8,0:0:0:0:
96,160,90166,1,8,0:0:0:0:
128,128,90271,1,0,0:0:0:0:
64,160,90376,1,12,0:0:0:0:
128,128,90586,1,0,0:0:0:0:
288,128,90796,1,8,0:0:0:0:
128,128,91006,1,0,0:0:0:0:
128,128,91110,1,0,0:0:0:0:
96,160,91215,1,12,0:0:0:0:
128,128,91425,1,0,0:0:0:0:
128,128,91635,1,8,0:0:0:0:
192,128,91845,1,0,0:0:0:0:
192,128,91950,1,0,0:0:0:0:
96,160,92055,1,12,0:0:0:0:
96,160,92265,1,0,0:0:0:0:
96,160,92474,1,8,0:0:0:0:
64,128,92579,1,0,0:0:0:0:
64,64,92684,1,0,0:0:0:0:
96,128,92789,1,0,0:0:0:0:
96,160,92893,1,12,0:0:0:0:
160,160,92998,1,8,0:0:0:0:
192,160,93103,1,8,0:0:0:0:
192,128,93208,1,8,0:0:0:0:
64,384,93314,1,0,0:0:0:0:
32,224,93628,1,0,0:0:0:0:
64,160,93733,1,8,0:0:0:0:
64,128,94152,1,8,0:0:0:0:
32,128,94362,1,0,0:0:0:0:
160,160,94432,1,0,0:0:0:0:
32,128,94502,1,0,0:0:0:0:
64,128,94572,1,8,0:0:0:0:
160,160,94782,1,8,0:0:0:0:
192,160,94851,1,8,0:0:0:0:
96,128,94921,1,8,0:0:0:0:
64,128,94991,1,0,0:0:0:0:
64,128,95201,1,0,0:0:0:0:
160,160,95411,1,8,0:0:0:0:
224,128,95463,1,8,0:0:0:0:
224,128,95516,1,8,0:0:0:0:
224,128,95568,1,8,0:0:0:0:
256,128,95621,1,8,0:0:0:0:
288,96,95673,1,8,0:0:0:0:
288,96,95726,1,8,0:0:0:0:
320,64,95778,1,8,0:0:0:0:
96,160,95831,5,0,0:0:0:0:
96,160,96040,1,0,0:0:0:0:
96,160,96145,1,0,0:0:0:0:
64,160,96250,1,8,0:0:0:0:
96,160,96460,1,4,0:0:0:0:
128,128,96565,1,4,0:0:0:0:
64,160,96670,1,8,0:0:0:0:
96,160,96879,1,8,0:0:0:0:
128,128,96984,1,0,0:0:0:0:
64,160,97089,1,8,0:0:0:0:
128,128,97299,1,4,0:0:0:0:
128,128,97404,1,0,0:0:0:0:
288,128,97509,1,12,0:0:0:0:
128,128,97719,1,0,0:0:0:0:
128,128,97824,1,0,0:0:0:0:
96,160,97928,1,8,0:0:0:0:
128,128,98138,1,4,0:0:0:0:
224,192,98348,2,0,L|256:128,2,62.9999980773926
96,256,98768,2,0,L|128:160,2,62.9999980773926
96,160,99187,1,4,0:0:0:0:
96,160,99397,1,0,0:0:0:0:
96,160,99501,1,0,0:0:0:0:
64,160,99606,1,8,0:0:0:0:
96,160,99816,1,4,0:0:0:0:
64,128,99921,1,4,0:0:0:0:
64,160,100026,1,12,0:0:0:0:
96,160,100235,1,8,0:0:0:0:
128,128,100340,1,0,0:0:0:0:
64,160,100445,1,8,0:0:0:0:
128,128,100655,1,4,0:0:0:0:
64,128,100761,1,0,0:0:0:0:
288,128,100865,1,12,0:0:0:0:
128,128,101075,1,0,0:0:0:0:
128,128,101180,1,0,0:0:0:0:
96,160,101284,1,8,0:0:0:0:
128,128,101495,1,4,0:0:0:0:
96,160,101705,1,8,0:0:0:0:
192,160,101914,1,8,0:0:0:0:
128,160,102019,1,0,0:0:0:0:
128,160,102124,1,8,0:0:0:0:
96,160,102544,1,4,0:0:0:0:
96,160,102753,1,0,0:0:0:0:
96,160,102858,1,0,0:0:0:0:
64,160,102963,1,8,0:0:0:0:
96,160,103173,1,4,0:0:0:0:
64,128,103278,1,0,0:0:0:0:
64,160,103383,1,12,0:0:0:0:
96,160,103593,1,8,0:0:0:0:
128,128,103697,1,0,0:0:0:0:
64,160,103802,1,8,0:0:0:0:
128,128,104012,1,4,0:0:0:0:
64,128,104117,1,4,0:0:0:0:
288,128,104222,1,12,0:0:0:0:
128,128,104432,1,0,0:0:0:0:
128,128,104537,1,8,0:0:0:0:
96,160,104642,1,8,0:0:0:0:
128,128,104851,1,0,0:0:0:0:
128,128,105061,1,8,0:0:0:0:
192,128,105166,1,8,0:0:0:0:
192,128,105271,1,0,0:0:0:0:
96,160,105481,1,8,0:0:0:0:
96,160,105691,1,0,0:0:0:0:
96,160,105900,1,12,0:0:0:0:
64,128,106005,1,0,0:0:0:0:
64,64,106110,1,0,0:0:0:0:
96,128,106215,1,0,0:0:0:0:
96,160,106320,1,12,0:0:0:0:
128,128,106530,1,0,0:0:0:0:
64,384,106740,1,12,0:0:0:0:
32,224,107054,1,0,0:0:0:0:
96,192,107159,1,12,0:0:0:0:
192,128,107369,1,4,0:0:0:0:
96,128,107474,1,4,0:0:0:0:
64,128,107579,1,12,0:0:0:0:
160,160,107789,1,0,0:0:0:0:
96,128,107893,1,0,0:0:0:0:
256,192,107998,1,12,0:0:0:0:
224,160,108103,1,8,0:0:0:0:
160,160,108208,1,0,0:0:0:0:
160,160,108313,1,0,0:0:0:0:
96,64,108418,1,12,0:0:0:0:
160,160,108628,1,0,0:0:0:0:
160,160,108837,1,8,0:0:0:0:
128,160,108907,1,8,0:0:0:0:
128,160,108977,1,8,0:0:0:0:
160,160,109047,1,0,0:0:0:0:
160,128,109100,1,0,0:0:0:0:
96,160,109152,1,8,0:0:0:0:
128,128,109205,1,8,0:0:0:0:
96,160,109257,1,0,0:0:0:0:
96,160,109467,1,8,0:0:0:0:
96,160,109572,1,8,0:0:0:0:
96,160,109782,1,0,0:0:0:0:
96,160,109886,1,8,0:0:0:0:
96,160,109991,1,8,0:0:0:0:
96,160,110096,1,0,0:0:0:0:
96,160,110306,1,8,0:0:0:0:
96,160,110411,1,0,0:0:0:0:
96,160,110621,1,8,0:0:0:0:
96,160,110726,1,0,0:0:0:0:
96,160,110831,1,0,0:0:0:0:
96,160,110935,1,8,0:0:0:0:
96,160,111145,1,0,0:0:0:0:
96,160,111355,1,0,0:0:0:0:
96,160,111460,1,8,0:0:0:0:
96,288,111670,1,0,0:0:0:0:
64,192,111775,1,8,0:0:0:0:
128,224,111879,1,8,0:0:0:0:
64,192,111984,1,0,0:0:0:0:
128,224,112089,1,8,0:0:0:0:
96,288,112194,1,0,0:0:0:0:
96,352,112299,1,0,0:0:0:0:
96,288,112404,1,8,0:0:0:0:
96,320,112509,1,0,0:0:0:0:
96,320,112614,1,8,0:0:0:0:
192,224,112824,1,0,0:0:0:0:
256,96,113033,1,0,0:0:0:0:
256,160,113138,1,8,0:0:0:0:
256,32,113348,1,0,0:0:0:0:
256,96,113453,1,8,0:0:0:0:
256,160,113558,1,8,0:0:0:0:
256,96,113663,1,0,0:0:0:0:
256,224,113872,1,0,0:0:0:0:
256,96,114082,1,0,0:0:0:0:
256,160,114187,1,8,0:0:0:0:
256,96,114292,1,8,0:0:0:0:
256,224,114502,1,0,0:0:0:0:
256,96,114712,1,0,0:0:0:0:
256,160,114817,1,8,0:0:0:0:
256,32,115026,1,0,0:0:0:0:
256,160,115236,1,0,0:0:0:0:
256,32,115446,1,0,0:0:0:0:
256,160,115656,1,0,0:0:0:0:
256,96,115761,1,0,0:0:0:0:
256,160,115865,1,8,0:0:0:0:
256,96,115970,1,0,0:0:0:0:
256,224,116180,1,0,0:0:0:0:
256,160,116285,1,8,0:0:0:0:
256,32,116495,1,0,0:0:0:0:
256,96,116600,1,8,0:0:0:0:
256,160,116705,1,8,0:0:0:0:
256,96,116810,1,0,0:0:0:0:
256,224,117019,1,8,0:0:0:0:
256,160,117124,1,0,0:0:0:0:
256,32,117334,1,0,0:0:0:0:
256,96,117439,1,8,0:0:0:0:
256,160,117544,1,8,0:0:0:0:
256,224,117649,1,0,0:0:0:0:
256,96,117858,1,8,0:0:0:0:
256,224,118068,1,0,0:0:0:0:
256,160,118173,1,8,0:0:0:0:
192,32,118383,1,0,0:0:0:0:
256,96,118488,1,0,0:0:0:0:
256,160,118593,1,8,0:0:0:0:
256,96,118698,1,0,0:0:0:0:
256,160,118803,1,8,0:0:0:0:
224,96,118907,1,0,0:0:0:0:
256,160,119012,1,0,0:0:0:0:
224,96,119117,1,8,0:0:0:0:
256,160,119222,1,0,0:0:0:0:
224,96,119327,1,8,0:0:0:0:
128,192,119537,1,0,0:0:0:0:
224,96,119747,1,0,0:0:0:0:
160,160,119851,1,8,0:0:0:0:
160,160,120061,1,0,0:0:0:0:
160,160,120166,1,0,0:0:0:0:
160,160,120271,1,8,0:0:0:0:
160,160,120376,1,0,0:0:0:0:
96,160,120586,1,0,0:0:0:0:
64,160,120796,1,0,0:0:0:0:
128,128,120900,1,8,0:0:0:0:
64,160,121005,1,0,0:0:0:0:
64,160,121215,1,0,0:0:0:0:
160,64,121425,1,0,0:0:0:0:
96,128,121530,1,8,0:0:0:0:
0,224,121740,1,0,0:0:0:0:
96,128,121949,1,0,0:0:0:0:
64,192,122054,1,8,0:0:0:0:
64,192,122159,1,0,0:0:0:0:
96,128,122369,1,0,0:0:0:0:
96,64,122474,1,8,0:0:0:0:
96,128,122579,1,8,0:0:0:0:
64,160,122684,1,4,0:0:0:0:
192,128,122893,1,0,0:0:0:0:
128,160,122998,1,8,0:0:0:0:
128,160,123208,1,8,0:0:0:0:
128,160,123313,1,0,0:0:0:0:
128,160,123418,1,8,0:0:0:0:
64,160,123523,1,4,0:0:0:0:
128,160,123733,1,8,0:0:0:0:
128,160,123942,1,0,0:0:0:0:
128,160,124047,1,0,0:0:0:0:
64,160,124152,1,8,0:0:0:0:
128,160,124257,1,8,0:0:0:0:
64,160,124362,1,4,0:0:0:0:
192,160,124572,1,0,0:0:0:0:
128,160,124677,1,8,0:0:0:0:
96,160,124886,1,8,0:0:0:0:
96,160,124991,1,0,0:0:0:0:
96,160,125096,1,8,0:0:0:0:
64,160,125201,1,4,0:0:0:0:
192,160,125411,1,8,0:0:0:0:
192,160,125621,1,0,0:0:0:0:
192,160,125726,1,8,0:0:0:0:
256,192,125831,1,8,0:0:0:0:
256,192,125935,1,8,0:0:0:0:
64,160,126040,1,4,0:0:0:0:
256,192,126250,1,0,0:0:0:0:
256,192,126355,1,8,0:0:0:0:
256,192,126565,1,8,0:0:0:0:
256,192,126670,1,0,0:0:0:0:
192,192,126775,1,8,0:0:0:0:
64,160,126879,1,4,0:0:0:0:
192,192,127089,1,8,0:0:0:0:
320,192,127299,1,0,0:0:0:0:
256,192,127404,1,0,0:0:0:0:
192,192,127509,1,8,0:0:0:0:
256,192,127614,1,0,0:0:0:0:
64,160,127719,1,4,0:0:0:0:
320,192,127928,1,0,0:0:0:0:
320,192,128033,1,8,0:0:0:0:
320,192,128243,1,8,0:0:0:0:
320,192,128348,1,0,0:0:0:0:
320,192,128453,1,8,0:0:0:0:
64,160,128558,1,4,0:0:0:0:
320,192,128768,1,0,0:0:0:0:
320,192,128872,1,0,0:0:0:0:
320,192,128977,1,8,0:0:0:0:
320,192,129187,1,8,0:0:0:0:
64,160,129397,1,4,0:0:0:0:
128,160,129502,1,8,0:0:0:0:
192,192,129607,1,8,0:0:0:0:
256,192,129712,1,8,0:0:0:0:
64,160,129817,1,4,0:0:0:0:
256,192,129921,1,8,0:0:0:0:
256,192,130026,1,8,0:0:0:0:
256,192,130131,1,8,0:0:0:0:
64,160,130236,1,4,0:0:0:0:
256,192,130341,1,8,0:0:0:0:
256,192,130446,1,8,0:0:0:0:
256,192,130551,1,8,0:0:0:0:
64,160,130656,1,4,0:0:0:0:
256,192,130761,1,8,0:0:0:0:
256,192,130865,1,8,0:0:0:0:
256,192,130970,1,8,0:0:0:0:
64,160,131075,1,4,0:0:0:0:
256,192,131180,1,8,0:0:0:0:
256,192,131285,1,8,0:0:0:0:
256,192,131390,1,8,0:0:0:0:
64,160,131495,1,4,0:0:0:0:
256,192,131600,1,8,0:0:0:0:
256,192,131705,1,8,0:0:0:0:
256,192,131810,1,8,0:0:0:0:
64,160,131915,1,4,0:0:0:0:
256,192,132019,1,8,0:0:0:0:
256,192,132124,1,8,0:0:0:0:
288,256,132229,1,8,0:0:0:0:
64,160,132334,1,4,0:0:0:0:
192,192,132544,1,8,0:0:0:0:
64,160,132754,1,4,0:0:0:0:
128,160,132858,1,12,0:0:0:0:
192,128,132963,1,4,0:0:0:0:
128,160,133068,1,12,0:0:0:0:
64,160,133173,1,4,0:0:0:0:
128,160,133278,5,12,0:0:0:0:
192,128,133383,1,4,0:0:0:0:
192,192,133488,1,12,0:0:0:0:
64,160,133593,1,4,0:0:0:0:
128,160,133698,1,12,0:0:0:0:
192,128,133803,1,4,0:0:0:0:
192,192,133907,1,12,0:0:0:0:
64,160,134012,1,4,0:0:0:0:
128,160,134117,1,12,0:0:0:0:
192,128,134222,1,4,0:0:0:0:
192,192,134327,1,12,0:0:0:0:
256,192,135271,12,0,135691,0:0:0:0:
96,160,136110,5,0,0:0:0:0:
96,160,136320,1,0,0:0:0:0:
96,160,136425,1,8,0:0:0:0:
128,160,136477,1,8,0:0:0:0:
160,160,136530,1,0,0:0:0:0:
96,160,136635,1,8,0:0:0:0:
96,160,136739,1,0,0:0:0:0:
96,160,136844,1,8,0:0:0:0:
96,160,136949,1,0,0:0:0:0:
128,160,137002,1,0,0:0:0:0:
160,160,137054,1,8,0:0:0:0:
96,160,137159,1,0,0:0:0:0:
96,160,137264,1,8,0:0:0:0:
96,160,137474,1,0,0:0:0:0:
96,160,137579,1,0,0:0:0:0:
96,160,137684,1,8,0:0:0:0:
96,160,137788,1,0,0:0:0:0:
128,128,137841,1,0,0:0:0:0:
160,160,137893,1,8,0:0:0:0:
96,160,137998,1,0,0:0:0:0:
160,128,138103,1,8,0:0:0:0:
96,160,138208,1,0,0:0:0:0:
96,160,138313,1,8,0:0:0:0:
160,128,138418,1,0,0:0:0:0:
96,288,138523,1,8,0:0:0:0:
96,256,138575,1,8,0:0:0:0:
64,192,138628,1,0,0:0:0:0:
128,224,138732,1,8,0:0:0:0:
96,160,138785,1,8,0:0:0:0:
64,192,138837,1,0,0:0:0:0:
128,224,138942,1,8,0:0:0:0:
64,256,138995,1,8,0:0:0:0:
96,288,139047,1,0,0:0:0:0:
96,352,139152,1,8,0:0:0:0:
96,288,139257,1,0,0:0:0:0:
96,320,139362,1,0,0:0:0:0:
96,320,139467,1,8,0:0:0:0:
192,224,139677,1,0,0:0:0:0:
128,192,139782,1,0,0:0:0:0:
128,128,139886,1,8,0:0:0:0:
256,160,139991,1,0,0:0:0:0:
256,32,140201,1,8,0:0:0:0:
256,96,140306,1,0,0:0:0:0:
256,160,140411,1,8,0:0:0:0:
224,128,140463,1,8,0:0:0:0:
256,96,140516,1,0,0:0:0:0:
192,128,140621,1,0,0:0:0:0:
256,224,140725,1,8,0:0:0:0:
256,96,140935,1,0,0:0:0:0:
256,160,141040,1,8,0:0:0:0:
256,96,141145,1,0,0:0:0:0:
224,128,141198,1,0,0:0:0:0:
192,160,141250,1,8,0:0:0:0:
256,224,141355,1,0,0:0:0:0:
192,192,141460,1,8,0:0:0:0:
128,160,141565,1,0,0:0:0:0:
256,160,141670,1,8,0:0:0:0:
256,32,141879,1,8,0:0:0:0:
224,64,141932,1,8,0:0:0:0:
224,96,141984,1,0,0:0:0:0:
256,160,142089,1,8,0:0:0:0:
192,192,142194,1,0,0:0:0:0:
256,32,142299,1,8,0:0:0:0:
224,64,142351,1,8,0:0:0:0:
192,96,142404,1,0,0:0:0:0:
256,160,142509,1,8,0:0:0:0:
256,96,142614,1,0,0:0:0:0:
256,160,142718,1,8,0:0:0:0:
256,96,142823,1,0,0:0:0:0:
256,224,143033,1,0,0:0:0:0:
256,160,143138,1,8,0:0:0:0:
256,32,143348,1,8,0:0:0:0:
256,96,143453,1,0,0:0:0:0:
256,160,143558,1,8,0:0:0:0:
256,96,143663,1,0,0:0:0:0:
224,128,143715,1,0,0:0:0:0:
192,160,143768,1,8,0:0:0:0:
256,224,143872,1,0,0:0:0:0:
256,160,143977,1,8,0:0:0:0:
256,32,144187,1,0,0:0:0:0:
256,96,144292,1,0,0:0:0:0:
256,160,144397,1,8,0:0:0:0:
256,224,144502,1,0,0:0:0:0:
224,224,144554,1,0,0:0:0:0:
192,224,144607,1,8,0:0:0:0:
256,96,144711,1,0,0:0:0:0:
192,128,144817,1,8,0:0:0:0:
256,224,144921,1,0,0:0:0:0:
256,160,145026,1,8,0:0:0:0:
192,32,145236,1,8,0:0:0:0:
256,96,145341,1,0,0:0:0:0:
256,160,145446,1,8,0:0:0:0:
224,160,145498,1,8,0:0:0:0:
256,96,145551,1,0,0:0:0:0:
256,160,145656,1,8,0:0:0:0:
224,96,145761,1,0,0:0:0:0:
256,160,145865,1,8,0:0:0:0:
224,160,145918,1,8,0:0:0:0:
224,96,145970,1,0,0:0:0:0:
256,160,146075,1,0,0:0:0:0:
224,96,146180,1,8,0:0:0:0:
128,192,146390,1,0,0:0:0:0:
224,96,146600,1,0,0:0:0:0:
160,160,146704,1,8,0:0:0:0:
160,160,146914,1,8,0:0:0:0:
160,160,147019,1,0,0:0:0:0:
160,160,147124,1,8,0:0:0:0:
128,160,147177,1,8,0:0:0:0:
160,160,147229,1,0,0:0:0:0:
96,160,147334,1,8,0:0:0:0:
96,160,147439,1,0,0:0:0:0:
64,160,147649,1,0,0:0:0:0:
128,128,147753,1,8,0:0:0:0:
64,160,147858,1,0,0:0:0:0:
96,160,147911,1,8,0:0:0:0:
128,160,147963,1,8,0:0:0:0:
64,160,148068,1,0,0:0:0:0:
128,160,148173,1,8,0:0:0:0:
160,64,148278,1,0,0:0:0:0:
96,128,148383,1,0,0:0:0:0:
0,224,148593,1,0,0:0:0:0:
96,128,148802,1,0,0:0:0:0:
64,192,148855,1,0,0:0:0:0:
96,192,148907,1,8,0:0:0:0:
64,192,149012,1,0,0:0:0:0:
128,192,149117,1,8,0:0:0:0:
96,128,149222,1,0,0:0:0:0:
160,128,149275,1,0,0:0:0:0:
96,64,149327,1,8,0:0:0:0:
96,128,149432,1,8,0:0:0:0:
64,160,149537,1,4,0:0:0:0:
96,160,149747,1,0,0:0:0:0:
96,160,149852,1,8,0:0:0:0:
128,160,149904,1,8,0:0:0:0:
160,160,149957,1,0,0:0:0:0:
96,160,150062,1,8,0:0:0:0:
96,160,150166,1,0,0:0:0:0:
96,160,150271,1,8,0:0:0:0:
96,160,150376,1,0,0:0:0:0:
128,160,150429,1,0,0:0:0:0:
160,160,150481,1,8,0:0:0:0:
96,160,150586,1,0,0:0:0:0:
96,160,150691,1,8,0:0:0:0:
96,160,150901,1,0,0:0:0:0:
96,160,151006,1,0,0:0:0:0:
96,160,151111,1,8,0:0:0:0:
96,160,151215,1,0,0:0:0:0:
128,128,151268,1,0,0:0:0:0:
160,160,151320,1,8,0:0:0:0:
96,160,151425,1,0,0:0:0:0:
160,128,151530,1,8,0:0:0:0:
96,160,151635,1,0,0:0:0:0:
96,160,151740,1,8,0:0:0:0:
160,128,151845,1,0,0:0:0:0:
96,288,151950,1,8,0:0:0:0:
96,256,152002,1,8,0:0:0:0:
64,192,152055,1,0,0:0:0:0:
128,224,152159,1,8,0:0:0:0:
96,160,152212,1,8,0:0:0:0:
64,192,152264,1,0,0:0:0:0:
128,224,152369,1,8,0:0:0:0:
64,256,152422,1,8,0:0:0:0:
96,288,152474,1,0,0:0:0:0:
96,352,152579,1,8,0:0:0:0:
96,288,152684,1,0,0:0:0:0:
96,320,152789,1,0,0:0:0:0:
96,320,152894,1,8,0:0:0:0:
192,224,153104,1,0,0:0:0:0:
128,192,153209,1,0,0:0:0:0:
128,128,153313,1,8,0:0:0:0:
256,160,153418,1,0,0:0:0:0:
256,32,153628,1,0,0:0:0:0:
256,96,153733,1,0,0:0:0:0:
256,160,153838,1,8,0:0:0:0:
224,128,153890,1,8,0:0:0:0:
256,96,153943,1,0,0:0:0:0:
192,128,154048,1,8,0:0:0:0:
256,224,154152,1,0,0:0:0:0:
256,96,154362,1,0,0:0:0:0:
256,160,154467,1,8,0:0:0:0:
256,96,154572,1,0,0:0:0:0:
224,128,154625,1,0,0:0:0:0:
192,160,154677,1,8,0:0:0:0:
256,224,154782,1,0,0:0:0:0:
192,192,154887,1,8,0:0:0:0:
256,96,154992,1,0,0:0:0:0:
256,160,155097,1,8,0:0:0:0:
256,32,155306,1,8,0:0:0:0:
224,96,155411,1,0,0:0:0:0:
256,160,155516,1,8,0:0:0:0:
224,64,155568,1,8,0:0:0:0:
192,192,155621,1,0,0:0:0:0:
256,32,155726,1,8,0:0:0:0:
192,96,155831,1,0,0:0:0:0:
256,160,155936,1,8,0:0:0:0:
224,64,155988,1,8,0:0:0:0:
256,96,156041,1,0,0:0:0:0:
256,160,156145,1,8,0:0:0:0:
256,96,156250,1,4,0:0:0:0:
256,224,156460,1,0,0:0:0:0:
256,160,156565,1,8,0:0:0:0:
256,32,156670,1,4,0:0:0:0:
256,96,156880,1,0,0:0:0:0:
256,160,156985,1,0,0:0:0:0:
256,96,157090,1,12,0:0:0:0:
256,224,157299,1,0,0:0:0:0:
256,160,157404,1,8,0:0:0:0:
256,32,157509,1,12,0:0:0:0:
256,96,157719,1,0,0:0:0:0:
256,160,157824,1,8,0:0:0:0:
256,224,157929,1,0,0:0:0:0:
224,224,157981,1,0,0:0:0:0:
192,224,158033,1,8,0:0:0:0:
256,96,158138,1,0,0:0:0:0:
192,128,158243,1,8,0:0:0:0:
256,224,158348,1,0,0:0:0:0:
256,160,158453,1,8,0:0:0:0:
192,160,158558,1,0,0:0:0:0:
192,32,158663,1,8,0:0:0:0:
256,96,158768,1,0,0:0:0:0:
256,160,158873,1,8,0:0:0:0:
224,160,158925,1,8,0:0:0:0:
256,96,158977,1,0,0:0:0:0:
256,160,159083,1,8,0:0:0:0:
224,96,159187,1,0,0:0:0:0:
256,160,159292,1,8,0:0:0:0:
224,160,159345,1,8,0:0:0:0:
224,96,159397,1,0,0:0:0:0:
256,160,159502,1,0,0:0:0:0:
160,160,159607,1,0,0:0:0:0:
160,160,159659,1,8,0:0:0:0:
160,160,159712,1,8,0:0:0:0:
160,160,159764,1,8,0:0:0:0:
128,192,159817,1,0,0:0:0:0:
160,160,159921,1,8,0:0:0:0:
224,96,160027,1,0,0:0:0:0:
160,160,160131,1,8,0:0:0:0:
160,160,160236,1,0,0:0:0:0:
160,160,160289,1,8,0:0:0:0:
160,160,160341,1,0,0:0:0:0:
160,160,160393,1,0,0:0:0:0:
160,160,160446,1,0,0:0:0:0:
128,160,160499,1,8,0:0:0:0:
160,160,160551,1,0,0:0:0:0:
160,160,160656,1,0,0:0:0:0:
96,160,160761,1,8,0:0:0:0:
96,160,160866,1,0,0:0:0:0:
160,160,160970,1,8,0:0:0:0:
64,160,161076,1,0,0:0:0:0:
128,160,161128,1,0,0:0:0:0:
128,128,161180,1,0,0:0:0:0:
128,160,161233,1,0,0:0:0:0:
64,160,161285,1,8,0:0:0:0:
96,160,161338,1,8,0:0:0:0:
128,160,161390,1,8,0:0:0:0:
128,160,161442,1,8,0:0:0:0:
64,160,161495,1,0,0:0:0:0:
128,160,161547,1,0,0:0:0:0:
128,160,161600,1,0,0:0:0:0:
128,160,161652,1,0,0:0:0:0:
128,160,161705,1,8,0:0:0:0:
128,160,161757,1,8,0:0:0:0:
96,128,161810,1,0,0:0:0:0:
128,160,161862,1,0,0:0:0:0:
128,160,161914,1,8,0:0:0:0:
128,160,161967,1,8,0:0:0:0:
0,224,162020,1,0,0:0:0:0:
256,192,162124,12,0,162754,0:0:0:0:
64,160,162964,5,4,0:0:0:0:
192,128,163173,1,0,0:0:0:0:
160,256,163383,1,8,0:0:0:0:
64,160,163698,1,0,0:0:0:0:
288,192,164012,1,0,0:0:0:0:
288,320,164222,1,8,0:0:0:0:
256,256,164327,1,8,0:0:0:0:
224,192,164432,1,8,0:0:0:0:
224,192,164537,1,8,0:0:0:0:
224,192,164642,1,0,0:0:0:0:
224,192,164851,1,0,0:0:0:0:
224,192,165061,1,8,0:0:0:0:
224,192,165271,1,8,0:0:0:0:
224,192,165341,1,8,0:0:0:0:
224,192,165411,1,8,0:0:0:0:
224,192,165481,1,0,0:0:0:0:
96,128,165691,1,0,0:0:0:0:
192,224,165900,1,8,0:0:0:0:
96,128,166110,1,8,0:0:0:0:
128,160,166320,1,0,0:0:0:0:
128,160,166530,1,0,0:0:0:0:
256,160,166740,1,8,0:0:0:0:
384,224,166949,1,8,0:0:0:0:
416,224,167054,1,0,0:0:0:0:
288,192,167264,1,8,0:0:0:0:
224,160,167369,1,0,0:0:0:0:
96,128,167579,1,0,0:0:0:0:
224,160,167789,1,0,0:0:0:0:
283,285,167998,1,8,0:0:0:0:
201,188,168208,1,0,0:0:0:0:
305,274,168418,1,8,0:0:0:0:
191,191,168628,1,8,0:0:0:0:
304,273,168838,1,0,0:0:0:0:
191,191,169047,1,0,0:0:0:0:
304,273,169257,1,8,0:0:0:0:
246,233,169362,1,0,0:0:0:0:
361,312,169572,1,8,0:0:0:0:
303,272,169677,1,0,0:0:0:0:
192,128,169886,1,0,0:0:0:0:
160,256,170096,1,8,0:0:0:0:
64,160,170411,1,0,0:0:0:0:
288,192,170725,1,0,0:0:0:0:
288,320,170935,1,8,0:0:0:0:
256,256,171040,1,8,0:0:0:0:
224,192,171145,1,8,0:0:0:0:
224,192,171250,1,8,0:0:0:0:
224,192,171355,1,0,0:0:0:0:
224,192,171564,1,0,0:0:0:0:
224,192,171774,1,8,0:0:0:0:
224,192,171984,1,8,0:0:0:0:
224,192,172054,1,8,0:0:0:0:
224,192,172124,1,8,0:0:0:0:
224,192,172194,1,0,0:0:0:0:
96,128,172404,1,0,0:0:0:0:
192,224,172613,1,8,0:0:0:0:
96,128,172823,1,8,0:0:0:0:
128,160,173033,1,0,0:0:0:0:
128,160,173243,1,0,0:0:0:0:
256,160,173453,1,8,0:0:0:0:
384,224,173662,1,8,0:0:0:0:
416,224,173767,1,0,0:0:0:0:
288,192,173977,1,8,0:0:0:0:
224,160,174082,1,0,0:0:0:0:
96,128,174292,1,8,0:0:0:0:
224,160,174502,1,0,0:0:0:0:
283,285,174711,1,0,0:0:0:0:
191,191,175341,1,8,0:0:0:0:
304,273,175551,1,0,0:0:0:0:
191,191,175760,1,0,0:0:0:0:
304,273,175970,1,8,0:0:0:0:
361,312,176180,1,8,0:0:0:0:
238,244,176390,1,4,0:0:0:0:
54,159,177019,1,8,0:0:0:0:
440,325,177649,1,8,0:0:0:0:
311,269,177858,1,8,0:0:0:0:
105,181,178488,1,8,0:0:0:0:
105,181,178698,1,8,0:0:0:0:
105,181,179327,1,8,0:0:0:0:
105,181,179537,1,8,0:0:0:0:
15,73,179747,1,4,0:0:0:0:
334,214,180376,1,8,0:0:0:0:
181,148,181005,1,8,0:0:0:0:
181,148,181215,1,8,0:0:0:0:
141,157,181845,1,8,0:0:0:0:
141,157,182054,1,8,0:0:0:0:
141,157,182684,1,8,0:0:0:0:
141,157,182893,1,8,0:0:0:0:
141,157,183103,1,4,0:0:0:0:
206,159,183733,1,8,0:0:0:0:
141,157,183942,1,8,0:0:0:0:
206,159,184572,1,8,0:0:0:0:
206,159,184782,1,0,0:0:0:0:
66,157,184991,1,8,0:0:0:0:
206,159,185411,1,8,0:0:0:0:
206,159,185621,1,0,0:0:0:0:
172,160,185831,1,8,0:0:0:0:
304,203,186040,1,8,0:0:0:0:
121,110,186460,1,0,0:0:0:0:
186,233,186670,1,8,0:0:0:0:
172,160,186879,1,0,0:0:0:0:
172,160,187299,1,0,0:0:0:0:
128,158,187509,1,0,0:0:0:0:
172,160,187719,1,8,0:0:0:0:
172,160,188138,5,0,0:0:0:0:
172,160,188348,1,0,0:0:0:0:
172,160,188558,1,8,0:0:0:0:
172,160,188768,1,0,0:0:0:0:
256,192,188977,12,0,189607,0:0:0:0:
145,173,189817,5,8,0:0:0:0:
210,149,189921,1,8,0:0:0:0:
251,205,190026,1,8,0:0:0:0:
145,173,190131,5,8,0:0:0:0:
210,149,190235,1,8,0:0:0:0:
251,205,190340,1,8,0:0:0:0:
145,173,190446,5,8,0:0:0:0:
210,149,190550,1,8,0:0:0:0:
251,205,190655,1,8,0:0:0:0:
145,173,190761,5,8,0:0:0:0:
210,149,190865,1,8,0:0:0:0:
251,205,190970,1,8,0:0:0:0:
145,173,191075,5,8,0:0:0:0:
210,149,191179,1,8,0:0:0:0:
251,205,191284,1,8,0:0:0:0:
145,173,191390,5,8,0:0:0:0:
210,149,191494,1,8,0:0:0:0:
251,205,191599,1,8,0:0:0:0:
145,173,191705,5,8,0:0:0:0:
210,149,191809,1,8,0:0:0:0:
251,205,191914,1,8,0:0:0:0:
145,173,192019,5,8,0:0:0:0:
210,149,192123,1,8,0:0:0:0:
251,205,192228,1,8,0:0:0:0:
184,182,192334,1,0,0:0:0:0:
53,131,192544,1,0,0:0:0:0:
182,184,192754,1,0,0:0:0:0:
145,173,193173,5,8,0:0:0:0:
210,149,193277,1,8,0:0:0:0:
251,205,193382,1,8,0:0:0:0:
145,173,193487,5,8,0:0:0:0:
210,149,193593,1,8,0:0:0:0:
251,205,193698,1,8,0:0:0:0:
145,173,193802,5,8,0:0:0:0:
210,149,193906,1,8,0:0:0:0:
251,205,194011,1,8,0:0:0:0:
145,173,194117,5,8,0:0:0:0:
210,149,194221,1,8,0:0:0:0:
251,205,194326,1,8,0:0:0:0:
145,173,194431,5,8,0:0:0:0:
210,149,194537,1,8,0:0:0:0:
251,205,194642,1,8,0:0:0:0:
145,173,194746,5,8,0:0:0:0:
210,149,194850,1,8,0:0:0:0:
251,205,194955,1,8,0:0:0:0:
145,173,195061,5,8,0:0:0:0:
210,149,195165,1,8,0:0:0:0:
251,205,195270,1,8,0:0:0:0:
145,173,195375,5,8,0:0:0:0:
210,149,195481,1,8,0:0:0:0:
251,205,195586,1,8,0:0:0:0:
182,186,195691,1,0,0:0:0:0:
49,142,195900,1,8,0:0:0:0:
115,165,196005,1,0,0:0:0:0:
181,186,196110,1,8,0:0:0:0:
145,173,196530,5,8,0:0:0:0:
210,149,196634,1,8,0:0:0:0:
251,205,196739,1,8,0:0:0:0:
145,173,196844,5,8,0:0:0:0:
210,149,196948,1,8,0:0:0:0:
251,205,197053,1,8,0:0:0:0:
145,173,197159,5,8,0:0:0:0:
210,149,197263,1,8,0:0:0:0:
251,205,197368,1,0,0:0:0:0:
145,173,197474,5,0,0:0:0:0:
210,149,197578,1,0,0:0:0:0:
251,205,197683,1,0,0:0:0:0:
145,173,197788,5,0,0:0:0:0:
210,149,197893,1,0,0:0:0:0:
251,205,197998,1,0,0:0:0:0:
145,173,198103,5,0,0:0:0:0:
210,149,198207,1,8,0:0:0:0:
251,205,198312,1,8,0:0:0:0:
145,173,198418,5,8,0:0:0:0:
210,149,198522,1,8,0:0:0:0:
251,205,198627,1,8,0:0:0:0:
145,173,198732,5,8,0:0:0:0:
210,149,198838,1,8,0:0:0:0:
251,205,198942,1,8,0:0:0:0:
182,186,199047,1,0,0:0:0:0:
46,150,199257,1,0,0:0:0:0:
180,187,199467,1,8,0:0:0:0:
44,151,199677,1,8,0:0:0:0:
145,173,199886,5,8,0:0:0:0:
210,149,199990,1,8,0:0:0:0:
251,205,200095,1,8,0:0:0:0:
145,173,200200,5,8,0:0:0:0:
210,149,200306,1,8,0:0:0:0:
251,205,200411,1,8,0:0:0:0:
145,173,200515,5,8,0:0:0:0:
210,149,200621,1,8,0:0:0:0:
251,205,200726,1,8,0:0:0:0:
145,173,200831,5,8,0:0:0:0:
210,149,200935,1,8,0:0:0:0:
251,205,201040,1,8,0:0:0:0:
145,173,201145,5,8,0:0:0:0:
210,149,201250,1,8,0:0:0:0:
251,205,201355,1,8,0:0:0:0:
145,173,201460,5,8,0:0:0:0:
210,149,201565,1,0,0:0:0:0:
50,146,201984,1,8,0:0:0:0:
330,156,202404,1,0,0:0:0:0:
256,192,202824,12,0,203033,0:0:0:0:
195,173,203243,5,0,0:0:0:0:
219,123,203453,1,0,0:0:0:0:
219,123,203558,1,8,0:0:0:0:
195,173,203663,1,0,0:0:0:0:
149,133,203872,1,0,0:0:0:0:
219,123,203977,1,8,0:0:0:0:
195,173,204082,1,0,0:0:0:0:
128,160,204292,1,0,0:0:0:0:
64,32,204397,1,8,0:0:0:0:
149,133,204502,1,0,0:0:0:0:
56,151,204712,1,0,0:0:0:0:
192,128,204764,1,0,0:0:0:0:
125,144,204817,1,0,0:0:0:0:
96,160,204921,1,0,0:0:0:0:
128,128,204974,1,0,0:0:0:0:
160,160,205026,1,8,0:0:0:0:
96,160,205131,1,0,0:0:0:0:
160,128,205236,1,8,0:0:0:0:
96,160,205341,1,0,0:0:0:0:
96,160,205446,1,8,0:0:0:0:
160,128,205551,1,0,0:0:0:0:
96,288,205656,1,8,0:0:0:0:
96,256,205708,1,8,0:0:0:0:
64,192,205761,1,0,0:0:0:0:
128,224,205865,1,8,0:0:0:0:
96,160,205918,1,8,0:0:0:0:
64,192,205970,1,0,0:0:0:0:
128,224,206075,1,8,0:0:0:0:
64,256,206128,1,8,0:0:0:0:
96,288,206180,1,0,0:0:0:0:
96,352,206285,1,8,0:0:0:0:
96,288,206390,1,0,0:0:0:0:
96,320,206495,1,0,0:0:0:0:
96,320,206600,1,8,0:0:0:0:
192,224,206810,1,0,0:0:0:0:
128,192,206915,1,0,0:0:0:0:
128,128,207019,1,8,0:0:0:0:
256,160,207124,1,0,0:0:0:0:
256,32,207334,1,8,0:0:0:0:
256,96,207439,1,0,0:0:0:0:
256,160,207544,1,8,0:0:0:0:
224,128,207596,1,8,0:0:0:0:
256,96,207649,1,0,0:0:0:0:
192,128,207754,1,0,0:0:0:0:
256,224,207858,1,8,0:0:0:0:
256,96,208068,1,0,0:0:0:0:
256,160,208173,1,8,0:0:0:0:
256,96,208278,1,0,0:0:0:0:
224,128,208331,1,0,0:0:0:0:
192,160,208383,1,8,0:0:0:0:
256,224,208488,1,0,0:0:0:0:
192,192,208593,1,8,0:0:0:0:
128,160,208698,1,0,0:0:0:0:
256,160,208803,1,8,0:0:0:0:
192,160,208907,1,0,0:0:0:0:
256,32,209012,1,8,0:0:0:0:
224,64,209065,1,8,0:0:0:0:
224,96,209117,1,0,0:0:0:0:
256,160,209222,1,8,0:0:0:0:
192,192,209327,1,0,0:0:0:0:
256,32,209432,1,8,0:0:0:0:
224,64,209484,1,8,0:0:0:0:
192,96,209537,1,0,0:0:0:0:
256,160,209642,1,8,0:0:0:0:
256,96,209747,1,0,0:0:0:0:
256,160,209851,1,8,0:0:0:0:
256,96,209956,1,0,0:0:0:0:
256,224,210166,1,0,0:0:0:0:
256,160,210271,1,8,0:0:0:0:
256,32,210481,1,8,0:0:0:0:
256,96,210586,1,0,0:0:0:0:
256,160,210691,1,8,0:0:0:0:
256,96,210796,1,0,0:0:0:0:
224,128,210848,1,0,0:0:0:0:
192,160,210901,1,8,0:0:0:0:
256,224,211005,1,0,0:0:0:0:
256,160,211110,1,8,0:0:0:0:
256,32,211320,1,0,0:0:0:0:
256,96,211425,1,0,0:0:0:0:
256,160,211530,1,8,0:0:0:0:
256,224,211635,1,0,0:0:0:0:
224,224,211687,1,0,0:0:0:0:
192,224,211740,1,8,0:0:0:0:
256,96,211844,1,0,0:0:0:0:
192,128,211950,1,8,0:0:0:0:
256,224,212054,1,0,0:0:0:0:
256,160,212159,1,8,0:0:0:0:
224,224,212264,1,0,0:0:0:0:
192,32,212369,1,8,0:0:0:0:
256,96,212474,1,0,0:0:0:0:
256,160,212579,1,8,0:0:0:0:
224,160,212631,1,8,0:0:0:0:
256,96,212684,1,0,0:0:0:0:
256,160,212789,1,8,0:0:0:0:
224,96,212894,1,0,0:0:0:0:
256,160,212998,1,8,0:0:0:0:
224,160,213051,1,8,0:0:0:0:
224,96,213103,1,0,0:0:0:0:
256,160,213208,1,0,0:0:0:0:
224,96,213313,1,8,0:0:0:0:
128,192,213523,1,0,0:0:0:0:
224,96,213733,1,0,0:0:0:0:
160,160,213837,1,8,0:0:0:0:
160,160,214047,1,8,0:0:0:0:
192,192,214100,1,8,0:0:0:0:
160,160,214152,1,0,0:0:0:0:
160,160,214257,1,8,0:0:0:0:
160,160,214362,1,0,0:0:0:0:
96,160,214467,1,8,0:0:0:0:
96,160,214572,1,0,0:0:0:0:
64,160,214782,1,8,0:0:0:0:
128,128,214886,1,0,0:0:0:0:
96,160,214939,1,0,0:0:0:0:
64,160,214991,1,8,0:0:0:0:
128,160,215096,1,0,0:0:0:0:
64,160,215201,1,8,0:0:0:0:
160,64,215411,1,8,0:0:0:0:
96,128,215516,1,0,0:0:0:0:
0,224,215726,1,8,0:0:0:0:
160,160,215831,1,0,0:0:0:0:
96,128,215935,1,0,0:0:0:0:
160,160,215988,1,0,0:0:0:0:
64,192,216040,1,8,0:0:0:0:
96,192,216093,1,8,0:0:0:0:
64,192,216145,1,0,0:0:0:0:
128,192,216250,1,8,0:0:0:0:
96,160,216303,1,0,0:0:0:0:
96,128,216355,1,0,0:0:0:0:
160,128,216408,1,0,0:0:0:0:
96,64,216460,1,8,0:0:0:0:
96,160,216512,1,0,0:0:0:0:
96,128,216565,1,8,0:0:0:0:
64,160,216670,1,0,0:0:0:0:
96,128,216722,1,0,0:0:0:0:
96,160,216775,1,8,0:0:0:0:
64,192,216827,1,8,0:0:0:0:
96,160,216880,1,0,0:0:0:0:
96,160,216985,1,8,0:0:0:0:
128,160,217037,1,8,0:0:0:0:
160,160,217090,1,0,0:0:0:0:
96,160,217195,1,8,0:0:0:0:
96,160,217299,1,0,0:0:0:0:
96,160,217404,1,8,0:0:0:0:
96,160,217509,1,0,0:0:0:0:
128,160,217562,1,0,0:0:0:0:
160,160,217614,1,8,0:0:0:0:
96,160,217719,1,0,0:0:0:0:
96,160,217824,1,0,0:0:0:0:
96,160,217928,1,0,0:0:0:0:
96,160,218034,1,8,0:0:0:0:
96,160,218139,1,0,0:0:0:0:
96,160,218244,1,8,0:0:0:0:
96,160,218348,1,0,0:0:0:0:
128,128,218401,1,0,0:0:0:0:
160,160,218453,1,8,0:0:0:0:
96,160,218558,1,0,0:0:0:0:
160,128,218663,1,8,0:0:0:0:
96,160,218768,1,0,0:0:0:0:
96,160,218873,1,8,0:0:0:0:
160,128,218978,1,0,0:0:0:0:
96,288,219083,1,8,0:0:0:0:
96,256,219135,1,8,0:0:0:0:
64,192,219188,1,0,0:0:0:0:
128,224,219292,1,8,0:0:0:0:
96,160,219345,1,8,0:0:0:0:
64,192,219397,1,0,0:0:0:0:
128,224,219502,1,8,0:0:0:0:
64,256,219555,1,8,0:0:0:0:
96,288,219607,1,0,0:0:0:0:
96,352,219712,1,8,0:0:0:0:
96,288,219817,1,0,0:0:0:0:
96,320,219922,1,8,0:0:0:0:
128,128,219974,1,8,0:0:0:0:
96,320,220026,1,0,0:0:0:0:
128,128,220079,1,0,0:0:0:0:
128,128,220131,1,8,0:0:0:0:
192,224,220237,1,0,0:0:0:0:
128,192,220342,1,0,0:0:0:0:
128,128,220446,1,8,0:0:0:0:
256,160,220551,1,0,0:0:0:0:
256,32,220761,1,8,0:0:0:0:
256,96,220866,1,0,0:0:0:0:
256,160,220971,1,8,0:0:0:0:
224,128,221023,1,8,0:0:0:0:
256,96,221076,1,0,0:0:0:0:
128,128,221128,1,0,0:0:0:0:
192,128,221181,1,8,0:0:0:0:
256,224,221285,1,0,0:0:0:0:
256,96,221495,1,0,0:0:0:0:
256,160,221600,1,8,0:0:0:0:
256,96,221705,1,4,0:0:0:0:
256,224,221915,1,0,0:0:0:0:
192,192,222020,1,8,0:0:0:0:
256,96,222125,1,4,0:0:0:0:
256,160,222334,1,8,0:0:0:0:
256,32,222439,1,0,0:0:0:0:
224,96,222544,1,8,0:0:0:0:
192,128,222596,1,8,0:0:0:0:
256,160,222649,1,8,0:0:0:0:
224,64,222701,1,8,0:0:0:0:
192,192,222754,1,0,0:0:0:0:
256,32,222859,1,8,0:0:0:0:
192,96,222964,1,0,0:0:0:0:
256,160,223069,1,8,0:0:0:0:
224,64,223121,1,8,0:0:0:0:
256,96,223174,1,0,0:0:0:0:
256,160,223278,1,8,0:0:0:0:
256,96,223383,1,0,0:0:0:0:
224,96,223435,1,0,0:0:0:0:
160,160,223488,1,0,0:0:0:0:
160,160,223540,1,0,0:0:0:0:
256,224,223593,1,0,0:0:0:0:
256,160,223698,1,8,0:0:0:0:
224,160,223750,1,8,0:0:0:0:
256,32,223803,1,0,0:0:0:0:
160,160,223855,1,0,0:0:0:0:
160,160,223907,1,8,0:0:0:0:
256,96,224013,1,0,0:0:0:0:
256,160,224118,1,0,0:0:0:0:
256,96,224223,1,8,0:0:0:0:
224,128,224275,1,8,0:0:0:0:
192,128,224327,1,0,0:0:0:0:
160,160,224379,1,8,0:0:0:0:
256,224,224432,1,0,0:0:0:0:
256,160,224537,1,8,0:0:0:0:
256,32,224642,1,8,0:0:0:0:
160,160,224677,1,8,0:0:0:0:
128,160,224712,1,8,0:0:0:0:
96,160,224747,1,8,0:0:0:0:
96,160,224782,1,8,0:0:0:0:
96,160,224817,1,8,0:0:0:0:
256,96,224852,1,0,0:0:0:0:
256,160,224957,1,8,0:0:0:0:
256,224,225062,1,0,0:0:0:0:
224,224,225114,1,0,0:0:0:0:
192,224,225166,1,8,0:0:0:0:
256,96,225271,1,0,0:0:0:0:
192,128,225376,1,8,0:0:0:0:
256,224,225481,1,0,0:0:0:0:
256,160,225586,1,8,0:0:0:0:
192,160,225691,1,0,0:0:0:0:
192,32,225796,1,8,0:0:0:0:
256,96,225901,1,8,0:0:0:0:
256,160,225935,1,8,0:0:0:0:
224,160,225970,1,8,0:0:0:0:
192,160,226005,1,0,0:0:0:0:
256,96,226110,1,8,0:0:0:0:
160,160,226145,1,8,0:0:0:0:
160,160,226180,1,8,0:0:0:0:
256,160,226216,1,0,0:0:0:0:
224,96,226320,1,0,0:0:0:0:
256,160,226425,1,8,0:0:0:0:
224,160,226478,1,8,0:0:0:0:
224,96,226530,1,0,0:0:0:0:
256,160,226635,1,8,0:0:0:0:
160,160,226740,1,0,0:0:0:0:
160,160,226792,1,0,0:0:0:0:
160,160,226845,1,0,0:0:0:0:
160,160,226897,1,0,0:0:0:0:
128,192,226950,1,0,0:0:0:0:
96,160,227002,1,0,0:0:0:0:
160,160,227054,1,0,0:0:0:0:
96,160,227107,1,0,0:0:0:0:
224,96,227160,1,8,0:0:0:0:
128,128,227212,1,8,0:0:0:0:
160,160,227264,1,8,0:0:0:0:
128,160,227317,1,8,0:0:0:0:
160,160,227369,1,0,0:0:0:0:
160,160,227474,1,0,0:0:0:0:
160,160,227579,1,0,0:0:0:0:
128,160,227632,1,0,0:0:0:0:
160,160,227684,1,0,0:0:0:0:
64,160,227736,1,0,0:0:0:0:
160,160,227789,1,0,0:0:0:0:
128,160,227841,1,0,0:0:0:0:
96,160,227894,1,8,0:0:0:0:
64,160,227946,1,8,0:0:0:0:
96,160,227999,1,0,0:0:0:0:
160,160,228051,1,0,0:0:0:0:
160,160,228103,1,8,0:0:0:0:
64,160,228209,1,0,0:0:0:0:
128,160,228261,1,0,0:0:0:0:
128,128,228313,1,0,0:0:0:0:
128,160,228366,1,0,0:0:0:0:
64,160,228418,1,8,0:0:0:0:
96,160,228471,1,8,0:0:0:0:
128,160,228523,1,8,0:0:0:0:
128,160,228575,1,8,0:0:0:0:
64,160,228628,1,0,0:0:0:0:
128,160,228838,1,0,0:0:0:0:
64,160,229047,1,8,0:0:0:0:
256,192,229257,12,0,229677,0:0:0:0:
96,224,230096,5,0,0:0:0:0:
32,160,230306,1,0,0:0:0:0:
96,224,230516,1,0,0:0:0:0:
128,192,230586,1,8,0:0:0:0:
32,160,230726,1,0,0:0:0:0:
96,160,230865,1,8,0:0:0:0:
96,224,230936,1,0,0:0:0:0:
96,224,231075,1,0,0:0:0:0:
32,160,231355,1,0,0:0:0:0:
96,160,231460,1,8,0:0:0:0:
96,224,231565,1,8,0:0:0:0:
128,160,231670,1,8,0:0:0:0:
32,160,231775,1,0,0:0:0:0:
96,160,231879,1,0,0:0:0:0:
96,224,231985,1,0,0:0:0:0:
96,224,232194,1,0,0:0:0:0:
224,224,232404,1,8,0:0:0:0:
256,192,232474,1,8,0:0:0:0:
288,160,232544,1,8,0:0:0:0:
96,224,232614,1,0,0:0:0:0:
32,160,232824,1,0,0:0:0:0:
288,128,232928,1,8,0:0:0:0:
96,224,233034,1,0,0:0:0:0:
96,224,233243,1,8,0:0:0:0:
128,192,233296,1,0,0:0:0:0:
32,160,233453,1,0,0:0:0:0:
96,224,233663,1,0,0:0:0:0:
128,192,233768,1,8,0:0:0:0:
32,160,233873,1,0,0:0:0:0:
96,224,234083,1,0,0:0:0:0:
96,224,234292,1,0,0:0:0:0:
32,160,234502,1,0,0:0:0:0:
96,224,234712,1,0,0:0:0:0:
64,160,234782,1,0,0:0:0:0:
128,160,234851,1,0,0:0:0:0:
32,160,234921,1,8,0:0:0:0:
96,224,235132,1,0,0:0:0:0:
96,224,235341,1,8,0:0:0:0:
96,192,235411,1,8,0:0:0:0:
160,160,235481,1,8,0:0:0:0:
32,160,235551,1,0,0:0:0:0:
160,192,235761,1,8,0:0:0:0:
224,160,235865,1,0,0:0:0:0:
32,160,235971,1,0,0:0:0:0:
96,160,236075,1,8,0:0:0:0:
96,224,236181,1,0,0:0:0:0:
128,128,236285,1,0,0:0:0:0:
96,128,236390,1,0,0:0:0:0:
96,192,236810,1,0,0:0:0:0:
32,160,236914,1,8,0:0:0:0:
64,192,237019,1,0,0:0:0:0:
32,224,237124,1,8,0:0:0:0:
64,192,237229,1,0,0:0:0:0:
32,192,237439,1,0,0:0:0:0:
64,160,237649,1,0,0:0:0:0:
64,160,237754,1,8,0:0:0:0:
64,160,237858,1,0,0:0:0:0:
64,160,237963,1,0,0:0:0:0:
64,160,238068,1,0,0:0:0:0:
32,160,238278,1,0,0:0:0:0:
96,192,238383,1,8,0:0:0:0:
64,160,238488,1,0,0:0:0:0:
128,256,238593,1,8,0:0:0:0:
96,160,238698,1,0,0:0:0:0:
128,224,238803,1,8,0:0:0:0:
160,288,238907,1,0,0:0:0:0:
128,256,239012,1,8,0:0:0:0:
128,256,239117,1,0,0:0:0:0:
128,224,239222,1,8,0:0:0:0:
128,256,239327,1,0,0:0:0:0:
128,288,239432,1,0,0:0:0:0:
128,288,239537,1,0,0:0:0:0:
128,288,239642,1,8,0:0:0:0:
32,160,239747,1,0,0:0:0:0:
0,160,239817,1,0,0:0:0:0:
128,160,239886,1,0,0:0:0:0:
32,160,239956,1,8,0:0:0:0:
32,128,240026,1,8,0:0:0:0:
64,128,240096,1,8,0:0:0:0:
96,160,240166,1,0,0:0:0:0:
160,128,240376,1,0,0:0:0:0:
192,96,240481,1,0,0:0:0:0:
128,224,240586,1,8,0:0:0:0:
96,128,240796,1,0,0:0:0:0:
128,160,240900,1,0,0:0:0:0:
192,160,241005,1,8,0:0:0:0:
128,160,241110,1,8,0:0:0:0:
128,160,241215,1,0,0:0:0:0:
192,160,241425,1,0,0:0:0:0:
128,160,241530,1,0,0:0:0:0:
96,160,241635,1,0,0:0:0:0:
128,160,241740,1,0,0:0:0:0:
160,384,241844,1,8,0:0:0:0:
128,160,242054,1,8,0:0:0:0:
128,160,242159,1,0,0:0:0:0:
128,192,242264,1,8,0:0:0:0:
192,160,242526,1,8,0:0:0:0:
224,160,242579,1,0,0:0:0:0:
96,160,242684,1,0,0:0:0:0:
160,192,242789,1,0,0:0:0:0:
128,160,242893,1,0,0:0:0:0:
192,192,242998,1,0,0:0:0:0:
128,160,243103,5,0,0:0:0:0:
96,224,243523,1,0,0:0:0:0:
32,160,243733,1,0,0:0:0:0:
96,224,243943,1,0,0:0:0:0:
32,160,244153,1,0,0:0:0:0:
96,224,244363,1,0,0:0:0:0:
96,224,244572,1,0,0:0:0:0:
32,160,244782,1,0,0:0:0:0:
96,224,244992,1,0,0:0:0:0:
96,160,245096,1,0,0:0:0:0:
32,160,245202,1,0,0:0:0:0:
96,224,245412,1,0,0:0:0:0:
96,224,245621,1,0,0:0:0:0:
32,160,245831,1,0,0:0:0:0:
96,224,246041,1,0,0:0:0:0:
32,160,246251,1,8,0:0:0:0:
96,128,246320,1,8,0:0:0:0:
128,128,246390,1,8,0:0:0:0:
96,224,246461,1,0,0:0:0:0:
128,192,246565,1,0,0:0:0:0:
96,224,246670,1,8,0:0:0:0:
32,192,246740,1,8,0:0:0:0:
64,160,246810,1,8,0:0:0:0:
32,160,246880,1,0,0:0:0:0:
96,224,247090,1,0,0:0:0:0:
32,160,247299,1,8,0:0:0:0:
96,224,247510,1,0,0:0:0:0:
96,224,247719,1,8,0:0:0:0:
32,160,247929,1,0,0:0:0:0:
96,224,248138,1,0,0:0:0:0:
32,160,248349,1,0,0:0:0:0:
96,224,248558,1,8,0:0:0:0:
96,224,248768,1,0,0:0:0:0:
32,160,248978,1,0,0:0:0:0:
96,224,249188,1,0,0:0:0:0:
32,160,249398,1,8,0:0:0:0:
96,224,249608,1,0,0:0:0:0:
96,128,249817,1,8,0:0:0:0:
64,224,250236,1,0,0:0:0:0:
128,256,250341,1,0,0:0:0:0:
128,192,250446,1,0,0:0:0:0:
160,320,250551,1,0,0:0:0:0:
320,288,250656,1,8,0:0:0:0:
192,224,250865,1,0,0:0:0:0:
32,224,251075,1,8,0:0:0:0:
96,192,251180,1,0,0:0:0:0:
160,128,251285,1,8,0:0:0:0:
224,128,251390,1,0,0:0:0:0:
288,320,251495,1,8,0:0:0:0:
256,288,251705,1,0,0:0:0:0:
160,256,251810,1,0,0:0:0:0:
128,96,251914,1,8,0:0:0:0:
96,128,252019,1,0,0:0:0:0:
32,192,252124,1,0,0:0:0:0:
64,160,252229,1,0,0:0:0:0:
160,128,252334,1,8,0:0:0:0:
96,128,252439,1,0,0:0:0:0:
96,160,252544,1,8,0:0:0:0:
160,160,252649,1,0,0:0:0:0:
64,160,252754,1,8,0:0:0:0:
160,160,252858,1,0,0:0:0:0:
192,160,252963,1,0,0:0:0:0:
160,224,253068,1,0,0:0:0:0:
288,64,253173,1,8,0:0:0:0:
256,128,253243,1,0,0:0:0:0:
192,160,253313,1,0,0:0:0:0:
160,128,253383,1,0,0:0:0:0:
128,160,253453,1,0,0:0:0:0:
128,128,253523,1,0,0:0:0:0:
64,160,253593,1,8,0:0:0:0:
64,160,253698,1,0,0:0:0:0:
64,160,253803,1,0,0:0:0:0:
64,160,253907,1,0,0:0:0:0:
64,160,254012,1,0,0:0:0:0:
96,224,254117,1,0,0:0:0:0:
96,224,254222,1,0,0:0:0:0:
96,224,254327,1,0,0:0:0:0:
96,224,254432,1,8,0:0:0:0:
96,224,254502,1,8,0:0:0:0:
96,224,254642,1,0,0:0:0:0:
96,224,254712,1,0,0:0:0:0:
96,224,254851,1,8,0:0:0:0:
96,224,254921,1,8,0:0:0:0:
96,160,255061,1,0,0:0:0:0:
96,160,255131,1,0,0:0:0:0:
160,192,255271,2,0,L|96:224,6,52.5000020027161
64,96,256110,1,0,0:0:0:0:
320,192,256320,1,0,0:0:0:0:
288,256,256530,1,0,0:0:0:0:
192,224,256740,1,0,0:0:0:0:
96,160,256949,1,8,0:0:0:0:
192,192,257159,1,8,0:0:0:0:
192,192,257264,1,8,0:0:0:0:
224,160,257369,1,8,0:0:0:0:
256,192,257474,1,0,0:0:0:0:
256,192,257579,1,8,0:0:0:0:
256,192,257684,1,0,0:0:0:0:
256,192,257789,1,8,0:0:0:0:
224,192,257858,1,8,0:0:0:0:
256,192,257928,1,8,0:0:0:0:
256,192,257998,1,8,0:0:0:0:
288,160,258068,1,8,0:0:0:0:
256,160,258138,1,8,0:0:0:0:
224,160,258208,1,0,0:0:0:0:
128,192,258418,1,8,0:0:0:0:
256,192,258628,12,0,259047,0:0:0:0:
