osu file format v12

[General]
AudioFilename: 06. t+pazolite & RIZNA - Interlude - teatime.mp3
AudioLeadIn: 0
PreviewTime: 2415
Countdown: 0
SampleSet: Soft
StackLeniency: 0.7
Mode: 0
LetterboxInBreaks: 0
WidescreenStoryboard: 0

[Editor]
DistanceSpacing: 1.1
BeatDivisor: 8
GridSize: 4
TimelineZoom: 1

[Metadata]
Title:Interlude - teatime
TitleUnicode:Interlude - teatime
Artist:t+pazolite ft. RIZNA
ArtistUnicode:t+pazolite ft. リズナ
Creator:Kyubey
Version:Hard
Source:Touhou
Tags:Honey I Scream 東方紅魔郷 the Embodiment of Scarlet Devil 上海紅茶館 Chinese Tea Shanghai Teahouse Hong Meiling
BeatmapID:429759
BeatmapSetID:178669

[Difficulty]
HPDrainRate:5
CircleSize:4
OverallDifficulty:5
ApproachRate:6
SliderMultiplier:2.8
SliderTickRate:1

[Events]
//Background and Video events
0,0,"Untitled.jpg",0,0
//Break Periods
//Storyboard Layer 0 (Background)
//Storyboard Layer 1 (Fail)
//Storyboard Layer 2 (Pass)
//Storyboard Layer 3 (Foreground)
//Storyboard Sound Samples
//Background Colour Transformations
3,100,163,162,255

[TimingPoints]
2415.74775182892,1200,4,2,1,20,1,0
51015,-100,4,2,1,18,0,0
51615,-100,4,2,1,15,0,0
52215,-100,4,2,1,12,0,0
52815,-100,4,2,1,10,0,0
54015,-100,4,2,1,8,0,0
55215,-100,4,2,1,6,0,0

[Colours]
Combo1 : 208,205,94
Combo2 : 202,79,82
Combo3 : 136,202,142
Combo4 : 81,147,174

[HitObjects]
256,192,2415,5,2,0:0:0:0:
256,192,3315,1,2,0:0:0:0:
328,160,3615,2,0,P|384:156|440:160,2,105,2|2|2,0:0|0:0|0:0,0:0:0:0:
260,128,4815,1,2,0:0:0:0:
204,76,5115,1,0,0:0:0:0:
160,12,5415,2,0,P|156:48|144:92,1,70,0|2,0:0|0:0,0:0:0:0:
152,288,7215,5,2,0:0:0:0:
152,288,8115,1,2,0:0:0:0:
208,340,8415,2,0,P|260:344|316:340,2,105,2|2|2,0:0|0:0|0:0,0:0:0:0:
152,288,9615,1,2,0:0:0:0:
425,136,12015,5,2,0:0:0:0:
328,248,12915,1,2,0:0:0:0:
328,248,13215,2,0,P|280:248|220:260,2,105,2|2|2,0:0|0:0|0:0,0:0:0:0:
400,224,14415,1,2,0:0:0:0:
436,156,14715,1,0,0:0:0:0:
432,80,15015,1,2,0:0:0:0:
376,24,15315,1,0,0:0:0:0:
300,16,15615,2,0,P|246:22|192:40,2,105,2|2|2,0:0|0:0|0:0,0:0:0:0:
336,84,16815,5,2,0:0:0:0:
352,160,17115,1,2,0:0:0:0:
352,160,17715,1,2,0:0:0:0:
356,200,17865,1,2,0:0:0:0:
352,240,18015,1,2,0:0:0:0:
288,336,18465,1,2,0:0:0:0:
240,232,18915,1,0,0:0:0:0:
256,156,19215,2,0,P|260:136|264:80,1,70,2|0,0:0|0:0,0:0:0:0:
200,44,19815,2,0,P|196:64|192:120,1,70,0|2,0:0|0:0,0:0:0:0:
262,240,21615,5,2,0:0:0:0:
262,240,22515,1,2,0:0:0:0:
214,180,22815,2,0,P|208:164|206:64,2,105,2|2|2,0:0|0:0|0:0,0:0:0:0:
290,168,24015,1,2,0:0:0:0:
358,132,24315,1,0,0:0:0:0:
410,76,24615,2,0,P|422:40|430:0,1,70,0|2,0:0|0:0,0:0:0:0:
56,116,26415,5,2,0:0:0:0:
56,116,27315,1,2,0:0:0:0:
108,176,27615,2,0,P|165:182|228:180,2,105,2|2|2,0:0|0:0|0:0,0:0:0:0:
32,188,28815,1,2,0:0:0:0:
264,308,31215,5,2,0:0:0:0:
320,256,32115,1,2,0:0:0:0:
248,232,32415,2,0,P|200:264|188:320,2,105,2|2|2,0:0|0:0|0:0,0:0:0:0:
304,180,33615,1,2,0:0:0:0:
312,104,33915,1,0,0:0:0:0:
264,44,34215,1,2,0:0:0:0:
188,40,34515,1,0,0:0:0:0:
124,84,34815,2,0,P|112:132|124:204,1,105,2|2,0:0|0:0,0:0:0:0:
228,144,35715,1,2,0:0:0:0:
296,112,36015,5,2,0:0:0:0:
332,44,36315,1,2,0:0:0:0:
384,188,36915,2,0,L|396:232,2,35,2|2|2,0:0|0:0|0:0,0:0:0:0:
352,300,37665,1,2,0:0:0:0:
464,272,38115,1,2,0:0:0:0:
464,196,38415,2,0,P|455:155|424:108,1,70,2|0,0:0|0:0,0:0:0:0:
362,121,39015,2,0,P|369:156|384:187,1,70,0|2,0:0|0:0,0:0:0:0:
289,179,40815,5,2,0:0:0:0:
196,292,41715,1,2,0:0:0:0:
196,292,42015,2,0,P|153:285|84:288,2,105,2|2|2,0:0|0:0|0:0,0:0:0:0:
268,324,43215,1,2,0:0:0:0:
331,279,43515,1,0,0:0:0:0:
326,202,43815,2,0,P|305:166|264:137,1,70,0|2,0:0|0:0,0:0:0:0:
184,100,45615,5,2,0:0:0:0:
184,100,46515,1,2,0:0:0:0:
168,176,46815,2,0,P|216:172|260:100,2,105,2|2|2,0:0|0:0|0:0,0:0:0:0:
184,100,48015,1,2,0:0:0:0:
292,216,50415,5,2,0:0:0:0:
292,216,51315,1,2,0:0:0:0:
328,148,51615,2,0,P|336:108|344:44,2,105,2|2|2,0:0|0:0|0:0,0:0:0:0:
292,216,52815,1,2,0:0:0:0:
232,264,53115,1,0,0:0:0:0:
160,288,53415,1,2,0:0:0:0:
84,284,53715,1,0,0:0:0:0:
24,236,54015,2,0,P|56:212|136:228,2,105,2|2|2,0:0|0:0|0:0,0:0:0:0:
84,284,55215,5,2,0:0:0:0:
84,284,55515,1,2,0:0:0:0:
256,192,56115,12,0,58815,1:0:0:0:
