osu file format v12

[General]
AudioFilename: 13_uspark_remake.mp3
AudioLeadIn: 0
PreviewTime: 319134
Countdown: 1
SampleSet: Normal
StackLeniency: 0.7
Mode: 3
LetterboxInBreaks: 1
SpecialStyle: 0
WidescreenStoryboard: 1

[Editor]
Bookmarks: 232215,252972
DistanceSpacing: 1.4
BeatDivisor: 4
GridSize: 16

[Metadata]
Title:Unlimited Spark! (remake)
TitleUnicode:Unlimited Spark! (remake)
Artist:t+pazolite feat. Rizna
ArtistUnicode:t+pazolite feat. リズナ
Creator:Entozer
Version:Extra
Source:
Tags:Touhou 東方 ZXCV
BeatmapID:364505
BeatmapSetID:146623

[Difficulty]
HPDrainRate:8
CircleSize:7
OverallDifficulty:8
ApproachRate:5
SliderMultiplier:1.4
SliderTickRate:1

[Events]
//Background and Video events
0,0,"SPARK.jpg",0,0
//Break Periods
//Storyboard Layer 0 (Background)
//Storyboard Layer 1 (Fail)
//Storyboard Layer 2 (Pass)
//Storyboard Layer 3 (Foreground)
//Storyboard Sound Samples
//Background Colour Transformations
3,100,163,162,255

[TimingPoints]
1297,324.324324324324,4,1,0,5,1,0
107675,-100,4,1,0,5,0,1
128432,-100,4,1,0,5,0,0
190702,-100,4,1,0,5,0,1
190742,-100,4,1,0,5,0,0
211459,-100,4,1,0,5,0,1
221796,-100,4,1,0,5,0,0
221837,-100,4,1,0,5,0,1
232175,-100,4,1,0,5,0,0
232215,-100,4,1,0,5,0,1
242553,-100,4,1,0,5,0,0
242594,-100,4,1,0,5,0,1
252972,-100,4,1,0,5,0,0
319134,-100,4,1,0,5,0,1
319175,-100,4,1,0,5,0,0
329513,-100,4,1,0,5,0,1
339891,-100,4,1,0,5,0,0

[HitObjects]
475,192,1297,128,0,3891:0:0:0:0:
36,192,1297,1,0,0:0:0:0:
182,192,1459,1,0,0:0:0:0:
329,192,1621,1,0,0:0:0:0:
402,192,1945,1,0,0:0:0:0:
329,192,2107,1,0,0:0:0:0:
256,192,2269,1,0,0:0:0:0:
109,192,2432,1,0,0:0:0:0:
402,192,2594,128,0,5188:0:0:0:0:
36,192,3405,1,0,0:0:0:0:
182,192,3567,1,0,0:0:0:0:
36,192,3729,1,0,0:0:0:0:
329,192,3891,128,0,6486:0:0:0:0:
109,192,3891,1,0,0:0:0:0:
256,192,4053,1,0,0:0:0:0:
475,192,4215,1,0,0:0:0:0:
256,192,4540,1,0,0:0:0:0:
109,192,4702,1,0,0:0:0:0:
36,192,4864,1,0,0:0:0:0:
256,192,5026,1,0,0:0:0:0:
182,192,5188,128,0,7783:0:0:0:0:
402,192,5675,1,0,0:0:0:0:
475,192,5999,1,0,0:0:0:0:
402,192,6161,1,0,0:0:0:0:
256,192,6324,1,0,0:0:0:0:
109,192,6486,128,0,9080:0:0:0:0:
36,192,6486,1,0,0:0:0:0:
256,192,6648,1,0,0:0:0:0:
329,192,6810,1,0,0:0:0:0:
402,192,7134,1,0,0:0:0:0:
256,192,7296,1,0,0:0:0:0:
36,192,7459,1,0,0:0:0:0:
475,192,7621,1,0,0:0:0:0:
36,192,7783,128,0,10378:0:0:0:0:
402,192,7945,1,0,0:0:0:0:
329,192,8107,1,0,0:0:0:0:
402,192,8269,1,0,0:0:0:0:
329,192,8432,1,0,0:0:0:0:
256,192,8594,1,0,0:0:0:0:
182,192,8756,1,0,0:0:0:0:
402,192,8918,1,0,0:0:0:0:
475,192,9080,128,0,10378:0:0:0:0:
256,192,9080,1,0,0:0:0:0:
402,192,9729,128,0,11026:0:0:0:0:
109,192,10215,1,0,0:0:0:0:
329,192,10378,128,0,11675:0:0:0:0:
182,192,10378,1,0,0:0:0:0:
475,192,10540,1,0,0:0:0:0:
256,192,10702,1,0,0:0:0:0:
109,192,10864,1,0,0:0:0:0:
256,192,11026,128,0,11675:0:0:0:0:
182,192,11188,1,0,0:0:0:0:
36,192,11351,1,0,0:0:0:0:
36,192,11675,128,0,11837:0:0:0:0:
182,192,11837,1,0,0:0:0:0:
329,192,11999,128,0,12161:0:0:0:0:
475,192,11999,1,0,0:0:0:0:
182,192,12161,1,0,0:0:0:0:
109,192,12324,128,0,12486:0:0:0:0:
329,192,12486,1,0,0:0:0:0:
402,192,12648,128,0,12810:0:0:0:0:
36,192,12648,1,0,0:0:0:0:
329,192,12810,1,0,0:0:0:0:
36,192,12972,128,0,13134:0:0:0:0:
182,192,13134,1,0,0:0:0:0:
329,192,13296,128,0,13459:0:0:0:0:
475,192,13296,1,0,0:0:0:0:
182,192,13459,1,0,0:0:0:0:
109,192,13621,128,0,13783:0:0:0:0:
329,192,13783,1,0,0:0:0:0:
402,192,13945,128,0,14107:0:0:0:0:
36,192,13945,1,0,0:0:0:0:
329,192,14107,1,0,0:0:0:0:
36,192,14269,128,0,14432:0:0:0:0:
475,192,14432,1,0,0:0:0:0:
329,192,14594,128,0,14756:0:0:0:0:
256,192,14594,1,0,0:0:0:0:
475,192,14756,1,0,0:0:0:0:
109,192,14918,128,0,15080:0:0:0:0:
36,192,15080,1,0,0:0:0:0:
329,192,15242,128,0,15405:0:0:0:0:
256,192,15242,1,0,0:0:0:0:
36,192,15405,1,0,0:0:0:0:
475,192,15567,128,0,15729:0:0:0:0:
109,192,15729,1,0,0:0:0:0:
402,192,15891,128,0,16053:0:0:0:0:
256,192,15891,1,0,0:0:0:0:
109,192,16053,1,0,0:0:0:0:
329,192,16215,128,0,16378:0:0:0:0:
402,192,16378,1,0,0:0:0:0:
182,192,16540,128,0,16702:0:0:0:0:
256,192,16540,1,0,0:0:0:0:
402,192,16702,1,0,0:0:0:0:
36,192,16864,128,0,17026:0:0:0:0:
182,192,17026,1,0,0:0:0:0:
329,192,17188,128,0,17351:0:0:0:0:
256,192,17188,1,0,0:0:0:0:
182,192,17351,1,0,0:0:0:0:
109,192,17513,128,0,17675:0:0:0:0:
329,192,17675,1,0,0:0:0:0:
402,192,17837,128,0,17999:0:0:0:0:
256,192,17837,1,0,0:0:0:0:
329,192,17999,1,0,0:0:0:0:
36,192,18161,128,0,18324:0:0:0:0:
182,192,18324,1,0,0:0:0:0:
329,192,18486,128,0,18648:0:0:0:0:
475,192,18486,1,0,0:0:0:0:
182,192,18648,1,0,0:0:0:0:
109,192,18810,128,0,18972:0:0:0:0:
329,192,18972,1,0,0:0:0:0:
402,192,19134,128,0,19296:0:0:0:0:
36,192,19134,1,0,0:0:0:0:
329,192,19296,1,0,0:0:0:0:
36,192,19459,128,0,19621:0:0:0:0:
475,192,19621,1,0,0:0:0:0:
329,192,19783,128,0,19945:0:0:0:0:
256,192,19783,1,0,0:0:0:0:
475,192,19945,1,0,0:0:0:0:
109,192,20107,128,0,20269:0:0:0:0:
36,192,20269,1,0,0:0:0:0:
329,192,20432,128,0,20594:0:0:0:0:
256,192,20432,1,0,0:0:0:0:
36,192,20594,1,0,0:0:0:0:
475,192,20756,128,0,20918:0:0:0:0:
402,192,20918,1,0,0:0:0:0:
182,192,21080,128,0,21242:0:0:0:0:
109,192,21080,1,0,0:0:0:0:
402,192,21242,1,0,0:0:0:0:
329,192,21405,128,0,21567:0:0:0:0:
109,192,21567,1,0,0:0:0:0:
475,192,21729,128,0,21891:0:0:0:0:
402,192,21729,1,0,0:0:0:0:
109,192,21891,1,0,0:0:0:0:
256,192,22053,128,0,24324:0:0:0:0:
109,192,22702,1,0,0:0:0:0:
402,192,22702,1,0,0:0:0:0:
182,192,22864,1,0,0:0:0:0:
329,192,22864,1,0,0:0:0:0:
109,192,23026,1,0,0:0:0:0:
402,192,23026,1,0,0:0:0:0:
182,192,23188,1,0,0:0:0:0:
402,192,23188,1,0,0:0:0:0:
109,192,23269,1,0,0:0:0:0:
329,192,23269,1,0,0:0:0:0:
182,192,23351,1,0,0:0:0:0:
402,192,23351,1,0,0:0:0:0:
109,192,23432,1,0,0:0:0:0:
329,192,23432,1,0,0:0:0:0:
182,192,23513,1,0,0:0:0:0:
402,192,23513,1,0,0:0:0:0:
109,192,23675,1,0,0:0:0:0:
402,192,23675,1,0,0:0:0:0:
109,192,23837,1,0,0:0:0:0:
329,192,23837,1,0,0:0:0:0:
402,192,23918,1,0,0:0:0:0:
182,192,23918,1,0,0:0:0:0:
109,192,23999,1,0,0:0:0:0:
329,192,23999,1,0,0:0:0:0:
402,192,24080,1,0,0:0:0:0:
182,192,24080,1,0,0:0:0:0:
109,192,24161,1,0,0:0:0:0:
329,192,24161,1,0,0:0:0:0:
402,192,24242,1,0,0:0:0:0:
182,192,24242,1,0,0:0:0:0:
36,192,24324,128,0,24648:0:0:0:0:
475,192,24324,128,0,24648:0:0:0:0:
402,192,24648,1,0,0:0:0:0:
256,192,24648,128,0,24729:0:0:0:0:
109,192,24648,1,0,0:0:0:0:
329,192,24729,1,0,0:0:0:0:
182,192,24729,128,0,24810:0:0:0:0:
256,192,24810,1,0,0:0:0:0:
109,192,24810,128,0,24891:0:0:0:0:
402,192,24810,1,0,0:0:0:0:
475,192,24891,1,0,0:0:0:0:
329,192,24891,128,0,24972:0:0:0:0:
402,192,24972,1,0,0:0:0:0:
256,192,24972,128,0,25053:0:0:0:0:
36,192,24972,1,0,0:0:0:0:
109,192,24972,1,0,0:0:0:0:
329,192,25053,1,0,0:0:0:0:
182,192,25053,128,0,25134:0:0:0:0:
256,192,25134,1,0,0:0:0:0:
402,192,25134,128,0,25215:0:0:0:0:
475,192,25134,1,0,0:0:0:0:
182,192,25215,1,0,0:0:0:0:
329,192,25215,128,0,25296:0:0:0:0:
109,192,25296,1,0,0:0:0:0:
256,192,25296,128,0,25378:0:0:0:0:
36,192,25296,1,0,0:0:0:0:
329,192,25378,1,0,0:0:0:0:
475,192,25378,128,0,25459:0:0:0:0:
256,192,25459,1,0,0:0:0:0:
402,192,25459,128,0,25540:0:0:0:0:
109,192,25459,1,0,0:0:0:0:
182,192,25540,1,0,0:0:0:0:
329,192,25540,128,0,25621:0:0:0:0:
109,192,25621,128,0,25783:0:0:0:0:
256,192,25621,128,0,25783:0:0:0:0:
36,192,25621,1,0,0:0:0:0:
475,192,25621,1,0,0:0:0:0:
182,192,25783,128,0,25945:0:0:0:0:
329,192,25783,128,0,25945:0:0:0:0:
402,192,25783,1,0,0:0:0:0:
402,192,25945,1,0,0:0:0:0:
256,192,25945,128,0,26026:0:0:0:0:
36,192,25945,1,0,0:0:0:0:
329,192,26026,1,0,0:0:0:0:
182,192,26026,128,0,26107:0:0:0:0:
256,192,26107,1,0,0:0:0:0:
109,192,26107,128,0,26188:0:0:0:0:
402,192,26107,1,0,0:0:0:0:
475,192,26188,1,0,0:0:0:0:
329,192,26188,128,0,26269:0:0:0:0:
402,192,26269,1,0,0:0:0:0:
256,192,26269,128,0,26351:0:0:0:0:
109,192,26269,1,0,0:0:0:0:
36,192,26269,1,0,0:0:0:0:
329,192,26351,1,0,0:0:0:0:
182,192,26351,128,0,26432:0:0:0:0:
256,192,26432,1,0,0:0:0:0:
402,192,26432,128,0,26513:0:0:0:0:
475,192,26432,1,0,0:0:0:0:
182,192,26513,1,0,0:0:0:0:
329,192,26513,128,0,26594:0:0:0:0:
109,192,26594,1,0,0:0:0:0:
256,192,26594,128,0,26675:0:0:0:0:
36,192,26594,1,0,0:0:0:0:
329,192,26675,1,0,0:0:0:0:
475,192,26675,128,0,26756:0:0:0:0:
256,192,26756,1,0,0:0:0:0:
402,192,26756,128,0,26837:0:0:0:0:
109,192,26756,1,0,0:0:0:0:
182,192,26837,1,0,0:0:0:0:
329,192,26837,128,0,26918:0:0:0:0:
256,192,26918,128,0,27080:0:0:0:0:
109,192,26918,128,0,27080:0:0:0:0:
36,192,26918,1,0,0:0:0:0:
475,192,26918,1,0,0:0:0:0:
182,192,27080,128,0,27242:0:0:0:0:
329,192,27080,128,0,27242:0:0:0:0:
402,192,27080,1,0,0:0:0:0:
109,192,27242,1,0,0:0:0:0:
256,192,27242,128,0,27324:0:0:0:0:
475,192,27242,1,0,0:0:0:0:
182,192,27324,1,0,0:0:0:0:
329,192,27324,128,0,27405:0:0:0:0:
256,192,27405,1,0,0:0:0:0:
402,192,27405,128,0,27486:0:0:0:0:
109,192,27405,1,0,0:0:0:0:
36,192,27486,1,0,0:0:0:0:
182,192,27486,128,0,27567:0:0:0:0:
109,192,27567,1,0,0:0:0:0:
256,192,27567,128,0,27648:0:0:0:0:
402,192,27567,1,0,0:0:0:0:
475,192,27567,1,0,0:0:0:0:
182,192,27648,1,0,0:0:0:0:
329,192,27648,128,0,27729:0:0:0:0:
256,192,27729,1,0,0:0:0:0:
109,192,27729,128,0,27810:0:0:0:0:
36,192,27729,1,0,0:0:0:0:
329,192,27810,1,0,0:0:0:0:
182,192,27810,128,0,27891:0:0:0:0:
402,192,27891,1,0,0:0:0:0:
256,192,27891,128,0,27972:0:0:0:0:
475,192,27891,1,0,0:0:0:0:
182,192,27972,1,0,0:0:0:0:
36,192,27972,128,0,28053:0:0:0:0:
256,192,28053,1,0,0:0:0:0:
109,192,28053,128,0,28134:0:0:0:0:
402,192,28053,1,0,0:0:0:0:
329,192,28134,1,0,0:0:0:0:
182,192,28134,128,0,28215:0:0:0:0:
256,192,28215,1,0,0:0:0:0:
402,192,28215,128,0,28296:0:0:0:0:
109,192,28215,1,0,0:0:0:0:
475,192,28215,1,0,0:0:0:0:
182,192,28296,1,0,0:0:0:0:
36,192,28296,128,0,28378:0:0:0:0:
402,192,28378,1,0,0:0:0:0:
256,192,28378,128,0,28459:0:0:0:0:
109,192,28378,1,0,0:0:0:0:
329,192,28459,1,0,0:0:0:0:
182,192,28459,128,0,28540:0:0:0:0:
256,192,28540,1,0,0:0:0:0:
402,192,28540,128,0,28621:0:0:0:0:
36,192,28540,1,0,0:0:0:0:
182,192,28621,1,0,0:0:0:0:
329,192,28621,128,0,28702:0:0:0:0:
109,192,28702,1,0,0:0:0:0:
256,192,28702,128,0,28783:0:0:0:0:
402,192,28702,1,0,0:0:0:0:
329,192,28783,1,0,0:0:0:0:
475,192,28783,128,0,28864:0:0:0:0:
256,192,28864,1,0,0:0:0:0:
402,192,28864,128,0,28945:0:0:0:0:
109,192,28864,1,0,0:0:0:0:
36,192,28864,1,0,0:0:0:0:
182,192,28945,1,0,0:0:0:0:
329,192,28945,128,0,29026:0:0:0:0:
402,192,29026,1,0,0:0:0:0:
256,192,29026,128,0,29107:0:0:0:0:
109,192,29026,1,0,0:0:0:0:
329,192,29107,1,0,0:0:0:0:
182,192,29107,128,0,29188:0:0:0:0:
256,192,29188,1,0,0:0:0:0:
109,192,29188,128,0,29269:0:0:0:0:
402,192,29188,1,0,0:0:0:0:
475,192,29269,1,0,0:0:0:0:
329,192,29269,128,0,29351:0:0:0:0:
402,192,29351,1,0,0:0:0:0:
256,192,29351,128,0,29432:0:0:0:0:
36,192,29351,1,0,0:0:0:0:
329,192,29432,1,0,0:0:0:0:
182,192,29432,128,0,29513:0:0:0:0:
256,192,29513,128,0,29675:0:0:0:0:
402,192,29513,128,0,29675:0:0:0:0:
109,192,29513,1,0,0:0:0:0:
475,192,29513,1,0,0:0:0:0:
182,192,29675,128,0,29837:0:0:0:0:
329,192,29675,128,0,29837:0:0:0:0:
36,192,29675,1,0,0:0:0:0:
256,192,29837,1,0,0:0:0:0:
36,192,29837,128,0,29918:0:0:0:0:
475,192,29837,1,0,0:0:0:0:
329,192,29918,1,0,0:0:0:0:
109,192,29918,128,0,29999:0:0:0:0:
475,192,29999,1,0,0:0:0:0:
182,192,29999,128,0,30080:0:0:0:0:
256,192,29999,1,0,0:0:0:0:
402,192,30080,1,0,0:0:0:0:
109,192,30080,128,0,30161:0:0:0:0:
329,192,30161,1,0,0:0:0:0:
182,192,30161,128,0,30242:0:0:0:0:
36,192,30161,1,0,0:0:0:0:
475,192,30161,1,0,0:0:0:0:
402,192,30242,1,0,0:0:0:0:
256,192,30242,128,0,30324:0:0:0:0:
329,192,30324,1,0,0:0:0:0:
36,192,30324,128,0,30405:0:0:0:0:
182,192,30324,1,0,0:0:0:0:
402,192,30405,1,0,0:0:0:0:
109,192,30405,128,0,30486:0:0:0:0:
475,192,30486,1,0,0:0:0:0:
182,192,30486,128,0,30567:0:0:0:0:
256,192,30486,1,0,0:0:0:0:
329,192,30567,1,0,0:0:0:0:
109,192,30567,128,0,30648:0:0:0:0:
402,192,30648,1,0,0:0:0:0:
182,192,30648,128,0,30729:0:0:0:0:
36,192,30648,1,0,0:0:0:0:
475,192,30729,1,0,0:0:0:0:
256,192,30729,128,0,30810:0:0:0:0:
36,192,30810,128,0,30972:0:0:0:0:
329,192,30810,128,0,30972:0:0:0:0:
182,192,30810,1,0,0:0:0:0:
402,192,30810,1,0,0:0:0:0:
109,192,30972,128,0,31134:0:0:0:0:
402,192,30972,128,0,31134:0:0:0:0:
256,192,30972,1,0,0:0:0:0:
256,192,31134,1,0,0:0:0:0:
475,192,31134,128,0,31215:0:0:0:0:
36,192,31134,1,0,0:0:0:0:
182,192,31215,1,0,0:0:0:0:
402,192,31215,128,0,31296:0:0:0:0:
36,192,31296,1,0,0:0:0:0:
329,192,31296,128,0,31378:0:0:0:0:
256,192,31296,1,0,0:0:0:0:
109,192,31378,1,0,0:0:0:0:
402,192,31378,128,0,31459:0:0:0:0:
182,192,31459,1,0,0:0:0:0:
329,192,31459,128,0,31540:0:0:0:0:
475,192,31459,1,0,0:0:0:0:
36,192,31459,1,0,0:0:0:0:
109,192,31540,1,0,0:0:0:0:
256,192,31540,128,0,31621:0:0:0:0:
182,192,31621,1,0,0:0:0:0:
475,192,31621,128,0,31702:0:0:0:0:
329,192,31621,1,0,0:0:0:0:
109,192,31702,1,0,0:0:0:0:
402,192,31702,128,0,31783:0:0:0:0:
36,192,31783,1,0,0:0:0:0:
329,192,31783,128,0,31864:0:0:0:0:
256,192,31783,1,0,0:0:0:0:
182,192,31864,1,0,0:0:0:0:
402,192,31864,128,0,31945:0:0:0:0:
109,192,31945,1,0,0:0:0:0:
329,192,31945,128,0,32026:0:0:0:0:
475,192,31945,1,0,0:0:0:0:
36,192,32026,1,0,0:0:0:0:
256,192,32026,128,0,32107:0:0:0:0:
475,192,32107,128,0,32269:0:0:0:0:
182,192,32107,128,0,32269:0:0:0:0:
329,192,32107,1,0,0:0:0:0:
109,192,32107,1,0,0:0:0:0:
109,192,32269,128,0,32432:0:0:0:0:
402,192,32269,128,0,32432:0:0:0:0:
36,192,32269,1,0,0:0:0:0:
475,192,32432,1,0,0:0:0:0:
256,192,32432,128,0,32513:0:0:0:0:
329,192,32432,1,0,0:0:0:0:
402,192,32513,1,0,0:0:0:0:
182,192,32513,128,0,32594:0:0:0:0:
329,192,32594,1,0,0:0:0:0:
109,192,32594,128,0,32675:0:0:0:0:
36,192,32594,1,0,0:0:0:0:
402,192,32675,1,0,0:0:0:0:
182,192,32675,128,0,32756:0:0:0:0:
329,192,32756,1,0,0:0:0:0:
109,192,32756,128,0,32837:0:0:0:0:
475,192,32756,1,0,0:0:0:0:
256,192,32837,128,0,32918:0:0:0:0:
36,192,32837,1,0,0:0:0:0:
475,192,32918,1,0,0:0:0:0:
182,192,32918,128,0,32999:0:0:0:0:
329,192,32918,1,0,0:0:0:0:
402,192,32999,1,0,0:0:0:0:
109,192,32999,128,0,33080:0:0:0:0:
329,192,33080,1,0,0:0:0:0:
36,192,33080,128,0,33161:0:0:0:0:
256,192,33080,1,0,0:0:0:0:
402,192,33161,1,0,0:0:0:0:
182,192,33161,128,0,33242:0:0:0:0:
329,192,33242,1,0,0:0:0:0:
109,192,33242,128,0,33324:0:0:0:0:
475,192,33242,1,0,0:0:0:0:
256,192,33324,1,0,0:0:0:0:
36,192,33324,128,0,33405:0:0:0:0:
109,192,33405,1,0,0:0:0:0:
329,192,33405,128,0,33486:0:0:0:0:
182,192,33405,1,0,0:0:0:0:
402,192,33405,1,0,0:0:0:0:
36,192,33486,1,0,0:0:0:0:
256,192,33486,128,0,33567:0:0:0:0:
182,192,33567,1,0,0:0:0:0:
402,192,33567,128,0,33648:0:0:0:0:
475,192,33567,1,0,0:0:0:0:
109,192,33648,1,0,0:0:0:0:
329,192,33648,128,0,33729:0:0:0:0:
36,192,33729,1,0,0:0:0:0:
256,192,33729,128,0,33810:0:0:0:0:
182,192,33729,1,0,0:0:0:0:
109,192,33810,1,0,0:0:0:0:
329,192,33810,128,0,33891:0:0:0:0:
182,192,33891,1,0,0:0:0:0:
402,192,33891,128,0,33972:0:0:0:0:
475,192,33891,1,0,0:0:0:0:
256,192,33972,1,0,0:0:0:0:
329,192,33972,128,0,34053:0:0:0:0:
182,192,34053,1,0,0:0:0:0:
402,192,34053,128,0,34134:0:0:0:0:
36,192,34053,1,0,0:0:0:0:
109,192,34053,1,0,0:0:0:0:
256,192,34134,1,0,0:0:0:0:
475,192,34134,128,0,34215:0:0:0:0:
329,192,34215,1,0,0:0:0:0:
36,192,34215,128,0,34296:0:0:0:0:
182,192,34215,1,0,0:0:0:0:
402,192,34296,1,0,0:0:0:0:
109,192,34296,128,0,34378:0:0:0:0:
475,192,34378,1,0,0:0:0:0:
182,192,34378,128,0,34459:0:0:0:0:
256,192,34378,1,0,0:0:0:0:
329,192,34459,1,0,0:0:0:0:
109,192,34459,128,0,34540:0:0:0:0:
402,192,34540,1,0,0:0:0:0:
182,192,34540,128,0,34621:0:0:0:0:
36,192,34540,1,0,0:0:0:0:
475,192,34621,1,0,0:0:0:0:
256,192,34621,128,0,34702:0:0:0:0:
36,192,34702,128,0,34864:0:0:0:0:
329,192,34702,128,0,34864:0:0:0:0:
109,192,34702,1,0,0:0:0:0:
402,192,34702,1,0,0:0:0:0:
475,192,34864,128,0,35026:0:0:0:0:
182,192,34864,128,0,35026:0:0:0:0:
256,192,34864,1,0,0:0:0:0:
36,192,35026,1,0,0:0:0:0:
402,192,35026,128,0,35107:0:0:0:0:
109,192,35026,1,0,0:0:0:0:
256,192,35026,1,0,0:0:0:0:
182,192,35107,1,0,0:0:0:0:
329,192,35107,128,0,35188:0:0:0:0:
36,192,35188,1,0,0:0:0:0:
475,192,35188,128,0,35269:0:0:0:0:
256,192,35188,1,0,0:0:0:0:
109,192,35269,1,0,0:0:0:0:
402,192,35269,128,0,35351:0:0:0:0:
182,192,35351,1,0,0:0:0:0:
329,192,35351,128,0,35432:0:0:0:0:
256,192,35351,1,0,0:0:0:0:
36,192,35351,1,0,0:0:0:0:
109,192,35432,1,0,0:0:0:0:
475,192,35432,128,0,35513:0:0:0:0:
36,192,35513,1,0,0:0:0:0:
402,192,35513,128,0,35594:0:0:0:0:
256,192,35513,1,0,0:0:0:0:
182,192,35594,1,0,0:0:0:0:
329,192,35594,128,0,35675:0:0:0:0:
109,192,35675,1,0,0:0:0:0:
475,192,35675,128,0,35756:0:0:0:0:
256,192,35675,1,0,0:0:0:0:
36,192,35756,1,0,0:0:0:0:
402,192,35756,128,0,35837:0:0:0:0:
182,192,35837,1,0,0:0:0:0:
329,192,35837,128,0,35918:0:0:0:0:
256,192,35837,1,0,0:0:0:0:
109,192,35918,1,0,0:0:0:0:
475,192,35918,128,0,35999:0:0:0:0:
36,192,35999,128,0,36161:0:0:0:0:
402,192,35999,128,0,36161:0:0:0:0:
182,192,35999,1,0,0:0:0:0:
329,192,35999,1,0,0:0:0:0:
182,192,36161,128,0,36324:0:0:0:0:
329,192,36161,128,0,36324:0:0:0:0:
256,192,36161,1,0,0:0:0:0:
475,192,36324,1,0,0:0:0:0:
109,192,36324,128,0,36405:0:0:0:0:
256,192,36324,1,0,0:0:0:0:
402,192,36405,1,0,0:0:0:0:
36,192,36405,128,0,36486:0:0:0:0:
329,192,36486,1,0,0:0:0:0:
182,192,36486,128,0,36567:0:0:0:0:
256,192,36486,1,0,0:0:0:0:
402,192,36567,1,0,0:0:0:0:
109,192,36567,128,0,36648:0:0:0:0:
329,192,36648,1,0,0:0:0:0:
36,192,36648,128,0,36729:0:0:0:0:
256,192,36648,1,0,0:0:0:0:
475,192,36648,1,0,0:0:0:0:
402,192,36729,1,0,0:0:0:0:
182,192,36729,128,0,36810:0:0:0:0:
475,192,36810,1,0,0:0:0:0:
109,192,36810,128,0,36891:0:0:0:0:
256,192,36810,1,0,0:0:0:0:
402,192,36891,1,0,0:0:0:0:
36,192,36891,128,0,36972:0:0:0:0:
329,192,36972,1,0,0:0:0:0:
182,192,36972,128,0,37053:0:0:0:0:
256,192,36972,1,0,0:0:0:0:
475,192,37053,1,0,0:0:0:0:
109,192,37053,128,0,37134:0:0:0:0:
402,192,37134,1,0,0:0:0:0:
36,192,37134,128,0,37215:0:0:0:0:
256,192,37134,1,0,0:0:0:0:
329,192,37215,1,0,0:0:0:0:
182,192,37215,128,0,37296:0:0:0:0:
109,192,37296,128,0,37459:0:0:0:0:
475,192,37296,128,0,37459:0:0:0:0:
256,192,37296,1,0,0:0:0:0:
402,192,37296,1,0,0:0:0:0:
36,192,37459,128,0,37621:0:0:0:0:
402,192,37459,128,0,37621:0:0:0:0:
182,192,37459,1,0,0:0:0:0:
109,192,37621,1,0,0:0:0:0:
329,192,37621,128,0,37702:0:0:0:0:
256,192,37621,1,0,0:0:0:0:
182,192,37702,1,0,0:0:0:0:
402,192,37702,128,0,37783:0:0:0:0:
36,192,37783,1,0,0:0:0:0:
475,192,37783,128,0,37864:0:0:0:0:
256,192,37783,1,0,0:0:0:0:
109,192,37864,1,0,0:0:0:0:
329,192,37864,128,0,37945:0:0:0:0:
182,192,37945,1,0,0:0:0:0:
402,192,37945,128,0,38026:0:0:0:0:
256,192,37945,1,0,0:0:0:0:
36,192,37945,1,0,0:0:0:0:
109,192,38026,1,0,0:0:0:0:
475,192,38026,128,0,38107:0:0:0:0:
36,192,38107,1,0,0:0:0:0:
329,192,38107,128,0,38188:0:0:0:0:
256,192,38107,1,0,0:0:0:0:
182,192,38188,1,0,0:0:0:0:
402,192,38188,128,0,38269:0:0:0:0:
36,192,38269,1,0,0:0:0:0:
475,192,38269,128,0,38351:0:0:0:0:
256,192,38269,1,0,0:0:0:0:
109,192,38351,1,0,0:0:0:0:
329,192,38351,128,0,38432:0:0:0:0:
182,192,38432,1,0,0:0:0:0:
402,192,38432,128,0,38513:0:0:0:0:
256,192,38432,1,0,0:0:0:0:
36,192,38513,1,0,0:0:0:0:
475,192,38513,128,0,38594:0:0:0:0:
109,192,38594,1,0,0:0:0:0:
329,192,38594,128,0,38675:0:0:0:0:
256,192,38594,1,0,0:0:0:0:
182,192,38594,1,0,0:0:0:0:
36,192,38675,1,0,0:0:0:0:
475,192,38675,128,0,38756:0:0:0:0:
182,192,38756,1,0,0:0:0:0:
402,192,38756,128,0,38837:0:0:0:0:
256,192,38756,1,0,0:0:0:0:
36,192,38837,1,0,0:0:0:0:
475,192,38837,128,0,38918:0:0:0:0:
329,192,38918,1,0,0:0:0:0:
109,192,38918,128,0,38999:0:0:0:0:
402,192,38918,1,0,0:0:0:0:
475,192,38999,1,0,0:0:0:0:
182,192,38999,128,0,39080:0:0:0:0:
329,192,39080,1,0,0:0:0:0:
36,192,39080,128,0,39161:0:0:0:0:
256,192,39080,1,0,0:0:0:0:
402,192,39161,1,0,0:0:0:0:
182,192,39161,128,0,39242:0:0:0:0:
329,192,39242,1,0,0:0:0:0:
109,192,39242,128,0,39324:0:0:0:0:
256,192,39242,1,0,0:0:0:0:
475,192,39242,1,0,0:0:0:0:
402,192,39324,1,0,0:0:0:0:
36,192,39324,128,0,39405:0:0:0:0:
475,192,39405,1,0,0:0:0:0:
109,192,39405,128,0,39486:0:0:0:0:
329,192,39405,1,0,0:0:0:0:
402,192,39486,1,0,0:0:0:0:
182,192,39486,128,0,39567:0:0:0:0:
329,192,39567,1,0,0:0:0:0:
36,192,39567,128,0,39648:0:0:0:0:
256,192,39567,1,0,0:0:0:0:
475,192,39648,1,0,0:0:0:0:
109,192,39648,128,0,39729:0:0:0:0:
329,192,39729,1,0,0:0:0:0:
36,192,39729,128,0,39810:0:0:0:0:
256,192,39729,1,0,0:0:0:0:
402,192,39810,1,0,0:0:0:0:
182,192,39810,128,0,39891:0:0:0:0:
109,192,39891,128,0,40053:0:0:0:0:
475,192,39891,128,0,40053:0:0:0:0:
256,192,39891,1,0,0:0:0:0:
36,192,39891,1,0,0:0:0:0:
329,192,40053,128,0,40215:0:0:0:0:
36,192,40053,128,0,40215:0:0:0:0:
182,192,40053,1,0,0:0:0:0:
475,192,40215,1,0,0:0:0:0:
256,192,40215,128,0,40296:0:0:0:0:
109,192,40215,1,0,0:0:0:0:
402,192,40296,1,0,0:0:0:0:
182,192,40296,128,0,40378:0:0:0:0:
329,192,40378,1,0,0:0:0:0:
109,192,40378,128,0,40459:0:0:0:0:
475,192,40378,1,0,0:0:0:0:
256,192,40459,1,0,0:0:0:0:
36,192,40459,128,0,40540:0:0:0:0:
329,192,40540,1,0,0:0:0:0:
109,192,40540,128,0,40621:0:0:0:0:
475,192,40540,1,0,0:0:0:0:
402,192,40621,1,0,0:0:0:0:
182,192,40621,128,0,40702:0:0:0:0:
475,192,40702,1,0,0:0:0:0:
256,192,40702,128,0,40783:0:0:0:0:
36,192,40702,1,0,0:0:0:0:
402,192,40783,1,0,0:0:0:0:
182,192,40783,128,0,40864:0:0:0:0:
329,192,40864,1,0,0:0:0:0:
109,192,40864,128,0,40945:0:0:0:0:
475,192,40864,1,0,0:0:0:0:
256,192,40945,1,0,0:0:0:0:
36,192,40945,128,0,41026:0:0:0:0:
329,192,41026,1,0,0:0:0:0:
109,192,41026,128,0,41107:0:0:0:0:
475,192,41026,1,0,0:0:0:0:
402,192,41107,1,0,0:0:0:0:
182,192,41107,128,0,41188:0:0:0:0:
256,192,41188,128,0,41351:0:0:0:0:
475,192,41188,128,0,41351:0:0:0:0:
36,192,41188,1,0,0:0:0:0:
329,192,41188,1,0,0:0:0:0:
402,192,41351,128,0,41513:0:0:0:0:
182,192,41351,128,0,41513:0:0:0:0:
109,192,41351,1,0,0:0:0:0:
36,192,41513,1,0,0:0:0:0:
256,192,41513,128,0,41594:0:0:0:0:
475,192,41513,1,0,0:0:0:0:
109,192,41594,1,0,0:0:0:0:
329,192,41594,128,0,41675:0:0:0:0:
182,192,41675,1,0,0:0:0:0:
402,192,41675,128,0,41756:0:0:0:0:
36,192,41675,1,0,0:0:0:0:
256,192,41756,1,0,0:0:0:0:
475,192,41756,128,0,41837:0:0:0:0:
182,192,41837,1,0,0:0:0:0:
402,192,41837,128,0,41918:0:0:0:0:
36,192,41837,1,0,0:0:0:0:
109,192,41918,1,0,0:0:0:0:
329,192,41918,128,0,41999:0:0:0:0:
36,192,41999,1,0,0:0:0:0:
256,192,41999,128,0,42080:0:0:0:0:
475,192,41999,1,0,0:0:0:0:
109,192,42080,1,0,0:0:0:0:
329,192,42080,128,0,42161:0:0:0:0:
182,192,42161,1,0,0:0:0:0:
402,192,42161,128,0,42242:0:0:0:0:
36,192,42161,1,0,0:0:0:0:
256,192,42242,1,0,0:0:0:0:
475,192,42242,128,0,42324:0:0:0:0:
182,192,42324,1,0,0:0:0:0:
402,192,42324,128,0,42405:0:0:0:0:
36,192,42324,1,0,0:0:0:0:
109,192,42405,1,0,0:0:0:0:
329,192,42405,128,0,42486:0:0:0:0:
36,192,42486,128,0,42648:0:0:0:0:
256,192,42486,128,0,42648:0:0:0:0:
182,192,42486,1,0,0:0:0:0:
475,192,42486,1,0,0:0:0:0:
109,192,42648,128,0,42810:0:0:0:0:
329,192,42648,128,0,42810:0:0:0:0:
402,192,42648,1,0,0:0:0:0:
402,192,42810,1,0,0:0:0:0:
182,192,42810,128,0,42891:0:0:0:0:
36,192,42810,1,0,0:0:0:0:
329,192,42891,1,0,0:0:0:0:
109,192,42891,128,0,42972:0:0:0:0:
256,192,42972,1,0,0:0:0:0:
36,192,42972,128,0,43053:0:0:0:0:
475,192,42972,1,0,0:0:0:0:
329,192,43053,1,0,0:0:0:0:
109,192,43053,128,0,43134:0:0:0:0:
402,192,43134,1,0,0:0:0:0:
182,192,43134,128,0,43215:0:0:0:0:
36,192,43134,1,0,0:0:0:0:
475,192,43215,1,0,0:0:0:0:
256,192,43215,128,0,43296:0:0:0:0:
402,192,43296,1,0,0:0:0:0:
182,192,43296,128,0,43378:0:0:0:0:
36,192,43296,1,0,0:0:0:0:
329,192,43378,1,0,0:0:0:0:
109,192,43378,128,0,43459:0:0:0:0:
182,192,43459,1,0,0:0:0:0:
36,192,43459,128,0,43540:0:0:0:0:
475,192,43459,1,0,0:0:0:0:
402,192,43459,1,0,0:0:0:0:
256,192,43540,1,0,0:0:0:0:
109,192,43540,128,0,43621:0:0:0:0:
329,192,43621,1,0,0:0:0:0:
182,192,43621,128,0,43702:0:0:0:0:
36,192,43621,1,0,0:0:0:0:
475,192,43621,1,0,0:0:0:0:
402,192,43702,1,0,0:0:0:0:
256,192,43702,128,0,43783:0:0:0:0:
36,192,43783,1,0,0:0:0:0:
329,192,43783,128,0,43864:0:0:0:0:
182,192,43783,1,0,0:0:0:0:
475,192,43783,1,0,0:0:0:0:
109,192,43864,1,0,0:0:0:0:
402,192,43864,128,0,43945:0:0:0:0:
256,192,43864,1,0,0:0:0:0:
36,192,43945,1,0,0:0:0:0:
329,192,43945,128,0,44026:0:0:0:0:
182,192,43945,1,0,0:0:0:0:
109,192,44026,1,0,0:0:0:0:
475,192,44026,128,0,44107:0:0:0:0:
402,192,44026,1,0,0:0:0:0:
36,192,44107,1,0,0:0:0:0:
329,192,44107,128,0,44188:0:0:0:0:
182,192,44107,1,0,0:0:0:0:
256,192,44107,1,0,0:0:0:0:
109,192,44188,1,0,0:0:0:0:
402,192,44188,128,0,44269:0:0:0:0:
182,192,44269,1,0,0:0:0:0:
475,192,44269,128,0,44351:0:0:0:0:
109,192,44351,1,0,0:0:0:0:
329,192,44351,128,0,44432:0:0:0:0:
256,192,44351,1,0,0:0:0:0:
36,192,44351,1,0,0:0:0:0:
182,192,44432,1,0,0:0:0:0:
402,192,44432,128,0,44513:0:0:0:0:
109,192,44513,1,0,0:0:0:0:
475,192,44513,128,0,44594:0:0:0:0:
36,192,44594,1,0,0:0:0:0:
329,192,44594,128,0,44675:0:0:0:0:
182,192,44594,1,0,0:0:0:0:
256,192,44594,1,0,0:0:0:0:
109,192,44675,1,0,0:0:0:0:
402,192,44675,128,0,44756:0:0:0:0:
182,192,44756,1,0,0:0:0:0:
475,192,44756,128,0,44837:0:0:0:0:
36,192,44837,1,0,0:0:0:0:
256,192,44837,128,0,44918:0:0:0:0:
109,192,44837,1,0,0:0:0:0:
402,192,44837,1,0,0:0:0:0:
182,192,44918,1,0,0:0:0:0:
329,192,44918,128,0,44999:0:0:0:0:
109,192,44999,1,0,0:0:0:0:
402,192,44999,128,0,45080:0:0:0:0:
256,192,45080,128,0,45242:0:0:0:0:
475,192,45080,128,0,45242:0:0:0:0:
182,192,45080,1,0,0:0:0:0:
36,192,45080,1,0,0:0:0:0:
329,192,45242,128,0,45405:0:0:0:0:
109,192,45242,128,0,45405:0:0:0:0:
182,192,45242,1,0,0:0:0:0:
402,192,45242,1,0,0:0:0:0:
475,192,45405,128,0,50269:0:0:0:0:
36,192,45405,128,0,50269:0:0:0:0:
182,192,45405,1,0,0:0:0:0:
109,192,45567,1,0,0:0:0:0:
256,192,45729,1,0,0:0:0:0:
182,192,45891,1,0,0:0:0:0:
329,192,46053,1,0,0:0:0:0:
256,192,46215,1,0,0:0:0:0:
402,192,46378,1,0,0:0:0:0:
329,192,46540,1,0,0:0:0:0:
182,192,46702,1,0,0:0:0:0:
109,192,46864,1,0,0:0:0:0:
256,192,47026,1,0,0:0:0:0:
182,192,47188,1,0,0:0:0:0:
329,192,47351,1,0,0:0:0:0:
256,192,47513,1,0,0:0:0:0:
402,192,47675,1,0,0:0:0:0:
329,192,47837,1,0,0:0:0:0:
256,192,47999,128,0,49296:0:0:0:0:
182,192,47999,1,0,0:0:0:0:
109,192,48161,1,0,0:0:0:0:
329,192,48324,1,0,0:0:0:0:
182,192,48486,1,0,0:0:0:0:
402,192,48648,1,0,0:0:0:0:
329,192,48810,1,0,0:0:0:0:
109,192,48972,1,0,0:0:0:0:
402,192,49134,1,0,0:0:0:0:
256,192,49621,1,0,0:0:0:0:
256,192,49945,1,0,0:0:0:0:
256,192,50269,1,0,0:0:0:0:
36,192,50594,1,0,0:0:0:0:
182,192,50594,1,0,0:0:0:0:
329,192,50594,1,0,0:0:0:0:
475,192,50594,1,0,0:0:0:0:
109,192,50675,1,0,0:0:0:0:
475,192,50756,128,0,50918:0:0:0:0:
182,192,50756,1,0,0:0:0:0:
329,192,50756,1,0,0:0:0:0:
256,192,50837,1,0,0:0:0:0:
109,192,50918,1,0,0:0:0:0:
402,192,50918,1,0,0:0:0:0:
36,192,50918,1,0,0:0:0:0:
182,192,50999,1,0,0:0:0:0:
329,192,51080,128,0,51242:0:0:0:0:
256,192,51080,1,0,0:0:0:0:
475,192,51080,1,0,0:0:0:0:
402,192,51161,1,0,0:0:0:0:
182,192,51242,1,0,0:0:0:0:
36,192,51242,1,0,0:0:0:0:
256,192,51324,1,0,0:0:0:0:
182,192,51405,128,0,51567:0:0:0:0:
329,192,51405,1,0,0:0:0:0:
109,192,51405,1,0,0:0:0:0:
402,192,51486,1,0,0:0:0:0:
256,192,51567,1,0,0:0:0:0:
36,192,51567,1,0,0:0:0:0:
475,192,51567,1,0,0:0:0:0:
329,192,51648,1,0,0:0:0:0:
36,192,51729,128,0,51891:0:0:0:0:
402,192,51729,1,0,0:0:0:0:
182,192,51729,1,0,0:0:0:0:
475,192,51810,1,0,0:0:0:0:
402,192,51891,1,0,0:0:0:0:
109,192,51891,1,0,0:0:0:0:
329,192,51972,1,0,0:0:0:0:
475,192,52053,128,0,52215:0:0:0:0:
256,192,52053,1,0,0:0:0:0:
36,192,52053,1,0,0:0:0:0:
182,192,52134,1,0,0:0:0:0:
329,192,52215,1,0,0:0:0:0:
109,192,52215,1,0,0:0:0:0:
402,192,52215,1,0,0:0:0:0:
256,192,52296,1,0,0:0:0:0:
329,192,52378,128,0,52540:0:0:0:0:
182,192,52378,1,0,0:0:0:0:
475,192,52378,1,0,0:0:0:0:
109,192,52459,1,0,0:0:0:0:
256,192,52540,1,0,0:0:0:0:
402,192,52540,1,0,0:0:0:0:
109,192,52621,1,0,0:0:0:0:
182,192,52702,128,0,52864:0:0:0:0:
36,192,52702,1,0,0:0:0:0:
329,192,52702,1,0,0:0:0:0:
109,192,52783,1,0,0:0:0:0:
256,192,52864,1,0,0:0:0:0:
475,192,52864,1,0,0:0:0:0:
36,192,52864,1,0,0:0:0:0:
329,192,52945,1,0,0:0:0:0:
36,192,53026,128,0,53188:0:0:0:0:
182,192,53026,1,0,0:0:0:0:
402,192,53026,1,0,0:0:0:0:
256,192,53107,1,0,0:0:0:0:
329,192,53188,1,0,0:0:0:0:
109,192,53188,1,0,0:0:0:0:
402,192,53269,1,0,0:0:0:0:
329,192,53351,128,0,53513:0:0:0:0:
475,192,53351,1,0,0:0:0:0:
182,192,53351,1,0,0:0:0:0:
402,192,53432,1,0,0:0:0:0:
256,192,53513,1,0,0:0:0:0:
36,192,53513,1,0,0:0:0:0:
475,192,53513,1,0,0:0:0:0:
329,192,53594,1,0,0:0:0:0:
182,192,53675,128,0,53837:0:0:0:0:
256,192,53675,1,0,0:0:0:0:
402,192,53675,1,0,0:0:0:0:
109,192,53756,1,0,0:0:0:0:
36,192,53837,1,0,0:0:0:0:
329,192,53837,1,0,0:0:0:0:
109,192,53918,1,0,0:0:0:0:
475,192,53999,128,0,54161:0:0:0:0:
182,192,53999,1,0,0:0:0:0:
402,192,53999,1,0,0:0:0:0:
256,192,54080,1,0,0:0:0:0:
109,192,54161,1,0,0:0:0:0:
329,192,54161,1,0,0:0:0:0:
36,192,54161,1,0,0:0:0:0:
182,192,54242,1,0,0:0:0:0:
36,192,54324,128,0,54486:0:0:0:0:
256,192,54324,1,0,0:0:0:0:
475,192,54324,1,0,0:0:0:0:
329,192,54405,1,0,0:0:0:0:
182,192,54486,1,0,0:0:0:0:
402,192,54486,1,0,0:0:0:0:
256,192,54567,1,0,0:0:0:0:
329,192,54648,128,0,54810:0:0:0:0:
402,192,54648,1,0,0:0:0:0:
36,192,54648,1,0,0:0:0:0:
475,192,54729,1,0,0:0:0:0:
402,192,54810,1,0,0:0:0:0:
109,192,54810,1,0,0:0:0:0:
182,192,54810,1,0,0:0:0:0:
329,192,54891,1,0,0:0:0:0:
182,192,54972,128,0,55134:0:0:0:0:
256,192,54972,1,0,0:0:0:0:
36,192,54972,1,0,0:0:0:0:
402,192,55053,1,0,0:0:0:0:
329,192,55134,1,0,0:0:0:0:
109,192,55134,1,0,0:0:0:0:
256,192,55215,1,0,0:0:0:0:
475,192,55296,128,0,55459:0:0:0:0:
182,192,55296,1,0,0:0:0:0:
36,192,55296,1,0,0:0:0:0:
329,192,55378,1,0,0:0:0:0:
256,192,55459,1,0,0:0:0:0:
109,192,55459,1,0,0:0:0:0:
402,192,55459,1,0,0:0:0:0:
182,192,55540,1,0,0:0:0:0:
36,192,55621,128,0,55783:0:0:0:0:
109,192,55621,1,0,0:0:0:0:
475,192,55621,1,0,0:0:0:0:
182,192,55702,1,0,0:0:0:0:
256,192,55783,1,0,0:0:0:0:
402,192,55783,1,0,0:0:0:0:
109,192,55783,1,0,0:0:0:0:
475,192,55783,1,0,0:0:0:0:
329,192,55864,1,0,0:0:0:0:
402,192,55945,128,0,56107:0:0:0:0:
182,192,55945,1,0,0:0:0:0:
36,192,55945,1,0,0:0:0:0:
256,192,56026,1,0,0:0:0:0:
329,192,56107,1,0,0:0:0:0:
109,192,56107,1,0,0:0:0:0:
475,192,56107,1,0,0:0:0:0:
402,192,56188,1,0,0:0:0:0:
329,192,56269,128,0,56432:0:0:0:0:
256,192,56269,1,0,0:0:0:0:
36,192,56269,1,0,0:0:0:0:
402,192,56351,1,0,0:0:0:0:
475,192,56432,1,0,0:0:0:0:
109,192,56432,1,0,0:0:0:0:
402,192,56513,1,0,0:0:0:0:
182,192,56594,128,0,56756:0:0:0:0:
329,192,56594,1,0,0:0:0:0:
475,192,56594,1,0,0:0:0:0:
256,192,56675,1,0,0:0:0:0:
402,192,56756,1,0,0:0:0:0:
36,192,56756,1,0,0:0:0:0:
109,192,56756,1,0,0:0:0:0:
329,192,56837,1,0,0:0:0:0:
109,192,56918,128,0,57080:0:0:0:0:
256,192,56918,1,0,0:0:0:0:
475,192,56918,1,0,0:0:0:0:
182,192,56999,1,0,0:0:0:0:
329,192,57080,1,0,0:0:0:0:
36,192,57080,1,0,0:0:0:0:
256,192,57161,1,0,0:0:0:0:
402,192,57242,128,0,57405:0:0:0:0:
182,192,57242,1,0,0:0:0:0:
329,192,57242,1,0,0:0:0:0:
109,192,57324,1,0,0:0:0:0:
36,192,57405,1,0,0:0:0:0:
256,192,57405,1,0,0:0:0:0:
475,192,57405,1,0,0:0:0:0:
109,192,57486,1,0,0:0:0:0:
329,192,57567,128,0,57729:0:0:0:0:
182,192,57567,1,0,0:0:0:0:
402,192,57567,1,0,0:0:0:0:
256,192,57648,1,0,0:0:0:0:
109,192,57729,1,0,0:0:0:0:
475,192,57729,1,0,0:0:0:0:
256,192,57810,1,0,0:0:0:0:
182,192,57891,128,0,58053:0:0:0:0:
329,192,57891,1,0,0:0:0:0:
36,192,57891,1,0,0:0:0:0:
402,192,57972,1,0,0:0:0:0:
256,192,58053,1,0,0:0:0:0:
109,192,58053,1,0,0:0:0:0:
475,192,58053,1,0,0:0:0:0:
329,192,58134,1,0,0:0:0:0:
109,192,58215,128,0,58378:0:0:0:0:
402,192,58215,1,0,0:0:0:0:
182,192,58215,1,0,0:0:0:0:
475,192,58296,1,0,0:0:0:0:
402,192,58378,1,0,0:0:0:0:
36,192,58378,1,0,0:0:0:0:
329,192,58459,1,0,0:0:0:0:
182,192,58540,128,0,58702:0:0:0:0:
256,192,58540,1,0,0:0:0:0:
109,192,58540,1,0,0:0:0:0:
402,192,58621,1,0,0:0:0:0:
329,192,58702,1,0,0:0:0:0:
36,192,58702,1,0,0:0:0:0:
475,192,58702,1,0,0:0:0:0:
256,192,58783,1,0,0:0:0:0:
329,192,58864,128,0,59026:0:0:0:0:
182,192,58864,1,0,0:0:0:0:
402,192,58864,1,0,0:0:0:0:
109,192,58945,1,0,0:0:0:0:
182,192,59026,1,0,0:0:0:0:
36,192,59026,1,0,0:0:0:0:
256,192,59107,1,0,0:0:0:0:
402,192,59188,128,0,59351:0:0:0:0:
329,192,59188,1,0,0:0:0:0:
109,192,59188,1,0,0:0:0:0:
182,192,59269,1,0,0:0:0:0:
256,192,59351,1,0,0:0:0:0:
36,192,59351,1,0,0:0:0:0:
475,192,59351,1,0,0:0:0:0:
329,192,59432,1,0,0:0:0:0:
109,192,59513,128,0,59675:0:0:0:0:
402,192,59513,1,0,0:0:0:0:
182,192,59513,1,0,0:0:0:0:
256,192,59594,1,0,0:0:0:0:
329,192,59675,1,0,0:0:0:0:
36,192,59675,1,0,0:0:0:0:
402,192,59756,1,0,0:0:0:0:
182,192,59837,128,0,59999:0:0:0:0:
475,192,59837,1,0,0:0:0:0:
256,192,59837,1,0,0:0:0:0:
402,192,59918,1,0,0:0:0:0:
329,192,59999,1,0,0:0:0:0:
36,192,59999,1,0,0:0:0:0:
475,192,59999,1,0,0:0:0:0:
256,192,60080,1,0,0:0:0:0:
329,192,60161,128,0,60324:0:0:0:0:
402,192,60161,1,0,0:0:0:0:
109,192,60161,1,0,0:0:0:0:
256,192,60242,1,0,0:0:0:0:
182,192,60324,1,0,0:0:0:0:
475,192,60324,1,0,0:0:0:0:
109,192,60405,1,0,0:0:0:0:
402,192,60486,128,0,60648:0:0:0:0:
36,192,60486,1,0,0:0:0:0:
256,192,60486,1,0,0:0:0:0:
109,192,60567,1,0,0:0:0:0:
182,192,60648,1,0,0:0:0:0:
329,192,60648,1,0,0:0:0:0:
475,192,60648,1,0,0:0:0:0:
256,192,60729,1,0,0:0:0:0:
109,192,60810,128,0,60972:0:0:0:0:
182,192,60810,1,0,0:0:0:0:
402,192,60810,1,0,0:0:0:0:
256,192,60891,1,0,0:0:0:0:
329,192,60972,1,0,0:0:0:0:
36,192,60972,1,0,0:0:0:0:
402,192,61053,1,0,0:0:0:0:
329,192,61134,128,0,61296:0:0:0:0:
475,192,61134,1,0,0:0:0:0:
182,192,61134,1,0,0:0:0:0:
402,192,61215,1,0,0:0:0:0:
256,192,61296,1,0,0:0:0:0:
36,192,61296,1,0,0:0:0:0:
109,192,61296,1,0,0:0:0:0:
402,192,61378,1,0,0:0:0:0:
182,192,61459,128,0,61621:0:0:0:0:
329,192,61459,1,0,0:0:0:0:
475,192,61459,1,0,0:0:0:0:
256,192,61540,1,0,0:0:0:0:
109,192,61621,1,0,0:0:0:0:
402,192,61621,1,0,0:0:0:0:
182,192,61702,1,0,0:0:0:0:
475,192,61783,128,0,61945:0:0:0:0:
256,192,61783,1,0,0:0:0:0:
36,192,61783,1,0,0:0:0:0:
182,192,61864,1,0,0:0:0:0:
109,192,61945,1,0,0:0:0:0:
256,192,61945,1,0,0:0:0:0:
402,192,61945,1,0,0:0:0:0:
182,192,62026,1,0,0:0:0:0:
36,192,62107,128,0,62269:0:0:0:0:
256,192,62107,1,0,0:0:0:0:
475,192,62107,1,0,0:0:0:0:
329,192,62188,1,0,0:0:0:0:
402,192,62269,1,0,0:0:0:0:
109,192,62269,1,0,0:0:0:0:
256,192,62351,1,0,0:0:0:0:
329,192,62432,128,0,62594:0:0:0:0:
402,192,62432,1,0,0:0:0:0:
36,192,62432,1,0,0:0:0:0:
475,192,62513,1,0,0:0:0:0:
402,192,62594,1,0,0:0:0:0:
109,192,62594,1,0,0:0:0:0:
256,192,62594,1,0,0:0:0:0:
329,192,62675,1,0,0:0:0:0:
182,192,62756,128,0,62918:0:0:0:0:
256,192,62756,1,0,0:0:0:0:
36,192,62756,1,0,0:0:0:0:
402,192,62837,1,0,0:0:0:0:
329,192,62918,1,0,0:0:0:0:
109,192,62918,1,0,0:0:0:0:
256,192,62999,1,0,0:0:0:0:
475,192,63080,128,0,63242:0:0:0:0:
182,192,63080,1,0,0:0:0:0:
36,192,63080,1,0,0:0:0:0:
256,192,63161,1,0,0:0:0:0:
182,192,63242,1,0,0:0:0:0:
329,192,63242,1,0,0:0:0:0:
402,192,63242,1,0,0:0:0:0:
109,192,63324,1,0,0:0:0:0:
36,192,63405,128,0,63567:0:0:0:0:
182,192,63405,1,0,0:0:0:0:
475,192,63405,1,0,0:0:0:0:
256,192,63486,1,0,0:0:0:0:
182,192,63567,1,0,0:0:0:0:
402,192,63567,1,0,0:0:0:0:
256,192,63648,1,0,0:0:0:0:
475,192,63729,128,0,63891:0:0:0:0:
329,192,63729,1,0,0:0:0:0:
109,192,63729,1,0,0:0:0:0:
402,192,63810,1,0,0:0:0:0:
256,192,63891,1,0,0:0:0:0:
36,192,63891,1,0,0:0:0:0:
182,192,63891,1,0,0:0:0:0:
329,192,63972,1,0,0:0:0:0:
402,192,64053,128,0,64215:0:0:0:0:
475,192,64053,1,0,0:0:0:0:
109,192,64053,1,0,0:0:0:0:
329,192,64134,1,0,0:0:0:0:
256,192,64215,1,0,0:0:0:0:
36,192,64215,1,0,0:0:0:0:
182,192,64296,1,0,0:0:0:0:
109,192,64378,128,0,64540:0:0:0:0:
329,192,64378,1,0,0:0:0:0:
475,192,64378,1,0,0:0:0:0:
256,192,64459,1,0,0:0:0:0:
182,192,64540,1,0,0:0:0:0:
402,192,64540,1,0,0:0:0:0:
36,192,64540,1,0,0:0:0:0:
109,192,64621,1,0,0:0:0:0:
36,192,64702,128,0,64864:0:0:0:0:
256,192,64702,1,0,0:0:0:0:
475,192,64702,1,0,0:0:0:0:
182,192,64783,1,0,0:0:0:0:
109,192,64864,1,0,0:0:0:0:
402,192,64864,1,0,0:0:0:0:
36,192,64945,1,0,0:0:0:0:
475,192,65026,128,0,65188:0:0:0:0:
109,192,65026,1,0,0:0:0:0:
329,192,65026,1,0,0:0:0:0:
182,192,65107,1,0,0:0:0:0:
256,192,65188,1,0,0:0:0:0:
402,192,65188,1,0,0:0:0:0:
36,192,65188,1,0,0:0:0:0:
109,192,65269,1,0,0:0:0:0:
402,192,65351,128,0,65513:0:0:0:0:
182,192,65351,1,0,0:0:0:0:
475,192,65351,1,0,0:0:0:0:
256,192,65432,1,0,0:0:0:0:
329,192,65513,1,0,0:0:0:0:
36,192,65513,1,0,0:0:0:0:
475,192,65594,1,0,0:0:0:0:
109,192,65675,128,0,65837:0:0:0:0:
402,192,65675,1,0,0:0:0:0:
182,192,65675,1,0,0:0:0:0:
329,192,65756,1,0,0:0:0:0:
256,192,65837,1,0,0:0:0:0:
36,192,65837,1,0,0:0:0:0:
475,192,65837,1,0,0:0:0:0:
402,192,65918,1,0,0:0:0:0:
36,192,65999,128,0,66161:0:0:0:0:
329,192,65999,1,0,0:0:0:0:
182,192,65999,1,0,0:0:0:0:
256,192,66080,1,0,0:0:0:0:
182,192,66161,1,0,0:0:0:0:
475,192,66161,128,0,66324:0:0:0:0:
109,192,66161,1,0,0:0:0:0:
329,192,66161,1,0,0:0:0:0:
402,192,66161,1,0,0:0:0:0:
36,192,66324,128,0,66486:0:0:0:0:
329,192,66486,128,0,66648:0:0:0:0:
256,192,66486,1,0,0:0:0:0:
109,192,66486,1,0,0:0:0:0:
182,192,66648,128,0,66810:0:0:0:0:
402,192,66810,128,0,66972:0:0:0:0:
256,192,66810,1,0,0:0:0:0:
475,192,66810,1,0,0:0:0:0:
109,192,66972,128,0,67134:0:0:0:0:
329,192,67134,128,0,67296:0:0:0:0:
256,192,67134,1,0,0:0:0:0:
182,192,67296,128,0,67459:0:0:0:0:
109,192,67296,1,0,0:0:0:0:
475,192,67459,128,0,67621:0:0:0:0:
256,192,67459,1,0,0:0:0:0:
36,192,67621,128,0,67783:0:0:0:0:
109,192,67621,1,0,0:0:0:0:
329,192,67783,128,0,67945:0:0:0:0:
256,192,67783,1,0,0:0:0:0:
109,192,67783,1,0,0:0:0:0:
182,192,67945,128,0,68107:0:0:0:0:
402,192,68107,128,0,68269:0:0:0:0:
256,192,68107,1,0,0:0:0:0:
475,192,68107,1,0,0:0:0:0:
109,192,68269,128,0,68432:0:0:0:0:
329,192,68432,128,0,68594:0:0:0:0:
256,192,68432,1,0,0:0:0:0:
182,192,68594,128,0,68756:0:0:0:0:
475,192,68756,128,0,68918:0:0:0:0:
256,192,68756,1,0,0:0:0:0:
402,192,68756,1,0,0:0:0:0:
182,192,68918,128,0,69080:0:0:0:0:
329,192,69080,128,0,69242:0:0:0:0:
256,192,69080,1,0,0:0:0:0:
402,192,69080,1,0,0:0:0:0:
36,192,69242,128,0,69405:0:0:0:0:
402,192,69405,128,0,69567:0:0:0:0:
256,192,69405,1,0,0:0:0:0:
182,192,69405,1,0,0:0:0:0:
109,192,69567,128,0,69729:0:0:0:0:
329,192,69729,128,0,69891:0:0:0:0:
256,192,69729,1,0,0:0:0:0:
36,192,69891,128,0,70053:0:0:0:0:
402,192,69891,1,0,0:0:0:0:
475,192,70053,128,0,70215:0:0:0:0:
256,192,70053,1,0,0:0:0:0:
182,192,70215,128,0,70378:0:0:0:0:
402,192,70215,1,0,0:0:0:0:
329,192,70378,128,0,70540:0:0:0:0:
256,192,70378,1,0,0:0:0:0:
402,192,70378,1,0,0:0:0:0:
36,192,70540,128,0,70702:0:0:0:0:
402,192,70702,128,0,70864:0:0:0:0:
256,192,70702,1,0,0:0:0:0:
182,192,70702,1,0,0:0:0:0:
109,192,70864,128,0,71026:0:0:0:0:
329,192,71026,128,0,71188:0:0:0:0:
256,192,71026,1,0,0:0:0:0:
402,192,71026,1,0,0:0:0:0:
36,192,71188,128,0,71351:0:0:0:0:
475,192,71351,128,0,71513:0:0:0:0:
256,192,71351,1,0,0:0:0:0:
402,192,71351,1,0,0:0:0:0:
182,192,71513,128,0,71675:0:0:0:0:
329,192,71675,128,0,71837:0:0:0:0:
256,192,71675,1,0,0:0:0:0:
402,192,71675,1,0,0:0:0:0:
36,192,71837,128,0,71999:0:0:0:0:
402,192,71999,128,0,72161:0:0:0:0:
256,192,71999,1,0,0:0:0:0:
182,192,71999,1,0,0:0:0:0:
109,192,72161,128,0,72324:0:0:0:0:
329,192,72324,128,0,72486:0:0:0:0:
256,192,72324,1,0,0:0:0:0:
36,192,72486,128,0,72648:0:0:0:0:
402,192,72486,1,0,0:0:0:0:
475,192,72648,128,0,72810:0:0:0:0:
256,192,72648,1,0,0:0:0:0:
182,192,72810,128,0,72972:0:0:0:0:
402,192,72810,1,0,0:0:0:0:
329,192,72972,128,0,73134:0:0:0:0:
256,192,72972,1,0,0:0:0:0:
402,192,72972,1,0,0:0:0:0:
36,192,73134,128,0,73296:0:0:0:0:
402,192,73296,128,0,73459:0:0:0:0:
256,192,73296,1,0,0:0:0:0:
182,192,73296,1,0,0:0:0:0:
109,192,73459,128,0,73621:0:0:0:0:
329,192,73621,128,0,73783:0:0:0:0:
256,192,73621,1,0,0:0:0:0:
36,192,73783,128,0,73945:0:0:0:0:
329,192,73945,128,0,74107:0:0:0:0:
256,192,73945,1,0,0:0:0:0:
109,192,73945,1,0,0:0:0:0:
182,192,74107,128,0,74269:0:0:0:0:
475,192,74269,128,0,74432:0:0:0:0:
256,192,74269,1,0,0:0:0:0:
109,192,74269,1,0,0:0:0:0:
36,192,74432,128,0,74594:0:0:0:0:
402,192,74594,128,0,74756:0:0:0:0:
256,192,74594,1,0,0:0:0:0:
329,192,74594,1,0,0:0:0:0:
109,192,74756,128,0,74918:0:0:0:0:
475,192,74918,128,0,75080:0:0:0:0:
256,192,74918,1,0,0:0:0:0:
36,192,75080,128,0,75242:0:0:0:0:
109,192,75080,1,0,0:0:0:0:
329,192,75242,128,0,75405:0:0:0:0:
256,192,75242,1,0,0:0:0:0:
182,192,75405,128,0,75567:0:0:0:0:
109,192,75405,1,0,0:0:0:0:
475,192,75567,128,0,75729:0:0:0:0:
256,192,75567,1,0,0:0:0:0:
109,192,75567,1,0,0:0:0:0:
36,192,75729,128,0,75891:0:0:0:0:
402,192,75891,128,0,76053:0:0:0:0:
256,192,75891,1,0,0:0:0:0:
329,192,75891,1,0,0:0:0:0:
109,192,76053,128,0,76215:0:0:0:0:
182,192,76053,1,0,0:0:0:0:
475,192,76215,128,0,76378:0:0:0:0:
256,192,76215,1,0,0:0:0:0:
182,192,76215,1,0,0:0:0:0:
36,192,76378,128,0,76540:0:0:0:0:
182,192,76378,1,0,0:0:0:0:
329,192,76540,128,0,76702:0:0:0:0:
109,192,76540,1,0,0:0:0:0:
256,192,76540,1,0,0:0:0:0:
402,192,76540,1,0,0:0:0:0:
475,192,76540,1,0,0:0:0:0:
182,192,76702,128,0,76864:0:0:0:0:
36,192,76702,1,0,0:0:0:0:
475,192,76864,128,0,77026:0:0:0:0:
256,192,76864,1,0,0:0:0:0:
402,192,76864,1,0,0:0:0:0:
36,192,77026,128,0,77188:0:0:0:0:
109,192,77026,1,0,0:0:0:0:
329,192,77188,128,0,77351:0:0:0:0:
402,192,77188,1,0,0:0:0:0:
182,192,77351,128,0,77513:0:0:0:0:
36,192,77351,1,0,0:0:0:0:
402,192,77513,128,0,77675:0:0:0:0:
256,192,77513,1,0,0:0:0:0:
475,192,77513,1,0,0:0:0:0:
109,192,77675,128,0,77837:0:0:0:0:
182,192,77675,1,0,0:0:0:0:
329,192,77837,128,0,77999:0:0:0:0:
36,192,77837,1,0,0:0:0:0:
182,192,77999,128,0,78161:0:0:0:0:
475,192,77999,1,0,0:0:0:0:
475,192,78161,128,0,78324:0:0:0:0:
256,192,78161,1,0,0:0:0:0:
402,192,78161,1,0,0:0:0:0:
36,192,78324,128,0,78486:0:0:0:0:
109,192,78324,1,0,0:0:0:0:
329,192,78486,128,0,78648:0:0:0:0:
256,192,78486,1,0,0:0:0:0:
182,192,78648,128,0,78810:0:0:0:0:
36,192,78648,1,0,0:0:0:0:
402,192,78810,128,0,78972:0:0:0:0:
329,192,78810,1,0,0:0:0:0:
109,192,78810,1,0,0:0:0:0:
109,192,78972,128,0,79134:0:0:0:0:
256,192,78972,1,0,0:0:0:0:
475,192,79134,128,0,79296:0:0:0:0:
402,192,79134,1,0,0:0:0:0:
182,192,79296,128,0,79459:0:0:0:0:
329,192,79296,1,0,0:0:0:0:
402,192,79459,128,0,79621:0:0:0:0:
36,192,79459,1,0,0:0:0:0:
256,192,79459,1,0,0:0:0:0:
109,192,79621,128,0,79783:0:0:0:0:
182,192,79621,1,0,0:0:0:0:
329,192,79783,128,0,79945:0:0:0:0:
475,192,79783,1,0,0:0:0:0:
36,192,79945,128,0,80107:0:0:0:0:
256,192,79945,1,0,0:0:0:0:
402,192,80107,128,0,80269:0:0:0:0:
182,192,80107,1,0,0:0:0:0:
329,192,80107,1,0,0:0:0:0:
109,192,80269,128,0,80432:0:0:0:0:
256,192,80269,1,0,0:0:0:0:
475,192,80432,128,0,80594:0:0:0:0:
36,192,80432,1,0,0:0:0:0:
182,192,80594,128,0,80756:0:0:0:0:
329,192,80594,1,0,0:0:0:0:
402,192,80756,128,0,80918:0:0:0:0:
256,192,80756,1,0,0:0:0:0:
475,192,80756,1,0,0:0:0:0:
109,192,80918,128,0,81080:0:0:0:0:
182,192,80918,1,0,0:0:0:0:
329,192,81080,128,0,81242:0:0:0:0:
36,192,81080,1,0,0:0:0:0:
36,192,81242,128,0,81405:0:0:0:0:
256,192,81242,1,0,0:0:0:0:
402,192,81405,128,0,81567:0:0:0:0:
182,192,81405,1,0,0:0:0:0:
475,192,81405,1,0,0:0:0:0:
109,192,81567,128,0,81729:0:0:0:0:
329,192,81567,1,0,0:0:0:0:
475,192,81729,128,0,81891:0:0:0:0:
36,192,81729,1,0,0:0:0:0:
182,192,81891,128,0,82053:0:0:0:0:
256,192,81891,1,0,0:0:0:0:
329,192,82053,128,0,82215:0:0:0:0:
109,192,82053,1,0,0:0:0:0:
402,192,82053,1,0,0:0:0:0:
36,192,82215,128,0,82378:0:0:0:0:
182,192,82215,1,0,0:0:0:0:
402,192,82378,128,0,82540:0:0:0:0:
256,192,82378,1,0,0:0:0:0:
109,192,82540,128,0,82702:0:0:0:0:
182,192,82540,1,0,0:0:0:0:
329,192,82702,128,0,82864:0:0:0:0:
475,192,82702,1,0,0:0:0:0:
256,192,82702,1,0,0:0:0:0:
36,192,82864,128,0,83026:0:0:0:0:
182,192,82864,1,0,0:0:0:0:
475,192,83026,128,0,83188:0:0:0:0:
402,192,83026,1,0,0:0:0:0:
182,192,83188,128,0,83351:0:0:0:0:
256,192,83188,1,0,0:0:0:0:
329,192,83351,128,0,83513:0:0:0:0:
109,192,83351,1,0,0:0:0:0:
402,192,83351,1,0,0:0:0:0:
36,192,83513,128,0,83675:0:0:0:0:
182,192,83513,1,0,0:0:0:0:
402,192,83675,128,0,83837:0:0:0:0:
256,192,83675,1,0,0:0:0:0:
109,192,83837,128,0,83999:0:0:0:0:
475,192,83837,1,0,0:0:0:0:
329,192,83999,128,0,84161:0:0:0:0:
182,192,83999,1,0,0:0:0:0:
402,192,83999,1,0,0:0:0:0:
36,192,84161,128,0,84324:0:0:0:0:
256,192,84161,1,0,0:0:0:0:
329,192,84324,128,0,84486:0:0:0:0:
109,192,84324,1,0,0:0:0:0:
182,192,84486,128,0,84648:0:0:0:0:
475,192,84486,1,0,0:0:0:0:
475,192,84648,128,0,84810:0:0:0:0:
109,192,84648,1,0,0:0:0:0:
329,192,84648,1,0,0:0:0:0:
36,192,84810,128,0,84972:0:0:0:0:
256,192,84810,1,0,0:0:0:0:
329,192,84972,128,0,85134:0:0:0:0:
109,192,84972,1,0,0:0:0:0:
182,192,85134,128,0,85296:0:0:0:0:
256,192,85134,1,0,0:0:0:0:
402,192,85296,128,0,85459:0:0:0:0:
36,192,85296,1,0,0:0:0:0:
329,192,85296,1,0,0:0:0:0:
109,192,85459,128,0,85621:0:0:0:0:
256,192,85459,1,0,0:0:0:0:
182,192,85621,1,0,0:0:0:0:
329,192,85621,1,0,0:0:0:0:
182,192,85783,1,0,0:0:0:0:
329,192,85783,1,0,0:0:0:0:
182,192,85945,1,0,0:0:0:0:
329,192,85945,1,0,0:0:0:0:
329,192,86107,128,0,86918:0:0:0:0:
182,192,86107,128,0,86918:0:0:0:0:
256,192,86594,128,0,86918:0:0:0:0:
36,192,86918,128,0,87080:0:0:0:0:
109,192,86918,1,0,0:0:0:0:
402,192,86918,1,0,0:0:0:0:
475,192,86918,1,0,0:0:0:0:
256,192,87080,1,0,0:0:0:0:
329,192,87242,128,0,87405:0:0:0:0:
182,192,87242,1,0,0:0:0:0:
36,192,87242,1,0,0:0:0:0:
475,192,87242,1,0,0:0:0:0:
402,192,87405,1,0,0:0:0:0:
182,192,87567,128,0,87729:0:0:0:0:
109,192,87567,1,0,0:0:0:0:
329,192,87567,1,0,0:0:0:0:
475,192,87729,1,0,0:0:0:0:
329,192,87891,128,0,88053:0:0:0:0:
182,192,87891,1,0,0:0:0:0:
36,192,87891,1,0,0:0:0:0:
402,192,87891,1,0,0:0:0:0:
109,192,88053,1,0,0:0:0:0:
36,192,88215,128,0,88378:0:0:0:0:
256,192,88215,1,0,0:0:0:0:
402,192,88215,1,0,0:0:0:0:
182,192,88378,1,0,0:0:0:0:
329,192,88540,128,0,88702:0:0:0:0:
109,192,88540,1,0,0:0:0:0:
256,192,88540,1,0,0:0:0:0:
475,192,88540,1,0,0:0:0:0:
36,192,88702,1,0,0:0:0:0:
182,192,88864,128,0,89026:0:0:0:0:
256,192,88864,1,0,0:0:0:0:
402,192,88864,1,0,0:0:0:0:
109,192,89026,1,0,0:0:0:0:
329,192,89188,128,0,89351:0:0:0:0:
182,192,89188,1,0,0:0:0:0:
475,192,89188,1,0,0:0:0:0:
36,192,89188,1,0,0:0:0:0:
109,192,89351,1,0,0:0:0:0:
36,192,89513,128,0,89675:0:0:0:0:
256,192,89513,1,0,0:0:0:0:
402,192,89513,1,0,0:0:0:0:
182,192,89675,1,0,0:0:0:0:
329,192,89837,128,0,89999:0:0:0:0:
109,192,89837,1,0,0:0:0:0:
256,192,89837,1,0,0:0:0:0:
475,192,89837,1,0,0:0:0:0:
402,192,89999,1,0,0:0:0:0:
182,192,90161,128,0,90324:0:0:0:0:
36,192,90161,1,0,0:0:0:0:
329,192,90161,1,0,0:0:0:0:
402,192,90324,1,0,0:0:0:0:
329,192,90486,128,0,90648:0:0:0:0:
109,192,90486,1,0,0:0:0:0:
256,192,90486,1,0,0:0:0:0:
475,192,90486,1,0,0:0:0:0:
182,192,90648,1,0,0:0:0:0:
475,192,90810,128,0,90972:0:0:0:0:
36,192,90810,1,0,0:0:0:0:
256,192,90810,1,0,0:0:0:0:
109,192,90972,1,0,0:0:0:0:
329,192,91134,128,0,91296:0:0:0:0:
182,192,91134,1,0,0:0:0:0:
36,192,91134,1,0,0:0:0:0:
402,192,91134,1,0,0:0:0:0:
109,192,91296,1,0,0:0:0:0:
256,192,91459,128,0,91621:0:0:0:0:
402,192,91459,1,0,0:0:0:0:
182,192,91459,1,0,0:0:0:0:
475,192,91621,1,0,0:0:0:0:
182,192,91783,128,0,91945:0:0:0:0:
36,192,91783,1,0,0:0:0:0:
256,192,91783,1,0,0:0:0:0:
402,192,91783,1,0,0:0:0:0:
329,192,91945,1,0,0:0:0:0:
36,192,92107,128,0,92269:0:0:0:0:
256,192,92107,1,0,0:0:0:0:
402,192,92107,1,0,0:0:0:0:
109,192,92269,1,0,0:0:0:0:
329,192,92432,128,0,92594:0:0:0:0:
182,192,92432,1,0,0:0:0:0:
475,192,92432,1,0,0:0:0:0:
36,192,92432,1,0,0:0:0:0:
256,192,92594,1,0,0:0:0:0:
182,192,92756,128,0,92918:0:0:0:0:
402,192,92756,1,0,0:0:0:0:
109,192,92756,1,0,0:0:0:0:
256,192,92918,1,0,0:0:0:0:
329,192,93080,128,0,93242:0:0:0:0:
36,192,93080,1,0,0:0:0:0:
182,192,93080,1,0,0:0:0:0:
402,192,93080,1,0,0:0:0:0:
109,192,93242,1,0,0:0:0:0:
36,192,93405,128,0,93567:0:0:0:0:
256,192,93405,1,0,0:0:0:0:
475,192,93405,1,0,0:0:0:0:
402,192,93567,1,0,0:0:0:0:
329,192,93729,128,0,93891:0:0:0:0:
36,192,93729,1,0,0:0:0:0:
182,192,93729,1,0,0:0:0:0:
475,192,93729,1,0,0:0:0:0:
109,192,93891,1,0,0:0:0:0:
182,192,94053,128,0,94215:0:0:0:0:
256,192,94053,1,0,0:0:0:0:
402,192,94053,1,0,0:0:0:0:
36,192,94215,1,0,0:0:0:0:
329,192,94378,128,0,94540:0:0:0:0:
109,192,94378,1,0,0:0:0:0:
256,192,94378,1,0,0:0:0:0:
475,192,94378,1,0,0:0:0:0:
182,192,94540,1,0,0:0:0:0:
36,192,94702,128,0,94864:0:0:0:0:
475,192,94702,1,0,0:0:0:0:
329,192,94702,1,0,0:0:0:0:
109,192,94864,1,0,0:0:0:0:
329,192,95026,128,0,95188:0:0:0:0:
36,192,95026,1,0,0:0:0:0:
256,192,95026,1,0,0:0:0:0:
402,192,95026,1,0,0:0:0:0:
475,192,95188,1,0,0:0:0:0:
182,192,95351,128,0,95513:0:0:0:0:
109,192,95351,1,0,0:0:0:0:
402,192,95351,1,0,0:0:0:0:
256,192,95513,1,0,0:0:0:0:
329,192,95675,128,0,95837:0:0:0:0:
36,192,95675,1,0,0:0:0:0:
182,192,95675,1,0,0:0:0:0:
475,192,95675,1,0,0:0:0:0:
109,192,95837,1,0,0:0:0:0:
475,192,95999,128,0,96161:0:0:0:0:
256,192,95999,1,0,0:0:0:0:
402,192,95999,1,0,0:0:0:0:
36,192,96161,1,0,0:0:0:0:
182,192,96324,128,0,96486:0:0:0:0:
109,192,96324,1,0,0:0:0:0:
329,192,96324,1,0,0:0:0:0:
475,192,96324,1,0,0:0:0:0:
36,192,96486,1,0,0:0:0:0:
329,192,96648,128,0,96810:0:0:0:0:
182,192,96648,1,0,0:0:0:0:
402,192,96648,1,0,0:0:0:0:
256,192,96810,1,0,0:0:0:0:
475,192,96972,128,0,97134:0:0:0:0:
36,192,96972,1,0,0:0:0:0:
402,192,96972,1,0,0:0:0:0:
182,192,96972,1,0,0:0:0:0:
109,192,97134,1,0,0:0:0:0:
36,192,97296,128,0,97459:0:0:0:0:
329,192,97296,1,0,0:0:0:0:
182,192,97296,1,0,0:0:0:0:
475,192,97296,1,0,0:0:0:0:
402,192,97296,1,0,0:0:0:0:
109,192,97459,1,0,0:0:0:0:
329,192,97621,128,0,97783:0:0:0:0:
256,192,97621,1,0,0:0:0:0:
475,192,97621,1,0,0:0:0:0:
36,192,97621,1,0,0:0:0:0:
109,192,97783,1,0,0:0:0:0:
182,192,97945,128,0,98107:0:0:0:0:
256,192,97945,1,0,0:0:0:0:
402,192,97945,1,0,0:0:0:0:
36,192,98107,1,0,0:0:0:0:
329,192,98269,128,0,98432:0:0:0:0:
109,192,98269,1,0,0:0:0:0:
256,192,98269,1,0,0:0:0:0:
475,192,98269,1,0,0:0:0:0:
182,192,98432,1,0,0:0:0:0:
36,192,98594,128,0,98756:0:0:0:0:
402,192,98594,1,0,0:0:0:0:
256,192,98594,1,0,0:0:0:0:
109,192,98756,1,0,0:0:0:0:
329,192,98918,128,0,99080:0:0:0:0:
182,192,98918,1,0,0:0:0:0:
36,192,98918,1,0,0:0:0:0:
475,192,98918,1,0,0:0:0:0:
256,192,99080,1,0,0:0:0:0:
182,192,99242,128,0,99405:0:0:0:0:
109,192,99242,1,0,0:0:0:0:
402,192,99242,1,0,0:0:0:0:
475,192,99405,1,0,0:0:0:0:
329,192,99567,128,0,99729:0:0:0:0:
36,192,99567,1,0,0:0:0:0:
402,192,99567,1,0,0:0:0:0:
256,192,99567,1,0,0:0:0:0:
182,192,99729,1,0,0:0:0:0:
36,192,99891,128,0,100053:0:0:0:0:
109,192,99891,1,0,0:0:0:0:
256,192,99891,1,0,0:0:0:0:
402,192,100053,1,0,0:0:0:0:
329,192,100215,128,0,100378:0:0:0:0:
36,192,100215,1,0,0:0:0:0:
256,192,100215,1,0,0:0:0:0:
475,192,100215,1,0,0:0:0:0:
109,192,100378,1,0,0:0:0:0:
182,192,100540,128,0,100702:0:0:0:0:
402,192,100540,1,0,0:0:0:0:
36,192,100540,1,0,0:0:0:0:
256,192,100702,1,0,0:0:0:0:
329,192,100864,128,0,101026:0:0:0:0:
36,192,100864,1,0,0:0:0:0:
182,192,100864,1,0,0:0:0:0:
475,192,100864,1,0,0:0:0:0:
109,192,101026,1,0,0:0:0:0:
475,192,101188,128,0,101351:0:0:0:0:
256,192,101188,1,0,0:0:0:0:
36,192,101188,1,0,0:0:0:0:
402,192,101351,1,0,0:0:0:0:
329,192,101513,128,0,101675:0:0:0:0:
109,192,101513,1,0,0:0:0:0:
256,192,101513,1,0,0:0:0:0:
475,192,101513,1,0,0:0:0:0:
36,192,101675,1,0,0:0:0:0:
256,192,101837,128,0,101999:0:0:0:0:
182,192,101837,1,0,0:0:0:0:
402,192,101837,1,0,0:0:0:0:
475,192,101999,1,0,0:0:0:0:
182,192,102161,128,0,102324:0:0:0:0:
109,192,102161,1,0,0:0:0:0:
256,192,102161,1,0,0:0:0:0:
402,192,102161,1,0,0:0:0:0:
329,192,102324,1,0,0:0:0:0:
36,192,102486,128,0,102648:0:0:0:0:
109,192,102486,1,0,0:0:0:0:
402,192,102486,1,0,0:0:0:0:
256,192,102648,1,0,0:0:0:0:
329,192,102810,128,0,102972:0:0:0:0:
182,192,102810,1,0,0:0:0:0:
36,192,102810,1,0,0:0:0:0:
402,192,102810,1,0,0:0:0:0:
475,192,102972,1,0,0:0:0:0:
182,192,103134,128,0,103296:0:0:0:0:
109,192,103134,1,0,0:0:0:0:
402,192,103134,1,0,0:0:0:0:
256,192,103296,1,0,0:0:0:0:
329,192,103459,128,0,103621:0:0:0:0:
182,192,103459,1,0,0:0:0:0:
402,192,103459,1,0,0:0:0:0:
36,192,103459,1,0,0:0:0:0:
109,192,103621,1,0,0:0:0:0:
36,192,103783,128,0,103945:0:0:0:0:
475,192,103783,1,0,0:0:0:0:
256,192,103783,1,0,0:0:0:0:
402,192,103945,1,0,0:0:0:0:
329,192,104107,128,0,104269:0:0:0:0:
109,192,104107,1,0,0:0:0:0:
256,192,104107,1,0,0:0:0:0:
475,192,104107,1,0,0:0:0:0:
36,192,104269,1,0,0:0:0:0:
182,192,104432,128,0,104594:0:0:0:0:
329,192,104432,1,0,0:0:0:0:
475,192,104432,1,0,0:0:0:0:
402,192,104594,1,0,0:0:0:0:
329,192,104756,128,0,104918:0:0:0:0:
109,192,104756,1,0,0:0:0:0:
256,192,104756,1,0,0:0:0:0:
475,192,104756,1,0,0:0:0:0:
182,192,104918,1,0,0:0:0:0:
36,192,105080,128,0,105242:0:0:0:0:
109,192,105080,1,0,0:0:0:0:
256,192,105242,1,0,0:0:0:0:
329,192,105405,128,0,105567:0:0:0:0:
182,192,105405,1,0,0:0:0:0:
402,192,105405,1,0,0:0:0:0:
36,192,105405,1,0,0:0:0:0:
475,192,105567,1,0,0:0:0:0:
182,192,105729,128,0,105891:0:0:0:0:
109,192,105729,1,0,0:0:0:0:
256,192,105729,128,0,106378:0:0:0:0:
475,192,105729,1,0,0:0:0:0:
402,192,105891,1,0,0:0:0:0:
36,192,105891,1,0,0:0:0:0:
329,192,106053,128,0,106215:0:0:0:0:
182,192,106053,1,0,0:0:0:0:
109,192,106053,1,0,0:0:0:0:
475,192,106053,1,0,0:0:0:0:
36,192,106134,1,0,0:0:0:0:
402,192,106134,1,0,0:0:0:0:
109,192,106215,1,0,0:0:0:0:
475,192,106215,1,0,0:0:0:0:
36,192,106296,1,0,0:0:0:0:
402,192,106296,1,0,0:0:0:0:
182,192,106378,1,0,0:0:0:0:
109,192,106378,1,0,0:0:0:0:
329,192,106378,1,0,0:0:0:0:
475,192,106378,1,0,0:0:0:0:
36,192,106621,1,0,0:0:0:0:
182,192,106621,1,0,0:0:0:0:
329,192,106621,1,0,0:0:0:0:
402,192,106621,1,0,0:0:0:0:
182,192,106864,1,0,0:0:0:0:
109,192,106864,1,0,0:0:0:0:
329,192,106864,1,0,0:0:0:0:
402,192,106864,1,0,0:0:0:0:
109,192,107107,1,0,0:0:0:0:
36,192,107107,1,0,0:0:0:0:
402,192,107107,1,0,0:0:0:0:
475,192,107107,1,0,0:0:0:0:
182,192,107351,1,0,0:0:0:0:
36,192,107351,1,0,0:0:0:0:
329,192,107351,1,0,0:0:0:0:
475,192,107351,1,0,0:0:0:0:
402,192,107513,1,0,0:0:0:0:
329,192,107513,1,0,0:0:0:0:
182,192,107513,1,0,0:0:0:0:
109,192,107513,1,0,0:0:0:0:
475,192,107675,1,0,0:0:0:0:
182,192,107675,128,0,107756:0:0:0:0:
256,192,107675,1,0,0:0:0:0:
36,192,107675,1,0,0:0:0:0:
329,192,107675,1,0,0:0:0:0:
109,192,107756,1,0,0:0:0:0:
402,192,107756,128,0,107837:0:0:0:0:
329,192,107837,1,0,0:0:0:0:
36,192,107837,128,0,107918:0:0:0:0:
256,192,107837,1,0,0:0:0:0:
182,192,107918,1,0,0:0:0:0:
475,192,107918,128,0,107999:0:0:0:0:
402,192,107999,1,0,0:0:0:0:
109,192,107999,128,0,108080:0:0:0:0:
256,192,107999,1,0,0:0:0:0:
36,192,108080,1,0,0:0:0:0:
329,192,108080,128,0,108161:0:0:0:0:
475,192,108161,1,0,0:0:0:0:
182,192,108161,128,0,108242:0:0:0:0:
256,192,108161,1,0,0:0:0:0:
109,192,108242,1,0,0:0:0:0:
402,192,108242,128,0,108324:0:0:0:0:
329,192,108324,1,0,0:0:0:0:
36,192,108324,128,0,108405:0:0:0:0:
256,192,108324,1,0,0:0:0:0:
182,192,108405,1,0,0:0:0:0:
475,192,108405,128,0,108486:0:0:0:0:
402,192,108486,1,0,0:0:0:0:
109,192,108486,128,0,108567:0:0:0:0:
256,192,108486,1,0,0:0:0:0:
36,192,108567,1,0,0:0:0:0:
329,192,108567,128,0,108648:0:0:0:0:
182,192,108648,128,0,108810:0:0:0:0:
475,192,108648,128,0,108810:0:0:0:0:
256,192,108648,1,0,0:0:0:0:
402,192,108648,1,0,0:0:0:0:
329,192,108810,128,0,108972:0:0:0:0:
36,192,108810,128,0,108972:0:0:0:0:
109,192,108810,1,0,0:0:0:0:
475,192,108972,1,0,0:0:0:0:
109,192,108972,128,0,109053:0:0:0:0:
256,192,108972,1,0,0:0:0:0:
36,192,109053,1,0,0:0:0:0:
402,192,109053,128,0,109134:0:0:0:0:
329,192,109134,1,0,0:0:0:0:
182,192,109134,128,0,109215:0:0:0:0:
256,192,109134,1,0,0:0:0:0:
109,192,109215,1,0,0:0:0:0:
475,192,109215,128,0,109296:0:0:0:0:
402,192,109296,1,0,0:0:0:0:
36,192,109296,128,0,109378:0:0:0:0:
256,192,109296,1,0,0:0:0:0:
182,192,109378,1,0,0:0:0:0:
329,192,109378,128,0,109459:0:0:0:0:
475,192,109459,1,0,0:0:0:0:
109,192,109459,128,0,109540:0:0:0:0:
256,192,109459,1,0,0:0:0:0:
36,192,109540,1,0,0:0:0:0:
402,192,109540,128,0,109621:0:0:0:0:
329,192,109621,1,0,0:0:0:0:
182,192,109621,128,0,109702:0:0:0:0:
256,192,109621,1,0,0:0:0:0:
109,192,109702,1,0,0:0:0:0:
475,192,109702,128,0,109783:0:0:0:0:
402,192,109783,1,0,0:0:0:0:
36,192,109783,128,0,109864:0:0:0:0:
256,192,109783,1,0,0:0:0:0:
182,192,109864,1,0,0:0:0:0:
329,192,109864,128,0,109945:0:0:0:0:
475,192,109945,128,0,110107:0:0:0:0:
109,192,109945,128,0,110107:0:0:0:0:
256,192,109945,1,0,0:0:0:0:
402,192,109945,1,0,0:0:0:0:
329,192,110107,128,0,110269:0:0:0:0:
36,192,110107,128,0,110269:0:0:0:0:
182,192,110107,1,0,0:0:0:0:
182,192,110269,1,0,0:0:0:0:
402,192,110269,128,0,110351:0:0:0:0:
256,192,110269,1,0,0:0:0:0:
329,192,110351,1,0,0:0:0:0:
109,192,110351,128,0,110432:0:0:0:0:
36,192,110432,1,0,0:0:0:0:
475,192,110432,128,0,110513:0:0:0:0:
256,192,110432,1,0,0:0:0:0:
402,192,110513,1,0,0:0:0:0:
182,192,110513,128,0,110594:0:0:0:0:
109,192,110594,1,0,0:0:0:0:
329,192,110594,128,0,110675:0:0:0:0:
256,192,110594,1,0,0:0:0:0:
475,192,110675,1,0,0:0:0:0:
36,192,110675,128,0,110756:0:0:0:0:
182,192,110756,1,0,0:0:0:0:
402,192,110756,128,0,110837:0:0:0:0:
256,192,110756,1,0,0:0:0:0:
329,192,110837,1,0,0:0:0:0:
109,192,110837,128,0,110918:0:0:0:0:
36,192,110918,1,0,0:0:0:0:
475,192,110918,128,0,110999:0:0:0:0:
256,192,110918,1,0,0:0:0:0:
402,192,110999,1,0,0:0:0:0:
182,192,110999,128,0,111080:0:0:0:0:
109,192,111080,1,0,0:0:0:0:
329,192,111080,128,0,111161:0:0:0:0:
256,192,111080,1,0,0:0:0:0:
475,192,111161,1,0,0:0:0:0:
36,192,111161,128,0,111242:0:0:0:0:
182,192,111242,1,0,0:0:0:0:
402,192,111242,128,0,111324:0:0:0:0:
256,192,111242,1,0,0:0:0:0:
109,192,111242,1,0,0:0:0:0:
475,192,111324,1,0,0:0:0:0:
36,192,111324,128,0,111405:0:0:0:0:
182,192,111405,1,0,0:0:0:0:
402,192,111405,128,0,111486:0:0:0:0:
256,192,111405,1,0,0:0:0:0:
329,192,111486,1,0,0:0:0:0:
109,192,111486,128,0,111567:0:0:0:0:
182,192,111567,1,0,0:0:0:0:
402,192,111567,128,0,111648:0:0:0:0:
256,192,111567,1,0,0:0:0:0:
475,192,111648,1,0,0:0:0:0:
36,192,111648,128,0,111729:0:0:0:0:
109,192,111729,1,0,0:0:0:0:
329,192,111729,128,0,111810:0:0:0:0:
256,192,111729,1,0,0:0:0:0:
402,192,111810,1,0,0:0:0:0:
182,192,111810,128,0,111891:0:0:0:0:
36,192,111891,1,0,0:0:0:0:
475,192,111891,128,0,111972:0:0:0:0:
256,192,111891,1,0,0:0:0:0:
329,192,111972,1,0,0:0:0:0:
109,192,111972,128,0,112053:0:0:0:0:
182,192,112053,1,0,0:0:0:0:
402,192,112053,128,0,112134:0:0:0:0:
256,192,112053,1,0,0:0:0:0:
475,192,112134,1,0,0:0:0:0:
36,192,112134,128,0,112215:0:0:0:0:
109,192,112215,1,0,0:0:0:0:
329,192,112215,128,0,112296:0:0:0:0:
256,192,112215,1,0,0:0:0:0:
402,192,112296,1,0,0:0:0:0:
182,192,112296,128,0,112378:0:0:0:0:
36,192,112378,1,0,0:0:0:0:
475,192,112378,128,0,112459:0:0:0:0:
256,192,112378,1,0,0:0:0:0:
329,192,112459,1,0,0:0:0:0:
109,192,112459,128,0,112540:0:0:0:0:
182,192,112540,128,0,112702:0:0:0:0:
402,192,112540,128,0,112702:0:0:0:0:
256,192,112540,1,0,0:0:0:0:
36,192,112540,1,0,0:0:0:0:
36,192,112702,128,0,112864:0:0:0:0:
475,192,112702,128,0,112864:0:0:0:0:
109,192,112702,1,0,0:0:0:0:
329,192,112864,1,0,0:0:0:0:
109,192,112864,128,0,112945:0:0:0:0:
182,192,112864,1,0,0:0:0:0:
36,192,112945,1,0,0:0:0:0:
256,192,112945,128,0,113026:0:0:0:0:
329,192,113026,1,0,0:0:0:0:
109,192,113026,128,0,113107:0:0:0:0:
475,192,113026,1,0,0:0:0:0:
182,192,113107,1,0,0:0:0:0:
402,192,113107,128,0,113188:0:0:0:0:
329,192,113188,1,0,0:0:0:0:
256,192,113188,128,0,113269:0:0:0:0:
36,192,113188,1,0,0:0:0:0:
109,192,113188,1,0,0:0:0:0:
182,192,113269,1,0,0:0:0:0:
402,192,113269,128,0,113351:0:0:0:0:
475,192,113351,1,0,0:0:0:0:
109,192,113351,128,0,113432:0:0:0:0:
36,192,113351,1,0,0:0:0:0:
182,192,113432,1,0,0:0:0:0:
402,192,113432,128,0,113513:0:0:0:0:
475,192,113513,1,0,0:0:0:0:
109,192,113513,128,0,113594:0:0:0:0:
256,192,113513,1,0,0:0:0:0:
36,192,113594,1,0,0:0:0:0:
402,192,113594,128,0,113675:0:0:0:0:
329,192,113675,1,0,0:0:0:0:
109,192,113675,128,0,113756:0:0:0:0:
182,192,113675,1,0,0:0:0:0:
36,192,113756,1,0,0:0:0:0:
402,192,113756,128,0,113837:0:0:0:0:
109,192,113837,128,0,113999:0:0:0:0:
329,192,113837,128,0,113999:0:0:0:0:
256,192,113837,1,0,0:0:0:0:
475,192,113837,1,0,0:0:0:0:
182,192,113999,128,0,114161:0:0:0:0:
402,192,113999,128,0,114161:0:0:0:0:
36,192,113999,1,0,0:0:0:0:
36,192,114161,1,0,0:0:0:0:
329,192,114161,128,0,114242:0:0:0:0:
256,192,114161,1,0,0:0:0:0:
402,192,114242,1,0,0:0:0:0:
109,192,114242,128,0,114324:0:0:0:0:
36,192,114324,1,0,0:0:0:0:
329,192,114324,128,0,114405:0:0:0:0:
475,192,114324,1,0,0:0:0:0:
256,192,114405,1,0,0:0:0:0:
109,192,114405,128,0,114486:0:0:0:0:
182,192,114486,1,0,0:0:0:0:
329,192,114486,128,0,114567:0:0:0:0:
402,192,114486,1,0,0:0:0:0:
36,192,114486,1,0,0:0:0:0:
256,192,114567,1,0,0:0:0:0:
109,192,114567,128,0,114648:0:0:0:0:
36,192,114648,1,0,0:0:0:0:
329,192,114648,128,0,114729:0:0:0:0:
475,192,114648,1,0,0:0:0:0:
402,192,114729,1,0,0:0:0:0:
109,192,114729,128,0,114810:0:0:0:0:
36,192,114810,1,0,0:0:0:0:
329,192,114810,128,0,114891:0:0:0:0:
256,192,114810,1,0,0:0:0:0:
402,192,114891,1,0,0:0:0:0:
109,192,114891,128,0,114972:0:0:0:0:
182,192,114972,1,0,0:0:0:0:
475,192,114972,128,0,115053:0:0:0:0:
329,192,114972,1,0,0:0:0:0:
402,192,115053,1,0,0:0:0:0:
109,192,115053,128,0,115134:0:0:0:0:
36,192,115134,128,0,115296:0:0:0:0:
329,192,115134,128,0,115296:0:0:0:0:
256,192,115134,1,0,0:0:0:0:
475,192,115134,1,0,0:0:0:0:
182,192,115296,128,0,115459:0:0:0:0:
475,192,115296,128,0,115459:0:0:0:0:
109,192,115296,1,0,0:0:0:0:
329,192,115459,1,0,0:0:0:0:
36,192,115459,128,0,115540:0:0:0:0:
256,192,115459,1,0,0:0:0:0:
109,192,115540,1,0,0:0:0:0:
402,192,115540,128,0,115621:0:0:0:0:
329,192,115621,1,0,0:0:0:0:
36,192,115621,128,0,115702:0:0:0:0:
475,192,115621,1,0,0:0:0:0:
109,192,115702,1,0,0:0:0:0:
402,192,115702,128,0,115783:0:0:0:0:
475,192,115783,1,0,0:0:0:0:
182,192,115783,128,0,115864:0:0:0:0:
256,192,115783,1,0,0:0:0:0:
36,192,115783,1,0,0:0:0:0:
109,192,115864,1,0,0:0:0:0:
402,192,115864,128,0,115945:0:0:0:0:
329,192,115945,1,0,0:0:0:0:
182,192,115945,128,0,116026:0:0:0:0:
475,192,115945,1,0,0:0:0:0:
256,192,116026,1,0,0:0:0:0:
402,192,116026,128,0,116107:0:0:0:0:
329,192,116107,1,0,0:0:0:0:
182,192,116107,128,0,116188:0:0:0:0:
36,192,116107,1,0,0:0:0:0:
109,192,116188,1,0,0:0:0:0:
402,192,116188,128,0,116269:0:0:0:0:
475,192,116269,1,0,0:0:0:0:
36,192,116269,128,0,116351:0:0:0:0:
256,192,116269,1,0,0:0:0:0:
109,192,116351,1,0,0:0:0:0:
402,192,116351,128,0,116432:0:0:0:0:
329,192,116432,1,0,0:0:0:0:
182,192,116432,128,0,116513:0:0:0:0:
475,192,116432,1,0,0:0:0:0:
256,192,116432,1,0,0:0:0:0:
36,192,116513,1,0,0:0:0:0:
475,192,116513,128,0,116594:0:0:0:0:
329,192,116594,1,0,0:0:0:0:
182,192,116594,128,0,116675:0:0:0:0:
256,192,116594,1,0,0:0:0:0:
109,192,116675,1,0,0:0:0:0:
402,192,116675,128,0,116756:0:0:0:0:
475,192,116756,1,0,0:0:0:0:
36,192,116756,128,0,116837:0:0:0:0:
329,192,116756,1,0,0:0:0:0:
109,192,116837,1,0,0:0:0:0:
402,192,116837,128,0,116918:0:0:0:0:
475,192,116918,1,0,0:0:0:0:
36,192,116918,128,0,116999:0:0:0:0:
182,192,116918,1,0,0:0:0:0:
109,192,116999,1,0,0:0:0:0:
402,192,116999,128,0,117080:0:0:0:0:
329,192,117080,1,0,0:0:0:0:
36,192,117080,128,0,117161:0:0:0:0:
256,192,117080,1,0,0:0:0:0:
475,192,117080,1,0,0:0:0:0:
109,192,117161,1,0,0:0:0:0:
402,192,117161,128,0,117242:0:0:0:0:
329,192,117242,1,0,0:0:0:0:
182,192,117242,128,0,117324:0:0:0:0:
475,192,117242,1,0,0:0:0:0:
109,192,117324,1,0,0:0:0:0:
256,192,117324,128,0,117405:0:0:0:0:
329,192,117405,1,0,0:0:0:0:
182,192,117405,128,0,117486:0:0:0:0:
36,192,117405,1,0,0:0:0:0:
256,192,117486,1,0,0:0:0:0:
402,192,117486,128,0,117567:0:0:0:0:
475,192,117567,1,0,0:0:0:0:
182,192,117567,128,0,117648:0:0:0:0:
109,192,117567,1,0,0:0:0:0:
256,192,117648,1,0,0:0:0:0:
402,192,117648,128,0,117729:0:0:0:0:
329,192,117729,1,0,0:0:0:0:
182,192,117729,128,0,117810:0:0:0:0:
36,192,117729,1,0,0:0:0:0:
475,192,117729,1,0,0:0:0:0:
109,192,117810,1,0,0:0:0:0:
402,192,117810,128,0,117891:0:0:0:0:
329,192,117891,1,0,0:0:0:0:
182,192,117891,128,0,117972:0:0:0:0:
475,192,117891,1,0,0:0:0:0:
109,192,117972,1,0,0:0:0:0:
256,192,117972,128,0,118053:0:0:0:0:
329,192,118053,1,0,0:0:0:0:
36,192,118053,128,0,118134:0:0:0:0:
475,192,118053,1,0,0:0:0:0:
182,192,118053,1,0,0:0:0:0:
402,192,118053,1,0,0:0:0:0:
109,192,118134,1,0,0:0:0:0:
402,192,118134,128,0,118215:0:0:0:0:
475,192,118215,1,0,0:0:0:0:
182,192,118215,128,0,118296:0:0:0:0:
256,192,118215,1,0,0:0:0:0:
109,192,118296,1,0,0:0:0:0:
402,192,118296,128,0,118378:0:0:0:0:
329,192,118378,1,0,0:0:0:0:
36,192,118378,128,0,118459:0:0:0:0:
256,192,118378,1,0,0:0:0:0:
182,192,118459,1,0,0:0:0:0:
475,192,118459,128,0,118540:0:0:0:0:
402,192,118540,1,0,0:0:0:0:
109,192,118540,128,0,118621:0:0:0:0:
256,192,118540,1,0,0:0:0:0:
182,192,118621,1,0,0:0:0:0:
475,192,118621,128,0,118702:0:0:0:0:
329,192,118702,1,0,0:0:0:0:
36,192,118702,128,0,118783:0:0:0:0:
256,192,118702,1,0,0:0:0:0:
109,192,118783,1,0,0:0:0:0:
402,192,118783,128,0,118864:0:0:0:0:
329,192,118864,1,0,0:0:0:0:
36,192,118864,128,0,118945:0:0:0:0:
256,192,118864,1,0,0:0:0:0:
182,192,118945,1,0,0:0:0:0:
475,192,118945,128,0,119026:0:0:0:0:
402,192,119026,128,0,119188:0:0:0:0:
109,192,119026,128,0,119188:0:0:0:0:
256,192,119026,1,0,0:0:0:0:
36,192,119026,1,0,0:0:0:0:
182,192,119188,128,0,119351:0:0:0:0:
475,192,119188,128,0,119351:0:0:0:0:
329,192,119188,1,0,0:0:0:0:
36,192,119351,1,0,0:0:0:0:
329,192,119351,128,0,119432:0:0:0:0:
256,192,119351,1,0,0:0:0:0:
402,192,119432,1,0,0:0:0:0:
109,192,119432,128,0,119513:0:0:0:0:
182,192,119513,1,0,0:0:0:0:
475,192,119513,128,0,119594:0:0:0:0:
256,192,119513,1,0,0:0:0:0:
402,192,119594,1,0,0:0:0:0:
109,192,119594,128,0,119675:0:0:0:0:
36,192,119675,1,0,0:0:0:0:
329,192,119675,128,0,119756:0:0:0:0:
256,192,119675,1,0,0:0:0:0:
475,192,119756,1,0,0:0:0:0:
182,192,119756,128,0,119837:0:0:0:0:
36,192,119837,1,0,0:0:0:0:
329,192,119837,128,0,119918:0:0:0:0:
256,192,119837,1,0,0:0:0:0:
402,192,119918,1,0,0:0:0:0:
109,192,119918,128,0,119999:0:0:0:0:
36,192,119999,1,0,0:0:0:0:
329,192,119999,128,0,120080:0:0:0:0:
256,192,119999,1,0,0:0:0:0:
475,192,120080,1,0,0:0:0:0:
182,192,120080,128,0,120161:0:0:0:0:
109,192,120161,1,0,0:0:0:0:
402,192,120161,128,0,120242:0:0:0:0:
256,192,120161,1,0,0:0:0:0:
475,192,120242,1,0,0:0:0:0:
182,192,120242,128,0,120324:0:0:0:0:
36,192,120324,128,0,120486:0:0:0:0:
329,192,120324,128,0,120486:0:0:0:0:
256,192,120324,1,0,0:0:0:0:
402,192,120324,1,0,0:0:0:0:
182,192,120486,128,0,120648:0:0:0:0:
475,192,120486,128,0,120648:0:0:0:0:
109,192,120486,1,0,0:0:0:0:
256,192,120648,1,0,0:0:0:0:
109,192,120648,128,0,120729:0:0:0:0:
402,192,120648,1,0,0:0:0:0:
36,192,120729,1,0,0:0:0:0:
329,192,120729,128,0,120810:0:0:0:0:
256,192,120810,1,0,0:0:0:0:
109,192,120810,128,0,120891:0:0:0:0:
475,192,120810,1,0,0:0:0:0:
182,192,120891,1,0,0:0:0:0:
329,192,120891,128,0,120972:0:0:0:0:
402,192,120972,1,0,0:0:0:0:
256,192,120972,128,0,121053:0:0:0:0:
36,192,120972,1,0,0:0:0:0:
109,192,120972,1,0,0:0:0:0:
182,192,121053,1,0,0:0:0:0:
329,192,121053,128,0,121134:0:0:0:0:
402,192,121134,1,0,0:0:0:0:
109,192,121134,128,0,121215:0:0:0:0:
256,192,121134,1,0,0:0:0:0:
36,192,121215,1,0,0:0:0:0:
475,192,121215,128,0,121296:0:0:0:0:
402,192,121296,1,0,0:0:0:0:
109,192,121296,128,0,121378:0:0:0:0:
256,192,121296,1,0,0:0:0:0:
182,192,121378,1,0,0:0:0:0:
329,192,121378,128,0,121459:0:0:0:0:
256,192,121459,1,0,0:0:0:0:
109,192,121459,128,0,121540:0:0:0:0:
36,192,121459,1,0,0:0:0:0:
182,192,121540,1,0,0:0:0:0:
329,192,121540,128,0,121621:0:0:0:0:
256,192,121621,128,0,121783:0:0:0:0:
402,192,121621,128,0,121783:0:0:0:0:
36,192,121621,1,0,0:0:0:0:
475,192,121621,1,0,0:0:0:0:
182,192,121783,128,0,121945:0:0:0:0:
475,192,121783,128,0,121945:0:0:0:0:
329,192,121783,1,0,0:0:0:0:
109,192,121945,1,0,0:0:0:0:
329,192,121945,128,0,122026:0:0:0:0:
402,192,121945,1,0,0:0:0:0:
256,192,122026,1,0,0:0:0:0:
36,192,122026,128,0,122107:0:0:0:0:
109,192,122107,1,0,0:0:0:0:
329,192,122107,128,0,122188:0:0:0:0:
475,192,122107,1,0,0:0:0:0:
402,192,122188,1,0,0:0:0:0:
182,192,122188,128,0,122269:0:0:0:0:
109,192,122269,1,0,0:0:0:0:
475,192,122269,128,0,122351:0:0:0:0:
36,192,122269,1,0,0:0:0:0:
256,192,122269,1,0,0:0:0:0:
402,192,122351,1,0,0:0:0:0:
182,192,122351,128,0,122432:0:0:0:0:
109,192,122432,1,0,0:0:0:0:
329,192,122432,128,0,122513:0:0:0:0:
475,192,122432,1,0,0:0:0:0:
256,192,122513,1,0,0:0:0:0:
36,192,122513,128,0,122594:0:0:0:0:
109,192,122594,1,0,0:0:0:0:
329,192,122594,128,0,122675:0:0:0:0:
402,192,122594,1,0,0:0:0:0:
256,192,122675,1,0,0:0:0:0:
182,192,122675,128,0,122756:0:0:0:0:
109,192,122756,1,0,0:0:0:0:
329,192,122756,128,0,122837:0:0:0:0:
475,192,122756,1,0,0:0:0:0:
256,192,122837,1,0,0:0:0:0:
182,192,122837,128,0,122918:0:0:0:0:
109,192,122918,1,0,0:0:0:0:
329,192,122918,128,0,122999:0:0:0:0:
475,192,122918,1,0,0:0:0:0:
402,192,122999,1,0,0:0:0:0:
36,192,122999,128,0,123080:0:0:0:0:
109,192,123080,1,0,0:0:0:0:
329,192,123080,128,0,123161:0:0:0:0:
256,192,123080,1,0,0:0:0:0:
402,192,123161,1,0,0:0:0:0:
182,192,123161,128,0,123242:0:0:0:0:
256,192,123242,1,0,0:0:0:0:
475,192,123242,128,0,123324:0:0:0:0:
36,192,123242,1,0,0:0:0:0:
402,192,123324,1,0,0:0:0:0:
182,192,123324,128,0,123405:0:0:0:0:
109,192,123405,1,0,0:0:0:0:
329,192,123405,128,0,123486:0:0:0:0:
256,192,123405,1,0,0:0:0:0:
402,192,123486,1,0,0:0:0:0:
36,192,123486,128,0,123567:0:0:0:0:
109,192,123567,1,0,0:0:0:0:
329,192,123567,128,0,123648:0:0:0:0:
256,192,123567,1,0,0:0:0:0:
475,192,123567,1,0,0:0:0:0:
402,192,123648,1,0,0:0:0:0:
182,192,123648,128,0,123729:0:0:0:0:
109,192,123729,1,0,0:0:0:0:
329,192,123729,128,0,123810:0:0:0:0:
256,192,123729,1,0,0:0:0:0:
402,192,123810,1,0,0:0:0:0:
182,192,123810,128,0,123891:0:0:0:0:
109,192,123891,1,0,0:0:0:0:
475,192,123891,128,0,123972:0:0:0:0:
329,192,123891,1,0,0:0:0:0:
402,192,123972,1,0,0:0:0:0:
36,192,123972,128,0,124053:0:0:0:0:
109,192,124053,1,0,0:0:0:0:
475,192,124053,128,0,124134:0:0:0:0:
256,192,124053,1,0,0:0:0:0:
402,192,124134,1,0,0:0:0:0:
182,192,124134,128,0,124215:0:0:0:0:
256,192,124215,128,0,124378:0:0:0:0:
329,192,124215,128,0,124378:0:0:0:0:
36,192,124215,1,0,0:0:0:0:
475,192,124215,1,0,0:0:0:0:
182,192,124378,128,0,124540:0:0:0:0:
402,192,124378,128,0,124540:0:0:0:0:
109,192,124378,1,0,0:0:0:0:
475,192,124540,1,0,0:0:0:0:
109,192,124540,128,0,124621:0:0:0:0:
256,192,124540,1,0,0:0:0:0:
182,192,124621,1,0,0:0:0:0:
402,192,124621,128,0,124702:0:0:0:0:
475,192,124702,1,0,0:0:0:0:
109,192,124702,128,0,124783:0:0:0:0:
329,192,124702,1,0,0:0:0:0:
36,192,124783,1,0,0:0:0:0:
402,192,124783,128,0,124864:0:0:0:0:
329,192,124864,1,0,0:0:0:0:
109,192,124864,128,0,124945:0:0:0:0:
256,192,124864,1,0,0:0:0:0:
475,192,124864,1,0,0:0:0:0:
36,192,124945,1,0,0:0:0:0:
402,192,124945,128,0,125026:0:0:0:0:
329,192,125026,1,0,0:0:0:0:
109,192,125026,128,0,125107:0:0:0:0:
475,192,125026,1,0,0:0:0:0:
182,192,125107,1,0,0:0:0:0:
256,192,125107,128,0,125188:0:0:0:0:
329,192,125188,1,0,0:0:0:0:
109,192,125188,128,0,125269:0:0:0:0:
36,192,125188,1,0,0:0:0:0:
182,192,125269,1,0,0:0:0:0:
402,192,125269,128,0,125351:0:0:0:0:
475,192,125351,1,0,0:0:0:0:
256,192,125351,128,0,125432:0:0:0:0:
329,192,125351,1,0,0:0:0:0:
182,192,125432,1,0,0:0:0:0:
402,192,125432,128,0,125513:0:0:0:0:
109,192,125513,128,0,125675:0:0:0:0:
329,192,125513,128,0,125675:0:0:0:0:
36,192,125513,1,0,0:0:0:0:
475,192,125513,1,0,0:0:0:0:
402,192,125675,128,0,125837:0:0:0:0:
36,192,125675,128,0,125837:0:0:0:0:
256,192,125675,1,0,0:0:0:0:
182,192,125837,1,0,0:0:0:0:
475,192,125837,128,0,125918:0:0:0:0:
329,192,125837,1,0,0:0:0:0:
402,192,125918,1,0,0:0:0:0:
109,192,125918,128,0,125999:0:0:0:0:
36,192,125999,1,0,0:0:0:0:
329,192,125999,128,0,126080:0:0:0:0:
182,192,125999,1,0,0:0:0:0:
256,192,126080,1,0,0:0:0:0:
475,192,126080,128,0,126161:0:0:0:0:
402,192,126161,1,0,0:0:0:0:
182,192,126161,128,0,126242:0:0:0:0:
36,192,126161,1,0,0:0:0:0:
109,192,126242,1,0,0:0:0:0:
329,192,126242,128,0,126324:0:0:0:0:
402,192,126324,1,0,0:0:0:0:
182,192,126324,128,0,126405:0:0:0:0:
256,192,126324,1,0,0:0:0:0:
36,192,126405,1,0,0:0:0:0:
329,192,126405,128,0,126486:0:0:0:0:
402,192,126486,1,0,0:0:0:0:
109,192,126486,128,0,126567:0:0:0:0:
256,192,126486,1,0,0:0:0:0:
182,192,126567,1,0,0:0:0:0:
475,192,126567,128,0,126648:0:0:0:0:
256,192,126648,1,0,0:0:0:0:
36,192,126648,128,0,126729:0:0:0:0:
402,192,126648,1,0,0:0:0:0:
109,192,126729,1,0,0:0:0:0:
329,192,126729,128,0,126810:0:0:0:0:
36,192,126810,128,0,126972:0:0:0:0:
256,192,126810,128,0,126972:0:0:0:0:
182,192,126810,1,0,0:0:0:0:
402,192,126810,1,0,0:0:0:0:
182,192,126891,1,0,0:0:0:0:
402,192,126891,1,0,0:0:0:0:
182,192,126972,128,0,127134:0:0:0:0:
402,192,126972,128,0,127134:0:0:0:0:
109,192,126972,1,0,0:0:0:0:
329,192,126972,1,0,0:0:0:0:
329,192,127053,1,0,0:0:0:0:
109,192,127053,1,0,0:0:0:0:
109,192,127134,1,0,0:0:0:0:
256,192,127134,1,0,0:0:0:0:
475,192,127134,1,0,0:0:0:0:
329,192,127134,1,0,0:0:0:0:
36,192,127378,1,0,0:0:0:0:
182,192,127378,1,0,0:0:0:0:
256,192,127378,1,0,0:0:0:0:
402,192,127378,1,0,0:0:0:0:
109,192,127621,1,0,0:0:0:0:
182,192,127621,1,0,0:0:0:0:
256,192,127621,1,0,0:0:0:0:
475,192,127621,1,0,0:0:0:0:
256,192,127864,1,0,0:0:0:0:
329,192,127864,1,0,0:0:0:0:
402,192,127864,1,0,0:0:0:0:
36,192,127864,1,0,0:0:0:0:
109,192,128107,1,0,0:0:0:0:
182,192,128107,1,0,0:0:0:0:
329,192,128107,1,0,0:0:0:0:
402,192,128107,1,0,0:0:0:0:
329,192,128269,1,0,0:0:0:0:
182,192,128269,1,0,0:0:0:0:
36,192,128269,1,0,0:0:0:0:
475,192,128269,1,0,0:0:0:0:
109,192,128432,1,0,0:0:0:0:
256,192,128432,1,0,0:0:0:0:
402,192,128432,1,0,0:0:0:0:
