osu file format v14

[General]
AudioFilename: t+pazolite ft. RIZNA - interlude - teatime.mp3
AudioLeadIn: 0
PreviewTime: 289
Countdown: 0
SampleSet: Soft
StackLeniency: 0.7
Mode: 0
LetterboxInBreaks: 0
WidescreenStoryboard: 0

[Editor]
DistanceSpacing: 1.4
BeatDivisor: 4
GridSize: 4
TimelineZoom: 1

[Metadata]
Title:Interlude - teatime
TitleUnicode:Interlude - teatime
Artist:t+pazolite feat. Rizna
ArtistUnicode:t+pazolite feat. リズナ
Creator:Marianna
Version:Pink Tea
Source:東方Project
Tags:honey scream C.H.S C78 2010 touhou 東方紅魔郷 the embodiment of scarlet devil 上海紅茶館 chinese tea shanghai teahouse 紅 美鈴 hong meiling 東方ヴォーカルアレンジ
BeatmapID:858757
BeatmapSetID:394426

[Difficulty]
HPDrainRate:6
CircleSize:4.5
OverallDifficulty:5.5
ApproachRate:5.5
SliderMultiplier:1.20000000596046
SliderTickRate:1

[Events]
//Background and Video events
0,0,"anime_girl_art_umbrella_flowers_pink_98729_1600x900.jpg",0,0
//Break Periods
//Storyboard Layer 0 (Background)
//Storyboard Layer 1 (Fail)
//Storyboard Layer 2 (Pass)
//Storyboard Layer 3 (Foreground)
//Storyboard Sound Samples

[TimingPoints]
289,600,4,2,1,40,1,0
49489,-100,4,2,1,35,0,0
50089,-100,4,2,1,32,0,0
50689,-100,4,2,1,30,0,0
51289,-100,4,2,1,28,0,0
51889,-100,4,2,1,25,0,0
52489,-100,4,2,1,22,0,0
53089,-100,4,2,1,20,0,0
53689,-100,4,2,1,17,0,0
54289,-100,4,2,1,14,0,0
54889,-100,4,2,1,11,0,0
55489,-100,4,2,1,5,0,0

[Colours]
Combo1 : 198,255,255
Combo2 : 255,206,231
Combo3 : 255,128,191
Combo4 : 225,225,255

[HitObjects]
112,152,289,6,0,P|108:184|116:220,2,60.000000298023,4|0|0,0:0|0:0|0:0,0:0:0:0:
160,100,1189,1,0,0:0:0:0:
220,64,1489,2,0,L|316:60,2,90.0000004470345,2|0|0,0:0|0:0|0:0,0:0:0:0:
160,100,2689,6,0,P|128:92|100:72,2,60.000000298023,8|0|2,0:0|0:0|0:0,0:0:0:0:
224,136,3589,2,0,P|252:184|232:252,1,120.000000596046,0|0,0:0|0:0,0:0:0:0:
204,308,4489,2,0,L|264:316,1,60.000000298023,2|0,0:0|0:0,0:0:0:0:
308,260,5089,5,4,0:0:0:0:
368,300,5389,1,0,0:0:0:0:
428,340,5689,2,0,P|460:328|480:304,1,60.000000298023,0|0,0:0|0:0,0:0:0:0:
460,240,6289,2,0,L|420:144,2,90.0000004470345,2|0|0,0:0|0:0|0:0,0:0:0:0:
477,309,7489,5,8,0:0:0:0:
416,344,7789,1,0,0:0:0:0:
356,308,8089,2,0,L|284:300,1,60.000000298023,2|0,0:0|0:0,0:0:0:0:
236,264,8689,2,0,L|164:256,1,60.000000298023,0|0,0:0|0:0,0:0:0:0:
112,228,9289,2,0,P|108:192|112:160,1,60.000000298023,2|0,0:0|0:0,0:0:0:0:
152,112,9889,6,0,B|196:108|196:108|228:120|228:120|272:116,1,120.000000596046,4|0,0:0|0:0,0:0:0:0:
340,108,10789,1,0,0:0:0:0:
396,152,11089,2,0,P|412:192|396:252,2,90.0000004470345,2|0|0,0:0|0:0|0:0,0:0:0:0:
340,108,12289,6,0,L|332:40,1,60.000000298023,8|0,0:0|0:0,0:0:0:0:
262,56,12889,2,0,L|269:115,1,60.000000298023,0|0,0:0|0:0,0:0:0:0:
204,148,13489,2,0,P|160:168|100:152,2,90.0000004470345,2|0|0,0:0|0:0|0:0,0:0:0:0:
260,196,14689,6,0,P|256:232|268:272,1,60.000000298023,8|0,0:0|0:0,0:0:0:0:
384,332,15589,1,0,0:0:0:0:
384,332,15739,1,0,0:0:0:0:
384,332,15889,2,0,P|344:328|288:344,2,90.0000004470345,2|0|0,0:0|0:0|0:0,0:0:0:0:
452,308,17089,6,0,L|456:240,1,60.000000298023,8|0,0:0|0:0,0:0:0:0:
404,196,17689,2,0,L|408:128,1,60.000000298023,0|0,0:0|0:0,0:0:0:0:
356,84,18289,2,0,P|328:72|296:76,1,60.000000298023,2|0,0:0|0:0,0:0:0:0:
260,136,18889,2,0,P|288:148|320:144,1,60.000000298023,0|0,0:0|0:0,0:0:0:0:
356,84,19489,5,4,0:0:0:0:
348,300,20389,1,0,0:0:0:0:
284,268,20689,2,0,L|184:280,2,90.0000004470345,2|0|0,0:0|0:0|0:0,0:0:0:0:
348,300,21889,6,0,P|376:276|408:264,1,60.000000298023,8|0,0:0|0:0,0:0:0:0:
408,196,22489,2,0,P|356:176|340:160,1,60.000000298023,0|0,0:0|0:0,0:0:0:0:
304,120,23089,2,0,L|240:112,1,60.000000298023,2|0,0:0|0:0,0:0:0:0:
172,112,23689,2,0,P|180:80|200:56,1,60.000000298023,0|0,0:0|0:0,0:0:0:0:
244,112,24289,6,0,B|260:172|220:172|236:228,1,120.000000596046,4|0,0:0|0:0,0:0:0:0:
288,280,25189,1,0,0:0:0:0:
336,224,25489,2,0,L|432:216,2,90.0000004470345,2|0|0,0:0|0:0|0:0,0:0:0:0:
288,280,26689,6,0,L|288:344,1,60.000000298023,8|0,0:0|0:0,0:0:0:0:
220,364,27289,2,0,L|220:304,1,60.000000298023
156,272,27889,2,0,P|116:264|88:272,1,60.000000298023,2|0,0:0|0:0,0:0:0:0:
60,208,28489,2,0,L|116:188,1,60.000000298023
184,164,29089,6,0,P|204:116|176:48,1,120.000000596046,4|0,0:0|0:0,0:0:0:0:
120,108,29989,1,0,0:0:0:0:
184,164,30289,2,0,L|280:168,2,90.0000004470345,2|0|0,0:0|0:0|0:0,0:0:0:0:
148,240,31489,6,0,L|140:304,1,60.000000298023,8|0,0:0|0:0,0:0:0:0:
216,336,32089,2,0,L|223:276,1,60.000000298023,0|0,0:0|0:0,0:0:0:0:
304,252,32689,2,0,P|348:240|400:272,2,90.0000004470345,2|0|0,0:0|0:0|0:0,0:0:0:0:
240,196,33889,6,0,P|228:164|228:128,1,60.000000298023,8|0,0:0|0:0,0:0:0:0:
380,68,34789,1,0,0:0:0:0:
380,68,34939,1,0,0:0:0:0:
380,68,35089,2,0,P|336:60|292:68,2,90.0000004470345,2|0|0,0:0|0:0|0:0,0:0:0:0:
400,148,36289,6,0,L|388:208,1,60.000000298023,8|0,0:0|0:0,0:0:0:0:
332,268,36889,2,0,L|320:328,1,60.000000298023,2|0,0:0|0:0,0:0:0:0:
236,332,37489,2,0,P|200:344|168:340,1,60.000000298023,0|0,0:0|0:0,0:0:0:0:
100,316,38089,2,0,P|72:296|56:268,1,60.000000298023,2|0,0:0|0:0,0:0:0:0:
48,192,38689,6,0,B|60:136|32:128|44:72,1,120.000000596046,4|0,0:0|0:0,0:0:0:0:
120,44,39589,1,0,0:0:0:0:
204,52,39889,2,0,L|304:56,2,90.0000004470345,2|0|0,0:0|0:0|0:0,0:0:0:0:
156,120,41089,6,0,L|144:184,1,60.000000298023,8|0,0:0|0:0,0:0:0:0:
180,256,41689,2,0,L|168:320,1,60.000000298023,2|0,0:0|0:0,0:0:0:0:
248,344,42289,2,0,P|288:352|324:344,1,60.000000298023,0|0,0:0|0:0,0:0:0:0:
376,304,42889,2,0,P|390:265|389:229,1,60.000000298023,2|0,0:0|0:0,0:0:0:0:
336,184,43489,6,0,P|324:120|344:64,1,120.000000596046,4|0,0:0|0:0,0:0:0:0:
268,32,44389,1,0,0:0:0:0:
192,68,44689,2,0,L|100:60,2,90.0000004470345,2|0|0,0:0|0:0|0:0,0:0:0:0:
244,136,45889,6,0,P|248:200|144:268,1,180.000000894069,8|0,0:0|0:0,0:0:0:0:
224,328,47089,2,0,L|288:336,1,60.000000298023
352,288,47689,2,0,L|416:296,1,60.000000298023,2|0,0:0|0:0,0:0:0:0:
464,228,48289,6,0,B|456:188|456:188|464:152|464:152|456:104,1,120.000000596046,4|0,0:0|0:0,0:0:0:0:
400,52,49189,1,0,0:0:0:0:
320,80,49489,2,0,P|268:88|228:72,2,90.0000004470345,2|0|0,0:0|0:0|0:0,0:0:0:0:
400,52,50689,5,8,0:0:0:0:
256,192,50989,12,0,55489,0:0:0:0:
