osu file format v14

[General]
AudioFilename: t+pazolite ft. RIZNA - interlude - teatime.mp3
AudioLeadIn: 0
PreviewTime: 289
Countdown: 0
SampleSet: Soft
StackLeniency: 0.7
Mode: 0
LetterboxInBreaks: 0
WidescreenStoryboard: 0

[Editor]
DistanceSpacing: 1.4
BeatDivisor: 4
GridSize: 4
TimelineZoom: 1

[Metadata]
Title:Interlude - teatime
TitleUnicode:Interlude - teatime
Artist:t+pazolite feat. Rizna
ArtistUnicode:t+pazolite feat. リズナ
Creator:Marianna
Version:Normal
Source:東方Project
Tags:honey scream C.H.S C78 2010 touhou 東方紅魔郷 the embodiment of scarlet devil 上海紅茶館 chinese tea shanghai teahouse 紅 美鈴 hong meiling 東方ヴォーカルアレンジ
BeatmapID:858448
BeatmapSetID:394426

[Difficulty]
HPDrainRate:4
CircleSize:4
OverallDifficulty:4
ApproachRate:5
SliderMultiplier:1.10000000596046
SliderTickRate:1

[Events]
//Background and Video events
0,0,"anime_girl_art_umbrella_flowers_pink_98729_1600x900.jpg",0,0
//Break Periods
//Storyboard Layer 0 (Background)
//Storyboard Layer 1 (Fail)
//Storyboard Layer 2 (Pass)
//Storyboard Layer 3 (Foreground)
//Storyboard Sound Samples

[TimingPoints]
289,600,4,2,1,40,1,0
49489,-100,4,2,1,35,0,0
50089,-100,4,2,1,32,0,0
50689,-100,4,2,1,30,0,0
51289,-100,4,2,1,28,0,0
51889,-100,4,2,1,25,0,0
52489,-100,4,2,1,22,0,0
53089,-100,4,2,1,20,0,0
53689,-100,4,2,1,17,0,0
54289,-100,4,2,1,14,0,0
54889,-100,4,2,1,11,0,0
55489,-100,4,2,1,5,0,0

[Colours]
Combo1 : 198,255,255
Combo2 : 255,206,231
Combo3 : 255,128,191
Combo4 : 225,225,255

[HitObjects]
136,80,289,6,0,P|120:136|144:192,1,110.000000596046,4|0,0:0|0:0,0:0:0:0:
196,132,1189,1,0,0:0:0:0:
268,160,1489,2,0,L|360:164,2,82.5000004470348,2|0|0,0:0|0:0|0:0,0:0:0:0:
296,88,2689,6,0,L|416:92,1,110.000000596046,8|2,0:0|0:0,0:0:0:0:
436,244,3889,2,0,L|326:240,1,110.000000596046,0|2,0:0|0:0,0:0:0:0:
256,272,4789,1,0,0:0:0:0:
184,296,5089,6,0,P|184:252|228:200,1,110.000000596046,4|0,0:0|0:0,0:0:0:0:
292,168,5989,1,0,0:0:0:0:
360,132,6289,2,0,L|356:44,2,82.5000004470348,2|0|0,0:0|0:0|0:0,0:0:0:0:
416,184,7489,6,0,L|424:312,1,110.000000596046,8|2,0:0|0:0,0:0:0:0:
276,344,8689,2,0,L|272:288,1,55.0000002980232,0|0,0:0|0:0,0:0:0:0:
220,232,9289,2,0,L|216:176,1,55.0000002980232,2|0,0:0|0:0,0:0:0:0:
248,108,9889,6,0,B|212:92|172:112|172:112|132:104,1,110.000000596046,4|0,0:0|0:0,0:0:0:0:
76,148,10789,1,0,0:0:0:0:
120,212,11089,2,0,P|128:256|116:304,2,82.5000004470348,2|0|0,0:0|0:0|0:0,0:0:0:0:
76,148,12289,6,0,P|64:120|64:92,2,55.000000298023,8|0|0,0:0|0:0|0:0,0:0:0:0:
141,105,13189,1,0,0:0:0:0:
204,148,13489,2,0,P|216:100|208:64,2,82.5000004470348,2|0|0,0:0|0:0|0:0,0:0:0:0:
256,204,14689,6,0,L|316:208,1,55.0000002980232,8|0,0:0|0:0,0:0:0:0:
420,316,15589,1,0,0:0:0:0:
344,300,15889,2,0,L|256:296,2,82.5000004470348,2|0|0,0:0|0:0|0:0,0:0:0:0:
384,232,17089,6,0,P|392:200|388:168,1,55.0000002980232,8|0,0:0|0:0,0:0:0:0:
356,108,17689,2,0,P|348:76|352:44,1,55.0000002980232,0|0,0:0|0:0,0:0:0:0:
272,40,18289,2,0,L|140:36,1,110.000000596046,2|0,0:0|0:0,0:0:0:0:
72,160,19489,6,0,P|60:204|92:264,1,110.000000596046,4|0,0:0|0:0,0:0:0:0:
136,200,20389,1,0,0:0:0:0:
204,232,20689,2,0,L|292:240,2,82.5000004470348,2|0|0,0:0|0:0|0:0,0:0:0:0:
220,156,21889,6,0,P|236:108|216:48,1,110.000000596046,8|0,0:0|0:0,0:0:0:0:
64,68,23089,2,0,L|9:61,2,55.0000002980232,2|0|0,0:0|0:0|0:0,0:0:0:0:
124,120,23989,1,0,0:0:0:0:
108,196,24289,6,0,P|100:244|140:300,1,110.000000596046,4|0,0:0|0:0,0:0:0:0:
176,232,25189,1,0,0:0:0:0:
240,276,25489,2,0,P|280:292|332:288,1,82.5000004470348,2|0,0:0|0:0,0:0:0:0:
424,244,26389,1,0,0:0:0:0:
484,196,26689,6,0,L|480:136,1,55.0000002980232,8|0,0:0|0:0,0:0:0:0:
404,144,27289,2,0,L|400:89,1,55.0000002980232
324,68,27889,2,0,P|296:60|260:56,1,55.0000002980232,2|0,0:0|0:0,0:0:0:0:
192,64,28489,2,0,L|128:72,1,55.0000002980232
124,148,29089,6,0,L|236:132,1,110.000000596046,4|0,0:0|0:0,0:0:0:0:
300,172,29989,1,0,0:0:0:0:
280,248,30289,2,0,P|272:292|280:336,2,82.5000004470345,2|0|0,0:0|0:0|0:0,0:0:0:0:
300,172,31489,5,8,0:0:0:0:
228,36,32089,1,0,0:0:0:0:
168,176,32689,2,0,P|152:216|120:248,2,82.5000004470345,2|0|0,0:0|0:0|0:0,0:0:0:0:
216,116,33889,6,0,L|276:104,1,55.000000298023,8|0,0:0|0:0,0:0:0:0:
388,204,34789,1,0,0:0:0:0:
324,244,35089,2,0,P|312:204|328:156,2,82.5000004470345,2|0|0,0:0|0:0|0:0,0:0:0:0:
352,316,36289,5,8,0:0:0:0:
200,336,36889,1,2,0:0:0:0:
224,184,37489,2,0,L|236:124,1,55.000000298023,0|0,0:0|0:0,0:0:0:0:
300,88,38089,2,0,L|312:28,1,55.000000298023,2|0,0:0|0:0,0:0:0:0:
380,68,38689,6,0,L|356:188,1,110.000000596046,4|0,0:0|0:0,0:0:0:0:
356,252,39589,1,0,0:0:0:0:
316,320,39889,2,0,P|360:332|404:316,2,82.5000004470345,2|0|0,0:0|0:0|0:0,0:0:0:0:
272,256,41089,6,0,L|200:248,1,55.000000298023,8|0,0:0|0:0,0:0:0:0:
156,204,41689,2,0,L|84:196,1,55.000000298023,2|0,0:0|0:0,0:0:0:0:
40,148,42289,1,0,0:0:0:0:
160,52,42889,1,2,0:0:0:0:
156,204,43489,6,0,B|148:244|148:244|156:276|156:276|148:324,1,110.000000596046,4|0,0:0|0:0,0:0:0:0:
212,360,44389,1,0,0:0:0:0:
284,332,44689,2,0,P|324:320|376:332,1,82.5000004470345,2|0,0:0|0:0,0:0:0:0:
476,356,45589,1,0,0:0:0:0:
460,280,45889,6,0,L|456:216,1,55.000000298023,8|0,0:0|0:0,0:0:0:0:
412,160,46489,2,0,L|408:96,1,55.000000298023,2|0,0:0|0:0,0:0:0:0:
348,56,47089,2,0,P|292:44|228:56,1,110.000000596046,0|2,0:0|0:0,0:0:0:0:
148,172,48289,6,0,P|188:196|248:184,1,110.000000596046,4|0,0:0|0:0,0:0:0:0:
284,116,49189,1,0,0:0:0:0:
208,120,49489,2,0,P|164:92|120:88,2,82.5000004470345,2|0|0,0:0|0:0|0:0,0:0:0:0:
247,184,50689,5,8,0:0:0:0:
256,192,50989,12,0,55489,0:0:0:0:
