osu file format v14

[General]
AudioFilename: t+pazolite ft. RIZNA - interlude - teatime.mp3
AudioLeadIn: 0
PreviewTime: 289
Countdown: 0
SampleSet: Soft
StackLeniency: 0.7
Mode: 0
LetterboxInBreaks: 0
WidescreenStoryboard: 0

[Editor]
DistanceSpacing: 1.2
BeatDivisor: 4
GridSize: 4
TimelineZoom: 1

[Metadata]
Title:Interlude - teatime
TitleUnicode:Interlude - teatime
Artist:t+pazolite feat. Rizna
ArtistUnicode:t+pazolite feat. リズナ
Creator:Marianna
Version:Easy
Source:東方Project
Tags:honey scream C.H.S C78 2010 touhou 東方紅魔郷 the embodiment of scarlet devil 上海紅茶館 chinese tea shanghai teahouse 紅 美鈴 hong meiling 東方ヴォーカルアレンジ
BeatmapID:858445
BeatmapSetID:394426

[Difficulty]
HPDrainRate:2.5
CircleSize:3.5
OverallDifficulty:3
ApproachRate:3
SliderMultiplier:0.700000005960464
SliderTickRate:1

[Events]
//Background and Video events
0,0,"anime_girl_art_umbrella_flowers_pink_98729_1600x900.jpg",0,0
//Break Periods
//Storyboard Layer 0 (Background)
//Storyboard Layer 1 (Fail)
//Storyboard Layer 2 (Pass)
//Storyboard Layer 3 (Foreground)
//Storyboard Sound Samples

[TimingPoints]
289,600,4,2,1,40,1,0
49489,-100,4,2,1,35,0,0
50089,-100,4,2,1,32,0,0
50689,-100,4,2,1,30,0,0
51289,-100,4,2,1,28,0,0
51889,-100,4,2,1,25,0,0
52489,-100,4,2,1,22,0,0
53089,-100,4,2,1,20,0,0
53689,-100,4,2,1,17,0,0
54289,-100,4,2,1,14,0,0
54889,-100,4,2,1,11,0,0
55489,-100,4,2,1,5,0,0

[Colours]
Combo1 : 198,255,255
Combo2 : 255,206,231
Combo3 : 255,128,191
Combo4 : 225,225,255

[HitObjects]
112,52,289,6,0,P|108:88|116:128,1,70.0000005960464,4|0,0:0|0:0,0:0:0:0:
180,172,1489,2,0,L|328:156,1,140.000001192093,2|8,0:0|0:0,0:0:0:0:
404,148,3289,1,2,0:0:0:0:
488,140,3889,2,0,P|496:104|488:72,2,70.0000005960464,0|2|4,0:0|0:0|0:0,0:0:0:0:
416,244,5989,5,0,0:0:0:0:
392,277,6289,2,0,L|384:353,1,70.0000005960464,2|0,0:0|0:0,0:0:0:0:
300,348,7489,2,0,B|316:236|316:236|320:184|288:144,1,210.000001788139,8|2,0:0|0:0,0:0:0:0:
232,84,9889,5,4,0:0:0:0:
348,32,10789,1,0,0:0:0:0:
389,29,11089,2,0,L|461:33,1,70.0000005960464,2|0,0:0|0:0,0:0:0:0:
488,112,12289,2,0,L|418:108,1,70.0000005960464,8|0,0:0|0:0,0:0:0:0:
336,128,13489,2,0,P|316:152|308:172,2,52.5000004470348,2|0|0,0:0|0:0|0:0,0:0:0:0:
372,104,14689,5,8,0:0:0:0:
432,216,15589,1,0,0:0:0:0:
464,240,15889,2,0,L|456:296,2,52.5000004470348,2|0|0,0:0|0:0|0:0,0:0:0:0:
468,200,17089,2,0,L|476:128,1,70.0000005960464,8|0,0:0|0:0,0:0:0:0:
404,88,18289,2,0,L|396:157,1,70.0000005960464,2|0,0:0|0:0,0:0:0:0:
344,220,19489,5,4,0:0:0:0:
244,296,20389,1,0,0:0:0:0:
212,324,20689,2,0,L|148:320,2,52.5000004470348,2|0|0,0:0|0:0|0:0,0:0:0:0:
244,352,21889,1,8,0:0:0:0:
324,320,22489,2,0,L|393:323,1,70.0000005960464,0|2,0:0|0:0,0:0:0:0:
456,168,24289,5,4,0:0:0:0:
348,104,25189,1,0,0:0:0:0:
306,109,25489,2,0,P|302:141|306:181,1,70.0000005960464,2|0,0:0|0:0,0:0:0:0:
328,260,26689,2,0,P|332:292|328:332,1,70.0000005960464,8|0,0:0|0:0,0:0:0:0:
244,332,27889,2,0,L|164:344,1,70.0000005960464,2|0,0:0|0:0,0:0:0:0:
104,296,29089,5,4,0:0:0:0:
208,224,29989,1,0,0:0:0:0:
184,188,30289,2,0,L|40:168,1,140.000001192093,2|8,0:0|0:0,0:0:0:0:
32,84,32089,1,0,0:0:0:0:
104,40,32689,2,0,L|244:32,1,140.000001192093,2|8,0:0|0:0,0:0:0:0:
404,76,35089,5,2,0:0:0:0:
360,196,35989,1,0,0:0:0:0:
328,224,36289,2,0,P|324:260|328:296,2,70.0000005960464,8|2|0,0:0|0:0|0:0,0:0:0:0:
376,156,38089,1,2,0:0:0:0:
424,88,38689,5,4,0:0:0:0:
300,60,39589,1,0,0:0:0:0:
260,44,39889,2,0,P|192:28|120:48,1,140.000001192093,2|8,0:0|0:0,0:0:0:0:
100,124,41689,1,2,0:0:0:0:
140,120,41989,2,0,P|192:104|244:120,1,105.00000089407,0|2,0:0|0:0,0:0:0:0:
320,144,43489,5,4,0:0:0:0:
388,36,44389,1,0,0:0:0:0:
424,60,44689,2,0,L|428:212,1,140.000001192093,2|8,0:0|0:0,0:0:0:0:
364,256,46489,1,0,0:0:0:0:
292,300,47089,2,0,P|256:308|220:300,2,70.0000005960464,0|2|4,0:0|0:0|0:0,0:0:0:0:
352,188,49189,5,0,0:0:0:0:
332,152,49489,2,0,P|297:145|263:153,1,70.0000005960464,2|0,0:0|0:0,0:0:0:0:
200,208,50689,5,8,0:0:0:0:
256,192,50989,12,0,55489,0:0:0:0:
