osu file format v12

[General]
AudioFilename: 02. Imcomplete Cherry Girl (feat.).mp3
AudioLeadIn: 1500
PreviewTime: 42981
Countdown: 0
SampleSet: Normal
StackLeniency: 0.7
Mode: 1
LetterboxInBreaks: 0

[Editor]
DistanceSpacing: 0.8
BeatDivisor: 6
GridSize: 32

[Metadata]
Title:Imcomplete Cherry Girl
TitleUnicode:Imcomplete Cherry Girl
Artist:t+pazolite feat. Rizna
ArtistUnicode:t+pazolite feat. リズナ
Creator:TKSalt
Version:KrazySalt
Source:Touhou
Tags:Samplejunk
BeatmapID:258912
BeatmapSetID:96369

[Difficulty]
HPDrainRate:6
CircleSize:5
OverallDifficulty:6
ApproachRate:5
SliderMultiplier:1.4
SliderTickRate:1

[Events]
//Background and Video events
0,0,"bg.jpg",0,90
//Break Periods
//Storyboard Layer 0 (Background)
//Storyboard Layer 1 (Fail)
//Storyboard Layer 2 (Pass)
//Storyboard Layer 3 (Foreground)
//Storyboard Sound Samples
//Background Colour Transformations
3,100,0,0,0

[TimingPoints]
1206,300,4,1,0,80,1,0
43206,-100,4,1,0,80,0,1
62406,-100,4,1,0,80,0,0
103206,-100,4,1,0,80,0,1
121356,-101.010101010101,4,1,0,80,0,1
121431,-102.040816326531,4,1,0,80,0,1
121506,-103.092783505155,4,1,0,80,0,1
121581,-104.166666666667,4,1,0,80,0,1
121656,-105.263157894737,4,1,0,80,0,1
121731,-107.52688172043,4,1,0,80,0,1
121806,-109.89010989011,4,1,0,80,0,1
121881,-112.359550561798,4,1,0,80,0,1
121956,-114.942528735632,4,1,0,80,0,1
122031,-117.647058823529,4,1,0,80,0,1
122106,-120.481927710843,4,1,0,80,0,1
122181,-123.456790123457,4,1,0,80,0,1
122256,-126.582278481013,4,1,0,80,0,1
122331,-129.87012987013,4,1,0,80,0,1
122406,-133.333333333333,4,1,0,80,0,0
127206,-117.647058823529,4,1,0,80,0,0
132006,-111.111111111111,4,1,0,80,0,0
132306,-105.263157894737,4,1,0,80,0,0
132606,-100,4,1,0,80,0,0
152406,-100,4,1,0,80,0,1
152631,-100,4,1,0,80,0,0
153606,-100,4,1,0,80,0,1
153831,-100,4,1,0,80,0,0
154806,-100,4,1,0,80,0,1
155031,-100,4,1,0,80,0,0
155406,-100,4,1,0,80,0,1
155631,-100,4,1,0,80,0,0
156006,-100,4,1,0,80,0,1
156081,-100,4,1,0,80,0,0
156156,-100,4,1,0,80,0,1
156231,-100,4,1,0,80,0,0
156306,-100,4,1,0,80,0,1
156381,-100,4,1,0,80,0,0
156456,-100,4,1,0,80,0,1
156531,-100,4,1,0,80,0,0
156606,-97.0873786407767,4,1,0,80,0,0
156681,-94.3396226415094,4,1,0,80,0,0
156756,-91.743119266055,4,1,0,80,0,0
156831,-89.2857142857143,4,1,0,80,0,0
156906,-86.9565217391304,4,1,0,80,0,0
156981,-84.7457627118644,4,1,0,80,0,0
157131,-84.0336134453781,4,1,0,80,0,0
157206,-83.3333333333333,4,1,0,80,0,1
176406,-83.3333333333333,4,1,0,80,0,0
176556,-100,4,1,0,80,0,0

[Colours]
Combo1 : 111,183,255
Combo2 : 255,128,128

[HitObjects]
256,192,1206,1,4,0:0:0:0:
256,192,1356,1,8,0:0:0:0:
256,192,1431,1,8,0:0:0:0:
256,192,1506,1,0,0:0:0:0:
256,192,1656,1,8,0:0:0:0:
256,192,1731,1,8,0:0:0:0:
256,192,1806,1,0,0:0:0:0:
256,192,1956,1,8,0:0:0:0:
256,192,2031,1,0,0:0:0:0:
256,192,2106,1,8,0:0:0:0:
256,192,2181,1,0,0:0:0:0:
256,192,2256,1,8,0:0:0:0:
256,192,2306,1,8,0:0:0:0:
256,192,2356,1,8,0:0:0:0:
256,192,2406,1,0,0:0:0:0:
256,192,2556,1,8,0:0:0:0:
256,192,2631,1,8,0:0:0:0:
256,192,2706,1,0,0:0:0:0:
256,192,2856,1,8,0:0:0:0:
256,192,3006,1,0,0:0:0:0:
256,192,3081,1,0,0:0:0:0:
256,192,3156,1,0,0:0:0:0:
256,192,3306,1,8,0:0:0:0:
256,192,3456,1,8,0:0:0:0:
256,192,3531,1,0,0:0:0:0:
256,192,3606,1,0,0:0:0:0:
256,192,3756,1,8,0:0:0:0:
256,192,3906,1,8,0:0:0:0:
256,192,3981,1,0,0:0:0:0:
256,192,4056,1,0,0:0:0:0:
256,192,4131,1,0,0:0:0:0:
256,192,4206,1,8,0:0:0:0:
256,192,4356,1,8,0:0:0:0:
256,192,4431,1,0,0:0:0:0:
256,192,4506,1,8,0:0:0:0:
256,192,4581,1,8,0:0:0:0:
256,192,4656,1,8,0:0:0:0:
256,192,4731,1,8,0:0:0:0:
256,192,4806,1,0,0:0:0:0:
256,192,4956,1,8,0:0:0:0:
256,192,5031,1,8,0:0:0:0:
256,192,5106,1,0,0:0:0:0:
256,192,5256,1,8,0:0:0:0:
256,192,5406,1,0,0:0:0:0:
256,192,5481,1,0,0:0:0:0:
256,192,5556,1,0,0:0:0:0:
256,192,5706,1,8,0:0:0:0:
256,192,5856,1,8,0:0:0:0:
256,192,5931,1,0,0:0:0:0:
256,192,6006,1,0,0:0:0:0:
256,192,6156,1,8,0:0:0:0:
256,192,6231,1,8,0:0:0:0:
256,192,6306,1,8,0:0:0:0:
256,192,6381,1,0,0:0:0:0:
256,192,6456,1,8,0:0:0:0:
256,192,6606,1,8,0:0:0:0:
256,192,6681,1,8,0:0:0:0:
256,192,6756,1,0,0:0:0:0:
256,192,6831,1,0,0:0:0:0:
256,192,6906,1,0,0:0:0:0:
256,192,6981,1,8,0:0:0:0:
256,192,7056,1,8,0:0:0:0:
256,192,7131,1,8,0:0:0:0:
256,192,7206,1,0,0:0:0:0:
256,192,7356,1,8,0:0:0:0:
256,192,7431,1,0,0:0:0:0:
256,192,7506,1,8,0:0:0:0:
256,192,7656,1,8,0:0:0:0:
256,192,7806,1,8,0:0:0:0:
256,192,7881,1,0,0:0:0:0:
256,192,7956,1,0,0:0:0:0:
256,192,8106,1,8,0:0:0:0:
256,192,8181,1,0,0:0:0:0:
256,192,8256,1,0,0:0:0:0:
256,192,8406,1,0,0:0:0:0:
256,192,8556,1,8,0:0:0:0:
256,192,8631,1,0,0:0:0:0:
256,192,8706,1,8,0:0:0:0:
256,192,8856,1,8,0:0:0:0:
256,192,9006,1,8,0:0:0:0:
256,192,9081,1,8,0:0:0:0:
256,192,9156,1,0,0:0:0:0:
256,192,9306,1,8,0:0:0:0:
256,192,9381,1,8,0:0:0:0:
256,192,9456,1,0,0:0:0:0:
256,192,9606,1,8,0:0:0:0:
256,192,9681,1,0,0:0:0:0:
256,192,9756,1,0,0:0:0:0:
256,192,9831,1,0,0:0:0:0:
256,192,9906,1,8,0:0:0:0:
256,192,10056,1,0,0:0:0:0:
256,192,10131,1,0,0:0:0:0:
256,192,10206,1,8,0:0:0:0:
256,192,10281,1,8,0:0:0:0:
256,192,10356,1,0,0:0:0:0:
256,192,10431,1,0,0:0:0:0:
256,192,10506,1,8,0:0:0:0:
256,192,10656,1,8,0:0:0:0:
256,192,10806,1,0,0:0:0:0:
256,192,10881,1,8,0:0:0:0:
256,192,10956,1,0,0:0:0:0:
256,192,11031,1,0,0:0:0:0:
256,192,11106,1,8,0:0:0:0:
256,192,11181,1,0,0:0:0:0:
256,192,11256,1,8,0:0:0:0:
256,192,11331,1,8,0:0:0:0:
256,192,11406,1,0,0:0:0:0:
256,192,11481,1,0,0:0:0:0:
256,192,11556,1,0,0:0:0:0:
256,192,11631,1,8,0:0:0:0:
256,192,11706,1,8,0:0:0:0:
256,192,11781,1,0,0:0:0:0:
256,192,11856,1,8,0:0:0:0:
256,192,11931,1,8,0:0:0:0:
256,192,12006,1,0,0:0:0:0:
256,192,12156,1,0,0:0:0:0:
256,192,12231,1,0,0:0:0:0:
256,192,12306,1,8,0:0:0:0:
256,192,12456,1,0,0:0:0:0:
256,192,12606,1,0,0:0:0:0:
256,192,12681,1,8,0:0:0:0:
256,192,12756,1,0,0:0:0:0:
256,192,12906,1,8,0:0:0:0:
256,192,12981,1,0,0:0:0:0:
256,192,13056,1,8,0:0:0:0:
256,192,13131,1,8,0:0:0:0:
256,192,13206,1,0,0:0:0:0:
256,192,13356,1,0,0:0:0:0:
256,192,13431,1,0,0:0:0:0:
256,192,13506,1,8,0:0:0:0:
256,192,13656,1,0,0:0:0:0:
256,192,13806,1,8,0:0:0:0:
256,192,13881,1,0,0:0:0:0:
256,192,13956,1,0,0:0:0:0:
256,192,14031,1,0,0:0:0:0:
256,192,14106,1,8,0:0:0:0:
256,192,14256,1,8,0:0:0:0:
256,192,14331,1,8,0:0:0:0:
256,192,14406,1,0,0:0:0:0:
256,192,14556,1,0,0:0:0:0:
256,192,14631,1,0,0:0:0:0:
256,192,14706,1,8,0:0:0:0:
256,192,14856,1,0,0:0:0:0:
256,192,14931,1,8,0:0:0:0:
256,192,15006,1,0,0:0:0:0:
256,192,15156,1,0,0:0:0:0:
256,192,15306,1,8,0:0:0:0:
256,192,15381,1,8,0:0:0:0:
256,192,15456,1,8,0:0:0:0:
256,192,15531,1,8,0:0:0:0:
256,192,15606,1,0,0:0:0:0:
256,192,15756,1,0,0:0:0:0:
256,192,15831,1,0,0:0:0:0:
256,192,15906,1,8,0:0:0:0:
256,192,15981,1,0,0:0:0:0:
256,192,16131,1,0,0:0:0:0:
256,192,16206,1,8,0:0:0:0:
256,192,16356,1,0,0:0:0:0:
256,192,16431,1,8,0:0:0:0:
256,192,16506,1,8,0:0:0:0:
256,192,16581,1,0,0:0:0:0:
256,192,16656,1,8,0:0:0:0:
256,192,16731,1,8,0:0:0:0:
256,192,16806,1,0,0:0:0:0:
256,192,16956,1,0,0:0:0:0:
256,192,17031,1,0,0:0:0:0:
256,192,17106,1,8,0:0:0:0:
256,192,17256,1,0,0:0:0:0:
256,192,17406,1,0,0:0:0:0:
256,192,17481,1,8,0:0:0:0:
256,192,17556,1,0,0:0:0:0:
256,192,17706,1,8,0:0:0:0:
256,192,17781,1,0,0:0:0:0:
256,192,17856,1,8,0:0:0:0:
256,192,17931,1,8,0:0:0:0:
256,192,18006,1,0,0:0:0:0:
256,192,18156,1,0,0:0:0:0:
256,192,18231,1,0,0:0:0:0:
256,192,18306,1,8,0:0:0:0:
256,192,18456,1,0,0:0:0:0:
256,192,18606,1,8,0:0:0:0:
256,192,18681,1,8,0:0:0:0:
256,192,18756,1,0,0:0:0:0:
256,192,18831,1,8,0:0:0:0:
256,192,18906,1,0,0:0:0:0:
256,192,18981,1,8,0:0:0:0:
256,192,19056,1,8,0:0:0:0:
256,192,19131,1,8,0:0:0:0:
256,192,19206,1,0,0:0:0:0:
256,192,19356,1,0,0:0:0:0:
256,192,19431,1,0,0:0:0:0:
256,192,19506,1,8,0:0:0:0:
256,192,19656,1,0,0:0:0:0:
256,192,19731,1,8,0:0:0:0:
256,192,19806,1,0,0:0:0:0:
256,192,19956,1,0,0:0:0:0:
256,192,20106,1,8,0:0:0:0:
256,192,20181,1,8,0:0:0:0:
256,192,20256,1,8,0:0:0:0:
256,192,20331,1,8,0:0:0:0:
256,192,20406,1,0,0:0:0:0:
256,192,20556,1,0,0:0:0:0:
256,192,20631,1,0,0:0:0:0:
256,192,20706,1,8,0:0:0:0:
256,192,20781,1,0,0:0:0:0:
256,192,20931,1,0,0:0:0:0:
256,192,21006,1,8,0:0:0:0:
256,192,21156,1,0,0:0:0:0:
256,192,21231,1,8,0:0:0:0:
256,192,21306,1,8,0:0:0:0:
256,192,21381,1,0,0:0:0:0:
256,192,21456,1,0,0:0:0:0:
256,192,21531,1,8,0:0:0:0:
256,192,21606,1,0,0:0:0:0:
256,192,21756,1,0,0:0:0:0:
256,192,21831,1,0,0:0:0:0:
256,192,21906,1,8,0:0:0:0:
256,192,22056,1,0,0:0:0:0:
256,192,22206,1,0,0:0:0:0:
256,192,22281,1,8,0:0:0:0:
256,192,22356,1,0,0:0:0:0:
256,192,22506,1,8,0:0:0:0:
256,192,22581,1,0,0:0:0:0:
256,192,22656,1,8,0:0:0:0:
256,192,22731,1,8,0:0:0:0:
256,192,22806,1,0,0:0:0:0:
256,192,22956,1,0,0:0:0:0:
256,192,23031,1,0,0:0:0:0:
256,192,23106,1,8,0:0:0:0:
256,192,23256,1,0,0:0:0:0:
256,192,23406,1,8,0:0:0:0:
256,192,23481,1,0,0:0:0:0:
256,192,23556,1,0,0:0:0:0:
256,192,23631,1,0,0:0:0:0:
256,192,23706,1,8,0:0:0:0:
256,192,23856,1,8,0:0:0:0:
256,192,23931,1,8,0:0:0:0:
256,192,24006,1,0,0:0:0:0:
256,192,24156,1,0,0:0:0:0:
256,192,24231,1,0,0:0:0:0:
256,192,24306,1,8,0:0:0:0:
256,192,24456,1,0,0:0:0:0:
256,192,24531,1,8,0:0:0:0:
256,192,24606,1,0,0:0:0:0:
256,192,24756,1,0,0:0:0:0:
256,192,24906,1,8,0:0:0:0:
256,192,24981,1,8,0:0:0:0:
256,192,25056,1,8,0:0:0:0:
256,192,25131,1,8,0:0:0:0:
256,192,25206,1,0,0:0:0:0:
256,192,25356,1,0,0:0:0:0:
256,192,25431,1,0,0:0:0:0:
256,192,25506,1,8,0:0:0:0:
256,192,25581,1,0,0:0:0:0:
256,192,25731,1,0,0:0:0:0:
256,192,25806,1,8,0:0:0:0:
256,192,25956,1,0,0:0:0:0:
256,192,26031,1,8,0:0:0:0:
256,192,26106,1,8,0:0:0:0:
256,192,26181,1,0,0:0:0:0:
256,192,26256,1,8,0:0:0:0:
256,192,26331,1,8,0:0:0:0:
256,192,26406,1,0,0:0:0:0:
256,192,26556,1,0,0:0:0:0:
256,192,26631,1,0,0:0:0:0:
256,192,26706,1,8,0:0:0:0:
256,192,26856,1,0,0:0:0:0:
256,192,27006,1,0,0:0:0:0:
256,192,27081,1,8,0:0:0:0:
256,192,27156,1,0,0:0:0:0:
256,192,27306,1,8,0:0:0:0:
256,192,27381,1,0,0:0:0:0:
256,192,27456,1,8,0:0:0:0:
256,192,27531,1,8,0:0:0:0:
256,192,27606,1,0,0:0:0:0:
256,192,27756,1,0,0:0:0:0:
256,192,27831,1,0,0:0:0:0:
256,192,27906,1,8,0:0:0:0:
256,192,28056,1,0,0:0:0:0:
256,192,28206,1,8,0:0:0:0:
256,192,28281,1,8,0:0:0:0:
256,192,28356,1,0,0:0:0:0:
256,192,28431,1,8,0:0:0:0:
256,192,28506,1,0,0:0:0:0:
256,192,28581,1,8,0:0:0:0:
256,192,28656,1,8,0:0:0:0:
256,192,28731,1,8,0:0:0:0:
256,192,28806,1,0,0:0:0:0:
256,192,28956,1,0,0:0:0:0:
256,192,29031,1,0,0:0:0:0:
256,192,29106,1,8,0:0:0:0:
256,192,29256,1,0,0:0:0:0:
256,192,29331,1,8,0:0:0:0:
256,192,29406,1,0,0:0:0:0:
256,192,29556,1,0,0:0:0:0:
256,192,29706,1,8,0:0:0:0:
256,192,29781,1,8,0:0:0:0:
256,192,29856,1,8,0:0:0:0:
256,192,29931,1,8,0:0:0:0:
256,192,30006,1,0,0:0:0:0:
256,192,30156,1,0,0:0:0:0:
256,192,30231,1,0,0:0:0:0:
256,192,30306,1,8,0:0:0:0:
256,192,30381,1,0,0:0:0:0:
256,192,30531,1,0,0:0:0:0:
256,192,30606,1,8,0:0:0:0:
256,192,30756,1,0,0:0:0:0:
256,192,30831,1,8,0:0:0:0:
256,192,30906,1,8,0:0:0:0:
256,192,30981,1,0,0:0:0:0:
256,192,31056,1,0,0:0:0:0:
256,192,31131,1,8,0:0:0:0:
256,192,31206,1,8,0:0:0:0:
256,192,31356,1,0,0:0:0:0:
256,192,31431,1,0,0:0:0:0:
256,192,31506,1,8,0:0:0:0:
256,192,31656,1,0,0:0:0:0:
256,192,31731,1,0,0:0:0:0:
256,192,31806,1,8,0:0:0:0:
256,192,31956,1,0,0:0:0:0:
256,192,32031,1,0,0:0:0:0:
256,192,32106,1,8,0:0:0:0:
256,192,32256,1,0,0:0:0:0:
256,192,32406,1,8,0:0:0:0:
256,192,32481,1,0,0:0:0:0:
256,192,32556,1,8,0:0:0:0:
256,192,32631,1,0,0:0:0:0:
256,192,32706,1,8,0:0:0:0:
256,192,32781,1,0,0:0:0:0:
256,192,32856,1,8,0:0:0:0:
256,192,32931,1,0,0:0:0:0:
256,192,33006,1,8,0:0:0:0:
256,192,33081,1,8,0:0:0:0:
256,192,33156,1,8,0:0:0:0:
256,192,33231,1,8,0:0:0:0:
256,192,33306,1,0,0:0:0:0:
256,192,33381,1,0,0:0:0:0:
256,192,33456,1,0,0:0:0:0:
256,192,33531,1,0,0:0:0:0:
256,192,33606,1,8,0:0:0:0:
256,192,33756,1,0,0:0:0:0:
256,192,33831,1,0,0:0:0:0:
256,192,33906,1,8,0:0:0:0:
256,192,34056,1,0,0:0:0:0:
256,192,34131,1,0,0:0:0:0:
256,192,34206,1,8,0:0:0:0:
256,192,34356,1,0,0:0:0:0:
256,192,34431,1,0,0:0:0:0:
256,192,34506,1,8,0:0:0:0:
256,192,34656,1,0,0:0:0:0:
256,192,34806,1,8,0:0:0:0:
256,192,34881,1,0,0:0:0:0:
256,192,34956,1,0,0:0:0:0:
256,192,35031,1,0,0:0:0:0:
256,192,35106,1,8,0:0:0:0:
256,192,35181,1,0,0:0:0:0:
256,192,35256,1,8,0:0:0:0:
256,192,35331,1,0,0:0:0:0:
256,192,35406,1,0,0:0:0:0:
256,192,35481,1,0,0:0:0:0:
256,192,35556,1,8,0:0:0:0:
256,192,35631,1,0,0:0:0:0:
256,192,35706,1,8,0:0:0:0:
256,192,35781,1,8,0:0:0:0:
256,192,35856,1,0,0:0:0:0:
256,192,36006,1,4,0:0:0:0:
256,192,36156,1,8,0:0:0:0:
256,192,36231,1,0,0:0:0:0:
256,192,36381,1,0,0:0:0:0:
256,192,36456,1,8,0:0:0:0:
256,192,36606,1,4,0:0:0:0:
256,192,36756,1,8,0:0:0:0:
256,192,36831,1,0,0:0:0:0:
256,192,36981,1,0,0:0:0:0:
256,192,37056,1,8,0:0:0:0:
256,192,37206,1,4,0:0:0:0:
256,192,37356,1,0,0:0:0:0:
256,192,37431,1,8,0:0:0:0:
256,192,37506,1,0,0:0:0:0:
256,192,37656,1,8,0:0:0:0:
256,192,37806,1,4,0:0:0:0:
256,192,37956,1,8,0:0:0:0:
256,192,38031,1,8,0:0:0:0:
256,192,38106,1,0,0:0:0:0:
256,192,38181,1,8,0:0:0:0:
256,192,38256,1,8,0:0:0:0:
256,192,38406,1,4,0:0:0:0:
224,192,38556,1,8,0:0:0:0:
256,192,38706,1,8,0:0:0:0:
256,192,38856,1,8,0:0:0:0:
256,192,39006,1,4,0:0:0:0:
256,192,39156,1,8,0:0:0:0:
256,192,39306,1,8,0:0:0:0:
256,192,39456,1,8,0:0:0:0:
256,192,39606,1,4,0:0:0:0:
256,192,39756,1,8,0:0:0:0:
256,192,39906,1,8,0:0:0:0:
256,192,40056,1,8,0:0:0:0:
256,192,40206,1,4,0:0:0:0:
256,192,40356,1,8,0:0:0:0:
256,192,40431,1,8,0:0:0:0:
256,192,40506,1,0,0:0:0:0:
256,192,40656,1,8,0:0:0:0:
256,192,40806,1,4,0:0:0:0:
256,192,40956,1,8,0:0:0:0:
256,192,41106,1,4,0:0:0:0:
256,192,41256,1,8,0:0:0:0:
256,192,41406,1,4,0:0:0:0:
256,192,41556,1,8,0:0:0:0:
256,192,41706,1,4,0:0:0:0:
256,192,41856,1,8,0:0:0:0:
256,192,42006,1,4,0:0:0:0:
256,192,42156,1,12,0:0:0:0:
256,192,42306,1,4,0:0:0:0:
256,192,42456,1,12,0:0:0:0:
256,192,42606,1,4,0:0:0:0:
256,192,42756,1,8,0:0:0:0:
256,192,42806,1,8,0:0:0:0:
256,192,42906,1,8,0:0:0:0:
256,192,42956,1,8,0:0:0:0:
256,192,43056,1,8,0:0:0:0:
256,192,43106,1,8,0:0:0:0:
256,192,43206,1,4,0:0:0:0:
256,192,43356,1,0,0:0:0:0:
256,192,43506,1,8,0:0:0:0:
256,192,43581,1,8,0:0:0:0:
256,192,43656,1,0,0:0:0:0:
256,192,43806,1,12,0:0:0:0:
256,192,43956,1,0,0:0:0:0:
256,192,44031,1,0,0:0:0:0:
256,192,44106,1,8,0:0:0:0:
256,192,44256,1,4,0:0:0:0:
256,192,44406,1,8,0:0:0:0:
256,192,44481,1,8,0:0:0:0:
256,192,44556,1,0,0:0:0:0:
256,192,44706,1,12,0:0:0:0:
256,192,44856,1,0,0:0:0:0:
256,192,44931,1,0,0:0:0:0:
256,192,45006,1,8,0:0:0:0:
256,192,45156,1,0,0:0:0:0:
256,192,45231,1,0,0:0:0:0:
256,192,45306,1,8,0:0:0:0:
256,192,45381,1,0,0:0:0:0:
256,192,45456,1,8,0:0:0:0:
256,192,45531,1,8,0:0:0:0:
256,192,45606,1,0,0:0:0:0:
256,192,45756,1,8,0:0:0:0:
256,192,45831,1,8,0:0:0:0:
256,192,45906,1,0,0:0:0:0:
256,192,45981,1,8,0:0:0:0:
256,192,46056,1,8,0:0:0:0:
256,192,46206,1,0,0:0:0:0:
256,192,46281,1,0,0:0:0:0:
256,192,46356,1,8,0:0:0:0:
256,192,46431,1,8,0:0:0:0:
256,192,46506,1,0,0:0:0:0:
256,192,46581,1,8,0:0:0:0:
256,192,46656,1,8,0:0:0:0:
256,192,46806,1,4,0:0:0:0:
256,192,46956,1,0,0:0:0:0:
256,192,47006,1,0,0:0:0:0:
256,192,47056,1,0,0:0:0:0:
256,192,47106,1,8,0:0:0:0:
256,192,47256,1,0,0:0:0:0:
256,192,47331,1,8,0:0:0:0:
256,192,47481,1,8,0:0:0:0:
256,192,47556,1,0,0:0:0:0:
256,192,47706,1,8,0:0:0:0:
256,192,47781,1,0,0:0:0:0:
256,192,47856,1,0,0:0:0:0:
256,192,47931,1,8,0:0:0:0:
256,192,48006,1,0,0:0:0:0:
256,192,48156,1,0,0:0:0:0:
256,192,48231,1,0,0:0:0:0:
256,192,48306,1,8,0:0:0:0:
256,192,48456,1,8,0:0:0:0:
256,192,48531,1,8,0:0:0:0:
256,192,48606,1,0,0:0:0:0:
256,192,48756,1,0,0:0:0:0:
256,192,48831,1,0,0:0:0:0:
256,192,48906,1,8,0:0:0:0:
224,192,48981,1,8,0:0:0:0:
256,192,49056,1,8,0:0:0:0:
256,192,49131,1,8,0:0:0:0:
256,192,49206,1,0,0:0:0:0:
256,192,49356,1,0,0:0:0:0:
256,192,49431,1,0,0:0:0:0:
256,192,49506,1,8,0:0:0:0:
256,192,49656,1,8,0:0:0:0:
256,192,49731,1,8,0:0:0:0:
256,192,49806,1,0,0:0:0:0:
256,192,49881,1,0,0:0:0:0:
256,192,49956,1,8,0:0:0:0:
256,192,50031,1,8,0:0:0:0:
256,192,50106,1,8,0:0:0:0:
256,192,50181,1,8,0:0:0:0:
256,192,50256,1,0,0:0:0:0:
256,192,50331,1,8,0:0:0:0:
256,192,50406,1,0,0:0:0:0:
256,192,50556,1,8,0:0:0:0:
256,192,50631,1,8,0:0:0:0:
256,192,50706,1,0,0:0:0:0:
256,192,50856,1,8,0:0:0:0:
256,192,51006,1,0,0:0:0:0:
256,192,51081,1,0,0:0:0:0:
256,192,51156,1,8,0:0:0:0:
256,192,51231,1,8,0:0:0:0:
256,192,51306,1,0,0:0:0:0:
256,192,51381,1,0,0:0:0:0:
256,192,51456,1,8,0:0:0:0:
256,192,51606,1,4,0:0:0:0:
256,192,51756,1,8,0:0:0:0:
256,192,51806,1,8,0:0:0:0:
256,192,51856,1,8,0:0:0:0:
256,192,51906,1,0,0:0:0:0:
256,192,52056,1,8,0:0:0:0:
256,192,52106,1,8,0:0:0:0:
256,192,52156,1,8,0:0:0:0:
256,192,52206,1,0,0:0:0:0:
256,192,52356,1,4,0:0:0:0:
256,192,52506,1,8,0:0:0:0:
256,192,52556,1,8,0:0:0:0:
256,192,52606,1,8,0:0:0:0:
256,192,52656,1,8,0:0:0:0:
256,192,52806,1,4,0:0:0:0:
256,192,52956,1,0,0:0:0:0:
256,192,53106,1,8,0:0:0:0:
256,192,53181,1,8,0:0:0:0:
256,192,53256,1,0,0:0:0:0:
256,192,53406,1,12,0:0:0:0:
256,192,53556,1,0,0:0:0:0:
256,192,53631,1,0,0:0:0:0:
256,192,53706,1,8,0:0:0:0:
256,192,53856,1,4,0:0:0:0:
256,192,54006,1,8,0:0:0:0:
256,192,54081,1,8,0:0:0:0:
256,192,54156,1,0,0:0:0:0:
256,192,54306,1,12,0:0:0:0:
256,192,54456,1,0,0:0:0:0:
256,192,54531,1,0,0:0:0:0:
256,192,54606,1,8,0:0:0:0:
256,192,54756,1,0,0:0:0:0:
256,192,54831,1,0,0:0:0:0:
256,192,54906,1,8,0:0:0:0:
256,192,54981,1,0,0:0:0:0:
256,192,55056,1,8,0:0:0:0:
256,192,55131,1,8,0:0:0:0:
256,192,55206,1,0,0:0:0:0:
256,192,55356,1,8,0:0:0:0:
256,192,55431,1,8,0:0:0:0:
256,192,55506,1,0,0:0:0:0:
256,192,55581,1,8,0:0:0:0:
256,192,55656,1,8,0:0:0:0:
256,192,55806,1,0,0:0:0:0:
256,192,55881,1,0,0:0:0:0:
256,192,55956,1,8,0:0:0:0:
256,192,56031,1,8,0:0:0:0:
256,192,56106,1,0,0:0:0:0:
256,192,56181,1,8,0:0:0:0:
256,192,56256,1,8,0:0:0:0:
256,192,56406,1,4,0:0:0:0:
256,192,56556,1,0,0:0:0:0:
256,192,56606,1,0,0:0:0:0:
256,192,56656,1,0,0:0:0:0:
256,192,56706,1,8,0:0:0:0:
256,192,56856,1,0,0:0:0:0:
256,192,56931,1,8,0:0:0:0:
256,192,57081,1,8,0:0:0:0:
256,192,57156,1,0,0:0:0:0:
256,192,57306,1,8,0:0:0:0:
256,192,57381,1,0,0:0:0:0:
256,192,57456,1,0,0:0:0:0:
256,192,57531,1,8,0:0:0:0:
256,192,57606,1,0,0:0:0:0:
256,192,57756,1,0,0:0:0:0:
256,192,57831,1,0,0:0:0:0:
256,192,57906,1,8,0:0:0:0:
256,192,58056,1,8,0:0:0:0:
256,192,58131,1,8,0:0:0:0:
256,192,58206,1,0,0:0:0:0:
256,192,58356,1,0,0:0:0:0:
256,192,58431,1,0,0:0:0:0:
256,192,58506,1,8,0:0:0:0:
224,192,58581,1,8,0:0:0:0:
256,192,58656,1,8,0:0:0:0:
256,192,58731,1,8,0:0:0:0:
256,192,58806,1,0,0:0:0:0:
256,192,58956,1,0,0:0:0:0:
256,192,59031,1,0,0:0:0:0:
256,192,59106,1,8,0:0:0:0:
256,192,59256,1,8,0:0:0:0:
256,192,59331,1,8,0:0:0:0:
256,192,59406,1,0,0:0:0:0:
256,192,59481,1,0,0:0:0:0:
256,192,59556,1,8,0:0:0:0:
256,192,59631,1,8,0:0:0:0:
256,192,59706,1,8,0:0:0:0:
256,192,59781,1,8,0:0:0:0:
256,192,59856,1,0,0:0:0:0:
256,192,59931,1,8,0:0:0:0:
256,192,60006,1,0,0:0:0:0:
256,192,60156,1,8,0:0:0:0:
256,192,60231,1,8,0:0:0:0:
256,192,60306,1,0,0:0:0:0:
256,192,60456,1,8,0:0:0:0:
256,192,60606,1,0,0:0:0:0:
256,192,60681,1,0,0:0:0:0:
256,192,60756,1,8,0:0:0:0:
256,192,60831,1,8,0:0:0:0:
256,192,60906,1,0,0:0:0:0:
256,192,60981,1,0,0:0:0:0:
256,192,61056,1,8,0:0:0:0:
256,192,61206,1,4,0:0:0:0:
256,192,61356,1,8,0:0:0:0:
256,192,61431,1,8,0:0:0:0:
256,192,61506,1,0,0:0:0:0:
256,192,61581,1,0,0:0:0:0:
256,192,61656,1,8,0:0:0:0:
256,192,61731,1,0,0:0:0:0:
256,192,61806,1,8,0:0:0:0:
256,192,61881,1,0,0:0:0:0:
256,192,61956,1,8,0:0:0:0:
256,192,62031,1,8,0:0:0:0:
256,192,62106,1,0,0:0:0:0:
256,192,62181,1,8,0:0:0:0:
256,192,62256,1,8,0:0:0:0:
256,192,62306,1,8,0:0:0:0:
256,192,62356,1,8,0:0:0:0:
256,192,62406,1,0,0:0:0:0:
256,192,62556,1,8,0:0:0:0:
256,192,62631,1,8,0:0:0:0:
256,192,62706,1,0,0:0:0:0:
256,192,62856,1,8,0:0:0:0:
256,192,63006,1,0,0:0:0:0:
256,192,63081,1,8,0:0:0:0:
256,192,63156,1,0,0:0:0:0:
256,192,63306,1,8,0:0:0:0:
256,192,63456,1,8,0:0:0:0:
256,192,63531,1,0,0:0:0:0:
256,192,63606,1,0,0:0:0:0:
256,192,63756,1,8,0:0:0:0:
256,192,63906,1,8,0:0:0:0:
256,192,63981,1,0,0:0:0:0:
256,192,64056,1,0,0:0:0:0:
256,192,64131,1,0,0:0:0:0:
256,192,64206,1,8,0:0:0:0:
256,192,64356,1,8,0:0:0:0:
256,192,64431,1,0,0:0:0:0:
256,192,64506,1,8,0:0:0:0:
256,192,64581,1,8,0:0:0:0:
256,192,64656,1,8,0:0:0:0:
256,192,64731,1,8,0:0:0:0:
256,192,64806,1,0,0:0:0:0:
256,192,64956,1,8,0:0:0:0:
256,192,65031,1,8,0:0:0:0:
256,192,65106,1,0,0:0:0:0:
256,192,65256,1,8,0:0:0:0:
256,192,65406,1,0,0:0:0:0:
256,192,65481,1,8,0:0:0:0:
256,192,65556,1,0,0:0:0:0:
256,192,65706,1,8,0:0:0:0:
256,192,65856,1,8,0:0:0:0:
256,192,65931,1,0,0:0:0:0:
256,192,66006,1,0,0:0:0:0:
256,192,66156,1,8,0:0:0:0:
256,192,66231,1,8,0:0:0:0:
256,192,66306,1,8,0:0:0:0:
256,192,66381,1,0,0:0:0:0:
256,192,66456,1,8,0:0:0:0:
256,192,66606,1,8,0:0:0:0:
256,192,66681,1,0,0:0:0:0:
256,192,66756,1,0,0:0:0:0:
256,192,66831,1,8,0:0:0:0:
256,192,66906,1,0,0:0:0:0:
256,192,66981,1,8,0:0:0:0:
256,192,67056,1,8,0:0:0:0:
256,192,67131,1,8,0:0:0:0:
256,192,67206,1,0,0:0:0:0:
256,192,67356,1,8,0:0:0:0:
256,192,67431,1,0,0:0:0:0:
256,192,67506,1,8,0:0:0:0:
256,192,67656,1,8,0:0:0:0:
256,192,67806,1,8,0:0:0:0:
256,192,67881,1,0,0:0:0:0:
256,192,67956,1,0,0:0:0:0:
256,192,68106,1,8,0:0:0:0:
256,192,68181,1,0,0:0:0:0:
256,192,68256,1,0,0:0:0:0:
256,192,68406,1,0,0:0:0:0:
256,192,68556,1,8,0:0:0:0:
256,192,68631,1,0,0:0:0:0:
256,192,68706,1,8,0:0:0:0:
256,192,68856,1,8,0:0:0:0:
256,192,69006,1,8,0:0:0:0:
256,192,69081,1,8,0:0:0:0:
256,192,69156,1,0,0:0:0:0:
256,192,69306,1,8,0:0:0:0:
256,192,69381,1,8,0:0:0:0:
256,192,69456,1,0,0:0:0:0:
256,192,69606,1,8,0:0:0:0:
256,192,69681,1,0,0:0:0:0:
256,192,69756,1,0,0:0:0:0:
256,192,69831,1,0,0:0:0:0:
256,192,69906,1,8,0:0:0:0:
256,192,70056,1,8,0:0:0:0:
256,192,70131,1,0,0:0:0:0:
256,192,70206,1,8,0:0:0:0:
256,192,70281,1,8,0:0:0:0:
256,192,70356,1,0,0:0:0:0:
256,192,70431,1,0,0:0:0:0:
256,192,70506,1,8,0:0:0:0:
256,192,70656,1,8,0:0:0:0:
256,192,70806,1,0,0:0:0:0:
256,192,70881,1,8,0:0:0:0:
256,192,70956,1,0,0:0:0:0:
256,192,71031,1,0,0:0:0:0:
256,192,71106,1,8,0:0:0:0:
256,192,71181,1,0,0:0:0:0:
256,192,71256,1,8,0:0:0:0:
256,192,71331,1,8,0:0:0:0:
256,192,71406,1,0,0:0:0:0:
256,192,71481,1,8,0:0:0:0:
256,192,71556,1,0,0:0:0:0:
256,192,71631,1,8,0:0:0:0:
256,192,71706,1,8,0:0:0:0:
256,192,71781,1,0,0:0:0:0:
256,192,71856,1,8,0:0:0:0:
256,192,71931,1,8,0:0:0:0:
256,192,72006,1,0,0:0:0:0:
256,192,72156,1,0,0:0:0:0:
256,192,72231,1,0,0:0:0:0:
256,192,72306,1,8,0:0:0:0:
256,192,72456,1,0,0:0:0:0:
256,192,72606,1,0,0:0:0:0:
256,192,72681,1,8,0:0:0:0:
256,192,72756,1,0,0:0:0:0:
256,192,72906,1,8,0:0:0:0:
256,192,72981,1,0,0:0:0:0:
256,192,73056,1,8,0:0:0:0:
256,192,73131,1,8,0:0:0:0:
256,192,73206,1,0,0:0:0:0:
256,192,73356,1,0,0:0:0:0:
256,192,73431,1,0,0:0:0:0:
256,192,73506,1,8,0:0:0:0:
256,192,73656,1,0,0:0:0:0:
256,192,73806,1,8,0:0:0:0:
256,192,73881,1,0,0:0:0:0:
256,192,73956,1,0,0:0:0:0:
256,192,74031,1,0,0:0:0:0:
256,192,74106,1,8,0:0:0:0:
256,192,74256,1,8,0:0:0:0:
256,192,74331,1,8,0:0:0:0:
256,192,74406,1,0,0:0:0:0:
256,192,74556,1,0,0:0:0:0:
256,192,74631,1,0,0:0:0:0:
256,192,74706,1,8,0:0:0:0:
256,192,74856,1,0,0:0:0:0:
256,192,74931,1,8,0:0:0:0:
256,192,75006,1,0,0:0:0:0:
256,192,75156,1,0,0:0:0:0:
256,192,75306,1,8,0:0:0:0:
256,192,75381,1,8,0:0:0:0:
256,192,75456,1,8,0:0:0:0:
256,192,75531,1,8,0:0:0:0:
256,192,75606,1,0,0:0:0:0:
256,192,75756,1,0,0:0:0:0:
256,192,75831,1,0,0:0:0:0:
256,192,75906,1,8,0:0:0:0:
256,192,75981,1,0,0:0:0:0:
256,192,76131,1,0,0:0:0:0:
256,192,76206,1,8,0:0:0:0:
256,192,76356,1,0,0:0:0:0:
256,192,76431,1,8,0:0:0:0:
256,192,76506,1,8,0:0:0:0:
256,192,76581,1,0,0:0:0:0:
256,192,76656,1,8,0:0:0:0:
256,192,76731,1,8,0:0:0:0:
256,192,76806,1,0,0:0:0:0:
256,192,76956,1,0,0:0:0:0:
256,192,77031,1,0,0:0:0:0:
256,192,77106,1,8,0:0:0:0:
256,192,77256,1,0,0:0:0:0:
256,192,77406,1,0,0:0:0:0:
256,192,77481,1,8,0:0:0:0:
256,192,77556,1,0,0:0:0:0:
256,192,77706,1,8,0:0:0:0:
256,192,77781,1,0,0:0:0:0:
256,192,77856,1,8,0:0:0:0:
256,192,77931,1,8,0:0:0:0:
256,192,78006,1,0,0:0:0:0:
256,192,78156,1,0,0:0:0:0:
256,192,78231,1,0,0:0:0:0:
256,192,78306,1,8,0:0:0:0:
256,192,78456,1,0,0:0:0:0:
256,192,78606,1,8,0:0:0:0:
256,192,78681,1,8,0:0:0:0:
256,192,78756,1,0,0:0:0:0:
256,192,78831,1,8,0:0:0:0:
256,192,78906,1,0,0:0:0:0:
256,192,78981,1,8,0:0:0:0:
256,192,79056,1,8,0:0:0:0:
256,192,79131,1,8,0:0:0:0:
256,192,79206,1,0,0:0:0:0:
256,192,79356,1,0,0:0:0:0:
256,192,79431,1,0,0:0:0:0:
256,192,79506,1,8,0:0:0:0:
256,192,79656,1,0,0:0:0:0:
256,192,79731,1,8,0:0:0:0:
256,192,79806,1,0,0:0:0:0:
256,192,79956,1,0,0:0:0:0:
256,192,80106,1,8,0:0:0:0:
256,192,80181,1,8,0:0:0:0:
256,192,80256,1,8,0:0:0:0:
256,192,80331,1,8,0:0:0:0:
256,192,80406,1,0,0:0:0:0:
256,192,80556,1,0,0:0:0:0:
256,192,80631,1,0,0:0:0:0:
256,192,80706,1,8,0:0:0:0:
256,192,80781,1,0,0:0:0:0:
256,192,80931,1,0,0:0:0:0:
256,192,81006,1,8,0:0:0:0:
256,192,81156,1,0,0:0:0:0:
256,192,81231,1,8,0:0:0:0:
256,192,81306,1,8,0:0:0:0:
256,192,81381,1,0,0:0:0:0:
256,192,81456,1,0,0:0:0:0:
256,192,81531,1,8,0:0:0:0:
256,192,81606,1,0,0:0:0:0:
256,192,81756,1,0,0:0:0:0:
256,192,81831,1,0,0:0:0:0:
256,192,81906,1,8,0:0:0:0:
256,192,82056,1,0,0:0:0:0:
256,192,82206,1,0,0:0:0:0:
256,192,82281,1,8,0:0:0:0:
256,192,82356,1,0,0:0:0:0:
256,192,82506,1,8,0:0:0:0:
256,192,82581,1,0,0:0:0:0:
256,192,82656,1,8,0:0:0:0:
256,192,82731,1,8,0:0:0:0:
256,192,82806,1,0,0:0:0:0:
256,192,82956,1,0,0:0:0:0:
256,192,83031,1,0,0:0:0:0:
256,192,83106,1,8,0:0:0:0:
256,192,83256,1,0,0:0:0:0:
256,192,83406,1,8,0:0:0:0:
256,192,83481,1,0,0:0:0:0:
256,192,83556,1,0,0:0:0:0:
256,192,83631,1,0,0:0:0:0:
256,192,83706,1,8,0:0:0:0:
256,192,83856,1,8,0:0:0:0:
256,192,83931,1,8,0:0:0:0:
256,192,84006,1,0,0:0:0:0:
256,192,84156,1,0,0:0:0:0:
256,192,84231,1,0,0:0:0:0:
256,192,84306,1,8,0:0:0:0:
256,192,84456,1,0,0:0:0:0:
256,192,84531,1,8,0:0:0:0:
256,192,84606,1,0,0:0:0:0:
256,192,84756,1,0,0:0:0:0:
256,192,84906,1,8,0:0:0:0:
256,192,84981,1,8,0:0:0:0:
256,192,85056,1,8,0:0:0:0:
256,192,85131,1,8,0:0:0:0:
256,192,85206,1,0,0:0:0:0:
256,192,85356,1,0,0:0:0:0:
256,192,85431,1,0,0:0:0:0:
256,192,85506,1,8,0:0:0:0:
256,192,85581,1,0,0:0:0:0:
256,192,85731,1,0,0:0:0:0:
256,192,85806,1,8,0:0:0:0:
256,192,85956,1,0,0:0:0:0:
256,192,86031,1,8,0:0:0:0:
256,192,86106,1,8,0:0:0:0:
256,192,86181,1,0,0:0:0:0:
256,192,86256,1,8,0:0:0:0:
256,192,86331,1,8,0:0:0:0:
256,192,86406,1,0,0:0:0:0:
256,192,86556,1,0,0:0:0:0:
256,192,86631,1,0,0:0:0:0:
256,192,86706,1,8,0:0:0:0:
256,192,86856,1,0,0:0:0:0:
256,192,87006,1,0,0:0:0:0:
256,192,87081,1,8,0:0:0:0:
256,192,87156,1,0,0:0:0:0:
256,192,87306,1,8,0:0:0:0:
256,192,87381,1,0,0:0:0:0:
256,192,87456,1,8,0:0:0:0:
256,192,87531,1,8,0:0:0:0:
256,192,87606,1,0,0:0:0:0:
256,192,87756,1,0,0:0:0:0:
256,192,87831,1,0,0:0:0:0:
256,192,87906,1,8,0:0:0:0:
256,192,88056,1,0,0:0:0:0:
256,192,88206,1,8,0:0:0:0:
256,192,88281,1,8,0:0:0:0:
256,192,88356,1,0,0:0:0:0:
256,192,88431,1,8,0:0:0:0:
256,192,88506,1,0,0:0:0:0:
256,192,88581,1,8,0:0:0:0:
256,192,88656,1,8,0:0:0:0:
256,192,88731,1,8,0:0:0:0:
256,192,88806,1,0,0:0:0:0:
256,192,88956,1,0,0:0:0:0:
256,192,89031,1,0,0:0:0:0:
256,192,89106,1,8,0:0:0:0:
256,192,89256,1,0,0:0:0:0:
256,192,89331,1,8,0:0:0:0:
256,192,89406,1,0,0:0:0:0:
256,192,89556,1,0,0:0:0:0:
256,192,89706,1,8,0:0:0:0:
256,192,89781,1,8,0:0:0:0:
256,192,89856,1,8,0:0:0:0:
256,192,89931,1,8,0:0:0:0:
256,192,90006,1,0,0:0:0:0:
256,192,90156,1,0,0:0:0:0:
256,192,90231,1,0,0:0:0:0:
256,192,90306,1,8,0:0:0:0:
256,192,90381,1,0,0:0:0:0:
256,192,90531,1,0,0:0:0:0:
256,192,90606,1,8,0:0:0:0:
256,192,90756,1,0,0:0:0:0:
256,192,90831,1,8,0:0:0:0:
256,192,90906,1,8,0:0:0:0:
256,192,90981,1,0,0:0:0:0:
256,192,91056,1,0,0:0:0:0:
256,192,91131,1,8,0:0:0:0:
256,192,91206,1,8,0:0:0:0:
256,192,91356,1,0,0:0:0:0:
256,192,91431,1,0,0:0:0:0:
256,192,91506,1,8,0:0:0:0:
256,192,91656,1,0,0:0:0:0:
256,192,91731,1,0,0:0:0:0:
256,192,91806,1,8,0:0:0:0:
256,192,91956,1,0,0:0:0:0:
256,192,92031,1,0,0:0:0:0:
256,192,92106,1,8,0:0:0:0:
256,192,92256,1,0,0:0:0:0:
256,192,92406,1,8,0:0:0:0:
256,192,92481,1,0,0:0:0:0:
256,192,92556,1,8,0:0:0:0:
256,192,92631,1,0,0:0:0:0:
256,192,92706,1,8,0:0:0:0:
256,192,92781,1,0,0:0:0:0:
256,192,92856,1,8,0:0:0:0:
256,192,92931,1,0,0:0:0:0:
256,192,93006,1,8,0:0:0:0:
256,192,93081,1,8,0:0:0:0:
256,192,93156,1,8,0:0:0:0:
256,192,93231,1,8,0:0:0:0:
256,192,93306,1,0,0:0:0:0:
256,192,93381,1,0,0:0:0:0:
256,192,93456,1,0,0:0:0:0:
256,192,93531,1,0,0:0:0:0:
256,192,93606,1,8,0:0:0:0:
256,192,93756,1,0,0:0:0:0:
256,192,93831,1,0,0:0:0:0:
256,192,93906,1,8,0:0:0:0:
256,192,94056,1,0,0:0:0:0:
256,192,94131,1,0,0:0:0:0:
256,192,94206,1,8,0:0:0:0:
256,192,94356,1,0,0:0:0:0:
256,192,94431,1,0,0:0:0:0:
256,192,94506,1,8,0:0:0:0:
256,192,94656,1,0,0:0:0:0:
256,192,94806,1,8,0:0:0:0:
256,192,94881,1,0,0:0:0:0:
256,192,94956,1,0,0:0:0:0:
256,192,95031,1,0,0:0:0:0:
256,192,95106,1,8,0:0:0:0:
256,192,95181,1,0,0:0:0:0:
256,192,95256,1,8,0:0:0:0:
256,192,95331,1,0,0:0:0:0:
256,192,95406,1,0,0:0:0:0:
256,192,95481,1,0,0:0:0:0:
256,192,95556,1,8,0:0:0:0:
256,192,95631,1,0,0:0:0:0:
256,192,95706,1,8,0:0:0:0:
256,192,95781,1,8,0:0:0:0:
256,192,95856,1,0,0:0:0:0:
256,192,96006,1,4,0:0:0:0:
256,192,96156,1,8,0:0:0:0:
256,192,96231,1,0,0:0:0:0:
256,192,96381,1,0,0:0:0:0:
256,192,96456,1,8,0:0:0:0:
256,192,96606,1,4,0:0:0:0:
256,192,96756,1,8,0:0:0:0:
256,192,96831,1,0,0:0:0:0:
256,192,96981,1,0,0:0:0:0:
256,192,97056,1,8,0:0:0:0:
256,192,97206,1,4,0:0:0:0:
256,192,97356,1,0,0:0:0:0:
256,192,97431,1,8,0:0:0:0:
256,192,97506,1,0,0:0:0:0:
256,192,97656,1,8,0:0:0:0:
256,192,97806,1,4,0:0:0:0:
256,192,97956,1,8,0:0:0:0:
256,192,98031,1,8,0:0:0:0:
256,192,98106,1,0,0:0:0:0:
256,192,98181,1,8,0:0:0:0:
256,192,98256,1,8,0:0:0:0:
256,192,98406,1,4,0:0:0:0:
224,192,98556,1,8,0:0:0:0:
256,192,98706,1,8,0:0:0:0:
256,192,98856,1,8,0:0:0:0:
256,192,99006,1,4,0:0:0:0:
256,192,99156,1,8,0:0:0:0:
256,192,99306,1,8,0:0:0:0:
256,192,99456,1,8,0:0:0:0:
256,192,99606,1,4,0:0:0:0:
256,192,99756,1,8,0:0:0:0:
256,192,99906,1,8,0:0:0:0:
256,192,100056,1,8,0:0:0:0:
256,192,100206,1,4,0:0:0:0:
256,192,100356,1,8,0:0:0:0:
256,192,100431,1,8,0:0:0:0:
256,192,100506,1,0,0:0:0:0:
256,192,100656,1,8,0:0:0:0:
256,192,100806,1,4,0:0:0:0:
256,192,100956,1,8,0:0:0:0:
256,192,101106,1,4,0:0:0:0:
256,192,101256,1,8,0:0:0:0:
256,192,101406,1,4,0:0:0:0:
256,192,101556,1,8,0:0:0:0:
256,192,101706,1,4,0:0:0:0:
256,192,101856,1,8,0:0:0:0:
256,192,102006,1,4,0:0:0:0:
256,192,102156,1,12,0:0:0:0:
256,192,102306,1,4,0:0:0:0:
256,192,102456,1,12,0:0:0:0:
256,192,102606,1,4,0:0:0:0:
256,192,102756,1,8,0:0:0:0:
256,192,102806,1,8,0:0:0:0:
256,192,102906,1,8,0:0:0:0:
256,192,102956,1,8,0:0:0:0:
256,192,103056,1,8,0:0:0:0:
256,192,103106,1,8,0:0:0:0:
256,192,103206,1,4,0:0:0:0:
256,192,103356,1,0,0:0:0:0:
256,192,103506,1,8,0:0:0:0:
256,192,103581,1,8,0:0:0:0:
256,192,103656,1,0,0:0:0:0:
256,192,103806,1,12,0:0:0:0:
256,192,103956,1,0,0:0:0:0:
256,192,104031,1,0,0:0:0:0:
256,192,104106,1,8,0:0:0:0:
256,192,104256,1,4,0:0:0:0:
256,192,104406,1,8,0:0:0:0:
256,192,104481,1,8,0:0:0:0:
256,192,104556,1,0,0:0:0:0:
256,192,104706,1,12,0:0:0:0:
256,192,104856,1,0,0:0:0:0:
256,192,104931,1,0,0:0:0:0:
256,192,105006,1,8,0:0:0:0:
256,192,105156,1,0,0:0:0:0:
256,192,105231,1,0,0:0:0:0:
256,192,105306,1,8,0:0:0:0:
256,192,105381,1,0,0:0:0:0:
256,192,105531,1,8,0:0:0:0:
256,192,105606,1,0,0:0:0:0:
256,192,105756,1,8,0:0:0:0:
256,192,105831,1,8,0:0:0:0:
256,192,105906,1,0,0:0:0:0:
256,192,105981,1,8,0:0:0:0:
256,192,106056,1,8,0:0:0:0:
256,192,106206,1,0,0:0:0:0:
256,192,106281,1,0,0:0:0:0:
256,192,106356,1,8,0:0:0:0:
256,192,106431,1,0,0:0:0:0:
256,192,106581,1,8,0:0:0:0:
256,192,106656,1,8,0:0:0:0:
256,192,106806,1,4,0:0:0:0:
256,192,106956,1,0,0:0:0:0:
256,192,107006,1,0,0:0:0:0:
256,192,107056,1,0,0:0:0:0:
256,192,107106,1,8,0:0:0:0:
256,192,107256,1,0,0:0:0:0:
256,192,107331,1,8,0:0:0:0:
256,192,107481,1,8,0:0:0:0:
256,192,107556,1,0,0:0:0:0:
256,192,107706,1,8,0:0:0:0:
256,192,107781,1,8,0:0:0:0:
256,192,107856,1,0,0:0:0:0:
256,192,107931,1,8,0:0:0:0:
256,192,108006,1,0,0:0:0:0:
256,192,108156,1,0,0:0:0:0:
256,192,108231,1,0,0:0:0:0:
256,192,108306,1,8,0:0:0:0:
256,192,108456,1,8,0:0:0:0:
256,192,108531,1,8,0:0:0:0:
256,192,108606,1,0,0:0:0:0:
256,192,108756,1,0,0:0:0:0:
256,192,108831,1,0,0:0:0:0:
256,192,108906,1,0,0:0:0:0:
224,192,108981,1,8,0:0:0:0:
256,192,109056,1,8,0:0:0:0:
256,192,109131,1,8,0:0:0:0:
256,192,109206,1,0,0:0:0:0:
256,192,109356,1,0,0:0:0:0:
256,192,109431,1,0,0:0:0:0:
256,192,109506,1,8,0:0:0:0:
256,192,109656,1,8,0:0:0:0:
256,192,109731,1,8,0:0:0:0:
256,192,109806,1,0,0:0:0:0:
256,192,109881,1,0,0:0:0:0:
256,192,109956,1,8,0:0:0:0:
256,192,110031,1,0,0:0:0:0:
256,192,110106,1,8,0:0:0:0:
256,192,110181,1,8,0:0:0:0:
256,192,110256,1,0,0:0:0:0:
256,192,110331,1,8,0:0:0:0:
256,192,110406,1,0,0:0:0:0:
256,192,110556,1,8,0:0:0:0:
256,192,110631,1,8,0:0:0:0:
256,192,110706,1,0,0:0:0:0:
256,192,110856,1,8,0:0:0:0:
256,192,111006,1,0,0:0:0:0:
256,192,111081,1,0,0:0:0:0:
256,192,111156,1,8,0:0:0:0:
256,192,111231,1,8,0:0:0:0:
256,192,111306,1,0,0:0:0:0:
256,192,111381,1,0,0:0:0:0:
256,192,111456,1,8,0:0:0:0:
256,192,111606,1,4,0:0:0:0:
256,192,111756,1,8,0:0:0:0:
256,192,111806,1,8,0:0:0:0:
256,192,111856,1,8,0:0:0:0:
256,192,111906,1,0,0:0:0:0:
256,192,112056,1,8,0:0:0:0:
256,192,112106,1,8,0:0:0:0:
256,192,112156,1,8,0:0:0:0:
256,192,112206,1,0,0:0:0:0:
256,192,112356,1,4,0:0:0:0:
256,192,112506,1,8,0:0:0:0:
256,192,112556,1,8,0:0:0:0:
256,192,112606,1,8,0:0:0:0:
256,192,112656,1,8,0:0:0:0:
256,192,112806,1,4,0:0:0:0:
256,192,112956,1,0,0:0:0:0:
256,192,113106,1,8,0:0:0:0:
256,192,113181,1,8,0:0:0:0:
256,192,113256,1,0,0:0:0:0:
256,192,113406,1,12,0:0:0:0:
256,192,113556,1,0,0:0:0:0:
256,192,113631,1,0,0:0:0:0:
256,192,113706,1,8,0:0:0:0:
256,192,113856,1,4,0:0:0:0:
256,192,114006,1,8,0:0:0:0:
256,192,114081,1,8,0:0:0:0:
256,192,114156,1,0,0:0:0:0:
256,192,114306,1,12,0:0:0:0:
256,192,114456,1,0,0:0:0:0:
256,192,114531,1,0,0:0:0:0:
256,192,114606,1,8,0:0:0:0:
256,192,114756,1,0,0:0:0:0:
256,192,114831,1,0,0:0:0:0:
256,192,114906,1,8,0:0:0:0:
256,192,114981,1,0,0:0:0:0:
256,192,115131,1,8,0:0:0:0:
256,192,115206,1,0,0:0:0:0:
256,192,115356,1,8,0:0:0:0:
256,192,115431,1,8,0:0:0:0:
256,192,115506,1,0,0:0:0:0:
256,192,115581,1,8,0:0:0:0:
256,192,115656,1,8,0:0:0:0:
256,192,115806,1,0,0:0:0:0:
256,192,115881,1,0,0:0:0:0:
256,192,115956,1,8,0:0:0:0:
256,192,116031,1,0,0:0:0:0:
256,192,116106,1,8,0:0:0:0:
256,192,116181,1,8,0:0:0:0:
256,192,116256,1,8,0:0:0:0:
256,192,116406,1,4,0:0:0:0:
256,192,116556,1,0,0:0:0:0:
256,192,116606,1,0,0:0:0:0:
256,192,116656,1,0,0:0:0:0:
256,192,116706,1,8,0:0:0:0:
256,192,116856,1,0,0:0:0:0:
256,192,116931,1,8,0:0:0:0:
256,192,117081,1,8,0:0:0:0:
256,192,117156,1,0,0:0:0:0:
256,192,117306,1,8,0:0:0:0:
256,192,117381,1,8,0:0:0:0:
256,192,117456,1,0,0:0:0:0:
256,192,117531,1,8,0:0:0:0:
256,192,117606,1,0,0:0:0:0:
256,192,117756,1,0,0:0:0:0:
256,192,117831,1,0,0:0:0:0:
256,192,117906,1,8,0:0:0:0:
256,192,118056,1,8,0:0:0:0:
256,192,118131,1,8,0:0:0:0:
256,192,118206,1,0,0:0:0:0:
256,192,118356,1,0,0:0:0:0:
256,192,118431,1,0,0:0:0:0:
256,192,118506,1,0,0:0:0:0:
224,192,118581,1,8,0:0:0:0:
256,192,118656,1,8,0:0:0:0:
256,192,118731,1,8,0:0:0:0:
256,192,118806,1,0,0:0:0:0:
256,192,118956,1,0,0:0:0:0:
256,192,119031,1,0,0:0:0:0:
256,192,119106,1,8,0:0:0:0:
256,192,119256,1,8,0:0:0:0:
256,192,119331,1,8,0:0:0:0:
256,192,119406,1,0,0:0:0:0:
256,192,119481,1,8,0:0:0:0:
256,192,119556,1,0,0:0:0:0:
256,192,119631,1,0,0:0:0:0:
256,192,119706,1,0,0:0:0:0:
256,192,119781,1,8,0:0:0:0:
256,192,119856,1,0,0:0:0:0:
256,192,119931,1,8,0:0:0:0:
256,192,120006,1,0,0:0:0:0:
256,192,120156,1,8,0:0:0:0:
256,192,120231,1,8,0:0:0:0:
256,192,120306,1,0,0:0:0:0:
256,192,120456,1,8,0:0:0:0:
256,192,120606,1,0,0:0:0:0:
256,192,120681,1,0,0:0:0:0:
256,192,120756,1,8,0:0:0:0:
256,192,120831,1,8,0:0:0:0:
256,192,120906,1,0,0:0:0:0:
256,192,120981,1,0,0:0:0:0:
256,192,121056,1,8,0:0:0:0:
256,192,121206,1,4,0:0:0:0:
256,192,121356,1,8,0:0:0:0:
256,192,121431,1,8,0:0:0:0:
256,192,121506,1,0,0:0:0:0:
256,192,121581,1,0,0:0:0:0:
256,192,121656,1,8,0:0:0:0:
256,192,121731,1,8,0:0:0:0:
256,192,121806,1,0,0:0:0:0:
256,192,121881,1,8,0:0:0:0:
256,192,121956,1,0,0:0:0:0:
256,192,122031,1,0,0:0:0:0:
256,192,122106,1,8,0:0:0:0:
256,192,122181,1,8,0:0:0:0:
256,192,122256,1,8,0:0:0:0:
256,192,122306,1,8,0:0:0:0:
256,192,122356,1,8,0:0:0:0:
256,192,122406,1,0,0:0:0:0:
256,192,122706,1,8,0:0:0:0:
256,192,122856,1,0,0:0:0:0:
256,192,123006,1,8,0:0:0:0:
256,192,123306,1,0,0:0:0:0:
256,192,123456,1,8,0:0:0:0:
256,192,123756,1,0,0:0:0:0:
256,192,123906,1,8,0:0:0:0:
256,192,124206,1,8,0:0:0:0:
256,192,124506,1,0,0:0:0:0:
256,192,124806,1,8,0:0:0:0:
256,192,125106,1,8,0:0:0:0:
256,192,125256,1,0,0:0:0:0:
256,192,125406,1,0,0:0:0:0:
256,192,125556,1,0,0:0:0:0:
256,192,125706,1,8,0:0:0:0:
256,192,125856,1,0,0:0:0:0:
256,192,126006,1,8,0:0:0:0:
256,192,126306,1,0,0:0:0:0:
256,192,126606,1,8,0:0:0:0:
256,192,126906,1,8,0:0:0:0:
256,192,127206,1,0,0:0:0:0:
256,192,127506,1,8,0:0:0:0:
256,192,127806,1,0,0:0:0:0:
256,192,127956,1,0,0:0:0:0:
256,192,128031,1,0,0:0:0:0:
256,192,128106,1,8,0:0:0:0:
256,192,128406,1,0,0:0:0:0:
256,192,128706,1,8,0:0:0:0:
256,192,129006,1,8,0:0:0:0:
256,192,129156,1,0,0:0:0:0:
256,192,129231,1,0,0:0:0:0:
256,192,129306,1,8,0:0:0:0:
256,192,129456,1,8,0:0:0:0:
256,192,129606,1,0,0:0:0:0:
256,192,129906,1,0,0:0:0:0:
256,192,130206,1,8,0:0:0:0:
256,192,130356,1,0,0:0:0:0:
256,192,130431,1,0,0:0:0:0:
256,192,130506,1,8,0:0:0:0:
256,192,130806,1,4,0:0:0:0:
256,192,130956,1,8,0:0:0:0:
256,192,131256,1,8,0:0:0:0:
256,192,131406,1,4,0:0:0:0:
256,192,131556,1,8,0:0:0:0:
256,192,131856,1,8,0:0:0:0:
256,192,132006,1,4,0:0:0:0:
256,192,132156,1,12,0:0:0:0:
256,192,132306,1,4,0:0:0:0:
256,192,132456,1,12,0:0:0:0:
256,192,132606,1,4,0:0:0:0:
256,192,132756,1,8,0:0:0:0:
256,192,132806,1,8,0:0:0:0:
256,192,132906,1,8,0:0:0:0:
256,192,132956,1,8,0:0:0:0:
256,192,133056,1,8,0:0:0:0:
256,192,133106,1,8,0:0:0:0:
256,192,133206,1,4,0:0:0:0:
256,192,133356,1,8,0:0:0:0:
256,192,133431,1,8,0:0:0:0:
256,192,133506,1,0,0:0:0:0:
256,192,133656,1,8,0:0:0:0:
256,192,133806,1,0,0:0:0:0:
256,192,133881,1,0,0:0:0:0:
256,192,133956,1,0,0:0:0:0:
256,192,134106,1,8,0:0:0:0:
256,192,134256,1,8,0:0:0:0:
256,192,134331,1,0,0:0:0:0:
256,192,134406,1,0,0:0:0:0:
256,192,134556,1,8,0:0:0:0:
256,192,134706,1,8,0:0:0:0:
256,192,134781,1,0,0:0:0:0:
256,192,134856,1,0,0:0:0:0:
256,192,134931,1,0,0:0:0:0:
256,192,135006,1,8,0:0:0:0:
256,192,135156,1,8,0:0:0:0:
256,192,135231,1,0,0:0:0:0:
256,192,135306,1,8,0:0:0:0:
256,192,135381,1,8,0:0:0:0:
256,192,135456,1,8,0:0:0:0:
256,192,135531,1,8,0:0:0:0:
256,192,135606,1,0,0:0:0:0:
256,192,135756,1,8,0:0:0:0:
256,192,135831,1,8,0:0:0:0:
256,192,135906,1,0,0:0:0:0:
256,192,136056,1,8,0:0:0:0:
256,192,136206,1,0,0:0:0:0:
256,192,136281,1,0,0:0:0:0:
256,192,136356,1,0,0:0:0:0:
256,192,136506,1,8,0:0:0:0:
256,192,136656,1,8,0:0:0:0:
256,192,136731,1,0,0:0:0:0:
256,192,136806,1,0,0:0:0:0:
256,192,136956,1,8,0:0:0:0:
256,192,137031,1,8,0:0:0:0:
256,192,137106,1,8,0:0:0:0:
256,192,137181,1,0,0:0:0:0:
256,192,137256,1,8,0:0:0:0:
256,192,137406,1,8,0:0:0:0:
256,192,137481,1,8,0:0:0:0:
256,192,137556,1,0,0:0:0:0:
256,192,137631,1,0,0:0:0:0:
256,192,137706,1,0,0:0:0:0:
256,192,137781,1,8,0:0:0:0:
256,192,137856,1,8,0:0:0:0:
256,192,137931,1,8,0:0:0:0:
256,192,138006,1,0,0:0:0:0:
256,192,138156,1,8,0:0:0:0:
256,192,138231,1,0,0:0:0:0:
256,192,138306,1,8,0:0:0:0:
256,192,138456,1,8,0:0:0:0:
256,192,138606,1,8,0:0:0:0:
256,192,138681,1,0,0:0:0:0:
256,192,138756,1,0,0:0:0:0:
256,192,138906,1,8,0:0:0:0:
256,192,138981,1,0,0:0:0:0:
256,192,139056,1,0,0:0:0:0:
256,192,139206,1,0,0:0:0:0:
256,192,139356,1,8,0:0:0:0:
256,192,139431,1,0,0:0:0:0:
256,192,139506,1,8,0:0:0:0:
256,192,139656,1,8,0:0:0:0:
256,192,139806,1,8,0:0:0:0:
256,192,139881,1,8,0:0:0:0:
256,192,139956,1,0,0:0:0:0:
256,192,140106,1,8,0:0:0:0:
256,192,140181,1,8,0:0:0:0:
256,192,140256,1,0,0:0:0:0:
256,192,140406,1,8,0:0:0:0:
256,192,140481,1,0,0:0:0:0:
256,192,140556,1,0,0:0:0:0:
256,192,140631,1,0,0:0:0:0:
256,192,140706,1,8,0:0:0:0:
256,192,140856,1,0,0:0:0:0:
256,192,140931,1,0,0:0:0:0:
256,192,141006,1,8,0:0:0:0:
256,192,141081,1,8,0:0:0:0:
256,192,141156,1,0,0:0:0:0:
256,192,141231,1,0,0:0:0:0:
256,192,141306,1,8,0:0:0:0:
256,192,141456,1,8,0:0:0:0:
256,192,141606,1,0,0:0:0:0:
256,192,141681,1,8,0:0:0:0:
256,192,141756,1,0,0:0:0:0:
256,192,141831,1,0,0:0:0:0:
256,192,141906,1,8,0:0:0:0:
256,192,141981,1,0,0:0:0:0:
256,192,142056,1,8,0:0:0:0:
256,192,142131,1,8,0:0:0:0:
256,192,142206,1,0,0:0:0:0:
256,192,142281,1,0,0:0:0:0:
256,192,142356,1,0,0:0:0:0:
256,192,142431,1,8,0:0:0:0:
256,192,142506,1,8,0:0:0:0:
256,192,142581,1,0,0:0:0:0:
256,192,142656,1,8,0:0:0:0:
256,192,142731,1,8,0:0:0:0:
256,192,142806,1,0,0:0:0:0:
256,192,142956,1,8,0:0:0:0:
256,192,143031,1,8,0:0:0:0:
256,192,143106,1,0,0:0:0:0:
256,192,143256,1,8,0:0:0:0:
256,192,143406,1,0,0:0:0:0:
256,192,143481,1,8,0:0:0:0:
256,192,143556,1,0,0:0:0:0:
256,192,143706,1,8,0:0:0:0:
256,192,143856,1,8,0:0:0:0:
256,192,143931,1,0,0:0:0:0:
256,192,144006,1,0,0:0:0:0:
256,192,144156,1,8,0:0:0:0:
256,192,144306,1,8,0:0:0:0:
256,192,144381,1,0,0:0:0:0:
256,192,144456,1,0,0:0:0:0:
256,192,144531,1,0,0:0:0:0:
256,192,144606,1,8,0:0:0:0:
256,192,144756,1,8,0:0:0:0:
256,192,144831,1,0,0:0:0:0:
256,192,144906,1,8,0:0:0:0:
256,192,144981,1,8,0:0:0:0:
256,192,145056,1,8,0:0:0:0:
256,192,145131,1,8,0:0:0:0:
256,192,145206,1,0,0:0:0:0:
256,192,145356,1,8,0:0:0:0:
256,192,145431,1,8,0:0:0:0:
256,192,145506,1,0,0:0:0:0:
256,192,145656,1,8,0:0:0:0:
256,192,145806,1,0,0:0:0:0:
256,192,145881,1,8,0:0:0:0:
256,192,145956,1,0,0:0:0:0:
256,192,146106,1,8,0:0:0:0:
256,192,146256,1,8,0:0:0:0:
256,192,146331,1,0,0:0:0:0:
256,192,146406,1,0,0:0:0:0:
256,192,146556,1,8,0:0:0:0:
256,192,146631,1,8,0:0:0:0:
256,192,146706,1,8,0:0:0:0:
256,192,146781,1,0,0:0:0:0:
256,192,146856,1,8,0:0:0:0:
256,192,147006,1,8,0:0:0:0:
256,192,147081,1,0,0:0:0:0:
256,192,147156,1,0,0:0:0:0:
256,192,147231,1,0,0:0:0:0:
256,192,147306,1,0,0:0:0:0:
256,192,147381,1,8,0:0:0:0:
256,192,147456,1,8,0:0:0:0:
256,192,147531,1,8,0:0:0:0:
256,192,147606,1,0,0:0:0:0:
256,192,147756,1,8,0:0:0:0:
256,192,147831,1,0,0:0:0:0:
256,192,147906,1,8,0:0:0:0:
256,192,148056,1,8,0:0:0:0:
256,192,148206,1,8,0:0:0:0:
256,192,148281,1,0,0:0:0:0:
256,192,148356,1,0,0:0:0:0:
256,192,148506,1,8,0:0:0:0:
256,192,148581,1,0,0:0:0:0:
256,192,148656,1,0,0:0:0:0:
256,192,148806,1,0,0:0:0:0:
256,192,148956,1,8,0:0:0:0:
256,192,149031,1,0,0:0:0:0:
256,192,149106,1,8,0:0:0:0:
256,192,149256,1,8,0:0:0:0:
256,192,149406,1,8,0:0:0:0:
256,192,149481,1,8,0:0:0:0:
256,192,149556,1,0,0:0:0:0:
256,192,149706,1,8,0:0:0:0:
256,192,149781,1,8,0:0:0:0:
256,192,149856,1,0,0:0:0:0:
256,192,150006,1,8,0:0:0:0:
256,192,150081,1,0,0:0:0:0:
256,192,150156,1,0,0:0:0:0:
256,192,150231,1,0,0:0:0:0:
256,192,150306,1,8,0:0:0:0:
256,192,150456,1,8,0:0:0:0:
256,192,150531,1,0,0:0:0:0:
256,192,150606,1,8,0:0:0:0:
256,192,150681,1,8,0:0:0:0:
256,192,150756,1,0,0:0:0:0:
256,192,150831,1,0,0:0:0:0:
256,192,150906,1,8,0:0:0:0:
256,192,151056,1,8,0:0:0:0:
256,192,151206,1,0,0:0:0:0:
256,192,151281,1,8,0:0:0:0:
256,192,151356,1,0,0:0:0:0:
256,192,151431,1,0,0:0:0:0:
256,192,151506,1,8,0:0:0:0:
256,192,151581,1,0,0:0:0:0:
256,192,151656,1,8,0:0:0:0:
256,192,151731,1,8,0:0:0:0:
256,192,151806,1,0,0:0:0:0:
256,192,151881,1,8,0:0:0:0:
256,192,151956,1,0,0:0:0:0:
256,192,152031,1,8,0:0:0:0:
256,192,152106,1,8,0:0:0:0:
256,192,152181,1,0,0:0:0:0:
256,192,152256,1,8,0:0:0:0:
256,192,152406,1,4,0:0:0:0:
256,192,152556,1,8,0:0:0:0:
256,192,152856,1,8,0:0:0:0:
256,192,153156,1,8,0:0:0:0:
256,192,153456,1,8,0:0:0:0:
256,192,153606,1,4,0:0:0:0:
256,192,153756,1,8,0:0:0:0:
256,192,154056,1,8,0:0:0:0:
256,192,154356,1,8,0:0:0:0:
256,192,154656,1,8,0:0:0:0:
256,192,154806,1,4,0:0:0:0:
256,192,154956,1,8,0:0:0:0:
256,192,155256,1,8,0:0:0:0:
256,192,155406,1,4,0:0:0:0:
256,192,155556,1,8,0:0:0:0:
256,192,155856,1,8,0:0:0:0:
256,192,156006,1,4,0:0:0:0:
256,192,156156,1,4,0:0:0:0:
256,192,156306,1,12,0:0:0:0:
256,192,156456,1,12,0:0:0:0:
256,192,156606,1,0,0:0:0:0:
256,192,156681,1,0,0:0:0:0:
256,192,156756,1,8,0:0:0:0:
256,192,156831,1,8,0:0:0:0:
256,192,156906,1,8,0:0:0:0:
256,192,156956,1,8,0:0:0:0:
256,192,157006,1,0,0:0:0:0:
256,192,157056,1,0,0:0:0:0:
256,192,157106,1,8,0:0:0:0:
256,192,157156,1,8,0:0:0:0:
256,192,157206,1,0,0:0:0:0:
256,192,157356,1,0,0:0:0:0:
256,192,157506,1,8,0:0:0:0:
256,192,157581,1,8,0:0:0:0:
256,192,157656,1,0,0:0:0:0:
256,192,157806,1,12,0:0:0:0:
256,192,157956,1,0,0:0:0:0:
256,192,158031,1,0,0:0:0:0:
256,192,158106,1,8,0:0:0:0:
256,192,158256,1,4,0:0:0:0:
256,192,158406,1,8,0:0:0:0:
256,192,158481,1,8,0:0:0:0:
256,192,158556,1,0,0:0:0:0:
256,192,158706,1,12,0:0:0:0:
256,192,158856,1,0,0:0:0:0:
256,192,158931,1,0,0:0:0:0:
256,192,159006,1,8,0:0:0:0:
256,192,159156,1,0,0:0:0:0:
256,192,159231,1,0,0:0:0:0:
256,192,159306,1,8,0:0:0:0:
256,192,159381,1,0,0:0:0:0:
256,192,159456,1,0,0:0:0:0:
256,192,159531,1,8,0:0:0:0:
256,192,159606,1,0,0:0:0:0:
256,192,159756,1,8,0:0:0:0:
256,192,159831,1,8,0:0:0:0:
256,192,159906,1,0,0:0:0:0:
256,192,159981,1,8,0:0:0:0:
256,192,160056,1,8,0:0:0:0:
256,192,160206,1,0,0:0:0:0:
256,192,160281,1,0,0:0:0:0:
256,192,160356,1,8,0:0:0:0:
256,192,160431,1,0,0:0:0:0:
256,192,160581,1,8,0:0:0:0:
256,192,160656,1,8,0:0:0:0:
256,192,160806,1,4,0:0:0:0:
256,192,160956,1,0,0:0:0:0:
256,192,161006,1,0,0:0:0:0:
256,192,161056,1,0,0:0:0:0:
256,192,161106,1,8,0:0:0:0:
256,192,161256,1,0,0:0:0:0:
256,192,161331,1,8,0:0:0:0:
256,192,161481,1,8,0:0:0:0:
256,192,161556,1,0,0:0:0:0:
256,192,161706,1,8,0:0:0:0:
256,192,161781,1,0,0:0:0:0:
256,192,161856,1,0,0:0:0:0:
256,192,161931,1,8,0:0:0:0:
256,192,162006,1,8,0:0:0:0:
256,192,162156,1,0,0:0:0:0:
256,192,162231,1,0,0:0:0:0:
256,192,162306,1,8,0:0:0:0:
256,192,162456,1,8,0:0:0:0:
256,192,162531,1,8,0:0:0:0:
256,192,162606,1,0,0:0:0:0:
256,192,162756,1,8,0:0:0:0:
256,192,162831,1,0,0:0:0:0:
256,192,162906,1,0,0:0:0:0:
224,192,162981,1,8,0:0:0:0:
256,192,163056,1,8,0:0:0:0:
256,192,163131,1,8,0:0:0:0:
256,192,163206,1,0,0:0:0:0:
256,192,163356,1,0,0:0:0:0:
256,192,163431,1,0,0:0:0:0:
256,192,163506,1,8,0:0:0:0:
256,192,163656,1,8,0:0:0:0:
256,192,163731,1,8,0:0:0:0:
256,192,163806,1,0,0:0:0:0:
256,192,163881,1,0,0:0:0:0:
256,192,163956,1,8,0:0:0:0:
256,192,164031,1,0,0:0:0:0:
256,192,164106,1,8,0:0:0:0:
256,192,164181,1,8,0:0:0:0:
256,192,164256,1,0,0:0:0:0:
256,192,164331,1,8,0:0:0:0:
256,192,164406,1,0,0:0:0:0:
256,192,164556,1,8,0:0:0:0:
256,192,164631,1,8,0:0:0:0:
256,192,164706,1,0,0:0:0:0:
256,192,164856,1,8,0:0:0:0:
256,192,165006,1,0,0:0:0:0:
256,192,165081,1,0,0:0:0:0:
256,192,165156,1,0,0:0:0:0:
256,192,165231,1,8,0:0:0:0:
256,192,165306,1,0,0:0:0:0:
256,192,165381,1,0,0:0:0:0:
256,192,165456,1,8,0:0:0:0:
256,192,165606,1,4,0:0:0:0:
256,192,165756,1,8,0:0:0:0:
256,192,165806,1,8,0:0:0:0:
256,192,165856,1,8,0:0:0:0:
256,192,165906,1,0,0:0:0:0:
256,192,166056,1,8,0:0:0:0:
256,192,166106,1,8,0:0:0:0:
256,192,166156,1,8,0:0:0:0:
256,192,166206,1,0,0:0:0:0:
256,192,166356,1,4,0:0:0:0:
256,192,166506,1,8,0:0:0:0:
256,192,166556,1,8,0:0:0:0:
256,192,166606,1,8,0:0:0:0:
256,192,166656,1,8,0:0:0:0:
256,192,166806,1,4,0:0:0:0:
256,192,166956,1,0,0:0:0:0:
256,192,167106,1,8,0:0:0:0:
256,192,167181,1,8,0:0:0:0:
256,192,167256,1,0,0:0:0:0:
256,192,167406,1,12,0:0:0:0:
256,192,167556,1,0,0:0:0:0:
256,192,167631,1,0,0:0:0:0:
256,192,167706,1,8,0:0:0:0:
256,192,167856,1,4,0:0:0:0:
256,192,168006,1,8,0:0:0:0:
256,192,168081,1,8,0:0:0:0:
256,192,168156,1,0,0:0:0:0:
256,192,168306,1,12,0:0:0:0:
256,192,168456,1,0,0:0:0:0:
256,192,168531,1,0,0:0:0:0:
256,192,168606,1,8,0:0:0:0:
256,192,168756,1,0,0:0:0:0:
256,192,168831,1,0,0:0:0:0:
256,192,168906,1,8,0:0:0:0:
256,192,168981,1,0,0:0:0:0:
256,192,169056,1,0,0:0:0:0:
256,192,169131,1,8,0:0:0:0:
256,192,169206,1,0,0:0:0:0:
256,192,169356,1,8,0:0:0:0:
256,192,169431,1,8,0:0:0:0:
256,192,169506,1,0,0:0:0:0:
256,192,169581,1,8,0:0:0:0:
256,192,169656,1,8,0:0:0:0:
256,192,169806,1,0,0:0:0:0:
256,192,169881,1,0,0:0:0:0:
256,192,169956,1,8,0:0:0:0:
256,192,170031,1,0,0:0:0:0:
256,192,170106,1,8,0:0:0:0:
256,192,170181,1,8,0:0:0:0:
256,192,170256,1,8,0:0:0:0:
256,192,170406,1,4,0:0:0:0:
256,192,170556,1,0,0:0:0:0:
256,192,170606,1,0,0:0:0:0:
256,192,170656,1,0,0:0:0:0:
256,192,170706,1,8,0:0:0:0:
256,192,170856,1,0,0:0:0:0:
256,192,170931,1,8,0:0:0:0:
256,192,171081,1,8,0:0:0:0:
256,192,171156,1,0,0:0:0:0:
256,192,171306,1,8,0:0:0:0:
256,192,171381,1,0,0:0:0:0:
256,192,171456,1,0,0:0:0:0:
256,192,171531,1,8,0:0:0:0:
256,192,171606,1,8,0:0:0:0:
256,192,171756,1,0,0:0:0:0:
256,192,171831,1,0,0:0:0:0:
256,192,171906,1,8,0:0:0:0:
256,192,172056,1,8,0:0:0:0:
256,192,172131,1,8,0:0:0:0:
256,192,172206,1,0,0:0:0:0:
256,192,172356,1,8,0:0:0:0:
256,192,172431,1,0,0:0:0:0:
256,192,172506,1,0,0:0:0:0:
224,192,172581,1,8,0:0:0:0:
256,192,172656,1,8,0:0:0:0:
256,192,172731,1,8,0:0:0:0:
256,192,172806,1,0,0:0:0:0:
256,192,172956,1,0,0:0:0:0:
256,192,173031,1,0,0:0:0:0:
256,192,173106,1,8,0:0:0:0:
256,192,173256,1,8,0:0:0:0:
256,192,173331,1,8,0:0:0:0:
256,192,173406,1,0,0:0:0:0:
256,192,173481,1,8,0:0:0:0:
256,192,173556,1,0,0:0:0:0:
256,192,173631,1,0,0:0:0:0:
256,192,173706,1,0,0:0:0:0:
256,192,173781,1,8,0:0:0:0:
256,192,173856,1,0,0:0:0:0:
256,192,173931,1,8,0:0:0:0:
256,192,174006,1,0,0:0:0:0:
256,192,174156,1,8,0:0:0:0:
256,192,174231,1,8,0:0:0:0:
256,192,174306,1,0,0:0:0:0:
256,192,174456,1,8,0:0:0:0:
256,192,174606,1,0,0:0:0:0:
256,192,174681,1,0,0:0:0:0:
256,192,174756,1,8,0:0:0:0:
256,192,174831,1,8,0:0:0:0:
256,192,174906,1,0,0:0:0:0:
256,192,174981,1,0,0:0:0:0:
256,192,175056,1,8,0:0:0:0:
256,192,175206,1,0,0:0:0:0:
256,192,175281,1,8,0:0:0:0:
256,192,175356,1,8,0:0:0:0:
256,192,175431,1,8,0:0:0:0:
256,192,175506,1,0,0:0:0:0:
256,192,175581,1,0,0:0:0:0:
256,192,175656,1,8,0:0:0:0:
256,192,175731,1,0,0:0:0:0:
256,192,175806,1,8,0:0:0:0:
256,192,175881,1,0,0:0:0:0:
256,192,175956,1,8,0:0:0:0:
256,192,176031,1,8,0:0:0:0:
256,192,176106,1,0,0:0:0:0:
256,192,176181,1,8,0:0:0:0:
256,192,176256,1,8,0:0:0:0:
256,192,176306,1,8,0:0:0:0:
256,192,176356,1,8,0:0:0:0:
256,192,176406,1,0,0:0:0:0:
256,192,176556,1,8,0:0:0:0:
256,192,176631,1,8,0:0:0:0:
256,192,176706,1,0,0:0:0:0:
256,192,176856,1,8,0:0:0:0:
256,192,177006,1,0,0:0:0:0:
256,192,177081,1,0,0:0:0:0:
256,192,177156,1,0,0:0:0:0:
256,192,177306,1,8,0:0:0:0:
256,192,177456,1,8,0:0:0:0:
256,192,177531,1,0,0:0:0:0:
256,192,177606,1,0,0:0:0:0:
256,192,177756,1,8,0:0:0:0:
256,192,177906,1,8,0:0:0:0:
256,192,177981,1,0,0:0:0:0:
256,192,178056,1,0,0:0:0:0:
256,192,178131,1,0,0:0:0:0:
256,192,178206,1,8,0:0:0:0:
256,192,178356,1,8,0:0:0:0:
256,192,178431,1,0,0:0:0:0:
256,192,178506,1,8,0:0:0:0:
256,192,178581,1,8,0:0:0:0:
256,192,178656,1,8,0:0:0:0:
256,192,178731,1,8,0:0:0:0:
256,192,178806,1,0,0:0:0:0:
256,192,178956,1,8,0:0:0:0:
256,192,179031,1,8,0:0:0:0:
256,192,179106,1,0,0:0:0:0:
256,192,179256,1,8,0:0:0:0:
256,192,179406,1,0,0:0:0:0:
256,192,179481,1,0,0:0:0:0:
256,192,179556,1,0,0:0:0:0:
256,192,179706,1,8,0:0:0:0:
256,192,179856,1,8,0:0:0:0:
256,192,179931,1,0,0:0:0:0:
256,192,180006,1,0,0:0:0:0:
256,192,180156,1,8,0:0:0:0:
256,192,180231,1,8,0:0:0:0:
256,192,180306,1,8,0:0:0:0:
256,192,180381,1,0,0:0:0:0:
256,192,180456,1,8,0:0:0:0:
256,192,180606,1,8,0:0:0:0:
256,192,180681,1,8,0:0:0:0:
256,192,180756,1,0,0:0:0:0:
256,192,180831,1,0,0:0:0:0:
256,192,180906,1,0,0:0:0:0:
256,192,180981,1,8,0:0:0:0:
256,192,181056,1,8,0:0:0:0:
256,192,181131,1,8,0:0:0:0:
256,192,181206,1,0,0:0:0:0:
256,192,181356,1,8,0:0:0:0:
256,192,181431,1,0,0:0:0:0:
256,192,181506,1,8,0:0:0:0:
256,192,181656,1,8,0:0:0:0:
256,192,181806,1,8,0:0:0:0:
256,192,181881,1,0,0:0:0:0:
256,192,181956,1,0,0:0:0:0:
256,192,182106,1,8,0:0:0:0:
256,192,182181,1,0,0:0:0:0:
256,192,182256,1,0,0:0:0:0:
256,192,182406,1,0,0:0:0:0:
256,192,182556,1,8,0:0:0:0:
256,192,182631,1,0,0:0:0:0:
256,192,182706,1,8,0:0:0:0:
256,192,182856,1,8,0:0:0:0:
256,192,183006,1,8,0:0:0:0:
256,192,183081,1,8,0:0:0:0:
256,192,183156,1,0,0:0:0:0:
256,192,183306,1,8,0:0:0:0:
256,192,183381,1,8,0:0:0:0:
256,192,183456,1,0,0:0:0:0:
256,192,183606,1,8,0:0:0:0:
256,192,183681,1,0,0:0:0:0:
256,192,183756,1,0,0:0:0:0:
256,192,183831,1,0,0:0:0:0:
256,192,183906,1,8,0:0:0:0:
256,192,184056,1,0,0:0:0:0:
256,192,184131,1,0,0:0:0:0:
256,192,184206,1,8,0:0:0:0:
256,192,184281,1,8,0:0:0:0:
256,192,184356,1,0,0:0:0:0:
256,192,184431,1,0,0:0:0:0:
256,192,184506,1,8,0:0:0:0:
256,192,184656,1,8,0:0:0:0:
256,192,184806,1,0,0:0:0:0:
256,192,184881,1,8,0:0:0:0:
256,192,184956,1,0,0:0:0:0:
256,192,185031,1,0,0:0:0:0:
256,192,185106,1,8,0:0:0:0:
256,192,185181,1,0,0:0:0:0:
256,192,185256,1,8,0:0:0:0:
256,192,185331,1,8,0:0:0:0:
256,192,185406,1,0,0:0:0:0:
256,192,185481,1,0,0:0:0:0:
256,192,185556,1,0,0:0:0:0:
256,192,185631,1,8,0:0:0:0:
256,192,185706,1,8,0:0:0:0:
256,192,185781,1,0,0:0:0:0:
256,192,185856,1,8,0:0:0:0:
256,192,185931,1,8,0:0:0:0:
256,192,186006,1,0,0:0:0:0:
256,192,186156,1,8,0:0:0:0:
256,192,186231,1,8,0:0:0:0:
256,192,186306,1,0,0:0:0:0:
256,192,186456,1,8,0:0:0:0:
256,192,186606,1,0,0:0:0:0:
256,192,186681,1,8,0:0:0:0:
256,192,186756,1,0,0:0:0:0:
256,192,186906,1,8,0:0:0:0:
256,192,187056,1,8,0:0:0:0:
256,192,187131,1,0,0:0:0:0:
256,192,187206,1,0,0:0:0:0:
256,192,187356,1,8,0:0:0:0:
256,192,187506,1,8,0:0:0:0:
256,192,187581,1,0,0:0:0:0:
256,192,187656,1,0,0:0:0:0:
256,192,187731,1,0,0:0:0:0:
256,192,187806,1,8,0:0:0:0:
256,192,187956,1,8,0:0:0:0:
256,192,188031,1,0,0:0:0:0:
256,192,188106,1,8,0:0:0:0:
256,192,188181,1,8,0:0:0:0:
256,192,188256,1,8,0:0:0:0:
256,192,188331,1,8,0:0:0:0:
256,192,188406,1,0,0:0:0:0:
256,192,188556,1,8,0:0:0:0:
256,192,188631,1,8,0:0:0:0:
256,192,188706,1,0,0:0:0:0:
256,192,188856,1,8,0:0:0:0:
256,192,189006,1,0,0:0:0:0:
256,192,189081,1,8,0:0:0:0:
256,192,189156,1,0,0:0:0:0:
256,192,189306,1,8,0:0:0:0:
256,192,189456,1,8,0:0:0:0:
256,192,189531,1,0,0:0:0:0:
256,192,189606,1,0,0:0:0:0:
256,192,189756,1,8,0:0:0:0:
256,192,189831,1,8,0:0:0:0:
256,192,189906,1,8,0:0:0:0:
256,192,189981,1,0,0:0:0:0:
256,192,190056,1,8,0:0:0:0:
256,192,190206,1,8,0:0:0:0:
256,192,190281,1,0,0:0:0:0:
256,192,190356,1,0,0:0:0:0:
256,192,190431,1,0,0:0:0:0:
256,192,190506,1,0,0:0:0:0:
256,192,190581,1,8,0:0:0:0:
256,192,190656,1,8,0:0:0:0:
256,192,190731,1,8,0:0:0:0:
256,192,190806,1,0,0:0:0:0:
256,192,190956,1,8,0:0:0:0:
256,192,191031,1,0,0:0:0:0:
256,192,191106,1,8,0:0:0:0:
256,192,191256,1,8,0:0:0:0:
256,192,191406,1,8,0:0:0:0:
256,192,191481,1,0,0:0:0:0:
256,192,191556,1,0,0:0:0:0:
256,192,191706,1,8,0:0:0:0:
256,192,191781,1,0,0:0:0:0:
256,192,191856,1,0,0:0:0:0:
256,192,192006,1,0,0:0:0:0:
256,192,192156,1,8,0:0:0:0:
256,192,192231,1,0,0:0:0:0:
256,192,192306,1,8,0:0:0:0:
256,192,192456,1,8,0:0:0:0:
256,192,192606,1,8,0:0:0:0:
256,192,192681,1,8,0:0:0:0:
256,192,192756,1,0,0:0:0:0:
256,192,192906,1,8,0:0:0:0:
256,192,192981,1,8,0:0:0:0:
256,192,193056,1,0,0:0:0:0:
256,192,193206,1,8,0:0:0:0:
256,192,193281,1,0,0:0:0:0:
256,192,193356,1,0,0:0:0:0:
256,192,193431,1,0,0:0:0:0:
256,192,193506,1,8,0:0:0:0:
256,192,193656,1,8,0:0:0:0:
256,192,193731,1,0,0:0:0:0:
256,192,193806,1,8,0:0:0:0:
256,192,193881,1,8,0:0:0:0:
256,192,193956,1,0,0:0:0:0:
256,192,194031,1,0,0:0:0:0:
256,192,194106,1,8,0:0:0:0:
256,192,194256,1,8,0:0:0:0:
256,192,194406,1,4,0:0:0:0:
256,192,194556,1,8,0:0:0:0:
256,192,194606,1,8,0:0:0:0:
256,192,194656,1,8,0:0:0:0:
256,192,194706,1,0,0:0:0:0:
256,192,194856,1,12,0:0:0:0:
256,192,195006,1,0,0:0:0:0:
256,192,195081,1,8,0:0:0:0:
256,192,195156,1,0,0:0:0:0:
256,192,195231,1,8,0:0:0:0:
256,192,195306,1,8,0:0:0:0:
256,192,195381,1,0,0:0:0:0:
256,192,195456,1,8,0:0:0:0:
256,192,195606,1,4,0:0:0:0:
256,192,195756,1,8,0:0:0:0:
256,192,195806,1,8,0:0:0:0:
256,192,195856,1,8,0:0:0:0:
256,192,195906,1,0,0:0:0:0:
256,192,196056,1,12,0:0:0:0:
256,192,196206,1,0,0:0:0:0:
256,192,196281,1,8,0:0:0:0:
256,192,196356,1,0,0:0:0:0:
256,192,196431,1,8,0:0:0:0:
256,192,196506,1,8,0:0:0:0:
256,192,196581,1,0,0:0:0:0:
256,192,196656,1,8,0:0:0:0:
256,192,196806,1,4,0:0:0:0:
256,192,196956,1,8,0:0:0:0:
256,192,197006,1,8,0:0:0:0:
256,192,197056,1,8,0:0:0:0:
256,192,197106,1,0,0:0:0:0:
256,192,197256,1,12,0:0:0:0:
256,192,197406,1,8,0:0:0:0:
256,192,197481,1,8,0:0:0:0:
256,192,197556,1,0,0:0:0:0:
256,192,197631,1,8,0:0:0:0:
256,192,197706,1,8,0:0:0:0:
256,192,197781,1,0,0:0:0:0:
256,192,197856,1,8,0:0:0:0:
