osu file format v12

[General]
AudioFilename: distorted lovesong.mp3
AudioLeadIn: 0
PreviewTime: 111047
Countdown: 0
SampleSet: Normal
StackLeniency: 0.7
Mode: 1
LetterboxInBreaks: 0

[Editor]
Bookmarks: 17059,65059,95059,127059,159059,191059,223059,263059,295059,327059,343059,359059,408309
DistanceSpacing: 0.4
BeatDivisor: 4
GridSize: 8

[Metadata]
Title:Distorted Lovesong
TitleUnicode:Distorted Lovesong
Artist:t+pazolite feat. Rizna
ArtistUnicode:t+pazolite feat. リズナ
Creator:RLC
Version:Taikocalypse DX
Source:
Tags:kazukisinx backfire hardcore tano*c syndrome 4
BeatmapID:245124
BeatmapSetID:81694

[Difficulty]
HPDrainRate:4
CircleSize:4
OverallDifficulty:5
ApproachRate:9
SliderMultiplier:1.4
SliderTickRate:1

[Events]
//Background and Video events
0,0,"bg.jpg",0,120
//Break Periods
2,375247,394243
//Storyboard Layer 0 (Background)
//Storyboard Layer 1 (Fail)
//Storyboard Layer 2 (Pass)
//Storyboard Layer 3 (Foreground)
//Storyboard Sound Samples
//Background Colour Transformations
3,100,163,162,255

[TimingPoints]
17047,250,4,1,0,100,1,0
17047,-200,4,1,0,100,0,0
33047,-133.333333333333,4,1,0,100,0,0
61047,-125,4,1,0,100,0,0
62547,-111.111111111111,4,1,0,100,0,0
64047,-100,4,1,0,100,0,0
81047,250,7,1,0,100,1,0
91547,250,3,1,0,100,1,0
93047,250,4,1,0,100,1,0
127047,-100,4,1,0,60,0,0
127797,-200,4,1,0,60,0,0
141047,-200,4,1,0,20,0,0
143047,-133.333333333333,4,1,0,40,0,0
158547,-114.942528735632,4,1,0,70,0,0
159047,-100,4,1,0,100,0,0
175047,-100,4,1,0,100,0,1
191047,-100,4,1,0,100,0,0
223547,-133.333333333333,4,1,0,100,0,0
238172,-125,4,1,0,100,0,0
238422,-117.647058823529,4,1,0,100,0,0
238672,-111.111111111111,4,1,0,100,0,0
238922,-105.263157894737,4,1,0,100,0,0
239047,-100,4,1,0,100,0,1
247047,-133.333333333333,4,1,0,100,0,1
247797,-100,4,1,0,100,0,1
255047,-133.333333333333,4,1,0,100,0,0
255297,-200,4,2,0,100,0,0
262297,-133.333333333333,4,1,0,100,0,0
271047,-125,4,1,0,100,0,0
273047,-117.647058823529,4,1,0,100,0,0
275047,-111.111111111111,4,1,0,100,0,0
277047,-105.263157894737,4,1,0,100,0,0
278047,-100,4,1,0,100,0,0
279047,-100,4,1,0,100,0,1
295047,-100,4,1,0,100,0,0
326172,-95.2380952380952,4,1,0,100,0,0
326297,-90.9090909090909,4,1,0,100,0,0
326422,-86.9565217391304,4,1,0,100,0,0
326547,-83.3333333333333,4,1,0,100,0,0
326672,-80,4,1,0,100,0,0
327047,-100,4,1,0,100,0,1
341047,-100,4,1,0,100,0,0
343047,-100,4,1,0,100,0,1
359047,-100,4,1,0,100,0,0
394797,-200,4,1,0,40,0,0
409297,250,4,1,0,100,1,0

[HitObjects]
256,192,17047,5,0,0:0:0:0:
144,232,17547,1,0,0:0:0:0:
264,248,18047,1,8,0:0:0:0:
144,232,18547,1,0,0:0:0:0:
208,216,19047,1,0,0:0:0:0:
160,184,19297,1,8,0:0:0:0:
144,232,19547,1,0,0:0:0:0:
128,176,19797,1,8,0:0:0:0:
128,176,20047,1,0,0:0:0:0:
208,216,20297,1,8,0:0:0:0:
208,216,20547,1,0,0:0:0:0:
88,176,20797,1,8,0:0:0:0:
224,216,21047,1,4,0:0:0:0:
128,176,21422,1,0,0:0:0:0:
224,216,21797,1,0,0:0:0:0:
224,216,22047,1,8,0:0:0:0:
176,192,22297,1,0,0:0:0:0:
176,192,22547,1,0,0:0:0:0:
176,192,22797,1,8,0:0:0:0:
272,184,23047,1,0,0:0:0:0:
40,168,23297,1,8,0:0:0:0:
40,168,23547,1,0,0:0:0:0:
120,176,23797,1,8,0:0:0:0:
168,192,24047,1,0,0:0:0:0:
40,168,24297,1,8,0:0:0:0:
152,224,24422,1,0,0:0:0:0:
152,224,24547,1,0,0:0:0:0:
152,224,24797,1,8,0:0:0:0:
256,208,25047,1,4,0:0:0:0:
152,224,25422,1,0,0:0:0:0:
88,152,25672,1,0,0:0:0:0:
256,208,25797,1,0,0:0:0:0:
256,208,26047,1,8,0:0:0:0:
200,176,26297,1,0,0:0:0:0:
256,208,26547,1,0,0:0:0:0:
200,176,26797,1,8,0:0:0:0:
256,208,27047,1,0,0:0:0:0:
256,208,27297,1,0,0:0:0:0:
256,208,27547,1,8,0:0:0:0:
144,192,27797,1,0,0:0:0:0:
256,208,28047,1,8,0:0:0:0:
256,208,28297,1,0,0:0:0:0:
256,208,28547,1,8,0:0:0:0:
152,240,28797,1,0,0:0:0:0:
256,208,29047,1,4,0:0:0:0:
248,176,29422,1,0,0:0:0:0:
256,208,29797,1,0,0:0:0:0:
256,208,30047,1,8,0:0:0:0:
224,192,30547,1,0,0:0:0:0:
224,192,30797,1,8,0:0:0:0:
224,192,31047,1,0,0:0:0:0:
224,192,31297,1,0,0:0:0:0:
224,192,31547,1,8,0:0:0:0:
224,192,31797,1,0,0:0:0:0:
248,216,31922,1,0,0:0:0:0:
224,192,32047,1,0,0:0:0:0:
224,192,32297,1,0,0:0:0:0:
224,192,32547,1,8,0:0:0:0:
224,192,32797,1,0,0:0:0:0:
240,216,33047,5,4,0:0:0:0:
240,216,33797,5,4,0:0:0:0:
240,216,34047,5,8,0:0:0:0:
224,192,34297,1,0,0:0:0:0:
240,216,34422,1,0,0:0:0:0:
240,216,34547,5,0,0:0:0:0:
240,216,34797,5,0,0:0:0:0:
240,216,35047,5,8,0:0:0:0:
240,216,35422,5,0,0:0:0:0:
240,216,35797,1,0,0:0:0:0:
240,216,36047,5,8,0:0:0:0:
240,216,36422,5,0,0:0:0:0:
240,216,36797,1,0,0:0:0:0:
240,216,36922,1,0,0:0:0:0:
240,216,37047,1,4,0:0:0:0:
80,176,37422,1,0,0:0:0:0:
216,160,37797,1,4,0:0:0:0:
240,216,38047,1,8,0:0:0:0:
256,152,38547,1,0,0:0:0:0:
256,152,38797,1,0,0:0:0:0:
256,152,39047,1,8,0:0:0:0:
160,152,39297,1,0,0:0:0:0:
256,152,39422,1,8,0:0:0:0:
256,152,39797,1,0,0:0:0:0:
248,208,40047,1,8,0:0:0:0:
248,208,40547,1,8,0:0:0:0:
224,144,40797,1,0,0:0:0:0:
152,224,40922,1,0,0:0:0:0:
224,144,41047,1,4,0:0:0:0:
224,144,41547,1,0,0:0:0:0:
224,144,41797,1,4,0:0:0:0:
224,144,42047,1,8,0:0:0:0:
240,216,42547,5,0,0:0:0:0:
240,216,42797,5,0,0:0:0:0:
192,200,42922,1,0,0:0:0:0:
240,216,43047,5,8,0:0:0:0:
240,216,43422,5,0,0:0:0:0:
240,216,43797,1,0,0:0:0:0:
240,216,44047,5,8,0:0:0:0:
192,200,44297,1,0,0:0:0:0:
240,216,44422,5,0,0:0:0:0:
240,216,44797,1,0,0:0:0:0:
240,216,45047,1,12,0:0:0:0:
152,224,45422,1,0,0:0:0:0:
216,160,45797,1,4,0:0:0:0:
240,216,46047,1,8,0:0:0:0:
256,152,46547,1,0,0:0:0:0:
256,152,46797,1,0,0:0:0:0:
256,152,47047,1,8,0:0:0:0:
256,152,47422,1,0,0:0:0:0:
200,224,47672,1,0,0:0:0:0:
256,152,47797,1,8,0:0:0:0:
248,208,48047,1,0,0:0:0:0:
248,208,48547,1,8,0:0:0:0:
224,144,48797,1,8,0:0:0:0:
224,144,48922,1,8,0:0:0:0:
224,144,49047,1,4,0:0:0:0:
224,144,49547,1,0,0:0:0:0:
224,144,49797,1,4,0:0:0:0:
224,144,50047,1,8,0:0:0:0:
240,216,50547,5,0,0:0:0:0:
240,216,50797,5,0,0:0:0:0:
240,216,51047,5,8,0:0:0:0:
240,216,51422,5,0,0:0:0:0:
200,208,51672,1,0,0:0:0:0:
240,216,51797,1,0,0:0:0:0:
240,216,52047,5,8,0:0:0:0:
240,216,52422,5,0,0:0:0:0:
200,208,52672,1,0,0:0:0:0:
240,216,52797,1,0,0:0:0:0:
240,216,53047,1,4,0:0:0:0:
160,248,53422,1,8,0:0:0:0:
216,160,53797,1,4,0:0:0:0:
240,216,54047,1,8,0:0:0:0:
256,152,54547,1,0,0:0:0:0:
256,152,54797,1,0,0:0:0:0:
256,152,55047,1,8,0:0:0:0:
256,152,55422,1,8,0:0:0:0:
256,152,55797,1,0,0:0:0:0:
200,208,55922,1,0,0:0:0:0:
248,208,56047,1,8,0:0:0:0:
248,208,56547,1,8,0:0:0:0:
224,144,56797,1,8,0:0:0:0:
224,144,56922,1,8,0:0:0:0:
224,144,57047,5,4,0:0:0:0:
224,144,57547,1,0,0:0:0:0:
224,144,57797,1,4,0:0:0:0:
224,144,58047,1,8,0:0:0:0:
240,216,58547,5,0,0:0:0:0:
240,216,58797,5,0,0:0:0:0:
240,216,59047,5,8,0:0:0:0:
208,208,59297,1,0,0:0:0:0:
240,216,59422,5,0,0:0:0:0:
240,216,59797,1,0,0:0:0:0:
240,216,60047,5,8,0:0:0:0:
208,208,60297,1,0,0:0:0:0:
240,216,60422,5,0,0:0:0:0:
240,216,60797,1,0,0:0:0:0:
240,216,61047,1,4,0:0:0:0:
208,208,61422,1,0,0:0:0:0:
216,160,61797,1,4,0:0:0:0:
240,216,62047,1,8,0:0:0:0:
256,152,62547,1,4,0:0:0:0:
256,152,63047,1,8,0:0:0:0:
256,152,63547,1,4,0:0:0:0:
248,208,64047,1,12,0:0:0:0:
176,184,64172,1,0,0:0:0:0:
176,184,64234,1,0,0:0:0:0:
176,184,64297,1,8,0:0:0:0:
176,184,64422,1,0,0:0:0:0:
248,208,64547,1,8,0:0:0:0:
248,208,64672,1,0,0:0:0:0:
224,144,64797,1,8,0:0:0:0:
224,144,64922,1,0,0:0:0:0:
256,192,65047,5,12,0:0:0:0:
256,192,65422,1,4,0:0:0:0:
224,144,65547,1,0,0:0:0:0:
256,192,65797,1,4,0:0:0:0:
256,192,66047,1,4,0:0:0:0:
256,192,66297,1,8,0:0:0:0:
256,192,66422,1,8,0:0:0:0:
256,192,66547,1,0,0:0:0:0:
256,192,66609,1,0,0:0:0:0:
256,192,66672,1,8,0:0:0:0:
256,192,66734,1,8,0:0:0:0:
256,192,66797,1,0,0:0:0:0:
256,192,66922,1,0,0:0:0:0:
256,192,67047,1,12,0:0:0:0:
256,192,67422,1,12,0:0:0:0:
256,192,67797,1,12,0:0:0:0:
256,192,68047,1,12,0:0:0:0:
256,192,68297,1,8,0:0:0:0:
256,192,68359,1,8,0:0:0:0:
256,192,68422,1,0,0:0:0:0:
256,192,68547,1,8,0:0:0:0:
256,192,68672,1,0,0:0:0:0:
256,192,68797,1,8,0:0:0:0:
256,192,68922,1,8,0:0:0:0:
256,192,69047,1,4,0:0:0:0:
256,192,69297,1,4,0:0:0:0:
256,192,69422,1,4,0:0:0:0:
256,192,69797,1,4,0:0:0:0:
256,192,70047,1,4,0:0:0:0:
256,192,70297,1,0,0:0:0:0:
256,192,70359,1,8,0:0:0:0:
256,192,70422,1,8,0:0:0:0:
256,192,70547,1,0,0:0:0:0:
256,192,70672,1,8,0:0:0:0:
256,192,70734,1,8,0:0:0:0:
256,192,70797,1,0,0:0:0:0:
256,192,70922,1,8,0:0:0:0:
256,192,71047,1,12,0:0:0:0:
256,192,71297,1,12,0:0:0:0:
256,192,71422,1,12,0:0:0:0:
256,192,71797,1,4,0:0:0:0:
256,192,72047,1,12,0:0:0:0:
256,192,72297,1,8,0:0:0:0:
256,192,72359,1,0,0:0:0:0:
256,192,72422,1,0,0:0:0:0:
256,192,72547,1,0,0:0:0:0:
256,192,72672,1,8,0:0:0:0:
256,192,72797,1,0,0:0:0:0:
256,192,73047,1,0,0:0:0:0:
256,192,73172,1,8,0:0:0:0:
256,192,73234,1,8,0:0:0:0:
256,192,73297,1,0,0:0:0:0:
256,192,73422,1,8,0:0:0:0:
256,192,73547,1,0,0:0:0:0:
256,192,73672,1,0,0:0:0:0:
256,192,73734,1,0,0:0:0:0:
256,192,73797,1,0,0:0:0:0:
256,192,74047,1,8,0:0:0:0:
256,192,74172,1,8,0:0:0:0:
256,192,74234,1,8,0:0:0:0:
256,192,74297,1,8,0:0:0:0:
256,192,74422,1,8,0:0:0:0:
256,192,74547,1,0,0:0:0:0:
256,192,74672,1,8,0:0:0:0:
256,192,74734,1,8,0:0:0:0:
256,192,74797,1,0,0:0:0:0:
256,192,75047,1,0,0:0:0:0:
256,192,75172,1,8,0:0:0:0:
256,192,75234,1,8,0:0:0:0:
256,192,75297,1,8,0:0:0:0:
256,192,75422,1,8,0:0:0:0:
256,192,75547,1,0,0:0:0:0:
256,192,75672,1,8,0:0:0:0:
256,192,75734,1,0,0:0:0:0:
256,192,75797,1,0,0:0:0:0:
256,192,76047,1,0,0:0:0:0:
256,192,76172,1,8,0:0:0:0:
256,192,76234,1,8,0:0:0:0:
256,192,76297,1,8,0:0:0:0:
256,192,76422,1,8,0:0:0:0:
256,192,76547,1,0,0:0:0:0:
256,192,76672,1,0,0:0:0:0:
256,192,76797,1,8,0:0:0:0:
256,192,77047,1,0,0:0:0:0:
256,192,77109,1,0,0:0:0:0:
256,192,77172,1,0,0:0:0:0:
256,192,77297,1,0,0:0:0:0:
256,192,77422,1,0,0:0:0:0:
256,192,77547,1,8,0:0:0:0:
256,192,77609,1,8,0:0:0:0:
256,192,77672,1,8,0:0:0:0:
256,192,77797,1,8,0:0:0:0:
256,192,77922,1,8,0:0:0:0:
256,192,78047,1,0,0:0:0:0:
256,192,78172,1,8,0:0:0:0:
256,192,78234,1,8,0:0:0:0:
256,192,78297,1,0,0:0:0:0:
256,192,78422,1,8,0:0:0:0:
256,192,78547,1,0,0:0:0:0:
256,192,78797,1,0,0:0:0:0:
256,192,78922,1,0,0:0:0:0:
256,192,78984,1,0,0:0:0:0:
256,192,79047,1,0,0:0:0:0:
256,192,79172,1,8,0:0:0:0:
256,192,79297,1,8,0:0:0:0:
256,192,79422,1,8,0:0:0:0:
256,192,79547,1,0,0:0:0:0:
256,192,79609,1,0,0:0:0:0:
256,192,79672,1,8,0:0:0:0:
224,176,79797,1,8,0:0:0:0:
224,176,79922,1,8,0:0:0:0:
256,192,80047,1,0,0:0:0:0:
256,192,80109,1,0,0:0:0:0:
256,192,80172,1,0,0:0:0:0:
256,192,80234,1,8,0:0:0:0:
256,192,80297,1,0,0:0:0:0:
256,192,80422,1,8,0:0:0:0:
256,192,80547,1,0,0:0:0:0:
256,192,80672,1,8,0:0:0:0:
256,192,80734,1,8,0:0:0:0:
256,192,80797,1,8,0:0:0:0:
256,192,80922,1,8,0:0:0:0:
256,192,81047,1,0,0:0:0:0:
256,192,81297,1,8,0:0:0:0:
256,192,81422,1,0,0:0:0:0:
256,192,81672,1,8,0:0:0:0:
256,192,81922,1,0,0:0:0:0:
256,192,82047,1,0,0:0:0:0:
256,192,82172,1,8,0:0:0:0:
256,192,82297,1,0,0:0:0:0:
256,192,82422,1,8,0:0:0:0:
256,192,82547,1,0,0:0:0:0:
256,192,82672,1,8,0:0:0:0:
256,192,82797,1,0,0:0:0:0:
256,192,83047,1,8,0:0:0:0:
256,192,83172,1,0,0:0:0:0:
256,192,83422,1,8,0:0:0:0:
256,192,83672,1,0,0:0:0:0:
256,192,83797,1,0,0:0:0:0:
256,192,84047,1,8,0:0:0:0:
256,192,84297,1,0,0:0:0:0:
256,192,84422,1,0,0:0:0:0:
256,192,84547,1,8,0:0:0:0:
256,192,84672,1,0,0:0:0:0:
256,192,84797,1,0,0:0:0:0:
256,192,84922,1,8,0:0:0:0:
256,192,85172,1,0,0:0:0:0:
256,192,85297,1,8,0:0:0:0:
256,192,85422,1,0,0:0:0:0:
256,192,85672,1,0,0:0:0:0:
256,192,85797,1,8,0:0:0:0:
256,192,85922,1,0,0:0:0:0:
256,192,86047,1,8,0:0:0:0:
256,192,86172,1,0,0:0:0:0:
256,192,86297,1,8,0:0:0:0:
256,192,86422,1,0,0:0:0:0:
256,192,86547,1,0,0:0:0:0:
256,192,86672,1,8,0:0:0:0:
256,192,86922,1,8,0:0:0:0:
256,192,87047,1,0,0:0:0:0:
256,192,87172,1,8,0:0:0:0:
256,192,87422,1,0,0:0:0:0:
256,192,87547,1,8,0:0:0:0:
256,192,87672,1,0,0:0:0:0:
256,192,87734,1,8,0:0:0:0:
256,192,87797,1,8,0:0:0:0:
256,192,87859,1,8,0:0:0:0:
256,192,87922,1,0,0:0:0:0:
256,192,88047,1,8,0:0:0:0:
256,192,88297,1,0,0:0:0:0:
256,192,88422,1,8,0:0:0:0:
256,192,88672,1,0,0:0:0:0:
256,192,88797,1,8,0:0:0:0:
256,192,88922,1,0,0:0:0:0:
256,192,89172,1,0,0:0:0:0:
256,192,89297,1,8,0:0:0:0:
256,192,89422,1,0,0:0:0:0:
256,192,89547,1,8,0:0:0:0:
256,192,89672,1,0,0:0:0:0:
256,192,89797,1,8,0:0:0:0:
256,192,89922,1,0,0:0:0:0:
256,192,90047,1,0,0:0:0:0:
256,192,90172,1,8,0:0:0:0:
256,192,90422,1,0,0:0:0:0:
256,192,90547,1,0,0:0:0:0:
256,192,90672,1,8,0:0:0:0:
256,192,90922,1,8,0:0:0:0:
256,192,91047,1,8,0:0:0:0:
256,192,91172,1,0,0:0:0:0:
256,192,91297,1,8,0:0:0:0:
256,192,91422,1,0,0:0:0:0:
256,192,91547,1,8,0:0:0:0:
256,192,91672,1,0,0:0:0:0:
256,192,91797,1,0,0:0:0:0:
256,192,91922,1,8,0:0:0:0:
256,192,92047,1,0,0:0:0:0:
256,192,92172,1,0,0:0:0:0:
256,192,92297,1,8,0:0:0:0:
256,192,92422,1,0,0:0:0:0:
256,192,92547,1,0,0:0:0:0:
256,192,92672,1,8,0:0:0:0:
256,192,92797,1,0,0:0:0:0:
256,192,92922,1,0,0:0:0:0:
256,192,93047,1,8,0:0:0:0:
256,192,93172,1,0,0:0:0:0:
256,192,93297,1,0,0:0:0:0:
256,192,93422,1,8,0:0:0:0:
256,192,93547,1,0,0:0:0:0:
256,192,93672,1,0,0:0:0:0:
256,192,93797,1,8,0:0:0:0:
256,192,93922,1,0,0:0:0:0:
256,192,94047,1,8,0:0:0:0:
256,192,94172,1,8,0:0:0:0:
256,192,94297,1,8,0:0:0:0:
256,192,94422,1,8,0:0:0:0:
256,192,94797,1,0,0:0:0:0:
256,192,95047,1,12,0:0:0:0:
184,184,95172,1,0,0:0:0:0:
184,184,95234,1,0,0:0:0:0:
184,184,95297,1,8,0:0:0:0:
184,184,95422,1,0,0:0:0:0:
184,184,95547,1,0,0:0:0:0:
184,184,95672,1,8,0:0:0:0:
184,184,95797,1,0,0:0:0:0:
192,152,95922,1,0,0:0:0:0:
224,184,95984,1,0,0:0:0:0:
192,152,96047,1,8,0:0:0:0:
192,152,96172,1,0,0:0:0:0:
184,184,96297,1,8,0:0:0:0:
224,184,96422,1,0,0:0:0:0:
224,184,96547,1,8,0:0:0:0:
224,184,96609,1,8,0:0:0:0:
224,184,96672,1,0,0:0:0:0:
224,184,96797,1,8,0:0:0:0:
224,184,96922,1,0,0:0:0:0:
224,184,97047,1,8,0:0:0:0:
224,184,97172,1,0,0:0:0:0:
224,184,97297,1,0,0:0:0:0:
224,184,97422,1,8,0:0:0:0:
224,184,97547,1,0,0:0:0:0:
224,184,97609,1,0,0:0:0:0:
224,184,97672,1,8,0:0:0:0:
224,184,97797,1,0,0:0:0:0:
128,176,97922,1,8,0:0:0:0:
128,176,97984,1,0,0:0:0:0:
168,184,98047,1,0,0:0:0:0:
168,184,98109,1,0,0:0:0:0:
168,184,98172,1,8,0:0:0:0:
168,184,98297,1,8,0:0:0:0:
168,184,98422,1,0,0:0:0:0:
168,184,98547,1,8,0:0:0:0:
168,184,98609,1,8,0:0:0:0:
168,184,98672,1,0,0:0:0:0:
168,184,98734,1,0,0:0:0:0:
168,184,98797,1,8,0:0:0:0:
224,184,98922,1,0,0:0:0:0:
224,184,99047,1,8,0:0:0:0:
224,184,99172,1,0,0:0:0:0:
224,184,99234,1,0,0:0:0:0:
224,184,99297,1,0,0:0:0:0:
224,184,99422,1,8,0:0:0:0:
224,184,99547,1,0,0:0:0:0:
224,184,99609,1,0,0:0:0:0:
224,184,99672,1,0,0:0:0:0:
224,184,99734,1,0,0:0:0:0:
168,184,99797,1,8,0:0:0:0:
144,208,99922,1,0,0:0:0:0:
144,208,100047,1,8,0:0:0:0:
144,208,100172,1,0,0:0:0:0:
144,208,100234,1,0,0:0:0:0:
144,208,100297,1,8,0:0:0:0:
144,208,100422,1,0,0:0:0:0:
144,208,100547,1,8,0:0:0:0:
144,208,100672,1,0,0:0:0:0:
144,208,100734,1,0,0:0:0:0:
144,208,100797,1,0,0:0:0:0:
200,248,100922,1,8,0:0:0:0:
200,248,101047,1,0,0:0:0:0:
232,224,101172,1,8,0:0:0:0:
232,224,101234,1,8,0:0:0:0:
232,224,101297,1,0,0:0:0:0:
216,192,101422,1,0,0:0:0:0:
216,192,101547,1,8,0:0:0:0:
208,152,101609,1,0,0:0:0:0:
208,152,101672,1,0,0:0:0:0:
208,152,101734,1,0,0:0:0:0:
208,152,101797,1,8,0:0:0:0:
208,152,101922,1,8,0:0:0:0:
200,120,102047,1,0,0:0:0:0:
200,120,102109,1,0,0:0:0:0:
200,120,102172,1,8,0:0:0:0:
200,120,102297,1,8,0:0:0:0:
208,152,102422,1,0,0:0:0:0:
208,152,102484,1,0,0:0:0:0:
208,152,102547,1,8,0:0:0:0:
208,152,102609,1,8,0:0:0:0:
208,152,102672,1,0,0:0:0:0:
208,152,102797,1,0,0:0:0:0:
160,200,102922,1,8,0:0:0:0:
160,200,103047,1,4,0:0:0:0:
224,224,103172,1,0,0:0:0:0:
224,224,103234,1,0,0:0:0:0:
208,152,103297,1,8,0:0:0:0:
224,224,103422,1,0,0:0:0:0:
264,192,103547,1,0,0:0:0:0:
264,192,103609,1,8,0:0:0:0:
264,192,103672,1,0,0:0:0:0:
264,192,103797,1,8,0:0:0:0:
264,192,103922,1,0,0:0:0:0:
264,192,103984,1,0,0:0:0:0:
264,192,104047,1,8,0:0:0:0:
264,192,104172,1,0,0:0:0:0:
264,192,104297,1,8,0:0:0:0:
192,192,104422,1,0,0:0:0:0:
192,192,104484,1,0,0:0:0:0:
192,192,104547,1,0,0:0:0:0:
192,192,104672,1,8,0:0:0:0:
224,224,104797,1,0,0:0:0:0:
264,192,104859,1,0,0:0:0:0:
264,192,104922,1,8,0:0:0:0:
264,192,105047,1,8,0:0:0:0:
144,192,105172,1,0,0:0:0:0:
144,192,105297,1,0,0:0:0:0:
144,192,105359,1,0,0:0:0:0:
144,192,105422,1,8,0:0:0:0:
144,192,105547,1,0,0:0:0:0:
144,192,105672,1,8,0:0:0:0:
144,192,105734,1,8,0:0:0:0:
144,192,105797,1,0,0:0:0:0:
256,192,105922,1,0,0:0:0:0:
256,192,106047,5,8,0:0:0:0:
256,192,106109,1,8,0:0:0:0:
256,192,106172,1,0,0:0:0:0:
256,192,106297,1,0,0:0:0:0:
256,192,106422,1,8,0:0:0:0:
256,192,106547,1,0,0:0:0:0:
256,192,106609,1,0,0:0:0:0:
256,192,106672,1,0,0:0:0:0:
256,192,106797,1,8,0:0:0:0:
256,192,106922,1,0,0:0:0:0:
256,192,106984,1,0,0:0:0:0:
256,192,107047,1,8,0:0:0:0:
256,192,107109,1,0,0:0:0:0:
256,192,107172,1,0,0:0:0:0:
256,192,107297,1,0,0:0:0:0:
256,192,107422,1,8,0:0:0:0:
256,192,107547,1,0,0:0:0:0:
256,192,107609,1,0,0:0:0:0:
256,192,107672,1,0,0:0:0:0:
256,192,107797,1,8,0:0:0:0:
256,192,107859,1,8,0:0:0:0:
256,192,107922,1,0,0:0:0:0:
256,192,108047,1,0,0:0:0:0:
256,192,108172,1,8,0:0:0:0:
256,192,108297,1,0,0:0:0:0:
256,192,108359,1,0,0:0:0:0:
256,192,108422,1,0,0:0:0:0:
256,192,108547,1,8,0:0:0:0:
256,192,108672,1,0,0:0:0:0:
256,192,108797,1,8,0:0:0:0:
256,192,108922,1,0,0:0:0:0:
256,192,108984,1,0,0:0:0:0:
256,192,109047,1,8,0:0:0:0:
256,192,109109,1,0,0:0:0:0:
256,192,109172,1,8,0:0:0:0:
256,192,109297,1,0,0:0:0:0:
256,192,109422,1,8,0:0:0:0:
256,192,109547,1,0,0:0:0:0:
256,192,109609,1,0,0:0:0:0:
256,192,109672,1,0,0:0:0:0:
256,192,109797,1,8,0:0:0:0:
256,192,109859,1,8,0:0:0:0:
256,192,109922,1,0,0:0:0:0:
256,192,110047,1,0,0:0:0:0:
256,192,110172,1,8,0:0:0:0:
256,192,110297,1,0,0:0:0:0:
256,192,110422,1,8,0:0:0:0:
256,192,110547,1,0,0:0:0:0:
256,192,110609,1,0,0:0:0:0:
256,192,110672,1,8,0:0:0:0:
144,160,110734,1,0,0:0:0:0:
256,192,110797,1,8,0:0:0:0:
256,192,110922,1,0,0:0:0:0:
256,192,110984,1,0,0:0:0:0:
256,192,111047,1,8,0:0:0:0:
256,192,111109,1,8,0:0:0:0:
256,192,111172,1,0,0:0:0:0:
256,192,111297,1,8,0:0:0:0:
256,192,111422,1,0,0:0:0:0:
256,192,111547,1,8,0:0:0:0:
256,192,111609,1,8,0:0:0:0:
256,192,111672,1,0,0:0:0:0:
256,192,111797,1,0,0:0:0:0:
256,192,111859,1,0,0:0:0:0:
256,192,111922,1,8,0:0:0:0:
256,192,112047,1,0,0:0:0:0:
256,192,112109,1,0,0:0:0:0:
256,192,112172,1,8,0:0:0:0:
256,192,112297,1,8,0:0:0:0:
256,192,112359,1,0,0:0:0:0:
256,192,112422,1,8,0:0:0:0:
256,192,112484,1,0,0:0:0:0:
256,192,112547,1,8,0:0:0:0:
256,192,112609,1,8,0:0:0:0:
256,192,112672,1,0,0:0:0:0:
256,192,112797,1,0,0:0:0:0:
256,192,112922,1,8,0:0:0:0:
256,192,113047,1,0,0:0:0:0:
256,192,113109,1,0,0:0:0:0:
256,192,113172,1,8,0:0:0:0:
256,192,113234,1,8,0:0:0:0:
256,192,113297,1,0,0:0:0:0:
256,192,113359,1,0,0:0:0:0:
256,192,113422,1,8,0:0:0:0:
256,192,113547,1,0,0:0:0:0:
256,192,113609,1,0,0:0:0:0:
256,192,113672,1,8,0:0:0:0:
256,192,113797,1,0,0:0:0:0:
208,208,113859,1,0,0:0:0:0:
256,192,113922,1,8,0:0:0:0:
256,192,113984,1,0,0:0:0:0:
256,192,114047,1,0,0:0:0:0:
256,192,114172,1,8,0:0:0:0:
256,192,114297,1,0,0:0:0:0:
256,192,114359,1,0,0:0:0:0:
256,192,114422,1,0,0:0:0:0:
256,192,114484,1,0,0:0:0:0:
256,192,114547,1,8,0:0:0:0:
256,192,114672,1,8,0:0:0:0:
256,192,114797,1,0,0:0:0:0:
256,192,114859,1,0,0:0:0:0:
256,192,114922,1,8,0:0:0:0:
256,192,114984,1,0,0:0:0:0:
256,192,115047,1,8,0:0:0:0:
256,192,115109,1,8,0:0:0:0:
256,192,115172,1,0,0:0:0:0:
256,192,115297,1,8,0:0:0:0:
256,192,115422,1,0,0:0:0:0:
256,192,115547,1,8,0:0:0:0:
256,192,115609,1,8,0:0:0:0:
256,192,115672,1,0,0:0:0:0:
256,192,115797,1,0,0:0:0:0:
256,192,115859,1,0,0:0:0:0:
256,192,115922,1,8,0:0:0:0:
256,192,116047,1,0,0:0:0:0:
256,192,116172,1,8,0:0:0:0:
256,192,116297,1,0,0:0:0:0:
256,192,116359,1,0,0:0:0:0:
256,192,116422,1,8,0:0:0:0:
256,192,116484,1,0,0:0:0:0:
256,192,116547,1,8,0:0:0:0:
256,192,116609,1,8,0:0:0:0:
256,192,116672,1,0,0:0:0:0:
256,192,116797,1,8,0:0:0:0:
256,192,116922,1,0,0:0:0:0:
256,192,116984,1,8,0:0:0:0:
256,192,117047,1,0,0:0:0:0:
256,192,117109,1,0,0:0:0:0:
256,192,117172,1,8,0:0:0:0:
256,192,117297,1,0,0:0:0:0:
256,192,117359,1,0,0:0:0:0:
256,192,117422,1,8,0:0:0:0:
256,192,117547,1,0,0:0:0:0:
256,192,117672,1,8,0:0:0:0:
256,192,117797,1,0,0:0:0:0:
256,192,117859,1,0,0:0:0:0:
256,192,117922,1,8,0:0:0:0:
256,192,117984,1,0,0:0:0:0:
256,192,118047,1,0,0:0:0:0:
256,192,118172,1,8,0:0:0:0:
256,192,118297,1,0,0:0:0:0:
256,192,118359,1,8,0:0:0:0:
256,192,118422,1,8,0:0:0:0:
256,192,118484,1,8,0:0:0:0:
256,192,118547,1,0,0:0:0:0:
256,192,118609,1,0,0:0:0:0:
256,192,118672,1,8,0:0:0:0:
256,192,118797,1,0,0:0:0:0:
256,192,118922,1,8,0:0:0:0:
256,192,118984,1,8,0:0:0:0:
256,192,119047,1,0,0:0:0:0:
256,192,119109,1,0,0:0:0:0:
256,192,119172,1,8,0:0:0:0:
256,192,119297,1,0,0:0:0:0:
256,192,119422,1,8,0:0:0:0:
256,192,119547,1,0,0:0:0:0:
256,192,119609,1,0,0:0:0:0:
256,192,119672,1,8,0:0:0:0:
256,192,119797,1,0,0:0:0:0:
256,192,119859,1,0,0:0:0:0:
256,192,119922,1,8,0:0:0:0:
256,192,120047,1,0,0:0:0:0:
256,192,120172,1,8,0:0:0:0:
256,192,120297,1,0,0:0:0:0:
256,192,120422,1,0,0:0:0:0:
256,192,120547,1,8,0:0:0:0:
256,192,120609,1,8,0:0:0:0:
256,192,120672,1,0,0:0:0:0:
256,192,120797,1,0,0:0:0:0:
256,192,120922,1,8,0:0:0:0:
256,192,120984,1,8,0:0:0:0:
256,192,121047,1,0,0:0:0:0:
256,192,121109,1,0,0:0:0:0:
256,192,121172,1,8,0:0:0:0:
256,192,121297,1,0,0:0:0:0:
256,192,121422,1,8,0:0:0:0:
256,192,121547,1,0,0:0:0:0:
256,192,121609,1,0,0:0:0:0:
256,192,121672,1,8,0:0:0:0:
256,192,121797,1,0,0:0:0:0:
256,192,121859,1,8,0:0:0:0:
256,192,121922,1,8,0:0:0:0:
256,192,122047,1,0,0:0:0:0:
256,192,122172,1,8,0:0:0:0:
256,192,122297,1,0,0:0:0:0:
256,192,122359,1,0,0:0:0:0:
256,192,122422,1,8,0:0:0:0:
256,192,122484,1,0,0:0:0:0:
256,192,122547,1,0,0:0:0:0:
256,192,122609,1,0,0:0:0:0:
256,192,122672,1,8,0:0:0:0:
256,192,122797,1,0,0:0:0:0:
256,192,122922,1,8,0:0:0:0:
256,192,123047,1,0,0:0:0:0:
256,192,123109,1,0,0:0:0:0:
256,192,123172,1,8,0:0:0:0:
256,192,123234,1,8,0:0:0:0:
256,192,123297,1,0,0:0:0:0:
256,192,123359,1,0,0:0:0:0:
256,192,123422,1,8,0:0:0:0:
256,192,123547,1,0,0:0:0:0:
256,192,123609,1,0,0:0:0:0:
256,192,123672,1,8,0:0:0:0:
256,192,123797,1,0,0:0:0:0:
208,208,123859,1,0,0:0:0:0:
256,192,123922,1,8,0:0:0:0:
256,192,123984,1,0,0:0:0:0:
256,192,124047,1,8,0:0:0:0:
256,192,124172,1,0,0:0:0:0:
256,192,124297,1,8,0:0:0:0:
256,192,124359,1,0,0:0:0:0:
256,192,124422,1,8,0:0:0:0:
256,192,124484,1,0,0:0:0:0:
256,192,124547,1,0,0:0:0:0:
256,192,124672,1,8,0:0:0:0:
256,192,124797,1,0,0:0:0:0:
256,192,124859,1,0,0:0:0:0:
256,192,124922,1,8,0:0:0:0:
256,192,124984,1,0,0:0:0:0:
256,192,125047,1,8,0:0:0:0:
256,192,125109,1,8,0:0:0:0:
256,192,125172,1,0,0:0:0:0:
256,192,125297,1,0,0:0:0:0:
256,192,125422,1,8,0:0:0:0:
256,192,125547,1,0,0:0:0:0:
256,192,125609,1,0,0:0:0:0:
256,192,125672,1,8,0:0:0:0:
256,192,125797,1,8,0:0:0:0:
256,192,125859,1,8,0:0:0:0:
256,192,125922,1,0,0:0:0:0:
256,192,126047,1,0,0:0:0:0:
256,192,126172,1,8,0:0:0:0:
256,192,126297,1,0,0:0:0:0:
256,192,126359,1,0,0:0:0:0:
256,192,126422,1,0,0:0:0:0:
256,192,126484,5,0,0:0:0:0:
256,192,126547,1,8,0:0:0:0:
256,192,126609,1,0,0:0:0:0:
256,192,126672,1,8,0:0:0:0:
256,192,126797,1,0,0:0:0:0:
256,192,126922,1,8,0:0:0:0:
256,192,127047,1,4,0:0:0:0:
255,188,127797,1,0,0:0:0:0:
255,188,128047,1,8,0:0:0:0:
255,188,128172,1,8,0:0:0:0:
256,192,128297,1,0,0:0:0:0:
255,188,128547,1,8,0:0:0:0:
256,192,128797,1,0,0:0:0:0:
255,188,128922,1,8,0:0:0:0:
255,188,129047,1,0,0:0:0:0:
255,188,129297,1,0,0:0:0:0:
255,188,129547,1,8,0:0:0:0:
255,188,129797,1,0,0:0:0:0:
255,188,129922,1,0,0:0:0:0:
255,188,130047,1,8,0:0:0:0:
255,188,130297,1,0,0:0:0:0:
255,188,130422,1,0,0:0:0:0:
255,188,130547,1,8,0:0:0:0:
255,188,130672,1,8,0:0:0:0:
255,188,130797,1,0,0:0:0:0:
255,188,131047,1,0,0:0:0:0:
255,188,131297,1,0,0:0:0:0:
255,188,131547,1,8,0:0:0:0:
255,188,131797,1,8,0:0:0:0:
255,188,131922,1,0,0:0:0:0:
255,188,132047,1,8,0:0:0:0:
255,188,132172,1,8,0:0:0:0:
255,188,132297,1,0,0:0:0:0:
255,188,132547,1,8,0:0:0:0:
255,188,132797,1,0,0:0:0:0:
255,188,132922,1,8,0:0:0:0:
255,188,133047,1,0,0:0:0:0:
255,188,133297,1,0,0:0:0:0:
255,188,133547,1,8,0:0:0:0:
255,188,133797,1,0,0:0:0:0:
255,188,133922,1,0,0:0:0:0:
255,188,134047,1,8,0:0:0:0:
255,188,134297,1,8,0:0:0:0:
255,188,134422,1,0,0:0:0:0:
255,188,134547,1,8,0:0:0:0:
255,188,134672,1,8,0:0:0:0:
255,188,134797,1,0,0:0:0:0:
255,188,135047,1,8,0:0:0:0:
255,188,135297,1,0,0:0:0:0:
255,188,135547,1,8,0:0:0:0:
255,188,135797,1,8,0:0:0:0:
255,188,135922,1,0,0:0:0:0:
255,188,136047,1,0,0:0:0:0:
255,188,136172,1,8,0:0:0:0:
255,188,136297,1,0,0:0:0:0:
255,188,136422,1,0,0:0:0:0:
255,188,136547,1,8,0:0:0:0:
255,188,136797,1,0,0:0:0:0:
255,188,136922,1,8,0:0:0:0:
255,188,137047,1,8,0:0:0:0:
255,188,137172,1,0,0:0:0:0:
255,188,137297,1,0,0:0:0:0:
255,188,137422,1,8,0:0:0:0:
255,188,137547,1,0,0:0:0:0:
255,188,137797,1,0,0:0:0:0:
255,188,137922,1,8,0:0:0:0:
255,188,138047,1,0,0:0:0:0:
255,188,138172,1,8,0:0:0:0:
255,188,138297,1,8,0:0:0:0:
255,188,138422,1,0,0:0:0:0:
255,188,138547,1,0,0:0:0:0:
255,188,138672,1,0,0:0:0:0:
255,188,138797,1,8,0:0:0:0:
255,188,139047,1,8,0:0:0:0:
255,188,139172,1,0,0:0:0:0:
255,188,139297,1,0,0:0:0:0:
255,188,139422,1,0,0:0:0:0:
255,188,139547,1,8,0:0:0:0:
255,188,139672,1,0,0:0:0:0:
255,188,139797,1,0,0:0:0:0:
255,188,139922,1,0,0:0:0:0:
255,188,140047,1,8,0:0:0:0:
255,188,140172,1,0,0:0:0:0:
255,188,140297,1,0,0:0:0:0:
255,188,140422,1,0,0:0:0:0:
255,188,140547,1,8,0:0:0:0:
255,188,140672,1,0,0:0:0:0:
255,188,140797,1,0,0:0:0:0:
255,188,140922,1,0,0:0:0:0:
255,188,141047,1,8,0:0:0:0:
255,188,141297,1,0,0:0:0:0:
255,188,141547,1,8,0:0:0:0:
255,188,141797,1,0,0:0:0:0:
255,188,142047,1,8,0:0:0:0:
255,188,142297,1,0,0:0:0:0:
255,188,142547,1,8,0:0:0:0:
255,188,142797,1,0,0:0:0:0:
255,188,143047,1,0,0:0:0:0:
256,192,143547,1,8,0:0:0:0:
256,192,143797,1,0,0:0:0:0:
256,192,143922,1,0,0:0:0:0:
256,192,144047,1,8,0:0:0:0:
256,192,144172,1,8,0:0:0:0:
256,192,144297,1,0,0:0:0:0:
256,192,144547,1,8,0:0:0:0:
256,192,144797,1,0,0:0:0:0:
256,192,144922,1,8,0:0:0:0:
256,192,145047,1,0,0:0:0:0:
256,192,145297,1,0,0:0:0:0:
256,192,145547,1,8,0:0:0:0:
256,192,145797,1,0,0:0:0:0:
256,192,145922,1,0,0:0:0:0:
256,192,146047,1,0,0:0:0:0:
256,192,146297,1,0,0:0:0:0:
256,192,146547,1,8,0:0:0:0:
256,192,146672,1,8,0:0:0:0:
256,192,146797,1,0,0:0:0:0:
256,192,147047,1,0,0:0:0:0:
256,192,147547,1,8,0:0:0:0:
256,192,147797,1,0,0:0:0:0:
256,192,147922,1,8,0:0:0:0:
256,192,148047,1,0,0:0:0:0:
256,192,148297,1,0,0:0:0:0:
256,192,148547,1,8,0:0:0:0:
256,192,148797,1,0,0:0:0:0:
256,192,148922,1,8,0:0:0:0:
256,192,149047,1,0,0:0:0:0:
256,192,149297,1,0,0:0:0:0:
256,192,149547,1,8,0:0:0:0:
256,192,149797,1,8,0:0:0:0:
256,192,149922,1,8,0:0:0:0:
256,192,150047,1,0,0:0:0:0:
256,192,150297,1,0,0:0:0:0:
256,192,150422,1,0,0:0:0:0:
256,192,150547,1,8,0:0:0:0:
256,192,150672,1,8,0:0:0:0:
256,192,150797,1,0,0:0:0:0:
256,192,151047,1,0,0:0:0:0:
256,192,151547,1,8,0:0:0:0:
256,192,151797,1,0,0:0:0:0:
256,192,151922,1,8,0:0:0:0:
256,192,152047,1,0,0:0:0:0:
256,192,152297,1,0,0:0:0:0:
256,192,152547,1,8,0:0:0:0:
256,192,152797,1,8,0:0:0:0:
256,192,152922,1,8,0:0:0:0:
256,192,153047,1,0,0:0:0:0:
256,192,153297,1,0,0:0:0:0:
256,192,153547,1,8,0:0:0:0:
256,192,153797,1,0,0:0:0:0:
256,192,153922,1,8,0:0:0:0:
256,192,154047,1,0,0:0:0:0:
256,192,154297,1,0,0:0:0:0:
256,192,154422,1,8,0:0:0:0:
256,192,154547,1,8,0:0:0:0:
256,192,154672,1,0,0:0:0:0:
256,192,154797,1,14,0:0:0:0:
256,192,155047,1,0,0:0:0:0:
256,192,155547,1,8,0:0:0:0:
256,192,155797,1,0,0:0:0:0:
256,192,155922,1,8,0:0:0:0:
256,192,156047,1,8,0:0:0:0:
256,192,156172,1,0,0:0:0:0:
256,192,156297,1,0,0:0:0:0:
256,192,156547,1,8,0:0:0:0:
256,192,156797,1,0,0:0:0:0:
256,192,156922,1,8,0:0:0:0:
256,192,157047,1,0,0:0:0:0:
256,192,157297,1,0,0:0:0:0:
256,192,157547,1,8,0:0:0:0:
256,192,157672,1,0,0:0:0:0:
256,192,157922,1,0,0:0:0:0:
256,192,158047,1,0,0:0:0:0:
256,192,158297,1,0,0:0:0:0:
256,192,158547,1,8,0:0:0:0:
256,192,158672,1,0,0:0:0:0:
256,192,158734,1,0,0:0:0:0:
256,192,158797,1,0,0:0:0:0:
256,192,158922,1,0,0:0:0:0:
256,192,159047,1,4,0:0:0:0:
192,232,159297,1,4,0:0:0:0:
256,192,159422,1,8,0:0:0:0:
224,224,159547,1,0,0:0:0:0:
224,224,159609,1,0,0:0:0:0:
224,224,159672,1,8,0:0:0:0:
224,224,159734,1,0,0:0:0:0:
224,224,159797,1,0,0:0:0:0:
256,248,159922,1,4,0:0:0:0:
256,192,160172,1,4,0:0:0:0:
256,192,160297,1,8,0:0:0:0:
256,192,160547,1,0,0:0:0:0:
256,192,160672,1,0,0:0:0:0:
256,192,160734,1,0,0:0:0:0:
256,192,160797,1,8,0:0:0:0:
256,192,160922,1,0,0:0:0:0:
256,192,161047,1,4,0:0:0:0:
288,224,161297,1,0,0:0:0:0:
288,224,161422,1,0,0:0:0:0:
288,224,161547,1,8,0:0:0:0:
192,184,161797,1,0,0:0:0:0:
192,184,161922,1,0,0:0:0:0:
192,184,162047,1,8,0:0:0:0:
192,184,162172,1,0,0:0:0:0:
192,184,162234,1,0,0:0:0:0:
200,152,162297,1,8,0:0:0:0:
200,152,162422,1,8,0:0:0:0:
200,152,162547,1,0,0:0:0:0:
200,152,162609,1,0,0:0:0:0:
200,152,162672,1,0,0:0:0:0:
200,152,162734,1,0,0:0:0:0:
200,152,162797,1,8,0:0:0:0:
200,152,162922,1,0,0:0:0:0:
152,200,163047,1,4,0:0:0:0:
152,200,163297,1,4,0:0:0:0:
152,200,163547,1,8,0:0:0:0:
152,200,163672,1,0,0:0:0:0:
152,200,163797,1,8,0:0:0:0:
152,200,163922,1,4,0:0:0:0:
152,200,164172,1,4,0:0:0:0:
152,200,164297,1,12,0:0:0:0:
152,200,164547,1,0,0:0:0:0:
152,200,164797,1,8,0:0:0:0:
232,184,164922,1,8,0:0:0:0:
232,184,165047,1,4,0:0:0:0:
272,208,165297,1,0,0:0:0:0:
280,160,165547,1,8,0:0:0:0:
184,176,165672,1,0,0:0:0:0:
184,176,165734,1,0,0:0:0:0:
184,176,165797,1,0,0:0:0:0:
232,184,165922,1,0,0:0:0:0:
240,216,166047,1,8,0:0:0:0:
240,216,166172,1,0,0:0:0:0:
240,216,166234,1,0,0:0:0:0:
240,216,166297,1,8,0:0:0:0:
240,216,166422,1,8,0:0:0:0:
240,216,166547,1,0,0:0:0:0:
240,216,166672,1,0,0:0:0:0:
240,216,166797,1,8,0:0:0:0:
240,216,166859,1,0,0:0:0:0:
240,216,166922,1,8,0:0:0:0:
240,216,167047,1,4,0:0:0:0:
248,256,167172,1,0,0:0:0:0:
240,216,167297,1,4,0:0:0:0:
240,184,167547,1,8,0:0:0:0:
240,184,167797,1,4,0:0:0:0:
248,256,167922,1,8,0:0:0:0:
240,216,168047,1,0,0:0:0:0:
176,208,168297,1,0,0:0:0:0:
176,208,168547,1,8,0:0:0:0:
176,208,168797,1,0,0:0:0:0:
240,184,169047,1,12,0:0:0:0:
240,184,169297,1,4,0:0:0:0:
240,216,169547,1,0,0:0:0:0:
256,272,169672,1,0,0:0:0:0:
200,184,169797,1,4,0:0:0:0:
176,208,169922,1,8,0:0:0:0:
176,208,170047,1,0,0:0:0:0:
176,208,170172,1,0,0:0:0:0:
240,184,170422,1,8,0:0:0:0:
240,216,170547,1,0,0:0:0:0:
240,216,170797,1,0,0:0:0:0:
240,216,170922,1,0,0:0:0:0:
240,216,171047,1,12,0:0:0:0:
200,184,171172,1,0,0:0:0:0:
216,120,171422,1,0,0:0:0:0:
216,120,171547,1,12,0:0:0:0:
216,120,171672,1,0,0:0:0:0:
240,184,171922,1,0,0:0:0:0:
200,184,172047,1,12,0:0:0:0:
200,184,172172,1,0,0:0:0:0:
200,184,172422,1,0,0:0:0:0:
200,184,172547,1,12,0:0:0:0:
200,184,172672,1,0,0:0:0:0:
216,120,172922,1,0,0:0:0:0:
216,120,173047,1,12,0:0:0:0:
216,120,173172,1,0,0:0:0:0:
216,120,173297,1,12,0:0:0:0:
216,120,173422,1,0,0:0:0:0:
216,120,173547,1,12,0:0:0:0:
216,120,173672,1,0,0:0:0:0:
216,120,173797,1,12,0:0:0:0:
216,120,173922,1,0,0:0:0:0:
216,120,174047,1,8,0:0:0:0:
216,120,174109,1,8,0:0:0:0:
216,120,174172,1,8,0:0:0:0:
216,120,174234,1,8,0:0:0:0:
216,120,174297,1,8,0:0:0:0:
216,120,174359,1,8,0:0:0:0:
216,120,174422,1,8,0:0:0:0:
216,120,174484,1,8,0:0:0:0:
216,120,174547,1,0,0:0:0:0:
216,120,174609,1,0,0:0:0:0:
216,120,174672,1,0,0:0:0:0:
216,120,174734,1,0,0:0:0:0:
216,120,174797,1,8,0:0:0:0:
216,120,174922,1,0,0:0:0:0:
216,120,175047,1,4,0:0:0:0:
216,120,175172,1,0,0:0:0:0:
216,120,175234,1,0,0:0:0:0:
216,120,175297,1,8,0:0:0:0:
216,120,175422,1,0,0:0:0:0:
216,120,175547,1,8,0:0:0:0:
216,120,175672,1,0,0:0:0:0:
216,120,175734,1,0,0:0:0:0:
216,120,175797,1,8,0:0:0:0:
216,120,175922,1,0,0:0:0:0:
216,120,176047,1,8,0:0:0:0:
216,120,176172,1,8,0:0:0:0:
216,120,176234,1,8,0:0:0:0:
216,120,176297,1,0,0:0:0:0:
216,120,176422,1,0,0:0:0:0:
216,120,176484,1,0,0:0:0:0:
216,120,176547,1,8,0:0:0:0:
216,120,176672,1,0,0:0:0:0:
240,192,176797,1,8,0:0:0:0:
240,192,176859,1,8,0:0:0:0:
240,192,176922,1,0,0:0:0:0:
240,192,177047,1,8,0:0:0:0:
224,232,177172,1,0,0:0:0:0:
224,232,177297,1,8,0:0:0:0:
224,232,177422,1,0,0:0:0:0:
224,232,177484,1,0,0:0:0:0:
224,232,177547,1,8,0:0:0:0:
248,256,177672,1,0,0:0:0:0:
224,232,177797,1,8,0:0:0:0:
224,232,177859,1,8,0:0:0:0:
224,232,177922,1,0,0:0:0:0:
224,232,178047,1,0,0:0:0:0:
224,232,178109,1,0,0:0:0:0:
224,232,178172,1,8,0:0:0:0:
224,232,178234,1,8,0:0:0:0:
224,232,178297,1,0,0:0:0:0:
224,232,178422,1,8,0:0:0:0:
224,232,178547,1,8,0:0:0:0:
192,184,178672,1,0,0:0:0:0:
192,184,178734,1,0,0:0:0:0:
192,184,178797,1,0,0:0:0:0:
192,184,178922,1,8,0:0:0:0:
192,184,179047,1,0,0:0:0:0:
192,184,179172,1,0,0:0:0:0:
192,184,179234,1,0,0:0:0:0:
192,184,179297,1,8,0:0:0:0:
192,184,179422,1,0,0:0:0:0:
192,184,179547,1,8,0:0:0:0:
192,184,179609,1,8,0:0:0:0:
192,184,179672,1,0,0:0:0:0:
144,248,179797,1,8,0:0:0:0:
144,248,179922,1,0,0:0:0:0:
160,216,180047,1,8,0:0:0:0:
192,184,180172,1,0,0:0:0:0:
192,184,180234,1,0,0:0:0:0:
192,184,180297,1,8,0:0:0:0:
192,184,180422,1,8,0:0:0:0:
192,184,180547,1,0,0:0:0:0:
192,184,180609,1,0,0:0:0:0:
192,184,180672,1,8,0:0:0:0:
192,184,180734,1,0,0:0:0:0:
192,184,180797,1,0,0:0:0:0:
192,184,180922,1,0,0:0:0:0:
192,184,181047,1,8,0:0:0:0:
192,184,181109,1,0,0:0:0:0:
192,184,181172,1,8,0:0:0:0:
160,216,181297,1,8,0:0:0:0:
160,216,181422,1,0,0:0:0:0:
160,216,181484,1,8,0:0:0:0:
160,216,181547,1,0,0:0:0:0:
192,184,181672,1,8,0:0:0:0:
192,184,181797,1,0,0:0:0:0:
192,184,181922,1,8,0:0:0:0:
192,184,181984,1,8,0:0:0:0:
160,216,182047,1,0,0:0:0:0:
160,216,182172,1,0,0:0:0:0:
160,216,182297,1,8,0:0:0:0:
192,184,182422,1,0,0:0:0:0:
192,184,182484,1,0,0:0:0:0:
192,184,182547,1,8,0:0:0:0:
192,184,182609,1,8,0:0:0:0:
192,184,182672,1,0,0:0:0:0:
160,216,182797,1,0,0:0:0:0:
24,216,182922,1,8,0:0:0:0:
216,120,183047,1,4,0:0:0:0:
216,120,183172,1,0,0:0:0:0:
216,120,183234,1,0,0:0:0:0:
216,120,183297,1,8,0:0:0:0:
216,120,183422,1,0,0:0:0:0:
216,120,183547,1,8,0:0:0:0:
216,120,183672,1,0,0:0:0:0:
216,120,183734,1,0,0:0:0:0:
216,120,183797,1,8,0:0:0:0:
216,120,183922,1,8,0:0:0:0:
216,120,184047,1,0,0:0:0:0:
216,120,184172,1,8,0:0:0:0:
216,120,184234,1,8,0:0:0:0:
216,120,184297,1,0,0:0:0:0:
216,120,184422,1,0,0:0:0:0:
216,120,184484,1,0,0:0:0:0:
216,120,184547,1,8,0:0:0:0:
216,120,184672,1,0,0:0:0:0:
240,192,184797,1,0,0:0:0:0:
240,192,184859,1,0,0:0:0:0:
240,192,184922,1,0,0:0:0:0:
240,192,185047,1,8,0:0:0:0:
224,232,185172,1,0,0:0:0:0:
224,232,185297,1,8,0:0:0:0:
224,232,185422,1,0,0:0:0:0:
224,232,185484,1,0,0:0:0:0:
224,232,185547,1,8,0:0:0:0:
248,256,185672,1,8,0:0:0:0:
224,232,185797,1,0,0:0:0:0:
224,232,185859,1,0,0:0:0:0:
224,232,185922,1,0,0:0:0:0:
224,232,186047,1,8,0:0:0:0:
224,232,186109,1,8,0:0:0:0:
224,232,186172,1,0,0:0:0:0:
224,232,186234,1,0,0:0:0:0:
224,232,186297,1,8,0:0:0:0:
224,232,186422,1,0,0:0:0:0:
224,232,186547,1,8,0:0:0:0:
192,184,186672,1,0,0:0:0:0:
192,184,186734,1,0,0:0:0:0:
192,184,186797,1,8,0:0:0:0:
192,184,186922,1,0,0:0:0:0:
192,184,187047,1,8,0:0:0:0:
192,184,187172,1,0,0:0:0:0:
192,184,187234,1,0,0:0:0:0:
192,184,187297,1,0,0:0:0:0:
192,184,187422,1,8,0:0:0:0:
192,184,187547,1,0,0:0:0:0:
192,184,187609,1,0,0:0:0:0:
192,184,187672,1,0,0:0:0:0:
144,248,187797,1,8,0:0:0:0:
144,248,187922,1,0,0:0:0:0:
160,216,188047,1,8,0:0:0:0:
192,184,188172,1,0,0:0:0:0:
192,184,188234,1,0,0:0:0:0:
192,184,188297,1,0,0:0:0:0:
192,184,188422,1,8,0:0:0:0:
192,184,188547,1,0,0:0:0:0:
192,184,188609,1,0,0:0:0:0:
192,184,188672,1,0,0:0:0:0:
192,184,188734,1,0,0:0:0:0:
192,184,188797,1,8,0:0:0:0:
192,184,188922,1,8,0:0:0:0:
192,184,189047,1,0,0:0:0:0:
192,184,189109,1,0,0:0:0:0:
192,184,189172,1,0,0:0:0:0:
160,216,189297,1,8,0:0:0:0:
160,216,189422,1,0,0:0:0:0:
160,216,189484,1,0,0:0:0:0:
160,216,189547,1,0,0:0:0:0:
192,184,189672,1,8,0:0:0:0:
192,184,189797,1,0,0:0:0:0:
192,184,189922,1,0,0:0:0:0:
192,184,189984,1,0,0:0:0:0:
160,216,190047,1,8,0:0:0:0:
160,216,190172,1,0,0:0:0:0:
160,216,190297,1,8,0:0:0:0:
192,184,190422,1,0,0:0:0:0:
192,184,190484,5,0,0:0:0:0:
192,184,190547,1,8,0:0:0:0:
192,184,190609,1,8,0:0:0:0:
192,184,190672,1,0,0:0:0:0:
160,216,190797,1,0,0:0:0:0:
24,216,190922,1,8,0:0:0:0:
24,216,191047,1,0,0:0:0:0:
256,192,191109,1,0,0:0:0:0:
256,192,191172,1,0,0:0:0:0:
256,192,191297,1,8,0:0:0:0:
256,192,191422,1,0,0:0:0:0:
256,192,191547,1,8,0:0:0:0:
256,192,191672,1,0,0:0:0:0:
256,192,191797,1,0,0:0:0:0:
256,192,191859,1,8,0:0:0:0:
256,192,191922,1,0,0:0:0:0:
256,192,191984,1,8,0:0:0:0:
256,192,192047,1,8,0:0:0:0:
256,192,192172,1,8,0:0:0:0:
256,192,192297,1,0,0:0:0:0:
256,192,192422,1,0,0:0:0:0:
256,192,192547,1,8,0:0:0:0:
256,192,192609,1,8,0:0:0:0:
256,192,192672,1,0,0:0:0:0:
256,192,192734,1,8,0:0:0:0:
256,192,192797,1,0,0:0:0:0:
256,192,192859,1,0,0:0:0:0:
256,192,192922,1,8,0:0:0:0:
256,192,192984,1,8,0:0:0:0:
256,192,193047,1,0,0:0:0:0:
256,192,193172,1,0,0:0:0:0:
256,192,193297,1,8,0:0:0:0:
256,192,193422,1,8,0:0:0:0:
256,192,193547,1,0,0:0:0:0:
256,192,193672,1,8,0:0:0:0:
256,192,193797,1,0,0:0:0:0:
256,192,193922,1,8,0:0:0:0:
256,192,193984,1,0,0:0:0:0:
256,192,194047,1,8,0:0:0:0:
256,192,194109,1,8,0:0:0:0:
256,192,194172,1,8,0:0:0:0:
256,192,194297,1,8,0:0:0:0:
256,192,194422,1,0,0:0:0:0:
256,192,194547,1,0,0:0:0:0:
256,192,194609,1,0,0:0:0:0:
256,192,194672,1,0,0:0:0:0:
256,192,194797,1,8,0:0:0:0:
256,192,194859,1,0,0:0:0:0:
256,192,194922,1,0,0:0:0:0:
256,192,195047,1,0,0:0:0:0:
256,192,195172,1,8,0:0:0:0:
256,192,195297,1,0,0:0:0:0:
256,192,195422,1,0,0:0:0:0:
256,192,195547,1,8,0:0:0:0:
256,192,195672,1,8,0:0:0:0:
256,192,195797,1,0,0:0:0:0:
256,192,195922,1,0,0:0:0:0:
256,192,195984,1,8,0:0:0:0:
256,192,196047,1,8,0:0:0:0:
256,192,196109,1,0,0:0:0:0:
256,192,196172,1,0,0:0:0:0:
256,192,196297,1,8,0:0:0:0:
256,192,196422,1,0,0:0:0:0:
256,192,196547,1,8,0:0:0:0:
256,192,196672,1,0,0:0:0:0:
256,192,196797,1,0,0:0:0:0:
256,192,196922,1,0,0:0:0:0:
256,192,197047,1,0,0:0:0:0:
256,192,197109,1,0,0:0:0:0:
256,192,197172,1,0,0:0:0:0:
256,192,197297,1,8,0:0:0:0:
256,192,197422,1,0,0:0:0:0:
256,192,197547,1,8,0:0:0:0:
256,192,197672,1,0,0:0:0:0:
256,192,197797,1,8,0:0:0:0:
256,192,197922,1,8,0:0:0:0:
256,192,198047,1,8,0:0:0:0:
256,192,198109,1,0,0:0:0:0:
256,192,198172,1,0,0:0:0:0:
256,192,198297,1,8,0:0:0:0:
256,192,198359,1,0,0:0:0:0:
256,192,198422,1,0,0:0:0:0:
256,192,198484,1,0,0:0:0:0:
256,192,198547,1,8,0:0:0:0:
256,192,198609,1,8,0:0:0:0:
256,192,198672,1,0,0:0:0:0:
256,192,198734,1,8,0:0:0:0:
256,192,198797,1,8,0:0:0:0:
256,192,198859,1,8,0:0:0:0:
256,192,198922,1,0,0:0:0:0:
256,192,199047,1,0,0:0:0:0:
256,192,199172,1,8,0:0:0:0:
256,192,199297,1,0,0:0:0:0:
256,192,199422,1,8,0:0:0:0:
256,192,199547,1,8,0:0:0:0:
256,192,199672,1,0,0:0:0:0:
256,192,199797,1,0,0:0:0:0:
256,192,199922,1,8,0:0:0:0:
256,192,200047,1,0,0:0:0:0:
256,192,200109,1,8,0:0:0:0:
256,192,200172,1,8,0:0:0:0:
256,192,200234,1,0,0:0:0:0:
256,192,200297,1,0,0:0:0:0:
256,192,200422,1,0,0:0:0:0:
256,192,200547,1,8,0:0:0:0:
256,192,200672,1,0,0:0:0:0:
256,192,200797,1,0,0:0:0:0:
256,192,200922,1,0,0:0:0:0:
256,192,201047,1,0,0:0:0:0:
256,192,201109,1,0,0:0:0:0:
256,192,201172,1,0,0:0:0:0:
256,192,201297,1,8,0:0:0:0:
256,192,201422,1,0,0:0:0:0:
256,192,201547,1,0,0:0:0:0:
256,192,201672,1,8,0:0:0:0:
256,192,201797,1,8,0:0:0:0:
256,192,201922,1,0,0:0:0:0:
256,192,201984,1,0,0:0:0:0:
256,192,202047,1,8,0:0:0:0:
256,192,202109,1,8,0:0:0:0:
256,192,202172,1,0,0:0:0:0:
256,192,202234,1,0,0:0:0:0:
256,192,202297,1,0,0:0:0:0:
224,176,202422,1,0,0:0:0:0:
256,192,202547,1,8,0:0:0:0:
256,192,202609,1,8,0:0:0:0:
256,192,202672,1,0,0:0:0:0:
256,192,202797,1,8,0:0:0:0:
256,192,202859,1,0,0:0:0:0:
256,192,202922,1,0,0:0:0:0:
256,192,203047,1,0,0:0:0:0:
256,192,203172,1,8,0:0:0:0:
256,192,203297,1,0,0:0:0:0:
256,192,203422,1,8,0:0:0:0:
256,192,203547,1,8,0:0:0:0:
256,192,203672,1,8,0:0:0:0:
256,192,203797,1,0,0:0:0:0:
256,192,203922,1,8,0:0:0:0:
256,192,204047,1,8,0:0:0:0:
256,192,204109,1,0,0:0:0:0:
256,192,204172,1,8,0:0:0:0:
256,192,204234,1,8,0:0:0:0:
256,192,204297,1,0,0:0:0:0:
256,192,204422,1,0,0:0:0:0:
256,192,204547,1,0,0:0:0:0:
256,192,204610,1,0,0:0:0:0:
256,192,204672,1,0,0:0:0:0:
256,192,204797,1,8,0:0:0:0:
256,192,204859,1,8,0:0:0:0:
256,192,204922,1,0,0:0:0:0:
256,192,204984,1,0,0:0:0:0:
256,192,205047,1,8,0:0:0:0:
256,192,205109,1,0,0:0:0:0:
256,192,205172,1,0,0:0:0:0:
256,192,205297,1,0,0:0:0:0:
256,192,205422,1,8,0:0:0:0:
256,192,205484,1,0,0:0:0:0:
256,192,205547,1,0,0:0:0:0:
256,192,205672,1,0,0:0:0:0:
256,192,205797,1,8,0:0:0:0:
256,192,205859,1,8,0:0:0:0:
256,192,205922,1,0,0:0:0:0:
256,192,206047,1,8,0:0:0:0:
256,192,206109,1,8,0:0:0:0:
256,192,206172,1,8,0:0:0:0:
256,192,206234,1,8,0:0:0:0:
256,192,206297,1,0,0:0:0:0:
256,192,206422,1,8,0:0:0:0:
256,192,206547,1,0,0:0:0:0:
256,192,206609,1,0,0:0:0:0:
256,192,206672,1,0,0:0:0:0:
256,192,206797,1,8,0:0:0:0:
256,192,206859,1,8,0:0:0:0:
256,192,206922,1,8,0:0:0:0:
256,192,207047,1,0,0:0:0:0:
256,192,207172,1,0,0:0:0:0:
256,192,207234,1,0,0:0:0:0:
256,192,207297,1,0,0:0:0:0:
256,192,207422,1,0,0:0:0:0:
256,192,207547,1,8,0:0:0:0:
256,192,207672,1,8,0:0:0:0:
256,192,207734,1,0,0:0:0:0:
256,192,207797,1,0,0:0:0:0:
256,192,207922,1,0,0:0:0:0:
256,192,208047,1,8,0:0:0:0:
256,192,208172,1,0,0:0:0:0:
256,192,208234,1,0,0:0:0:0:
256,192,208297,1,0,0:0:0:0:
256,192,208422,1,0,0:0:0:0:
256,192,208547,1,8,0:0:0:0:
256,192,208609,1,0,0:0:0:0:
256,192,208672,1,0,0:0:0:0:
256,192,208797,1,8,0:0:0:0:
256,192,208859,1,8,0:0:0:0:
256,192,208922,1,0,0:0:0:0:
256,192,208984,1,0,0:0:0:0:
256,192,209047,1,8,0:0:0:0:
256,192,209172,1,0,0:0:0:0:
256,192,209234,1,0,0:0:0:0:
256,192,209297,1,0,0:0:0:0:
256,192,209422,1,0,0:0:0:0:
256,192,209547,1,8,0:0:0:0:
256,192,209672,1,0,0:0:0:0:
256,192,209734,1,0,0:0:0:0:
256,192,209797,1,8,0:0:0:0:
256,192,209859,1,0,0:0:0:0:
256,192,209922,1,8,0:0:0:0:
256,192,210047,1,0,0:0:0:0:
256,192,210172,1,8,0:0:0:0:
256,192,210234,1,8,0:0:0:0:
256,192,210297,1,0,0:0:0:0:
256,192,210422,1,0,0:0:0:0:
256,192,210547,1,8,0:0:0:0:
256,192,210609,1,8,0:0:0:0:
256,192,210672,1,0,0:0:0:0:
256,192,210734,1,8,0:0:0:0:
256,192,210797,1,0,0:0:0:0:
256,192,210859,1,0,0:0:0:0:
256,192,210922,1,8,0:0:0:0:
256,192,211047,1,8,0:0:0:0:
256,192,211172,1,0,0:0:0:0:
256,192,211234,1,0,0:0:0:0:
256,192,211297,1,0,0:0:0:0:
256,192,211422,1,8,0:0:0:0:
256,192,211547,1,0,0:0:0:0:
256,192,211609,1,8,0:0:0:0:
256,192,211672,1,0,0:0:0:0:
256,192,211734,1,0,0:0:0:0:
256,192,211797,1,8,0:0:0:0:
256,192,211859,1,8,0:0:0:0:
256,192,211922,1,0,0:0:0:0:
256,192,212047,1,0,0:0:0:0:
256,192,212172,1,0,0:0:0:0:
256,192,212234,1,0,0:0:0:0:
256,192,212297,1,8,0:0:0:0:
256,192,212422,1,0,0:0:0:0:
256,192,212547,1,8,0:0:0:0:
256,192,212609,1,0,0:0:0:0:
256,192,212672,1,0,0:0:0:0:
256,192,212734,1,0,0:0:0:0:
256,192,212797,1,8,0:0:0:0:
256,192,212859,1,8,0:0:0:0:
256,192,212922,1,0,0:0:0:0:
256,192,212984,1,0,0:0:0:0:
256,192,213047,1,8,0:0:0:0:
256,192,213172,1,0,0:0:0:0:
256,192,213234,1,0,0:0:0:0:
256,192,213297,1,0,0:0:0:0:
256,192,213422,1,8,0:0:0:0:
256,192,213547,1,0,0:0:0:0:
256,192,213609,1,0,0:0:0:0:
256,192,213672,1,8,0:0:0:0:
256,192,213734,1,8,0:0:0:0:
256,192,213797,1,0,0:0:0:0:
256,192,213922,1,8,0:0:0:0:
256,192,214047,1,0,0:0:0:0:
256,192,214172,1,0,0:0:0:0:
256,192,214234,1,0,0:0:0:0:
256,192,214297,1,8,0:0:0:0:
256,192,214422,1,8,0:0:0:0:
256,192,214547,1,0,0:0:0:0:
256,192,214609,1,8,0:0:0:0:
256,192,214672,1,0,0:0:0:0:
256,192,214734,1,0,0:0:0:0:
256,192,214797,1,8,0:0:0:0:
256,192,214859,1,8,0:0:0:0:
256,192,214922,1,0,0:0:0:0:
256,192,215047,1,8,0:0:0:0:
256,192,215172,1,0,0:0:0:0:
256,192,215234,1,0,0:0:0:0:
256,192,215297,1,8,0:0:0:0:
256,192,215422,1,0,0:0:0:0:
256,192,215484,1,0,0:0:0:0:
256,192,215547,1,8,0:0:0:0:
256,192,215672,1,0,0:0:0:0:
256,192,215797,1,0,0:0:0:0:
256,192,215922,1,8,0:0:0:0:
256,192,216047,1,0,0:0:0:0:
256,192,216172,1,0,0:0:0:0:
256,192,216234,1,0,0:0:0:0:
256,192,216297,1,0,0:0:0:0:
256,192,216422,1,0,0:0:0:0:
256,192,216547,1,8,0:0:0:0:
256,192,216672,1,8,0:0:0:0:
256,192,216734,1,0,0:0:0:0:
256,192,216797,1,0,0:0:0:0:
256,192,216859,1,0,0:0:0:0:
256,192,216922,1,8,0:0:0:0:
256,192,217047,1,8,0:0:0:0:
256,192,217172,1,0,0:0:0:0:
256,192,217234,1,8,0:0:0:0:
256,192,217297,1,0,0:0:0:0:
256,192,217422,1,8,0:0:0:0:
256,192,217547,1,0,0:0:0:0:
256,192,217672,1,0,0:0:0:0:
256,192,217734,1,0,0:0:0:0:
256,192,217797,1,8,0:0:0:0:
256,192,217859,1,0,0:0:0:0:
256,192,217922,1,8,0:0:0:0:
256,192,218047,1,0,0:0:0:0:
256,192,218172,1,0,0:0:0:0:
256,192,218234,1,8,0:0:0:0:
256,192,218297,1,0,0:0:0:0:
256,192,218422,1,8,0:0:0:0:
256,192,218547,1,8,0:0:0:0:
256,192,218672,1,0,0:0:0:0:
256,192,218797,1,0,0:0:0:0:
256,192,218922,1,8,0:0:0:0:
256,192,219047,1,8,0:0:0:0:
256,192,219172,1,0,0:0:0:0:
256,192,219234,1,0,0:0:0:0:
256,192,219297,1,0,0:0:0:0:
256,192,219422,1,8,0:0:0:0:
256,192,219547,1,0,0:0:0:0:
256,192,219672,1,8,0:0:0:0:
256,192,219734,1,0,0:0:0:0:
256,192,219797,1,0,0:0:0:0:
256,192,219922,1,0,0:0:0:0:
256,192,220047,1,0,0:0:0:0:
256,192,220172,1,0,0:0:0:0:
256,192,220234,1,0,0:0:0:0:
256,192,220297,1,8,0:0:0:0:
256,192,220422,1,8,0:0:0:0:
256,192,220484,1,8,0:0:0:0:
256,192,220547,1,8,0:0:0:0:
256,192,220672,1,8,0:0:0:0:
256,192,220797,1,0,0:0:0:0:
256,192,220859,1,0,0:0:0:0:
256,192,220922,1,8,0:0:0:0:
256,192,221047,1,8,0:0:0:0:
256,192,221172,1,0,0:0:0:0:
256,192,221297,1,0,0:0:0:0:
256,192,221422,1,8,0:0:0:0:
256,192,221547,1,0,0:0:0:0:
256,192,221672,1,0,0:0:0:0:
256,192,221734,1,0,0:0:0:0:
256,192,221797,1,8,0:0:0:0:
256,192,221859,1,0,0:0:0:0:
256,192,221922,1,8,0:0:0:0:
256,192,222047,1,0,0:0:0:0:
256,192,222172,1,8,0:0:0:0:
256,192,222297,1,8,0:0:0:0:
256,192,222359,1,8,0:0:0:0:
256,192,222422,1,0,0:0:0:0:
256,192,222547,1,0,0:0:0:0:
256,192,222609,1,8,0:0:0:0:
256,192,222672,1,0,0:0:0:0:
256,192,222734,1,0,0:0:0:0:
256,192,222797,1,8,0:0:0:0:
256,192,222859,1,8,0:0:0:0:
256,192,222922,1,8,0:0:0:0:
256,192,222984,1,8,0:0:0:0:
256,192,223047,1,0,0:0:0:0:
240,224,223547,1,8,0:0:0:0:
144,256,224047,1,0,0:0:0:0:
128,200,224172,1,0,0:0:0:0:
200,320,224297,1,0,0:0:0:0:
192,288,224547,1,8,0:0:0:0:
144,256,224797,1,8,0:0:0:0:
144,256,224922,1,8,0:0:0:0:
192,288,225047,1,0,0:0:0:0:
192,288,225547,1,8,0:0:0:0:
152,216,225922,1,0,0:0:0:0:
272,320,226047,1,0,0:0:0:0:
152,216,226172,1,0,0:0:0:0:
248,280,226297,1,0,0:0:0:0:
248,280,226547,1,8,0:0:0:0:
200,240,226797,1,8,0:0:0:0:
200,240,226922,1,8,0:0:0:0:
88,232,227047,1,0,0:0:0:0:
88,232,227297,1,0,0:0:0:0:
88,232,227547,1,8,0:0:0:0:
200,240,227797,1,0,0:0:0:0:
128,200,227922,1,0,0:0:0:0:
88,232,228047,1,0,0:0:0:0:
128,200,228297,1,0,0:0:0:0:
160,208,228547,1,8,0:0:0:0:
160,208,228672,1,0,0:0:0:0:
128,200,228797,1,0,0:0:0:0:
160,208,228922,1,8,0:0:0:0:
160,208,229047,1,0,0:0:0:0:
160,208,229297,1,0,0:0:0:0:
160,208,229547,1,8,0:0:0:0:
224,232,229797,1,0,0:0:0:0:
224,232,229922,1,0,0:0:0:0:
152,272,230172,1,0,0:0:0:0:
152,272,230297,1,0,0:0:0:0:
208,224,230547,1,8,0:0:0:0:
208,224,230797,1,8,0:0:0:0:
208,224,230922,1,8,0:0:0:0:
160,208,231047,1,4,0:0:0:0:
160,208,231297,1,0,0:0:0:0:
160,208,231547,1,8,0:0:0:0:
208,224,231797,1,0,0:0:0:0:
208,224,231922,1,8,0:0:0:0:
128,264,232047,1,0,0:0:0:0:
104,240,232297,1,0,0:0:0:0:
176,240,232547,1,8,0:0:0:0:
280,192,232797,1,0,0:0:0:0:
280,192,232922,1,0,0:0:0:0:
176,240,233047,1,8,0:0:0:0:
176,240,233297,1,0,0:0:0:0:
176,240,233547,1,8,0:0:0:0:
16,152,233797,1,8,0:0:0:0:
16,152,233922,1,8,0:0:0:0:
120,200,234047,1,0,0:0:0:0:
152,216,234297,1,0,0:0:0:0:
152,216,234422,1,0,0:0:0:0:
152,216,234547,1,8,0:0:0:0:
64,216,234797,1,0,0:0:0:0:
64,216,235047,1,8,0:0:0:0:
96,248,235297,1,0,0:0:0:0:
64,216,235547,1,8,0:0:0:0:
96,248,235797,1,8,0:0:0:0:
96,248,235922,1,8,0:0:0:0:
184,280,236047,1,0,0:0:0:0:
64,216,236297,1,0,0:0:0:0:
184,280,236547,1,8,0:0:0:0:
64,216,236797,1,8,0:0:0:0:
96,248,236922,1,8,0:0:0:0:
184,280,237047,1,0,0:0:0:0:
240,216,237297,1,0,0:0:0:0:
240,216,237547,1,8,0:0:0:0:
240,216,237797,1,0,0:0:0:0:
240,216,238047,1,8,0:0:0:0:
240,216,238172,1,0,0:0:0:0:
240,216,238234,1,0,0:0:0:0:
240,216,238297,1,8,0:0:0:0:
240,216,238422,1,0,0:0:0:0:
240,216,238484,1,0,0:0:0:0:
240,216,238547,1,8,0:0:0:0:
240,216,238672,1,0,0:0:0:0:
240,216,238734,1,0,0:0:0:0:
240,216,238797,1,8,0:0:0:0:
240,216,238922,1,0,0:0:0:0:
240,216,239047,1,12,0:0:0:0:
168,192,239172,1,0,0:0:0:0:
168,192,239234,1,0,0:0:0:0:
296,248,239297,1,8,0:0:0:0:
296,248,239422,1,8,0:0:0:0:
296,248,239547,1,0,0:0:0:0:
296,248,239609,1,0,0:0:0:0:
296,248,239672,1,0,0:0:0:0:
296,248,239734,1,0,0:0:0:0:
296,248,239797,1,8,0:0:0:0:
296,248,239922,1,0,0:0:0:0:
296,248,240047,1,8,0:0:0:0:
296,248,240172,1,0,0:0:0:0:
296,248,240234,1,8,0:0:0:0:
296,248,240297,1,0,0:0:0:0:
296,248,240422,1,8,0:0:0:0:
296,248,240547,1,0,0:0:0:0:
296,248,240672,1,8,0:0:0:0:
296,248,240734,1,0,0:0:0:0:
296,248,240797,1,8,0:0:0:0:
296,248,240859,1,8,0:0:0:0:
296,248,240922,1,0,0:0:0:0:
296,248,240984,1,0,0:0:0:0:
296,248,241047,1,8,0:0:0:0:
256,176,241172,1,0,0:0:0:0:
256,176,241297,1,8,0:0:0:0:
256,176,241422,1,0,0:0:0:0:
256,176,241547,1,0,0:0:0:0:
256,176,241672,1,0,0:0:0:0:
256,176,241734,1,0,0:0:0:0:
256,176,241797,1,8,0:0:0:0:
256,176,241922,1,0,0:0:0:0:
256,176,242047,1,8,0:0:0:0:
256,176,242172,1,0,0:0:0:0:
256,176,242297,1,8,0:0:0:0:
256,176,242422,1,0,0:0:0:0:
256,176,242484,1,0,0:0:0:0:
256,176,242547,1,8,0:0:0:0:
256,176,242672,1,8,0:0:0:0:
240,224,242734,1,0,0:0:0:0:
240,224,242797,1,8,0:0:0:0:
184,200,242922,1,0,0:0:0:0:
184,200,243047,1,8,0:0:0:0:
184,200,243172,1,0,0:0:0:0:
184,200,243297,1,8,0:0:0:0:
184,200,243359,1,8,0:0:0:0:
208,144,243422,1,0,0:0:0:0:
208,144,243484,1,0,0:0:0:0:
208,144,243547,1,8,0:0:0:0:
208,144,243672,1,0,0:0:0:0:
208,144,243797,1,8,0:0:0:0:
208,144,243859,1,8,0:0:0:0:
208,144,243922,1,0,0:0:0:0:
208,144,244047,1,0,0:0:0:0:
208,144,244172,1,8,0:0:0:0:
208,144,244234,1,0,0:0:0:0:
208,144,244297,1,0,0:0:0:0:
208,144,244422,1,8,0:0:0:0:
208,144,244547,1,0,0:0:0:0:
208,144,244672,1,8,0:0:0:0:
208,144,244734,1,8,0:0:0:0:
208,144,244797,1,0,0:0:0:0:
176,160,244922,1,8,0:0:0:0:
176,160,245047,1,0,0:0:0:0:
176,160,245172,1,0,0:0:0:0:
176,160,245234,1,0,0:0:0:0:
176,160,245297,1,8,0:0:0:0:
176,160,245422,1,0,0:0:0:0:
176,160,245547,1,0,0:0:0:0:
80,200,245672,1,8,0:0:0:0:
80,200,245797,1,0,0:0:0:0:
168,200,245922,1,0,0:0:0:0:
168,200,245984,1,0,0:0:0:0:
168,200,246047,1,8,0:0:0:0:
168,200,246172,1,0,0:0:0:0:
168,200,246234,1,0,0:0:0:0:
168,200,246297,1,8,0:0:0:0:
168,200,246422,1,0,0:0:0:0:
168,200,246484,1,8,0:0:0:0:
168,200,246547,1,0,0:0:0:0:
168,200,246609,1,0,0:0:0:0:
168,200,246672,1,8,0:0:0:0:
168,200,246734,1,0,0:0:0:0:
168,200,246797,1,8,0:0:0:0:
160,232,247047,1,8,0:0:0:0:
240,216,247297,1,0,0:0:0:0:
168,200,247547,1,8,0:0:0:0:
160,232,247797,1,0,0:0:0:0:
128,144,247922,1,0,0:0:0:0:
128,144,247984,1,0,0:0:0:0:
128,144,248047,1,8,0:0:0:0:
128,144,248172,1,8,0:0:0:0:
128,144,248297,1,0,0:0:0:0:
128,144,248422,1,0,0:0:0:0:
128,144,248484,1,0,0:0:0:0:
128,144,248547,1,0,0:0:0:0:
128,144,248672,1,0,0:0:0:0:
128,144,248734,1,0,0:0:0:0:
128,144,248797,1,8,0:0:0:0:
128,144,248859,1,0,0:0:0:0:
128,144,248922,1,0,0:0:0:0:
128,144,249047,1,8,0:0:0:0:
160,184,249172,1,0,0:0:0:0:
160,184,249234,1,0,0:0:0:0:
160,184,249297,1,8,0:0:0:0:
144,224,249422,1,0,0:0:0:0:
160,184,249547,1,0,0:0:0:0:
160,184,249672,1,8,0:0:0:0:
160,184,249734,1,8,0:0:0:0:
160,184,249797,1,0,0:0:0:0:
160,184,249922,1,0,0:0:0:0:
160,184,250047,1,8,0:0:0:0:
184,208,250109,1,0,0:0:0:0:
160,184,250172,1,0,0:0:0:0:
160,184,250297,1,8,0:0:0:0:
160,184,250422,1,0,0:0:0:0:
160,184,250484,1,0,0:0:0:0:
160,184,250547,1,8,0:0:0:0:
112,168,250672,1,0,0:0:0:0:
112,168,250734,1,0,0:0:0:0:
112,168,250797,1,8,0:0:0:0:
160,184,250922,1,0,0:0:0:0:
160,184,251047,1,8,0:0:0:0:
160,184,251172,1,0,0:0:0:0:
160,184,251297,1,8,0:0:0:0:
160,184,251359,1,0,0:0:0:0:
160,184,251422,1,0,0:0:0:0:
160,184,251484,1,8,0:0:0:0:
160,184,251547,1,0,0:0:0:0:
64,168,251609,1,0,0:0:0:0:
64,168,251672,1,8,0:0:0:0:
160,184,251797,1,0,0:0:0:0:
160,184,251859,1,0,0:0:0:0:
160,184,251922,1,0,0:0:0:0:
112,168,252047,1,8,0:0:0:0:
160,184,252172,1,8,0:0:0:0:
160,184,252297,1,0,0:0:0:0:
160,184,252359,1,0,0:0:0:0:
160,184,252422,1,0,0:0:0:0:
160,184,252547,1,8,0:0:0:0:
160,184,252672,1,0,0:0:0:0:
160,184,252734,1,0,0:0:0:0:
160,184,252797,1,0,0:0:0:0:
160,184,252922,1,8,0:0:0:0:
160,184,253047,1,0,0:0:0:0:
192,176,253172,1,0,0:0:0:0:
192,176,253234,1,0,0:0:0:0:
192,176,253297,1,8,0:0:0:0:
192,176,253422,1,0,0:0:0:0:
192,176,253547,1,8,0:0:0:0:
160,184,253609,1,8,0:0:0:0:
192,176,253672,1,0,0:0:0:0:
160,184,253734,1,0,0:0:0:0:
192,176,253797,1,8,0:0:0:0:
160,184,253922,1,0,0:0:0:0:
160,184,254047,1,8,0:0:0:0:
160,184,254109,1,8,0:0:0:0:
192,176,254172,1,0,0:0:0:0:
160,184,254297,1,8,0:0:0:0:
160,184,254422,1,0,0:0:0:0:
160,184,254547,1,8,0:0:0:0:
160,184,254797,1,8,0:0:0:0:
256,232,255047,5,4,0:0:0:0:
256,232,255297,1,0,0:0:0:0:
256,232,255422,1,0,0:0:0:0:
256,232,255547,5,8,0:0:0:0:
256,232,255797,1,0,0:0:0:0:
256,232,256047,5,0,0:0:0:0:
256,232,256297,1,0,0:0:0:0:
256,232,256422,1,0,0:0:0:0:
256,232,256547,5,8,0:0:0:0:
256,232,256672,1,0,0:0:0:0:
256,232,256797,1,0,0:0:0:0:
176,216,257047,1,4,0:0:0:0:
208,144,257297,1,0,0:0:0:0:
176,184,257422,1,0,0:0:0:0:
176,184,257547,1,8,0:0:0:0:
256,232,257797,1,0,0:0:0:0:
256,232,258047,1,0,0:0:0:0:
256,232,258172,5,0,0:0:0:0:
256,232,258297,1,0,0:0:0:0:
256,232,258422,1,0,0:0:0:0:
256,232,258547,1,8,0:0:0:0:
176,216,258672,1,0,0:0:0:0:
176,216,258797,1,0,0:0:0:0:
256,192,259047,12,0,262047,0:0:0:0:
168,232,262297,5,4,0:0:0:0:
168,232,262547,1,4,0:0:0:0:
168,232,262672,1,0,0:0:0:0:
168,232,262797,1,8,0:0:0:0:
256,192,263047,5,4,0:0:0:0:
256,192,263172,1,0,0:0:0:0:
256,192,263297,1,0,0:0:0:0:
256,192,263422,1,0,0:0:0:0:
256,192,263547,1,8,0:0:0:0:
256,192,263797,1,0,0:0:0:0:
256,192,263922,1,0,0:0:0:0:
256,192,264047,1,8,0:0:0:0:
256,192,264172,1,8,0:0:0:0:
256,192,264297,1,0,0:0:0:0:
256,192,264422,1,0,0:0:0:0:
256,192,264547,1,8,0:0:0:0:
256,192,264672,1,0,0:0:0:0:
256,192,264797,1,8,0:0:0:0:
256,192,264922,1,0,0:0:0:0:
256,192,265047,1,4,0:0:0:0:
256,192,265297,1,0,0:0:0:0:
256,192,265422,1,0,0:0:0:0:
256,192,265547,1,8,0:0:0:0:
256,192,265672,1,0,0:0:0:0:
256,192,265797,1,0,0:0:0:0:
256,192,265922,1,0,0:0:0:0:
256,192,266047,1,8,0:0:0:0:
256,192,266297,1,8,0:0:0:0:
256,192,266422,1,0,0:0:0:0:
256,192,266547,1,8,0:0:0:0:
256,192,266672,1,0,0:0:0:0:
256,192,266797,1,0,0:0:0:0:
256,192,266922,1,0,0:0:0:0:
256,192,267047,1,4,0:0:0:0:
256,192,267297,1,0,0:0:0:0:
256,192,267422,1,0,0:0:0:0:
256,192,267547,1,8,0:0:0:0:
256,192,267672,1,0,0:0:0:0:
256,192,267797,1,0,0:0:0:0:
256,192,267922,1,0,0:0:0:0:
256,192,268047,1,8,0:0:0:0:
256,192,268297,1,8,0:0:0:0:
256,192,268422,1,0,0:0:0:0:
256,192,268547,1,0,0:0:0:0:
256,192,268672,1,0,0:0:0:0:
256,192,268797,1,8,0:0:0:0:
256,192,268922,1,0,0:0:0:0:
256,192,269047,1,4,0:0:0:0:
256,192,269297,1,0,0:0:0:0:
256,192,269422,1,0,0:0:0:0:
256,192,269547,1,8,0:0:0:0:
256,192,269672,1,0,0:0:0:0:
256,192,269797,1,8,0:0:0:0:
256,192,269922,1,8,0:0:0:0:
256,192,270047,1,4,0:0:0:0:
256,192,270297,1,0,0:0:0:0:
256,192,270422,1,0,0:0:0:0:
256,192,270547,1,8,0:0:0:0:
256,192,270672,1,0,0:0:0:0:
256,192,270797,1,8,0:0:0:0:
256,192,270922,1,8,0:0:0:0:
256,192,271047,1,12,0:0:0:0:
256,192,271297,1,0,0:0:0:0:
256,192,271422,1,0,0:0:0:0:
256,192,271484,1,0,0:0:0:0:
256,192,271547,1,8,0:0:0:0:
256,192,271672,1,8,0:0:0:0:
256,192,271797,1,0,0:0:0:0:
256,192,271922,1,8,0:0:0:0:
256,192,272047,1,8,0:0:0:0:
256,192,272109,1,8,0:0:0:0:
256,192,272172,1,0,0:0:0:0:
256,192,272297,1,0,0:0:0:0:
256,192,272422,1,0,0:0:0:0:
256,192,272547,1,8,0:0:0:0:
256,192,272797,1,8,0:0:0:0:
256,192,272922,1,8,0:0:0:0:
256,192,273047,1,4,0:0:0:0:
256,192,273172,1,8,0:0:0:0:
256,192,273234,1,0,0:0:0:0:
256,192,273297,1,0,0:0:0:0:
256,192,273422,1,0,0:0:0:0:
256,192,273547,1,8,0:0:0:0:
256,192,273672,1,8,0:0:0:0:
256,192,273734,1,0,0:0:0:0:
256,192,273797,1,0,0:0:0:0:
256,192,273922,1,0,0:0:0:0:
256,192,274047,1,8,0:0:0:0:
256,192,274172,1,0,0:0:0:0:
256,192,274234,1,0,0:0:0:0:
256,192,274297,1,0,0:0:0:0:
256,192,274422,1,0,0:0:0:0:
256,192,274547,1,8,0:0:0:0:
256,192,274797,1,8,0:0:0:0:
256,192,274859,1,8,0:0:0:0:
256,192,274922,1,0,0:0:0:0:
256,192,275047,1,4,0:0:0:0:
256,192,275172,1,0,0:0:0:0:
256,192,275234,1,0,0:0:0:0:
256,192,275297,1,0,0:0:0:0:
256,192,275422,1,0,0:0:0:0:
256,192,275547,1,8,0:0:0:0:
256,192,275672,1,0,0:0:0:0:
256,192,275734,1,0,0:0:0:0:
256,192,275797,1,8,0:0:0:0:
256,192,275922,1,8,0:0:0:0:
256,192,276047,1,8,0:0:0:0:
256,192,276172,1,0,0:0:0:0:
256,192,276234,1,8,0:0:0:0:
256,192,276297,1,0,0:0:0:0:
256,192,276422,1,0,0:0:0:0:
256,192,276547,1,8,0:0:0:0:
256,192,276672,1,0,0:0:0:0:
256,192,276797,1,0,0:0:0:0:
256,192,276859,1,8,0:0:0:0:
256,192,276922,1,0,0:0:0:0:
256,192,277047,1,4,0:0:0:0:
256,192,277172,1,0,0:0:0:0:
256,192,277234,1,8,0:0:0:0:
256,192,277297,1,0,0:0:0:0:
256,192,277359,1,0,0:0:0:0:
256,192,277422,1,8,0:0:0:0:
256,192,277547,1,8,0:0:0:0:
256,192,277609,1,0,0:0:0:0:
256,192,277672,1,8,0:0:0:0:
256,192,277734,1,0,0:0:0:0:
256,192,277797,1,0,0:0:0:0:
256,192,277859,1,0,0:0:0:0:
256,192,277922,1,8,0:0:0:0:
256,192,278047,1,8,0:0:0:0:
256,192,278297,1,8,0:0:0:0:
256,192,278547,1,8,0:0:0:0:
256,192,278797,1,4,0:0:0:0:
256,192,279047,1,0,0:0:0:0:
256,192,279109,1,0,0:0:0:0:
256,192,279172,1,8,0:0:0:0:
256,192,279297,1,0,0:0:0:0:
256,192,279422,1,0,0:0:0:0:
256,192,279547,1,8,0:0:0:0:
256,192,279609,1,8,0:0:0:0:
256,192,279672,1,0,0:0:0:0:
256,192,279797,1,0,0:0:0:0:
256,192,279922,1,8,0:0:0:0:
256,192,280047,1,0,0:0:0:0:
256,192,280172,1,8,0:0:0:0:
256,192,280297,1,8,0:0:0:0:
256,192,280422,1,0,0:0:0:0:
256,192,280547,1,8,0:0:0:0:
256,192,280609,1,8,0:0:0:0:
256,192,280672,1,0,0:0:0:0:
256,192,280797,1,0,0:0:0:0:
256,192,280922,1,8,0:0:0:0:
256,192,281047,1,0,0:0:0:0:
256,192,281109,1,0,0:0:0:0:
256,192,281172,1,8,0:0:0:0:
256,192,281297,1,0,0:0:0:0:
256,192,281422,1,8,0:0:0:0:
256,192,281547,1,8,0:0:0:0:
256,192,281609,1,0,0:0:0:0:
256,192,281672,1,0,0:0:0:0:
256,192,281797,1,0,0:0:0:0:
256,192,281922,1,0,0:0:0:0:
256,192,282047,1,8,0:0:0:0:
256,192,282172,1,0,0:0:0:0:
256,192,282297,1,0,0:0:0:0:
256,192,282422,1,0,0:0:0:0:
256,192,282547,1,0,0:0:0:0:
256,192,282609,1,0,0:0:0:0:
256,192,282672,1,8,0:0:0:0:
256,192,282797,1,0,0:0:0:0:
256,192,282859,1,0,0:0:0:0:
256,192,282922,1,8,0:0:0:0:
256,192,283047,1,0,0:0:0:0:
256,192,283172,1,8,0:0:0:0:
256,192,283297,1,0,0:0:0:0:
256,192,283422,1,0,0:0:0:0:
256,192,283547,1,8,0:0:0:0:
256,192,283609,1,0,0:0:0:0:
256,192,283672,1,0,0:0:0:0:
256,192,283797,1,0,0:0:0:0:
256,192,283922,1,8,0:0:0:0:
256,192,284047,1,0,0:0:0:0:
256,192,284172,1,8,0:0:0:0:
256,192,284297,1,0,0:0:0:0:
256,192,284422,1,0,0:0:0:0:
256,192,284547,1,8,0:0:0:0:
256,192,284609,1,0,0:0:0:0:
256,192,284672,1,0,0:0:0:0:
256,192,284797,1,0,0:0:0:0:
256,192,284922,1,8,0:0:0:0:
256,192,285047,1,8,0:0:0:0:
256,192,285109,1,8,0:0:0:0:
256,192,285172,1,0,0:0:0:0:
256,192,285297,1,0,0:0:0:0:
256,192,285422,1,0,0:0:0:0:
256,192,285547,1,8,0:0:0:0:
256,192,285609,1,0,0:0:0:0:
256,192,285672,1,0,0:0:0:0:
256,192,285797,1,0,0:0:0:0:
256,192,285922,1,8,0:0:0:0:
256,192,286047,1,0,0:0:0:0:
256,192,286172,1,8,0:0:0:0:
256,192,286297,1,0,0:0:0:0:
256,192,286422,1,0,0:0:0:0:
256,192,286547,1,0,0:0:0:0:
256,192,286609,1,8,0:0:0:0:
256,192,286672,1,0,0:0:0:0:
256,192,286734,1,0,0:0:0:0:
256,192,286797,1,8,0:0:0:0:
256,192,286859,1,8,0:0:0:0:
256,192,286922,1,0,0:0:0:0:
256,192,287047,1,0,0:0:0:0:
256,192,287172,1,8,0:0:0:0:
256,192,287297,1,0,0:0:0:0:
256,192,287422,1,0,0:0:0:0:
256,192,287547,1,8,0:0:0:0:
256,192,287609,1,0,0:0:0:0:
256,192,287672,1,0,0:0:0:0:
256,192,287797,1,8,0:0:0:0:
256,192,287922,1,0,0:0:0:0:
256,192,288047,1,0,0:0:0:0:
256,192,288172,1,8,0:0:0:0:
256,192,288297,1,0,0:0:0:0:
256,192,288422,1,0,0:0:0:0:
256,192,288547,1,8,0:0:0:0:
256,192,288609,1,8,0:0:0:0:
256,192,288672,1,0,0:0:0:0:
256,192,288797,1,0,0:0:0:0:
256,192,288859,1,0,0:0:0:0:
256,192,288922,1,8,0:0:0:0:
256,192,289047,1,0,0:0:0:0:
256,192,289172,1,8,0:0:0:0:
256,192,289297,1,0,0:0:0:0:
256,192,289422,1,0,0:0:0:0:
256,192,289547,1,8,0:0:0:0:
256,192,289609,1,0,0:0:0:0:
256,192,289672,1,0,0:0:0:0:
256,192,289797,1,0,0:0:0:0:
256,192,289922,1,8,0:0:0:0:
256,192,290047,1,0,0:0:0:0:
256,192,290172,1,8,0:0:0:0:
256,192,290297,1,0,0:0:0:0:
256,192,290422,1,0,0:0:0:0:
256,192,290547,1,0,0:0:0:0:
256,192,290609,1,8,0:0:0:0:
256,192,290672,1,0,0:0:0:0:
256,192,290734,1,0,0:0:0:0:
256,192,290797,1,8,0:0:0:0:
256,192,290859,1,0,0:0:0:0:
256,192,290922,1,0,0:0:0:0:
256,192,291047,1,0,0:0:0:0:
256,192,291172,1,8,0:0:0:0:
256,192,291297,1,0,0:0:0:0:
256,192,291422,1,0,0:0:0:0:
256,192,291547,1,8,0:0:0:0:
256,192,291609,1,0,0:0:0:0:
256,192,291672,1,0,0:0:0:0:
256,192,291797,1,0,0:0:0:0:
256,192,291922,1,8,0:0:0:0:
256,192,292047,1,0,0:0:0:0:
256,192,292172,1,8,0:0:0:0:
256,192,292297,1,0,0:0:0:0:
256,192,292422,1,0,0:0:0:0:
256,192,292547,1,0,0:0:0:0:
256,192,292609,1,0,0:0:0:0:
256,192,292672,1,8,0:0:0:0:
256,192,292797,1,8,0:0:0:0:
256,192,292922,1,0,0:0:0:0:
256,192,293047,1,8,0:0:0:0:
256,192,293109,1,0,0:0:0:0:
256,192,293172,1,0,0:0:0:0:
256,192,293297,1,0,0:0:0:0:
256,192,293422,1,8,0:0:0:0:
256,192,293484,1,0,0:0:0:0:
256,192,293547,1,0,0:0:0:0:
256,192,293672,1,0,0:0:0:0:
256,192,293797,1,8,0:0:0:0:
256,192,293859,1,0,0:0:0:0:
256,192,293922,1,0,0:0:0:0:
240,128,294047,1,8,0:0:0:0:
240,128,294109,1,8,0:0:0:0:
240,128,294172,1,8,0:0:0:0:
240,128,294234,1,8,0:0:0:0:
256,192,294297,1,0,0:0:0:0:
160,168,294359,1,0,0:0:0:0:
256,192,294422,1,0,0:0:0:0:
216,216,294547,1,0,0:0:0:0:
256,192,294672,1,0,0:0:0:0:
256,192,294797,1,8,0:0:0:0:
256,192,294922,1,8,0:0:0:0:
288,216,295047,5,4,0:0:0:0:
288,216,295297,1,0,0:0:0:0:
288,216,295422,1,8,0:0:0:0:
152,200,295672,1,0,0:0:0:0:
288,216,295797,1,8,0:0:0:0:
288,216,296047,1,0,0:0:0:0:
288,216,296172,1,8,0:0:0:0:
288,216,296422,1,0,0:0:0:0:
288,216,296547,1,8,0:0:0:0:
288,216,296672,1,0,0:0:0:0:
288,216,296797,1,8,0:0:0:0:
288,216,296922,1,8,0:0:0:0:
288,216,297047,1,0,0:0:0:0:
288,216,297297,1,0,0:0:0:0:
288,216,297422,1,8,0:0:0:0:
288,216,297672,1,0,0:0:0:0:
288,216,297797,1,8,0:0:0:0:
232,192,298047,1,0,0:0:0:0:
232,192,298172,1,8,0:0:0:0:
232,192,298422,1,0,0:0:0:0:
232,192,298547,1,8,0:0:0:0:
232,192,298672,1,8,0:0:0:0:
232,192,298797,1,0,0:0:0:0:
288,216,299047,1,8,0:0:0:0:
288,216,299109,1,0,0:0:0:0:
288,216,299172,1,8,0:0:0:0:
288,216,299234,1,8,0:0:0:0:
288,216,299297,1,0,0:0:0:0:
288,216,299359,1,0,0:0:0:0:
288,216,299422,1,8,0:0:0:0:
288,216,299484,1,0,0:0:0:0:
288,216,299547,1,8,0:0:0:0:
288,216,299609,1,0,0:0:0:0:
288,216,299672,1,8,0:0:0:0:
288,216,299734,1,8,0:0:0:0:
288,216,299797,1,0,0:0:0:0:
288,216,299859,1,0,0:0:0:0:
288,216,299922,1,8,0:0:0:0:
288,216,299984,1,0,0:0:0:0:
288,216,300047,1,8,0:0:0:0:
288,216,300297,1,0,0:0:0:0:
288,216,300422,1,8,0:0:0:0:
240,256,300672,1,0,0:0:0:0:
240,256,300797,1,8,0:0:0:0:
240,256,300922,1,8,0:0:0:0:
240,256,301047,1,0,0:0:0:0:
240,256,301172,1,8,0:0:0:0:
240,256,301297,1,8,0:0:0:0:
208,232,301422,1,0,0:0:0:0:
208,232,301672,1,0,0:0:0:0:
208,232,301797,1,8,0:0:0:0:
208,232,301922,1,8,0:0:0:0:
208,232,302047,1,0,0:0:0:0:
208,232,302172,1,8,0:0:0:0:
208,232,302297,1,0,0:0:0:0:
208,232,302422,1,8,0:0:0:0:
176,224,302547,1,0,0:0:0:0:
208,232,302609,1,0,0:0:0:0:
208,232,302672,1,8,0:0:0:0:
208,232,302734,1,0,0:0:0:0:
168,168,302797,1,0,0:0:0:0:
168,168,302859,1,0,0:0:0:0:
352,200,302922,1,8,0:0:0:0:
248,136,303047,1,4,0:0:0:0:
248,224,303297,1,8,0:0:0:0:
248,136,303547,1,4,0:0:0:0:
248,136,303797,1,0,0:0:0:0:
224,192,303859,1,0,0:0:0:0:
224,192,303922,1,8,0:0:0:0:
224,192,303984,1,8,0:0:0:0:
224,192,304047,1,0,0:0:0:0:
256,224,304297,1,8,0:0:0:0:
224,192,304359,1,8,0:0:0:0:
256,224,304422,1,8,0:0:0:0:
248,136,304484,1,0,0:0:0:0:
256,224,304547,1,8,0:0:0:0:
256,224,304672,1,0,0:0:0:0:
256,224,304797,1,8,0:0:0:0:
256,224,304922,1,8,0:0:0:0:
256,224,305047,1,4,0:0:0:0:
256,224,305297,1,0,0:0:0:0:
256,224,305547,1,12,0:0:0:0:
224,192,305797,1,0,0:0:0:0:
256,192,306047,1,4,0:0:0:0:
256,224,306297,1,0,0:0:0:0:
256,224,306547,1,12,0:0:0:0:
192,192,306797,1,0,0:0:0:0:
192,192,306859,1,0,0:0:0:0:
192,192,306922,1,0,0:0:0:0:
192,192,306984,1,0,0:0:0:0:
192,192,307047,1,8,0:0:0:0:
192,192,307172,1,0,0:0:0:0:
192,192,307297,1,8,0:0:0:0:
192,192,307359,1,8,0:0:0:0:
192,192,307422,1,0,0:0:0:0:
248,224,307547,1,0,0:0:0:0:
248,224,307609,1,0,0:0:0:0:
248,224,307672,1,8,0:0:0:0:
248,224,307734,1,8,0:0:0:0:
248,224,307797,1,0,0:0:0:0:
248,224,307859,1,0,0:0:0:0:
248,224,307922,1,8,0:0:0:0:
248,224,307984,1,8,0:0:0:0:
248,224,308047,1,0,0:0:0:0:
192,192,308172,1,0,0:0:0:0:
248,224,308297,1,8,0:0:0:0:
248,224,308422,1,0,0:0:0:0:
248,224,308672,1,0,0:0:0:0:
248,224,308797,1,8,0:0:0:0:
248,224,309047,1,0,0:0:0:0:
248,224,309172,1,0,0:0:0:0:
248,224,309297,1,8,0:0:0:0:
248,224,309422,1,8,0:0:0:0:
240,184,309547,1,0,0:0:0:0:
248,224,309672,1,0,0:0:0:0:
120,176,309734,1,0,0:0:0:0:
168,192,309797,1,8,0:0:0:0:
168,192,309922,1,8,0:0:0:0:
208,232,310047,1,0,0:0:0:0:
208,232,310172,1,0,0:0:0:0:
208,232,310297,1,0,0:0:0:0:
208,232,310359,1,0,0:0:0:0:
208,232,310422,1,0,0:0:0:0:
208,232,310484,1,0,0:0:0:0:
208,232,310547,1,0,0:0:0:0:
208,232,310609,1,0,0:0:0:0:
208,232,310672,1,0,0:0:0:0:
208,232,310734,1,0,0:0:0:0:
208,232,310797,1,8,0:0:0:0:
208,232,310859,1,8,0:0:0:0:
208,232,310922,1,0,0:0:0:0:
208,232,311047,1,4,0:0:0:0:
224,272,311297,1,0,0:0:0:0:
224,272,311422,1,4,0:0:0:0:
224,272,311672,1,0,0:0:0:0:
224,272,311797,1,4,0:0:0:0:
224,272,312047,1,0,0:0:0:0:
224,272,312172,1,4,0:0:0:0:
224,272,312422,1,0,0:0:0:0:
208,232,312547,1,4,0:0:0:0:
208,232,312797,1,4,0:0:0:0:
208,232,313047,1,4,0:0:0:0:
208,232,313297,1,8,0:0:0:0:
208,232,313422,1,4,0:0:0:0:
256,256,313672,1,8,0:0:0:0:
256,256,313797,1,4,0:0:0:0:
208,232,314047,1,8,0:0:0:0:
288,232,314172,1,4,0:0:0:0:
288,232,314422,1,8,0:0:0:0:
288,232,314547,1,4,0:0:0:0:
288,232,314797,1,4,0:0:0:0:
288,232,314922,1,8,0:0:0:0:
288,232,315047,1,12,0:0:0:0:
288,232,315297,1,0,0:0:0:0:
288,232,315422,1,12,0:0:0:0:
288,232,315672,1,0,0:0:0:0:
288,232,315797,1,12,0:0:0:0:
288,232,316047,1,0,0:0:0:0:
312,208,316172,1,12,0:0:0:0:
312,208,316422,1,0,0:0:0:0:
312,208,316547,1,12,0:0:0:0:
312,208,316672,1,0,0:0:0:0:
288,232,316797,1,12,0:0:0:0:
288,232,316922,1,0,0:0:0:0:
288,232,317047,1,12,0:0:0:0:
200,168,317297,1,8,0:0:0:0:
200,168,317422,1,12,0:0:0:0:
200,168,317672,1,8,0:0:0:0:
200,168,317797,1,12,0:0:0:0:
200,168,318047,1,8,0:0:0:0:
200,168,318172,1,12,0:0:0:0:
200,168,318422,1,8,0:0:0:0:
200,168,318547,1,12,0:0:0:0:
208,136,318797,1,0,0:0:0:0:
312,216,319047,5,12,0:0:0:0:
112,184,319172,1,0,0:0:0:0:
112,184,319234,1,0,0:0:0:0:
112,184,319297,1,0,0:0:0:0:
112,184,319422,1,4,0:0:0:0:
112,184,319547,1,0,0:0:0:0:
128,216,319609,1,0,0:0:0:0:
128,216,319672,1,0,0:0:0:0:
128,216,319797,1,12,0:0:0:0:
192,208,319922,1,0,0:0:0:0:
192,208,319984,1,0,0:0:0:0:
192,208,320047,1,0,0:0:0:0:
192,208,320172,1,4,0:0:0:0:
192,208,320297,1,0,0:0:0:0:
192,208,320359,1,0,0:0:0:0:
192,208,320422,1,0,0:0:0:0:
192,208,320547,1,4,0:0:0:0:
192,208,320672,1,0,0:0:0:0:
192,208,320797,1,12,0:0:0:0:
192,208,320922,1,8,0:0:0:0:
312,216,321047,1,4,0:0:0:0:
112,184,321172,1,0,0:0:0:0:
112,184,321234,1,0,0:0:0:0:
112,184,321297,1,0,0:0:0:0:
112,184,321422,1,12,0:0:0:0:
112,184,321547,1,0,0:0:0:0:
128,216,321609,1,0,0:0:0:0:
128,216,321672,1,0,0:0:0:0:
128,216,321797,1,4,0:0:0:0:
192,208,321922,1,0,0:0:0:0:
192,208,321984,1,0,0:0:0:0:
192,208,322047,1,0,0:0:0:0:
192,208,322172,1,12,0:0:0:0:
192,208,322297,1,0,0:0:0:0:
192,208,322359,1,0,0:0:0:0:
192,208,322422,1,0,0:0:0:0:
192,208,322547,1,4,0:0:0:0:
192,208,322672,1,0,0:0:0:0:
192,208,322797,1,12,0:0:0:0:
192,208,322922,1,8,0:0:0:0:
312,216,323047,1,0,0:0:0:0:
112,184,323172,1,0,0:0:0:0:
112,184,323234,1,0,0:0:0:0:
112,184,323297,1,0,0:0:0:0:
112,184,323422,1,8,0:0:0:0:
112,184,323547,1,0,0:0:0:0:
128,216,323609,1,0,0:0:0:0:
128,216,323672,1,0,0:0:0:0:
128,216,323797,1,0,0:0:0:0:
192,208,323922,1,0,0:0:0:0:
192,208,323984,1,0,0:0:0:0:
192,208,324047,1,0,0:0:0:0:
192,208,324172,1,8,0:0:0:0:
192,208,324297,1,0,0:0:0:0:
192,208,324359,1,0,0:0:0:0:
192,208,324422,1,0,0:0:0:0:
192,208,324547,1,8,0:0:0:0:
192,208,324672,1,0,0:0:0:0:
192,208,324797,1,8,0:0:0:0:
192,208,324922,1,0,0:0:0:0:
312,216,325047,1,12,0:0:0:0:
112,184,325172,1,0,0:0:0:0:
112,184,325297,1,0,0:0:0:0:
112,184,325422,1,0,0:0:0:0:
112,184,325547,1,0,0:0:0:0:
128,216,325672,1,0,0:0:0:0:
128,216,325797,1,0,0:0:0:0:
192,208,325922,1,0,0:0:0:0:
192,208,326047,1,0,0:0:0:0:
192,208,326172,1,4,0:0:0:0:
192,208,326297,1,4,0:0:0:0:
192,208,326422,1,4,0:0:0:0:
192,208,326547,1,4,0:0:0:0:
192,208,326672,1,4,0:0:0:0:
192,208,326797,1,4,0:0:0:0:
192,208,326922,1,4,0:0:0:0:
256,192,327047,5,0,0:0:0:0:
256,192,327172,1,0,0:0:0:0:
256,192,327297,1,8,0:0:0:0:
256,192,327422,1,0,0:0:0:0:
256,192,327547,1,0,0:0:0:0:
256,192,327609,1,0,0:0:0:0:
256,192,327672,1,0,0:0:0:0:
256,192,327797,1,0,0:0:0:0:
256,192,327922,1,8,0:0:0:0:
256,192,327984,1,0,0:0:0:0:
256,192,328047,1,0,0:0:0:0:
256,192,328109,1,8,0:0:0:0:
256,192,328172,1,8,0:0:0:0:
256,192,328297,1,0,0:0:0:0:
256,192,328422,1,0,0:0:0:0:
256,192,328547,1,8,0:0:0:0:
256,192,328609,1,8,0:0:0:0:
256,192,328672,1,0,0:0:0:0:
256,192,328797,1,8,0:0:0:0:
256,192,328859,1,8,0:0:0:0:
256,192,328922,1,0,0:0:0:0:
256,192,329047,1,0,0:0:0:0:
256,192,329172,1,0,0:0:0:0:
256,192,329297,1,8,0:0:0:0:
256,192,329359,1,0,0:0:0:0:
256,192,329422,1,0,0:0:0:0:
256,192,329547,1,0,0:0:0:0:
256,192,329672,1,8,0:0:0:0:
256,192,329797,1,0,0:0:0:0:
256,192,329922,1,8,0:0:0:0:
256,192,329984,1,0,0:0:0:0:
256,192,330047,1,8,0:0:0:0:
256,192,330109,1,0,0:0:0:0:
256,192,330172,1,0,0:0:0:0:
256,192,330297,1,8,0:0:0:0:
256,192,330422,1,0,0:0:0:0:
256,192,330547,1,8,0:0:0:0:
256,192,330609,1,8,0:0:0:0:
256,192,330672,1,0,0:0:0:0:
256,192,330797,1,0,0:0:0:0:
256,192,330859,1,0,0:0:0:0:
256,192,330922,1,0,0:0:0:0:
256,192,331047,1,0,0:0:0:0:
256,192,331172,1,0,0:0:0:0:
256,192,331297,1,8,0:0:0:0:
256,192,331422,1,0,0:0:0:0:
256,192,331547,1,0,0:0:0:0:
256,192,331609,1,0,0:0:0:0:
256,192,331672,1,8,0:0:0:0:
256,192,331797,1,0,0:0:0:0:
256,192,331922,1,0,0:0:0:0:
256,192,331984,1,8,0:0:0:0:
256,192,332047,1,8,0:0:0:0:
256,192,332109,1,0,0:0:0:0:
256,192,332172,1,0,0:0:0:0:
256,192,332297,1,8,0:0:0:0:
256,192,332422,1,0,0:0:0:0:
256,192,332547,1,8,0:0:0:0:
256,192,332609,1,8,0:0:0:0:
256,192,332672,1,0,0:0:0:0:
256,192,332797,1,8,0:0:0:0:
256,192,332859,1,0,0:0:0:0:
256,192,332922,1,0,0:0:0:0:
256,192,333047,1,0,0:0:0:0:
256,192,333109,1,8,0:0:0:0:
256,192,333172,1,0,0:0:0:0:
256,192,333234,1,0,0:0:0:0:
256,192,333297,1,8,0:0:0:0:
256,192,333359,1,8,0:0:0:0:
256,192,333422,1,0,0:0:0:0:
256,192,333484,1,8,0:0:0:0:
256,192,333547,1,0,0:0:0:0:
256,192,333609,1,8,0:0:0:0:
256,192,333672,1,0,0:0:0:0:
256,192,333797,1,0,0:0:0:0:
256,192,333922,1,8,0:0:0:0:
256,192,334047,1,0,0:0:0:0:
256,192,334109,1,8,0:0:0:0:
256,192,334172,1,0,0:0:0:0:
256,192,334234,1,0,0:0:0:0:
256,192,334297,1,8,0:0:0:0:
256,192,334359,1,8,0:0:0:0:
256,192,334422,1,0,0:0:0:0:
256,192,334547,1,8,0:0:0:0:
256,192,334609,1,0,0:0:0:0:
256,192,334672,1,0,0:0:0:0:
256,192,334797,1,8,0:0:0:0:
256,192,334859,1,8,0:0:0:0:
256,192,334922,1,8,0:0:0:0:
256,192,335047,1,0,0:0:0:0:
256,192,335172,1,8,0:0:0:0:
256,192,335297,1,0,0:0:0:0:
256,192,335359,1,8,0:0:0:0:
256,192,335422,1,0,0:0:0:0:
256,192,335484,1,0,0:0:0:0:
256,192,335547,1,8,0:0:0:0:
256,192,335672,1,8,0:0:0:0:
256,192,335797,1,0,0:0:0:0:
256,192,335859,1,0,0:0:0:0:
256,192,335922,1,8,0:0:0:0:
256,192,335984,1,0,0:0:0:0:
256,192,336047,1,8,0:0:0:0:
256,192,336109,1,0,0:0:0:0:
256,192,336172,1,8,0:0:0:0:
256,192,336297,1,8,0:0:0:0:
256,192,336422,1,0,0:0:0:0:
256,192,336547,1,8,0:0:0:0:
256,192,336609,1,8,0:0:0:0:
256,192,336672,1,0,0:0:0:0:
256,192,336797,1,0,0:0:0:0:
256,192,336859,1,8,0:0:0:0:
256,192,336922,1,0,0:0:0:0:
256,192,337047,1,0,0:0:0:0:
256,192,337172,1,0,0:0:0:0:
256,192,337297,1,8,0:0:0:0:
256,192,337359,1,0,0:0:0:0:
256,192,337422,1,0,0:0:0:0:
256,192,337484,1,8,0:0:0:0:
256,192,337547,1,8,0:0:0:0:
256,192,337609,1,0,0:0:0:0:
256,192,337672,1,0,0:0:0:0:
256,192,337797,1,0,0:0:0:0:
256,192,337922,1,8,0:0:0:0:
256,192,337984,1,0,0:0:0:0:
256,192,338047,1,8,0:0:0:0:
256,192,338109,1,8,0:0:0:0:
256,192,338172,1,0,0:0:0:0:
256,192,338297,1,0,0:0:0:0:
256,192,338359,1,0,0:0:0:0:
256,192,338422,1,0,0:0:0:0:
256,192,338547,1,8,0:0:0:0:
256,192,338672,1,0,0:0:0:0:
256,192,338797,1,8,0:0:0:0:
256,192,338859,1,8,0:0:0:0:
256,192,338922,1,0,0:0:0:0:
256,192,338984,1,0,0:0:0:0:
256,192,339047,1,0,0:0:0:0:
256,192,339172,1,0,0:0:0:0:
256,192,339297,1,8,0:0:0:0:
256,192,339359,1,0,0:0:0:0:
256,192,339422,1,8,0:0:0:0:
256,192,339484,1,0,0:0:0:0:
256,192,339547,1,0,0:0:0:0:
256,192,339609,1,8,0:0:0:0:
256,192,339672,1,0,0:0:0:0:
256,192,339797,1,0,0:0:0:0:
256,192,339922,1,8,0:0:0:0:
256,192,339984,1,0,0:0:0:0:
256,192,340047,1,8,0:0:0:0:
256,192,340109,1,8,0:0:0:0:
256,192,340172,1,0,0:0:0:0:
256,192,340297,1,8,0:0:0:0:
256,192,340422,1,0,0:0:0:0:
256,192,340547,1,8,0:0:0:0:
256,192,340609,1,8,0:0:0:0:
256,192,340672,1,0,0:0:0:0:
256,192,340734,1,0,0:0:0:0:
256,192,340797,1,0,0:0:0:0:
256,192,340922,1,0,0:0:0:0:
256,192,341047,1,0,0:0:0:0:
256,192,341297,1,8,0:0:0:0:
256,192,341422,1,0,0:0:0:0:
256,192,341672,1,8,0:0:0:0:
256,192,341797,1,0,0:0:0:0:
256,192,342047,1,8,0:0:0:0:
256,192,342109,1,8,0:0:0:0:
256,192,342172,1,8,0:0:0:0:
256,192,342234,1,8,0:0:0:0:
256,192,342297,1,0,0:0:0:0:
256,192,342422,1,8,0:0:0:0:
256,192,342672,1,0,0:0:0:0:
256,192,342797,1,8,0:0:0:0:
256,192,343047,5,8,0:0:0:0:
256,192,343172,1,0,0:0:0:0:
256,192,343234,1,0,0:0:0:0:
256,192,343297,1,8,0:0:0:0:
256,192,343422,1,0,0:0:0:0:
256,192,343547,1,8,0:0:0:0:
256,192,343609,1,0,0:0:0:0:
256,192,343672,1,8,0:0:0:0:
256,192,343734,1,8,0:0:0:0:
256,192,343797,1,0,0:0:0:0:
256,192,343922,1,8,0:0:0:0:
256,192,344047,1,0,0:0:0:0:
256,192,344109,1,0,0:0:0:0:
256,192,344172,1,8,0:0:0:0:
256,192,344234,1,8,0:0:0:0:
256,192,344297,1,0,0:0:0:0:
256,192,344359,1,8,0:0:0:0:
256,192,344422,1,0,0:0:0:0:
256,192,344484,1,0,0:0:0:0:
256,192,344547,1,8,0:0:0:0:
256,192,344609,1,0,0:0:0:0:
256,192,344672,1,0,0:0:0:0:
256,192,344734,1,8,0:0:0:0:
256,192,344797,1,0,0:0:0:0:
256,192,344859,1,0,0:0:0:0:
256,192,344922,1,8,0:0:0:0:
256,192,345047,1,8,0:0:0:0:
256,192,345172,1,0,0:0:0:0:
256,192,345234,1,0,0:0:0:0:
256,192,345297,1,8,0:0:0:0:
256,192,345422,1,8,0:0:0:0:
256,192,345547,1,0,0:0:0:0:
256,192,345609,1,0,0:0:0:0:
256,192,345672,1,8,0:0:0:0:
256,192,345734,1,8,0:0:0:0:
256,192,345797,1,0,0:0:0:0:
256,192,345922,1,8,0:0:0:0:
256,192,346047,1,0,0:0:0:0:
256,192,346109,1,0,0:0:0:0:
256,192,346172,1,8,0:0:0:0:
256,192,346297,1,0,0:0:0:0:
256,192,346359,1,0,0:0:0:0:
256,192,346422,1,8,0:0:0:0:
256,192,346547,1,0,0:0:0:0:
256,192,346609,1,0,0:0:0:0:
256,192,346672,1,8,0:0:0:0:
256,192,346734,1,8,0:0:0:0:
256,192,346797,1,0,0:0:0:0:
256,192,346922,1,0,0:0:0:0:
256,192,347047,1,8,0:0:0:0:
256,192,347172,1,8,0:0:0:0:
256,192,347234,1,8,0:0:0:0:
256,192,347297,1,0,0:0:0:0:
256,192,347422,1,0,0:0:0:0:
256,192,347547,1,8,0:0:0:0:
256,192,347672,1,0,0:0:0:0:
256,192,347734,1,0,0:0:0:0:
256,192,347797,1,8,0:0:0:0:
256,192,347922,1,8,0:0:0:0:
256,192,348047,1,0,0:0:0:0:
256,192,348172,1,8,0:0:0:0:
256,192,348234,1,8,0:0:0:0:
256,192,348297,1,0,0:0:0:0:
256,192,348422,1,0,0:0:0:0:
256,192,348547,1,8,0:0:0:0:
256,192,348672,1,0,0:0:0:0:
256,192,348734,1,0,0:0:0:0:
256,192,348797,1,8,0:0:0:0:
256,192,348922,1,0,0:0:0:0:
256,192,349047,1,0,0:0:0:0:
256,192,349109,1,0,0:0:0:0:
256,192,349172,1,0,0:0:0:0:
256,192,349234,1,8,0:0:0:0:
256,192,349297,1,0,0:0:0:0:
256,192,349422,1,0,0:0:0:0:
168,192,349484,1,0,0:0:0:0:
216,160,349547,1,0,0:0:0:0:
216,160,349609,1,8,0:0:0:0:
216,160,349672,1,0,0:0:0:0:
216,160,349797,1,0,0:0:0:0:
216,160,349859,1,0,0:0:0:0:
216,160,349922,1,8,0:0:0:0:
216,160,349984,1,8,0:0:0:0:
216,160,350047,1,0,0:0:0:0:
216,160,350109,1,0,0:0:0:0:
216,160,350172,1,8,0:0:0:0:
216,160,350297,1,0,0:0:0:0:
216,160,350359,1,0,0:0:0:0:
216,160,350422,1,8,0:0:0:0:
256,192,350547,1,8,0:0:0:0:
256,192,350672,1,0,0:0:0:0:
256,192,350734,1,0,0:0:0:0:
256,192,350797,1,8,0:0:0:0:
256,192,350859,1,8,0:0:0:0:
256,192,350922,1,8,0:0:0:0:
256,192,351047,5,4,0:0:0:0:
256,192,351172,1,0,0:0:0:0:
256,192,351234,1,0,0:0:0:0:
256,192,351297,1,8,0:0:0:0:
256,192,351422,1,8,0:0:0:0:
256,192,351547,1,0,0:0:0:0:
256,192,351609,1,0,0:0:0:0:
256,192,351672,1,8,0:0:0:0:
256,192,351734,1,8,0:0:0:0:
256,192,351797,1,0,0:0:0:0:
256,192,351922,1,0,0:0:0:0:
256,192,352047,1,8,0:0:0:0:
256,192,352109,1,8,0:0:0:0:
256,192,352172,1,0,0:0:0:0:
256,192,352234,1,8,0:0:0:0:
256,192,352297,1,0,0:0:0:0:
256,192,352359,1,0,0:0:0:0:
256,192,352422,1,8,0:0:0:0:
256,192,352484,1,0,0:0:0:0:
256,192,352547,1,8,0:0:0:0:
256,192,352609,1,8,0:0:0:0:
256,192,352672,1,0,0:0:0:0:
256,192,352734,1,0,0:0:0:0:
256,192,352797,1,8,0:0:0:0:
256,192,352859,1,8,0:0:0:0:
256,192,352922,1,0,0:0:0:0:
256,192,353047,1,0,0:0:0:0:
256,192,353172,1,8,0:0:0:0:
256,192,353234,1,8,0:0:0:0:
256,192,353297,1,0,0:0:0:0:
256,192,353422,1,0,0:0:0:0:
256,192,353547,1,8,0:0:0:0:
256,192,353609,1,8,0:0:0:0:
256,192,353672,1,0,0:0:0:0:
256,192,353734,1,0,0:0:0:0:
256,192,353797,1,8,0:0:0:0:
256,192,353922,1,8,0:0:0:0:
256,192,354047,1,0,0:0:0:0:
256,192,354109,1,0,0:0:0:0:
256,192,354172,1,8,0:0:0:0:
256,192,354297,1,0,0:0:0:0:
256,192,354422,1,0,0:0:0:0:
256,192,354484,1,0,0:0:0:0:
256,192,354547,1,8,0:0:0:0:
256,192,354609,1,8,0:0:0:0:
256,192,354672,1,0,0:0:0:0:
256,192,354734,1,0,0:0:0:0:
256,192,354797,1,8,0:0:0:0:
256,192,354922,1,0,0:0:0:0:
256,192,355047,1,8,0:0:0:0:
256,192,355172,1,0,0:0:0:0:
256,192,355234,1,0,0:0:0:0:
256,192,355297,1,8,0:0:0:0:
256,192,355422,1,0,0:0:0:0:
256,192,355547,1,8,0:0:0:0:
256,192,355672,1,0,0:0:0:0:
256,192,355734,1,0,0:0:0:0:
256,192,355797,1,0,0:0:0:0:
256,192,355922,1,8,0:0:0:0:
256,192,356047,1,0,0:0:0:0:
256,192,356172,1,8,0:0:0:0:
256,192,356234,1,8,0:0:0:0:
256,192,356297,1,0,0:0:0:0:
256,192,356422,1,0,0:0:0:0:
256,192,356547,1,8,0:0:0:0:
256,192,356672,1,0,0:0:0:0:
256,192,356734,1,0,0:0:0:0:
256,192,356797,1,0,0:0:0:0:
256,192,356922,1,8,0:0:0:0:
256,192,357047,1,0,0:0:0:0:
256,192,357109,1,0,0:0:0:0:
256,192,357172,1,0,0:0:0:0:
256,192,357234,1,0,0:0:0:0:
256,192,357297,1,8,0:0:0:0:
256,192,357422,1,0,0:0:0:0:
168,192,357484,1,0,0:0:0:0:
216,160,357547,1,0,0:0:0:0:
216,160,357609,1,0,0:0:0:0:
216,160,357672,1,8,0:0:0:0:
216,160,357797,1,0,0:0:0:0:
216,160,357859,1,0,0:0:0:0:
216,160,357922,1,0,0:0:0:0:
216,160,357984,1,0,0:0:0:0:
216,160,358047,1,8,0:0:0:0:
216,160,358109,1,8,0:0:0:0:
216,160,358172,1,0,0:0:0:0:
216,160,358297,1,8,0:0:0:0:
216,160,358359,1,8,0:0:0:0:
216,160,358422,1,0,0:0:0:0:
256,192,358547,5,0,0:0:0:0:
168,192,358609,1,0,0:0:0:0:
256,192,358672,1,0,0:0:0:0:
168,192,358734,1,0,0:0:0:0:
168,192,358797,1,8,0:0:0:0:
352,160,358859,1,0,0:0:0:0:
224,216,358922,1,0,0:0:0:0:
256,189,359047,5,4,0:0:0:0:
256,189,359172,1,0,0:0:0:0:
256,189,359234,1,0,0:0:0:0:
256,189,359297,1,0,0:0:0:0:
256,189,359422,1,0,0:0:0:0:
256,189,359547,1,8,0:0:0:0:
256,189,359672,1,0,0:0:0:0:
256,189,359797,1,0,0:0:0:0:
256,189,359922,1,8,0:0:0:0:
256,189,360047,1,8,0:0:0:0:
256,189,360109,1,0,0:0:0:0:
256,189,360172,1,0,0:0:0:0:
256,189,360297,1,0,0:0:0:0:
256,189,360359,1,8,0:0:0:0:
256,189,360422,1,0,0:0:0:0:
256,189,360484,1,0,0:0:0:0:
256,189,360547,1,8,0:0:0:0:
256,189,360609,1,8,0:0:0:0:
256,189,360672,1,0,0:0:0:0:
256,189,360797,1,0,0:0:0:0:
256,189,360859,1,0,0:0:0:0:
256,189,360922,1,8,0:0:0:0:
256,189,361047,1,8,0:0:0:0:
256,189,361172,1,8,0:0:0:0:
256,189,361234,1,8,0:0:0:0:
256,189,361297,1,0,0:0:0:0:
256,189,361422,1,0,0:0:0:0:
256,189,361547,1,8,0:0:0:0:
256,189,361672,1,8,0:0:0:0:
256,189,361734,1,8,0:0:0:0:
256,189,361797,1,0,0:0:0:0:
256,189,361859,1,0,0:0:0:0:
256,189,361922,1,8,0:0:0:0:
256,189,362172,1,0,0:0:0:0:
256,189,362234,1,0,0:0:0:0:
256,189,362297,1,8,0:0:0:0:
256,189,362422,1,8,0:0:0:0:
256,189,362547,1,8,0:0:0:0:
256,189,362609,1,8,0:0:0:0:
256,189,362672,1,0,0:0:0:0:
256,189,362797,1,8,0:0:0:0:
256,189,362859,1,0,0:0:0:0:
256,189,362922,1,0,0:0:0:0:
256,189,363047,1,0,0:0:0:0:
256,189,363172,1,8,0:0:0:0:
256,189,363297,1,0,0:0:0:0:
256,189,363359,1,0,0:0:0:0:
256,189,363422,1,8,0:0:0:0:
256,189,363547,1,0,0:0:0:0:
256,189,363672,1,8,0:0:0:0:
256,189,363797,1,0,0:0:0:0:
256,189,363859,1,0,0:0:0:0:
256,189,363922,1,8,0:0:0:0:
256,189,364047,1,0,0:0:0:0:
256,189,364172,1,0,0:0:0:0:
256,189,364234,1,0,0:0:0:0:
256,189,364297,1,8,0:0:0:0:
256,189,364422,1,0,0:0:0:0:
256,189,364547,1,8,0:0:0:0:
256,189,364609,1,0,0:0:0:0:
256,189,364672,1,0,0:0:0:0:
256,189,364734,1,0,0:0:0:0:
256,189,364797,1,8,0:0:0:0:
256,189,364859,1,0,0:0:0:0:
256,189,364922,1,8,0:0:0:0:
256,189,365047,1,8,0:0:0:0:
256,189,365172,1,0,0:0:0:0:
256,189,365234,1,0,0:0:0:0:
256,189,365297,1,8,0:0:0:0:
256,189,365422,1,0,0:0:0:0:
256,189,365547,1,8,0:0:0:0:
256,189,365609,1,0,0:0:0:0:
256,189,365672,1,0,0:0:0:0:
256,189,365797,1,0,0:0:0:0:
256,189,365922,1,8,0:0:0:0:
256,189,366172,1,8,0:0:0:0:
256,189,366234,1,8,0:0:0:0:
256,189,366297,1,8,0:0:0:0:
256,189,366422,1,8,0:0:0:0:
256,189,366547,1,8,0:0:0:0:
256,189,366609,1,0,0:0:0:0:
256,189,366672,1,8,0:0:0:0:
256,189,366734,1,0,0:0:0:0:
256,189,366797,1,0,0:0:0:0:
256,189,366922,1,0,0:0:0:0:
256,189,367047,1,8,0:0:0:0:
256,189,367172,1,0,0:0:0:0:
256,189,367234,1,0,0:0:0:0:
256,189,367297,1,0,0:0:0:0:
256,189,367422,1,8,0:0:0:0:
256,189,367547,1,8,0:0:0:0:
256,189,367609,1,0,0:0:0:0:
256,189,367672,1,0,0:0:0:0:
256,189,367797,1,0,0:0:0:0:
256,189,367922,1,8,0:0:0:0:
256,189,368047,1,0,0:0:0:0:
256,189,368109,1,0,0:0:0:0:
256,189,368172,1,0,0:0:0:0:
256,189,368297,1,0,0:0:0:0:
256,189,368422,1,0,0:0:0:0:
256,189,368547,1,8,0:0:0:0:
256,189,368609,1,0,0:0:0:0:
256,189,368672,1,0,0:0:0:0:
256,189,368734,1,0,0:0:0:0:
256,189,368797,1,0,0:0:0:0:
256,189,368922,1,8,0:0:0:0:
256,189,369047,1,8,0:0:0:0:
256,189,369172,1,0,0:0:0:0:
256,189,369234,1,0,0:0:0:0:
256,189,369297,1,0,0:0:0:0:
256,189,369422,1,8,0:0:0:0:
256,189,369547,1,0,0:0:0:0:
256,189,369609,1,0,0:0:0:0:
256,189,369672,1,8,0:0:0:0:
256,189,369797,1,0,0:0:0:0:
256,189,369922,1,8,0:0:0:0:
256,189,370172,1,8,0:0:0:0:
256,189,370234,1,8,0:0:0:0:
256,189,370297,1,8,0:0:0:0:
256,189,370422,1,0,0:0:0:0:
256,189,370547,1,8,0:0:0:0:
256,189,370609,1,8,0:0:0:0:
256,189,370672,1,0,0:0:0:0:
256,189,370734,1,0,0:0:0:0:
256,189,370797,1,0,0:0:0:0:
256,189,370922,1,8,0:0:0:0:
256,189,371047,1,0,0:0:0:0:
256,189,371109,1,8,0:0:0:0:
256,189,371172,1,0,0:0:0:0:
256,189,371297,1,0,0:0:0:0:
256,189,371422,1,8,0:0:0:0:
256,189,371547,1,8,0:0:0:0:
256,189,371609,1,8,0:0:0:0:
256,189,371672,1,0,0:0:0:0:
256,189,371797,1,0,0:0:0:0:
256,189,371922,1,8,0:0:0:0:
256,189,372172,1,0,0:0:0:0:
256,189,372234,1,0,0:0:0:0:
256,189,372297,1,0,0:0:0:0:
256,189,372422,1,8,0:0:0:0:
256,189,372547,1,8,0:0:0:0:
256,189,372609,1,8,0:0:0:0:
256,189,372672,1,0,0:0:0:0:
256,189,372797,1,0,0:0:0:0:
256,189,372859,1,8,0:0:0:0:
256,189,372922,1,0,0:0:0:0:
256,189,372984,1,0,0:0:0:0:
256,189,373047,1,8,0:0:0:0:
256,189,373172,1,0,0:0:0:0:
256,189,373297,1,0,0:0:0:0:
256,189,373422,1,8,0:0:0:0:
256,189,373547,1,8,0:0:0:0:
256,189,373609,1,8,0:0:0:0:
256,189,373672,1,0,0:0:0:0:
256,189,373797,1,0,0:0:0:0:
256,189,373922,1,8,0:0:0:0:
256,189,374172,1,8,0:0:0:0:
256,189,374234,1,8,0:0:0:0:
256,189,374297,1,8,0:0:0:0:
256,189,374422,1,0,0:0:0:0:
256,189,374547,1,8,0:0:0:0:
256,189,374609,1,8,0:0:0:0:
256,189,374672,1,0,0:0:0:0:
256,189,374734,1,0,0:0:0:0:
256,189,374797,1,8,0:0:0:0:
256,189,374859,1,0,0:0:0:0:
256,189,374922,1,0,0:0:0:0:
256,189,374984,1,0,0:0:0:0:
256,189,375047,1,0,0:0:0:0:
256,189,394843,5,12,0:0:0:0:
272,192,396922,5,12,0:0:0:0:
272,192,398297,5,12,0:0:0:0:
272,192,399192,5,12,0:0:0:0:
240,176,400609,5,12,0:0:0:0:
240,176,401338,5,12,0:0:0:0:
248,176,403047,5,12,0:0:0:0:
248,176,404109,1,12,0:0:0:0:
248,176,404297,1,12,0:0:0:0:
248,176,405109,1,12,0:0:0:0:
248,176,406234,5,12,0:0:0:0:
248,176,406484,1,12,0:0:0:0:
288,216,409297,5,0,0:0:0:0:
144,176,409422,1,0,0:0:0:0:
120,208,409547,1,8,0:0:0:0:
120,208,409630,1,0,0:0:0:0:
288,216,409713,1,0,0:0:0:0:
120,208,409797,1,8,0:0:0:0:
288,216,409880,1,0,0:0:0:0:
144,176,409963,1,0,0:0:0:0:
144,176,410047,1,8,0:0:0:0:
120,208,410130,1,0,0:0:0:0:
120,208,410213,1,0,0:0:0:0:
120,208,410297,1,8,0:0:0:0:
168,136,410422,1,0,0:0:0:0:
168,136,410547,1,0,0:0:0:0:
168,136,410609,1,0,0:0:0:0:
168,136,410672,1,8,0:0:0:0:
192,176,410797,1,0,0:0:0:0:
192,176,410859,1,0,0:0:0:0:
192,176,410922,1,8,0:0:0:0:
192,176,410984,1,8,0:0:0:0:
192,176,411047,1,0,0:0:0:0:
192,176,411109,1,0,0:0:0:0:
192,176,411172,1,8,0:0:0:0:
192,176,411297,1,0,0:0:0:0:
192,176,411422,1,0,0:0:0:0:
192,176,411484,1,8,0:0:0:0:
192,176,411547,1,0,0:0:0:0:
192,176,411609,1,8,0:0:0:0:
192,176,411672,1,8,0:0:0:0:
192,176,411734,1,0,0:0:0:0:
192,176,411797,1,0,0:0:0:0:
192,176,411859,1,0,0:0:0:0:
192,176,411922,1,8,0:0:0:0:
192,176,411984,1,0,0:0:0:0:
192,176,412047,1,0,0:0:0:0:
192,176,412109,1,0,0:0:0:0:
192,176,412172,1,8,0:0:0:0:
192,176,412234,1,0,0:0:0:0:
192,176,412297,1,0,0:0:0:0:
192,176,412422,1,8,0:0:0:0:
192,176,412547,1,0,0:0:0:0:
192,176,412609,1,0,0:0:0:0:
192,176,412672,1,0,0:0:0:0:
192,176,412797,1,8,0:0:0:0:
224,168,412880,1,0,0:0:0:0:
224,168,412963,1,0,0:0:0:0:
224,168,413047,1,8,0:0:0:0:
224,168,413130,1,0,0:0:0:0:
224,168,413213,1,0,0:0:0:0:
224,168,413297,1,8,0:0:0:0:
224,168,413422,1,0,0:0:0:0:
224,168,413547,1,8,0:0:0:0:
160,184,413609,1,8,0:0:0:0:
160,184,413672,1,0,0:0:0:0:
160,184,413797,1,0,0:0:0:0:
192,176,413922,1,0,0:0:0:0:
192,176,414047,1,8,0:0:0:0:
160,184,414172,1,0,0:0:0:0:
256,176,414297,1,0,0:0:0:0:
256,176,414422,1,8,0:0:0:0:
256,176,414547,1,0,0:0:0:0:
256,176,414609,1,0,0:0:0:0:
256,176,414672,1,0,0:0:0:0:
256,176,414797,1,8,0:0:0:0:
256,176,414922,1,0,0:0:0:0:
256,176,414984,1,0,0:0:0:0:
256,176,415047,1,8,0:0:0:0:
256,176,415109,1,8,0:0:0:0:
256,176,415172,1,0,0:0:0:0:
256,176,415297,1,8,0:0:0:0:
256,176,415422,1,0,0:0:0:0:
256,176,415484,1,0,0:0:0:0:
256,176,415547,1,8,0:0:0:0:
256,176,415672,1,0,0:0:0:0:
288,184,415734,1,0,0:0:0:0:
288,184,415797,1,8,0:0:0:0:
288,184,415859,1,0,0:0:0:0:
288,184,415922,1,0,0:0:0:0:
272,144,416047,1,8,0:0:0:0:
256,176,416172,1,8,0:0:0:0:
256,176,416297,1,0,0:0:0:0:
256,176,416359,1,0,0:0:0:0:
288,184,416422,1,0,0:0:0:0:
288,184,416547,1,8,0:0:0:0:
288,184,416672,1,0,0:0:0:0:
288,184,416797,1,8,0:0:0:0:
288,184,416859,1,0,0:0:0:0:
288,184,416922,1,8,0:0:0:0:
288,184,416984,1,0,0:0:0:0:
288,184,417047,1,0,0:0:0:0:
288,184,417109,1,0,0:0:0:0:
288,184,417172,1,8,0:0:0:0:
288,184,417297,1,0,0:0:0:0:
272,144,417422,1,8,0:0:0:0:
272,144,417484,1,8,0:0:0:0:
272,144,417547,1,0,0:0:0:0:
272,144,417672,1,8,0:0:0:0:
272,144,417797,1,0,0:0:0:0:
272,144,417859,1,0,0:0:0:0:
272,144,417922,1,0,0:0:0:0:
272,144,418047,1,8,0:0:0:0:
192,216,418109,1,8,0:0:0:0:
192,216,418172,1,0,0:0:0:0:
192,216,418234,1,0,0:0:0:0:
192,216,418297,1,8,0:0:0:0:
192,216,418422,1,0,0:0:0:0:
192,216,418547,1,8,0:0:0:0:
192,216,418672,1,0,0:0:0:0:
192,216,418734,1,0,0:0:0:0:
192,216,418797,1,0,0:0:0:0:
192,216,418922,1,8,0:0:0:0:
192,216,419047,1,0,0:0:0:0:
192,216,419109,1,0,0:0:0:0:
192,216,419172,1,0,0:0:0:0:
192,216,419297,1,8,0:0:0:0:
160,144,419359,1,8,0:0:0:0:
160,144,419422,1,0,0:0:0:0:
160,144,419484,1,0,0:0:0:0:
160,144,419547,1,8,0:0:0:0:
160,144,419609,1,8,0:0:0:0:
160,144,419672,1,0,0:0:0:0:
160,144,419734,1,0,0:0:0:0:
160,144,419797,1,8,0:0:0:0:
160,144,419922,1,0,0:0:0:0:
72,176,419984,1,0,0:0:0:0:
72,176,420047,1,8,0:0:0:0:
296,200,420172,1,0,0:0:0:0:
296,200,420234,1,0,0:0:0:0:
296,200,420297,1,8,0:0:0:0:
208,96,420422,1,0,0:0:0:0:
216,136,420547,1,8,0:0:0:0:
216,136,420672,1,0,0:0:0:0:
216,136,420734,1,0,0:0:0:0:
216,136,420797,1,8,0:0:0:0:
216,136,420922,1,0,0:0:0:0:
216,136,421047,1,8,0:0:0:0:
216,136,421109,1,8,0:0:0:0:
216,136,421172,1,0,0:0:0:0:
216,136,421234,1,0,0:0:0:0:
216,136,421297,1,8,0:0:0:0:
216,136,421422,1,0,0:0:0:0:
216,136,421547,1,8,0:0:0:0:
216,136,421609,1,0,0:0:0:0:
216,136,421672,1,8,0:0:0:0:
216,136,421734,1,0,0:0:0:0:
216,136,421797,1,8,0:0:0:0:
216,136,421859,1,8,0:0:0:0:
216,136,421922,1,0,0:0:0:0:
216,136,422047,1,8,0:0:0:0:
144,200,422172,1,0,0:0:0:0:
144,200,422234,1,0,0:0:0:0:
144,200,422297,1,8,0:0:0:0:
144,200,422422,1,0,0:0:0:0:
144,200,422547,1,8,0:0:0:0:
144,200,422609,1,8,0:0:0:0:
144,200,422672,1,0,0:0:0:0:
144,200,422734,1,8,0:0:0:0:
144,200,422797,1,0,0:0:0:0:
144,200,422859,1,8,0:0:0:0:
144,200,422922,1,8,0:0:0:0:
144,200,423047,1,8,0:0:0:0:
144,200,423172,1,0,0:0:0:0:
144,200,423234,1,0,0:0:0:0:
144,200,423297,1,0,0:0:0:0:
144,200,423422,1,8,0:0:0:0:
144,200,423547,1,0,0:0:0:0:
144,200,423609,1,0,0:0:0:0:
144,200,423672,1,0,0:0:0:0:
144,200,423797,1,8,0:0:0:0:
144,200,423922,1,8,0:0:0:0:
144,200,424047,1,0,0:0:0:0:
144,200,424109,1,0,0:0:0:0:
160,168,424172,1,8,0:0:0:0:
160,168,424234,1,0,0:0:0:0:
160,168,424297,1,8,0:0:0:0:
160,168,424422,1,8,0:0:0:0:
256,192,424547,12,0,428422,0:0:0:0:
