osu file format v12

[General]
AudioFilename: distorted lovesong.mp3
AudioLeadIn: 0
PreviewTime: 111047
Countdown: 0
SampleSet: Soft
StackLeniency: 0.7
Mode: 0
LetterboxInBreaks: 0
EpilepsyWarning: 1

[Editor]
Bookmarks: 33059,65059,81059,111059,127059,159059,175059,207059,223059,239059,255059,279059,295059,327059,359059,375059,409309,428309
DistanceSpacing: 0.4
BeatDivisor: 4
GridSize: 4

[Metadata]
Title:Distorted Lovesong
TitleUnicode:Distorted Lovesong
Artist:t+pazolite feat. Rizna
ArtistUnicode:t+pazolite feat. リズナ
Creator:RLC
Version:Love
Source:
Tags:kazukisinx backfire hardcore tano*c syndrome 4
BeatmapID:226605
BeatmapSetID:81694

[Difficulty]
HPDrainRate:6
CircleSize:4
OverallDifficulty:8
ApproachRate:9
SliderMultiplier:1.9
SliderTickRate:2

[Events]
//Background and Video events
0,0,"bg.jpg",0,0
//Break Periods
2,131247,134447
2,379247,408697
//Storyboard Layer 0 (Background)
Sprite,Background,TopLeft,"bg.jpg",0,0 F,0,-12,,0
Sprite,Background,Centre,"bg.jpg",320,240 M,0,17047,,320,240 S,0,17047,,0.6290613 F,0,17047,33047,0,1 F,0,33047,,1 F,0,33047,406547,1 F,0,406547,406797,1,0
Animation,Background,Centre,"noise\noise_0000.jpg",320,240,8,30,LoopForever F,0,377047,379047,0,0.7079182 F,0,379047,406609,0.7079182,0.9925174 S,0,381672,,1.005224 F,0,406609,406797,0.9925174,0
Animation,Background,Centre,"noise\noise_0000.jpg",320,240,8,10,LoopForever F,0,394859,,1 S,0,394859,394984,1.094041 F,0,394984,,0 F,0,396922,,1 F,0,397047,,0 F,0,398297,,1 F,0,398422,,0 F,0,399172,,1 F,0,399297,,0 F,0,400609,,1 F,0,400734,,0 F,0,401359,,1 F,0,401484,,0 F,0,403047,,1 F,0,403172,,0 F,0,404047,,1 F,0,404172,,0 F,0,404234,,1 F,0,404359,,0 F,0,405109,,1 F,0,405234,,0 F,0,406234,,1 F,0,406359,,0 F,0,406484,,1 F,0,406609,,0
Animation,Background,Centre,"noise\white_0000.jpg",320,240,8,30,LoopForever F,0,394859,,0.4906123 S,0,394859,,1.005225 F,0,394890,,0 F,0,394922,,1 F,0,394953,,0 F,0,396922,,1 F,0,396953,,0 F,0,396984,,1 F,0,397015,,0 F,0,398297,,1 F,0,398328,,0 F,0,398359,,1 F,0,398390,,0 F,0,399172,,1 F,0,399203,,0 F,0,399234,,1 F,0,399265,,0 F,0,400609,,1 F,0,400640,,0 F,0,400672,,1 F,0,400672,,1 F,0,400703,,0 F,0,401359,,1 F,0,401390,,0 F,0,401422,,1 F,0,401453,,0 F,0,403047,,1 F,0,403078,,0 F,0,403109,,1 F,0,403140,,0 F,0,404047,,1 F,0,404078,,0 F,0,404109,,1 F,0,404140,,0 F,0,404234,,1 F,0,404265,,0 F,0,404297,,1 F,0,404328,,0 F,0,405109,,1 F,0,405140,,0 F,0,405172,,1 F,0,405203,,0 F,0,406234,,1 F,0,406265,,0 F,0,406297,,1 F,0,406328,,0 F,0,406484,,1 F,0,406515,,0 F,0,406547,,1 F,0,406578,,0
//Storyboard Layer 1 (Fail)
//Storyboard Layer 2 (Pass)
//Storyboard Layer 3 (Foreground)
Animation,Foreground,Centre,"noise\white_0000.jpg",320,240,8,10,LoopForever F,0,408047,409297,0,0.1462857
Animation,Foreground,Centre,"tear\tear_0000.jpg",320,240,8,20,LoopForever F,0,409297,425797,1
//Storyboard Sound Samples
Sample,43547,0,"soft-hitclap3.wav",60
Sample,44547,0,"soft-hitclap3.wav",60
//Background Colour Transformations
3,100,163,162,255

[TimingPoints]
17047,250,4,2,1,60,1,0
33047,-200,4,2,3,60,0,0
35547,-200,4,2,4,60,0,0
35609,-200,4,2,3,60,0,0
36547,-200,4,2,4,60,0,0
36609,-200,4,2,3,60,0,0
39547,-200,4,2,4,60,0,0
39609,-200,4,2,3,60,0,0
47547,-200,4,2,4,60,0,0
47609,-200,4,2,3,60,0,0
51547,-200,4,2,4,60,0,0
51609,-200,4,2,3,60,0,0
52547,-200,4,2,4,60,0,0
52609,-200,4,2,3,60,0,0
55547,-200,4,2,4,60,0,0
55609,-200,4,2,3,60,0,0
59547,-200,4,2,4,60,0,0
59609,-200,4,2,3,60,0,0
60547,-200,4,2,4,60,0,0
60609,-200,4,2,3,60,0,0
64047,-200,4,2,2,50,0,0
64547,-125,4,1,2,50,0,0
65047,-125,4,2,1,50,0,0
66047,-125,4,1,2,50,0,0
67047,-125,4,2,1,50,0,0
68047,-125,4,1,2,50,0,0
69047,-125,4,2,1,50,0,0
70047,-125,4,1,2,50,0,0
71047,-125,4,2,1,50,0,0
72047,-125,4,1,2,50,0,0
73047,-125,4,1,1,50,0,0
81047,250,7,1,1,60,1,0
91547,250,3,1,1,60,1,0
93047,250,4,1,1,60,1,0
111047,-100,4,1,1,60,0,1
127047,-100,4,2,1,60,0,0
127172,-100,4,2,1,5,0,0
135047,-100,4,2,1,60,0,0
143047,-166.666666666667,4,2,1,40,0,0
158547,-100,4,2,1,60,0,0
159047,-100,4,2,1,60,0,0
161047,-125,4,2,1,60,0,0
163047,-100,4,2,1,60,0,0
165047,-125,4,2,1,60,0,0
167047,-100,4,2,1,60,0,0
170047,-125,4,2,1,60,0,0
171047,-100,4,2,1,60,0,0
171297,-125,4,2,1,60,0,0
171547,-100,4,2,1,60,0,0
171797,-125,4,2,1,60,0,0
172047,-100,4,2,1,60,0,0
172297,-125,4,2,1,60,0,0
172547,-100,4,2,1,60,0,0
172797,-125,4,2,1,60,0,0
173047,-100,4,2,1,60,0,0
175047,-100,4,1,1,60,0,1
182797,-100,4,2,1,60,0,0
183047,-100,4,1,1,60,0,1
190047,-100,4,2,1,60,0,0
191047,-100,4,1,1,60,0,1
198797,-100,4,2,1,60,0,0
199047,-100,4,1,1,60,0,1
206047,-100,4,2,1,60,0,0
207047,-100,4,1,1,60,0,0
224047,-166.666666666667,4,2,1,40,0,0
227047,-100,4,2,1,40,0,0
228047,-166.666666666667,4,2,1,40,0,0
231047,-100,4,2,1,40,0,0
232047,-166.666666666667,4,2,1,40,0,0
235047,-142.857142857143,4,2,1,40,0,0
236047,-125,4,2,1,40,0,0
237047,-111.111111111111,4,2,1,40,0,0
238047,-100,4,1,2,50,0,0
239047,-100,4,1,2,50,0,1
247047,-166.666666666667,4,2,1,50,0,0
247797,-100,4,1,2,50,0,1
255109,-100,4,2,1,20,0,0
256797,-100,4,2,1,5,0,0
257047,-100,4,2,1,40,0,0
258797,-100,4,2,1,5,0,0
259047,-100,4,2,1,60,0,0
263047,-200,4,2,1,60,0,0
271047,-166.666666666667,4,2,1,60,0,0
277547,-142.857142857143,4,2,1,60,0,0
278047,-125,4,2,1,60,0,0
278297,-111.111111111111,4,2,1,60,0,0
278547,-100,4,2,1,60,0,0
278797,-90.9090909090909,4,2,1,60,0,0
279047,-83.3333333333333,4,1,1,60,0,1
286797,-83.3333333333333,4,2,1,60,0,0
287047,-83.3333333333333,4,1,1,60,0,1
289547,-76.9230769230769,4,1,1,60,0,1
290047,-83.3333333333333,4,1,1,60,0,1
294047,-83.3333333333333,4,2,1,60,0,0
295047,-100,4,1,1,60,0,0
323047,-166.666666666667,4,2,1,60,0,0
326047,-166.666666666667,4,2,1,20,0,0
326172,-166.666666666667,4,2,1,40,0,0
326297,-142.857142857143,4,2,1,45,0,0
326547,-125,4,2,1,50,0,0
326797,-111.111111111111,4,2,1,55,0,0
327047,-100,4,1,1,60,0,1
334797,-100,4,2,1,60,0,0
335047,-100,4,1,1,60,0,1
342047,-100,4,2,1,60,0,0
343047,-100,4,1,1,60,0,1
350797,-100,4,2,1,60,0,0
351047,-100,4,1,1,60,0,1
358047,-100,4,2,1,60,0,0
359047,-100,4,1,1,60,0,0
375172,-100,4,2,1,5,0,0
409297,250,4,1,2,60,1,0
411047,-100,4,1,1,60,0,1
411234,-100,4,1,1,30,0,1
411297,-100,4,1,2,60,0,0
412297,-100,4,1,1,100,0,1
412547,-100,4,1,2,60,0,0
415547,-100,4,1,1,60,0,1
415797,-100,4,1,2,60,0,0
421297,-100,4,1,2,50,0,0
422297,-100,4,1,2,40,0,0
423297,-100,4,1,2,30,0,0
423547,-100,4,1,1,60,0,1
423797,-100,4,1,2,30,0,0
424547,-133.333333333333,4,1,2,20,0,0
425797,-200,4,1,2,5,0,0

[Colours]
Combo1 : 255,102,102
Combo2 : 255,151,203
Combo3 : 255,128,64

[HitObjects]
21,142,33047,6,0,B|111:115|115:171|216:143,1,190,8|8,0:1|0:0,0:0:0:0:
289,96,33797,1,8,0:1:0:0:
378,128,34047,2,0,L|371:327,1,190,0|8,1:0|0:0,0:0:0:0:
463,294,34797,1,0,0:0:0:0:
468,199,35047,6,0,L|469:54,2,142.5,8|0|0,0:1|0:0|0:0,0:0:0:0:
373,185,36047,2,0,L|374:330,2,142.5,0|0|0,1:0|0:0|0:0,0:0:0:0:
290,232,37047,6,0,P|244:267|116:269,1,190,8|8,0:1|0:0,0:0:0:0:
112,174,37797,1,8,0:1:0:0:
50,101,38047,1,0,1:0:0:0:
50,101,38547,1,8,0:0:0:0:
112,174,38797,1,0,0:0:0:0:
188,117,39047,6,0,L|336:96,2,142.5,8|0|0,0:1|0:0|0:0,0:0:0:0:
124,29,40047,1,0,1:0:0:0:
83,348,40547,1,8,0:0:0:0:
292,151,40797,2,0,L|288:202,1,47.5,8|8,0:1|0:1,0:0:0:0:
287,236,41047,6,0,P|332:219|468:287,1,190,8|8,0:1|0:0,0:0:0:0:
344,357,41797,1,8,0:1:0:0:
284,123,42047,2,0,L|84:149,1,190,0|8,1:0|0:0,0:0:0:0:
27,80,42797,1,0,0:0:0:0:
102,21,43047,5,8,0:1:0:0:
162,225,43422,1,0,0:0:0:0:
305,66,43797,1,0,0:0:0:0:
192,107,44047,1,0,1:0:0:0:
405,114,44422,1,0,0:0:0:0:
297,298,44797,1,0,0:0:0:0:
296,188,45047,6,0,P|357:227|473:218,1,190,8|8,0:1|0:0,0:0:0:0:
334,88,45797,1,8,0:1:0:0:
198,158,46047,2,0,L|205:253,1,95,0|0,1:0|0:0,0:0:0:0:
118,338,46547,1,8,0:0:0:0:
105,243,46797,1,0,0:0:0:0:
94,148,47047,6,0,P|178:133|225:77,2,142.5,8|0|0,0:1|0:0|0:0,0:0:0:0:
30,77,48047,1,0,1:0:0:0:
482,77,48547,1,8,0:0:0:0:
30,77,49047,6,0,P|100:77|183:156,1,190,8|8,0:1|0:0,0:0:0:0:
256,72,49797,1,8,0:1:0:0:
482,157,50047,2,0,P|412:157|329:236,1,190,0|8,1:0|0:0,0:0:0:0:
256,152,50797,1,0,0:0:0:0:
192,248,51047,6,0,L|48:272,2,142.5,8|0|0,0:1|0:0|0:0,0:0:0:0:
320,248,52047,2,0,L|464:272,2,142.5,0|0|0,1:0|0:0|0:0,0:0:0:0:
240,300,53047,6,0,B|208:202|273:211|242:111,1,190,8|8,0:1|0:0,0:0:0:0:
160,160,53797,1,8,0:1:0:0:
69,189,54047,2,0,P|117:242|155:248,1,95,0|0,1:0|0:0,0:0:0:0:
308,358,54547,2,0,P|260:305|240:300,1,95,8|0,0:0|0:0,0:0:0:0:
310,185,55047,6,0,P|359:182|422:106,2,142.5,8|0|0,0:1|0:0|0:0,0:0:0:0:
331,96,56047,1,0,1:0:0:0:
137,190,56547,1,8,0:0:0:0:
256,192,56797,1,8,0:1:0:0:
324,298,57047,5,8,0:1:0:0:
458,163,57547,1,8,0:0:0:0:
389,229,57797,1,8,0:1:0:0:
321,162,58047,2,0,P|269:149|140:191,1,190,0|8,1:0|0:0,0:0:0:0:
107,277,58797,1,0,0:0:0:0:
55,196,59047,6,0,L|34:41,2,142.5,8|0|0,0:1|0:0|0:0,0:0:0:0:
201,301,60047,2,0,L|359:292,2,142.5,0|0|0,1:0|0:0|0:0,0:0:0:0:
153,215,61047,6,0,L|290:54,1,190,8|8,0:1|0:0,0:0:0:0:
370,55,61797,1,8,0:1:0:0:
335,143,62047,1,0,1:0:0:0:
94,196,62547,1,8,0:0:0:0:
397,255,63047,5,8,0:1:0:0:
321,275,63547,1,8,0:0:0:0:
248,296,64047,5,0,1:0:0:0:
267,222,64297,1,0,1:0:0:0:
290,145,64547,5,0,0:0:0:0:
254,77,64672,2,0,L|233:40,2,38,0|0|0,1:0|1:0|1:0,0:0:0:0:
342,206,64922,1,0,1:0:0:0:
188,235,65047,6,0,P|131:229|73:150,1,152,8|2,0:1|0:0,0:0:0:0:
263,292,65422,2,0,P|320:298|378:377,1,152,8|2,0:1|0:0,0:0:0:0:
425,236,65797,2,0,L|430:152,1,76,8|2,0:1|0:0,0:0:0:0:
437,57,66047,5,8,0:0:0:0:
353,94,66172,1,0,0:0:0:0:
265,69,66297,1,0,0:0:0:0:
179,101,66422,1,0,0:0:0:0:
91,75,66547,2,0,L|79:168,1,76
52,184,66734,2,0,B|94:172|94:172|173:194,1,114
180,214,66984,1,0,0:0:0:0:
189,243,67047,6,0,P|181:309|107:362,1,152,8|2,0:1|0:0,0:0:0:0:
270,194,67422,2,0,P|278:128|352:75,1,152,8|2,0:1|0:0,0:0:0:0:
473,142,67797,2,0,P|485:183|477:230,1,76,8|2,0:1|0:0,0:0:0:0:
380,273,68047,6,0,B|358:286|358:286|294:282,1,76,8|0,0:0|0:0,0:0:0:0:
111,163,68297,2,0,B|133:150|133:150|197:154,1,76
270,195,68547,1,8,0:0:0:0:
343,127,68672,2,0,L|354:75,2,38,0|0|8,0:0|0:0|0:0,0:0:0:0:
314,283,68922,5,0,0:0:0:0:
314,283,68984,1,0,0:0:0:0:
314,283,69047,2,0,P|229:281|162:322,1,152,8|2,0:1|0:0,0:0:0:0:
20,175,69422,2,0,P|105:173|172:214,1,152,8|2,0:1|0:0,0:0:0:0:
270,195,69797,2,0,L|251:88,1,76,8|2,0:1|0:0,0:0:0:0:
226,15,70047,5,8,0:0:0:0:
395,65,70172,2,0,L|380:154,1,76
452,242,70422,1,0,0:0:0:0:
250,317,70547,2,0,L|338:297,1,76
373,324,70734,2,0,B|352:280|352:280|363:211,1,114,8|0,0:0|0:0,0:0:0:0:
338,196,70984,1,0,0:0:0:0:
307,194,71047,6,0,P|259:214|159:182,1,152,8|2,0:1|0:0,0:0:0:0:
373,124,71422,2,0,L|463:116,2,76,8|0|2,0:1|0:0|0:0,0:0:0:0:
206,62,71797,2,0,L|315:53,1,76,8|2,0:1|0:0,0:0:0:0:
112,79,72047,6,0,B|61:99|61:99|39:206,1,152,8|0,0:0|0:0,0:0:0:0:
102,262,72422,1,0,0:0:0:0:
185,225,72547,2,0,L|195:273,2,38
275,233,72797,2,0,L|283:185,2,38
351,282,73047,6,0,B|424:292|431:251|528:286,1,152,12|8,0:1|0:0,0:0:0:0:
456,357,73422,1,0,0:0:0:0:
377,191,73547,2,0,P|373:144|381:100,1,76,8|0,0:0|0:0,0:0:0:0:
476,64,73797,2,0,P|480:111|472:155,1,76,8|0,0:0|0:0,0:0:0:0:
284,179,74047,6,0,L|188:169,1,76,8|0,0:0|0:0,0:0:0:0:
18,231,74297,2,0,P|84:224|164:271,1,152,8|8,0:0|0:0,0:0:0:0:
234,313,74672,1,0,0:0:0:0:
316,273,74797,2,0,P|363:283|414:272,1,76,8|8,0:0|0:0,0:0:0:0:
369,195,75047,6,0,P|404:166|412:59,2,152,8|8|8,0:0|0:0|0:0,0:0:0:0:
334,110,75672,2,0,L|324:29,2,76,0|8|0,0:0|0:0|0:0,0:0:0:0:
277,181,76047,6,0,P|215:160|117:187,1,152,8|8,0:0|0:0,0:0:0:0:
54,225,76422,1,0,0:0:0:0:
61,130,76547,2,0,P|69:87|60:35,1,76,8|0,0:0|0:0,0:0:0:0:
136,284,76797,2,0,P|128:327|137:379,1,76,8|0,0:0|0:0,0:0:0:0:
233,268,77047,6,0,P|275:271|395:205,1,152,8|8,0:0|0:0,0:0:0:0:
419,149,77422,1,0,0:0:0:0:
342,98,77547,2,0,L|316:0,1,76,8|0,0:0|0:0,0:0:0:0:
252,195,77797,2,0,L|226:293,1,76,8|0,0:0|0:0,0:0:0:0:
207,84,78047,6,0,L|27:62,2,152,8|8|8,0:0|0:0|0:0,0:0:0:0:
288,125,78672,1,0,0:0:0:0:
371,88,78797,2,0,P|376:143|360:178,1,76,8|0,0:0|0:0,0:0:0:0:
296,216,79047,6,0,L|214:232,1,76,8|8,0:0|0:0,0:0:0:0:
138,268,79297,2,0,P|131:317|138:354,1,76,8|8,0:0|0:0,0:0:0:0:
352,320,79547,2,0,L|434:304,1,76,8|8,0:0|0:0,0:0:0:0:
448,181,79797,2,0,L|366:197,1,76,8|8,0:0|0:0,0:0:0:0:
258,294,80047,6,0,L|249:347,2,38
216,224,80297,2,0,L|207:171,2,38
183,341,80547,1,0,0:0:0:0:
134,186,80672,2,0,L|108:177,4,19
277,154,80922,1,0,0:0:0:0:
379,301,81047,6,0,P|315:282|183:335,1,190,12|0,0:0|0:0,0:0:0:0:
56,324,81422,1,8,0:0:0:0:
134,186,81547,2,0,P|143:131|129:67,1,95,8|0,0:2|0:0,0:0:0:0:
383,12,81797,2,0,P|374:67|388:131,1,95,0|8,0:0|0:0,0:0:0:0:
447,185,82047,6,0,L|472:284,1,95,8|2,0:0|0:2,0:0:0:0:
274,154,82297,2,0,L|249:55,1,95,8|2,0:0|0:2,0:0:0:0:
367,249,82547,2,0,L|392:348,1,95,8|2,0:0|0:2,0:0:0:0:
187,195,82797,6,0,P|156:128|17:84,1,190,8|0,0:0|0:0,0:0:0:0:
66,212,83172,1,8,0:0:0:0:
160,295,83297,2,0,L|267:281,1,95,8|0,0:2|0:0,0:0:0:0:
365,162,83547,1,8,0:0:0:0:
439,302,83672,5,0,0:0:0:0:
285,216,83797,2,0,P|281:167|272:110,1,95,8|2,0:0|0:2,0:0:0:0:
448,204,84047,2,0,P|407:231|362:268,1,95,8|2,0:0|0:2,0:0:0:0:
358,65,84297,2,0,P|402:86|456:106,1,95,0|2,0:0|0:2,0:0:0:0:
201,158,84547,6,0,P|111:143|58:46,1,190,12|0,0:0|0:0,0:0:0:0:
173,52,84922,1,8,0:0:0:0:
282,110,85047,2,0,B|290:145|290:145|284:223,1,95,8|0,0:2|0:0,0:0:0:0:
157,274,85297,1,8,0:0:0:0:
275,351,85422,5,0,0:0:0:0:
395,291,85547,2,0,L|284:272,1,95,8|2,0:0|0:2,0:0:0:0:
43,84,85797,2,0,L|154:103,1,95,8|2,0:0|0:2,0:0:0:0:
197,344,86047,2,0,L|86:325,1,95,8|2,0:0|0:2,0:0:0:0:
232,93,86297,6,0,P|344:86|404:15,1,190,8|0,0:0|0:0,0:0:0:0:
326,183,86672,1,8,0:0:0:0:
152,139,86797,2,0,P|177:188|181:227,1,95,8|0,0:2|0:0,0:0:0:0:
84,208,87047,1,8,0:0:0:0:
256,278,87172,6,0,P|338:269|448:327,1,190,0|2,0:0|0:2,0:0:0:0:
172,353,87547,2,0,L|168:298,2,47.5,8|0|2,0:0|0:0|0:2,0:0:0:0:
81,356,87797,2,0,P|44:318|29:256,1,95,8|2,0:0|0:2,0:0:0:0:
69,125,88047,1,4,0:2:0:0:
467,111,88297,5,8,0:0:0:0:
381,151,88422,2,0,P|310:145|224:48,1,190,12|0,0:0|0:0,0:0:0:0:
340,46,88797,1,8,0:0:0:0:
451,209,88922,6,0,P|449:261|456:314,1,95,8|0,0:0|0:0,0:0:0:0:
349,236,89172,1,8,0:0:0:0:
255,363,89297,2,0,P|257:311|250:258,1,95,8|2,0:0|0:2,0:0:0:0:
68,140,89547,2,0,P|66:192|73:245,1,95,8|2,0:0|0:2,0:0:0:0:
188,191,89797,6,0,P|273:174|364:235,1,190,8|0,0:0|0:0,0:0:0:0:
355,332,90172,1,8,0:0:0:0:
454,248,90297,2,0,L|463:148,1,95,8|8,0:2|0:0,0:0:0:0:
257,267,90547,1,0,0:0:0:0:
181,96,90672,6,0,L|188:191,1,95,8|0,0:0|0:0,0:0:0:0:
349,243,90922,1,8,0:0:0:0:
288,110,91047,2,0,L|294:15,1,95,8|2,0:0|0:2,0:0:0:0:
86,205,91297,2,0,L|92:299,1,95,8|2,0:0|0:2,0:0:0:0:
31,140,91547,6,0,L|33:40,2,95,12|0|0,0:0|0:0|0:0,0:0:0:0:
169,253,91922,2,0,L|171:353,2,95,8|0|0,0:0|0:0|0:0,0:0:0:0:
264,140,92297,2,0,L|266:40,2,95,8|0|0,0:0|0:0|0:0,0:0:0:0:
402,253,92672,2,0,L|404:353,2,95,8|0|0,0:0|0:0|0:0,0:0:0:0:
475,113,93047,6,0,L|365:133,1,95,8|0,0:0|0:0,0:0:0:0:
381,129,93297,1,8,0:0:0:0:
237,226,93422,2,0,L|347:206,1,95,8|0,0:0|0:0,0:0:0:0:
330,209,93672,1,8,0:0:0:0:
187,308,93797,2,0,L|77:328,1,95,8|0,0:0|0:0,0:0:0:0:
33,251,94047,5,8,0:0:0:0:
95,179,94172,1,8,0:0:0:0:
47,97,94297,1,8,0:0:0:0:
112,28,94422,1,8,0:0:0:0:
112,28,94797,5,0,0:0:0:0:
443,103,95047,6,0,P|469:200|433:289,1,190,12|0,0:0|0:0,0:0:0:0:
209,278,95422,2,0,P|194:227|206:164,1,95,8|8,0:0|0:2,0:0:0:0:
283,93,95672,1,0,0:0:0:0:
325,270,95797,2,0,P|340:321|328:384,1,95,8|0,0:0|0:0,0:0:0:0:
136,332,96047,6,0,L|32:322,1,95,8|0,0:0|0:0,0:0:0:0:
185,225,96297,2,0,L|89:147,1,95,8|0,0:0|0:0,0:0:0:0:
285,156,96547,2,0,L|245:47,1,95,8|0,0:2|0:0,0:0:0:0:
405,131,96797,2,0,L|402:10,1,95,8|0,0:0|0:0,0:0:0:0:
447,232,97047,6,0,P|361:233|286:312,1,190,8|0,0:0|0:0,0:0:0:0:
59,157,97422,2,0,P|145:158|178:183,1,95,8|8,0:0|0:2,0:0:0:0:
239,216,97672,1,0,0:0:0:0:
101,303,97797,2,0,L|186:352,1,95,8|0,0:0|0:0,0:0:0:0:
322,321,98047,6,0,P|378:309|441:315,1,95,8|0,0:0|0:0,0:0:0:0:
269,239,98297,2,0,P|311:200|369:174,1,95,8|0,0:0|0:0,0:0:0:0:
172,198,98547,2,0,P|189:143|226:91,1,95,8|0,0:2|0:0,0:0:0:0:
74,202,98797,2,0,P|62:146|68:82,1,95,8|0,0:0|0:0,0:0:0:0:
275,39,99047,6,0,P|303:91|435:120,1,190,12|0,0:0|0:0,0:0:0:0:
391,34,99422,1,8,0:0:0:0:
207,130,99547,2,0,L|94:138,1,95,8|0,0:2|0:0,0:0:0:0:
264,287,99797,2,0,P|265:248|275:194,1,95,8|0,0:0|0:0,0:0:0:0:
423,125,100047,5,8,0:0:0:0:
349,256,100172,1,0,0:0:0:0:
187,231,100297,2,0,L|84:263,1,95,8|0,0:0|0:0,0:0:0:0:
185,323,100547,1,8,0:2:0:0:
207,130,100672,1,0,0:0:0:0:
386,176,100797,2,0,L|489:144,1,95,8|0,0:0|0:0,0:0:0:0:
501,339,101047,6,0,P|474:299|309:281,1,190,8|0,0:0|0:0,0:0:0:0:
152,346,101422,2,0,L|256:301,1,95,8|8,0:0|0:2,0:0:0:0:
386,361,101672,1,0,0:0:0:0:
456,191,101797,2,0,P|462:138|453:85,1,95,8|0,0:0|0:0,0:0:0:0:
293,33,102047,5,8,0:0:0:0:
303,196,102172,1,0,0:0:0:0:
359,114,102297,2,0,L|242:122,1,95,8|0,0:0|0:0,0:0:0:0:
147,89,102547,2,0,L|85:77,2,47.5,8|0|0,0:2|0:0|0:0,0:0:0:0:
104,259,102797,2,0,P|107:208|98:152,1,95,8|0,0:0|0:0,0:0:0:0:
90,297,103047,6,0,B|181:258|182:350|298:290,1,190,12|0,0:0|0:0,0:0:0:0:
224,214,103422,1,8,0:0:0:0:
270,127,103547,2,0,P|223:114|163:134,1,95,8|0,0:2|0:0,0:0:0:0:
323,214,103797,2,0,P|370:227|430:207,1,95,8|0,0:0|0:0,0:0:0:0:
508,111,104047,5,8,0:0:0:0:
368,139,104172,1,0,0:0:0:0:
406,309,104297,2,0,P|453:316|506:362,1,95,8|0,0:0|0:0,0:0:0:0:
315,342,104547,1,8,0:2:0:0:
414,217,104672,1,0,0:0:0:0:
240,240,104797,2,0,P|197:260|134:246,1,95,8|0,0:0|0:0,0:0:0:0:
69,97,105047,6,0,P|181:44|240:60,1,190,8|0,0:0|0:0,0:0:0:0:
332,124,105422,2,0,P|350:74|340:15,1,95,8|8,0:0|0:2,0:0:0:0:
234,157,105672,1,0,0:0:0:0:
334,214,105797,1,8,0:0:0:0:
455,98,105922,6,0,P|427:184|491:280,1,190
364,329,106297,2,0,L|259:343,1,95,8|0,0:0|0:0,0:0:0:0:
148,55,106547,2,0,L|253:41,1,95,8|0,0:2|0:0,0:0:0:0:
163,298,106797,2,0,L|58:312,1,95,8|0,0:0|0:0,0:0:0:0:
44,123,107047,6,0,P|104:156|243:117,1,190,12|0,0:0|0:0,0:0:0:0:
352,63,107422,1,8,0:0:0:0:
469,141,107547,2,0,P|455:203|461:256,1,95,8|0,0:2|0:0,0:0:0:0:
373,368,107797,1,8,0:0:0:0:
232,354,107922,6,0,P|233:322|219:260,1,95,0|8,0:0|0:0,0:0:0:0:
105,222,108172,1,0,0:0:0:0:
14,352,108297,2,0,L|133:326,1,95,8|0,0:0|0:0,0:0:0:0:
368,120,108547,2,0,L|249:146,1,95,8|0,0:2|0:0,0:0:0:0:
379,344,108797,2,0,L|498:318,1,95,8|0,0:0|0:0,0:0:0:0:
470,98,109047,6,0,P|426:38|303:41,1,190,8|0,0:0|0:0,0:0:0:0:
276,197,109422,1,8,0:0:0:0:
64,80,109547,2,0,L|171:92,1,95,8|0,0:2|0:0,0:0:0:0:
327,132,109797,1,8,0:0:0:0:
194,231,109922,6,0,P|139:199|6:231,1,190,8|0,0:0|0:0,0:0:0:0:
218,133,110297,2,0,L|202:30,1,95,0|8,0:0|0:0,0:0:0:0:
100,295,110547,1,8,0:2:0:0:
232,319,110672,1,8,0:0:0:0:
263,298,110734,1,8,0:0:0:0:
301,300,110797,1,8,0:0:0:0:
428,340,110922,1,8,0:0:0:0:
396,218,111047,6,0,P|391:162|398:114,1,95,4|0,0:2|0:0,0:0:0:0:
475,237,111297,1,8,0:0:0:0:
302,141,111422,2,0,P|307:197|300:245,1,95,0|8,0:0|0:2,0:0:0:0:
237,89,111672,1,2,0:2:0:0:
127,183,111797,2,0,L|228:168,1,95,8|2,0:0|0:2,0:0:0:0:
322,53,112047,5,8,0:0:0:0:
441,150,112172,1,8,0:0:0:0:
342,268,112297,2,0,P|337:326|344:372,1,95,8|0,0:0|0:0,0:0:0:0:
221,262,112547,2,0,P|226:204|219:158,1,95,8|0,0:2|0:0,0:0:0:0:
104,272,112797,2,0,P|99:330|106:376,1,95,8|0,0:0|0:0,0:0:0:0:
34,197,113047,6,0,L|134:182,1,95,8|0,0:0|0:0,0:0:0:0:
312,157,113297,1,8,0:0:0:0:
211,38,113422,2,0,P|201:91|204:133,1,95,0|8,0:0|0:2,0:0:0:0:
283,243,113672,1,2,0:2:0:0:
429,178,113797,1,8,0:0:0:0:
300,79,113922,1,2,0:2:0:0:
369,262,114047,6,0,P|385:310|376:372,1,95,8|8,0:0|0:0,0:0:0:0:
182,362,114297,2,0,B|150:267|214:276|193:178,1,190,8|8,0:0|0:2,0:0:0:0:
102,62,114672,1,8,0:0:0:0:
109,212,114797,1,8,0:0:0:0:
195,87,114922,1,8,0:0:0:0:
48,137,115047,6,0,P|19:193|75:300,1,190,4|8,0:2|0:0,0:0:0:0:
194,178,115422,1,0,0:0:0:0:
289,275,115547,2,0,P|232:290|183:326,1,95,8|2,0:2|0:2,0:0:0:0:
401,213,115797,2,0,P|458:228|507:264,1,95,8|2,0:0|0:2,0:0:0:0:
376,310,116047,5,8,0:0:0:0:
310,181,116172,1,8,0:0:0:0:
415,81,116297,2,0,P|361:87|283:67,1,95,8|0,0:0|0:0,0:0:0:0:
35,130,116547,2,0,P|126:88|240:116,1,190,8|8,0:2|0:0,0:0:0:0:
200,225,116922,1,0,0:0:0:0:
86,262,117047,6,0,P|79:314|84:375,1,95,8|0,0:0|0:0,0:0:0:0:
256,312,117297,1,8,0:0:0:0:
431,356,117422,2,0,P|433:314|426:262,1,95,0|8,0:0|0:2,0:0:0:0:
290,142,117672,1,2,0:2:0:0:
337,295,117797,1,8,0:0:0:0:
398,155,117922,1,2,0:2:0:0:
248,238,118047,6,0,L|137:250,1,95,8|8,0:0|0:0,0:0:0:0:
222,47,118297,2,0,L|333:35,1,95,8|8,0:0|0:0,0:0:0:0:
462,257,118547,1,8,0:2:0:0:
417,271,118609,1,8,0:0:0:0:
370,260,118672,1,8,0:0:0:0:
192,145,118797,2,0,P|135:136|57:147,1,95,4|8,0:2|0:0,0:0:0:0:
12,339,119047,6,0,P|97:347|177:260,1,190,4|8,0:2|0:0,0:0:0:0:
276,140,119422,2,0,P|269:198|282:248,2,95,0|8|2,0:0|0:2|0:2,0:0:0:0:
360,184,119797,1,8,0:0:0:0:
434,130,119922,6,0,B|478:221|402:225|453:328,1,190,2|8,0:2|0:0,0:0:0:0:
328,320,120297,2,0,L|219:333,1,95,8|0,0:0|0:0,0:0:0:0:
66,255,120547,1,8,0:2:0:0:
125,359,120672,1,0,0:0:0:0:
149,167,120797,2,0,L|161:44,1,95,8|0,0:0|0:0,0:0:0:0:
388,134,121047,6,0,P|306:142|249:241,1,190,8|8,0:0|0:0,0:0:0:0:
370,248,121422,2,0,L|476:262,2,95,0|8|2,0:0|0:2|0:2,0:0:0:0:
198,301,121797,1,8,0:0:0:0:
297,327,121922,1,2,0:2:0:0:
110,324,122047,6,0,L|10:339,1,95,8|8,0:0|0:0,0:0:0:0:
107,193,122297,2,0,L|207:178,1,95,8|0,0:0|0:0,0:0:0:0:
379,134,122547,1,12,0:2:0:0:
269,218,122672,1,12,0:2:0:0:
183,88,122797,2,0,L|278:109,1,95,8|4,0:0|0:2,0:0:0:0:
479,140,123047,6,0,P|400:134|340:34,1,190,12|8,0:2|0:0,0:0:0:0:
388,225,123422,2,0,P|391:286|379:332,1,95,0|8,0:0|0:2,0:0:0:0:
250,351,123672,1,2,0:2:0:0:
55,289,123797,2,0,L|182:275,1,95,8|2,0:0|0:2,0:0:0:0:
307,268,124047,5,8,0:2:0:0:
168,196,124172,1,8,0:0:0:0:
315,181,124297,2,0,L|430:169,1,95,8|0,0:0|0:0,0:0:0:0:
290,95,124547,2,0,P|229:115|100:55,1,190,8|8,0:2|0:0,0:0:0:0:
344,18,124922,1,8,0:0:0:0:
370,259,125047,6,0,P|380:304|367:364,1,95,8|0,0:2|0:0,0:0:0:0:
256,360,125297,1,8,0:0:0:0:
156,288,125422,2,0,P|146:243|159:183,1,95,0|8,0:0|0:2,0:0:0:0:
290,95,125672,1,2,0:2:0:0:
424,176,125797,1,8,0:0:0:0:
286,258,125922,1,2,0:2:0:0:
405,88,126047,5,8,0:2:0:0:
320,184,126172,1,8,0:0:0:0:
199,121,126297,2,0,P|198:79|228:14,1,95,8|8,0:0|0:0,0:0:0:0:
485,116,126547,1,8,0:2:0:0:
489,153,126609,1,8,0:0:0:0:
476,189,126672,1,8,0:0:0:0:
455,220,126734,1,8,0:0:0:0:
423,241,126797,2,0,L|443:342,1,95,8|8,0:0|0:0,0:0:0:0:
256,308,127047,1,4,1:0:0:0:
256,192,127422,12,0,131047,0:0:0:0:
427,84,135047,5,2,0:0:0:0:
361,121,136047,5,0,0:0:0:0:
322,186,137047,5,2,0:0:0:0:
333,261,138047,5,0,0:0:0:0:
392,307,139047,5,2,0:0:0:0:
333,261,140047,5,0,0:0:0:0:
260,282,141047,5,2,0:0:0:0:
186,262,141547,1,0,0:0:0:0:
110,269,142047,5,2,0:0:0:0:
35,252,142547,1,0,0:0:0:0:
186,262,143047,5,2,0:0:0:0:
269,161,143297,2,0,L|264:230,2,56.9999982604981,0|0|0,0:0|0:0|1:0,0:0:0:0:
282,322,143797,1,2,0:0:0:0:
317,293,143922,1,0,0:0:0:0:
362,290,144047,1,2,0:0:0:0:
404,305,144172,1,0,0:0:0:0:
433,339,144297,1,0,0:0:0:0:
179,287,144547,6,0,L|52:312,1,113.999996520996,2|2,1:2|0:0,0:0:0:0:
38,273,144922,1,0,0:0:0:0:
63,235,145047,1,2,0:0:0:0:
133,84,145297,1,0,0:0:0:0:
150,125,145422,1,0,0:0:0:0:
130,166,145547,1,2,1:2:0:0:
432,208,145797,5,2,0:0:0:0:
389,225,145922,1,0,0:0:0:0:
343,224,146047,1,2,0:0:0:0:
304,199,146172,1,0,0:0:0:0:
258,197,146297,1,0,0:0:0:0:
221,224,146422,1,0,0:0:0:0:
217,269,146547,2,0,P|228:327|235:389,1,113.999996520996,2|0,1:2|0:0,0:0:0:0:
378,139,147047,6,0,P|366:80|360:19,1,113.999996520996,2|0,0:0|0:0,0:0:0:0:
314,20,147422,1,0,0:0:0:0:
276,46,147547,1,0,1:0:0:0:
25,132,147797,1,2,0:0:0:0:
79,114,147922,1,0,0:0:0:0:
134,126,148047,1,2,0:0:0:0:
173,166,148172,1,0,0:0:0:0:
173,223,148297,1,0,0:0:0:0:
197,274,148422,1,0,0:0:0:0:
251,290,148547,2,0,L|374:270,1,113.999996520996,2|2,1:2|0:0,0:0:0:0:
493,333,149047,5,2,0:0:0:0:
24,337,149547,1,2,1:2:0:0:
193,355,149797,1,2,0:0:0:0:
103,190,150047,2,0,L|112:305,2,113.999996520996,2|0|2,0:0|0:0|1:2,0:0:0:0:
97,104,150672,1,0,0:0:0:0:
181,116,150797,2,0,L|186:180,1,56.9999982604981
186,262,151047,6,0,P|254:241|313:251,1,113.999996520996,2|0,0:0|0:0,0:0:0:0:
379,307,151422,1,0,0:0:0:0:
388,207,151547,2,0,L|511:193,1,113.999996520996,0|2,1:0|0:0,0:0:0:0:
428,109,151922,1,0,0:0:0:0:
318,134,152047,6,0,L|330:74,1,56.9999982604981,2|0,0:0|0:0,0:0:0:0:
227,122,152297,2,0,L|216:178,1,56.9999982604981
154,75,152547,2,0,P|111:105|43:116,1,113.999996520996,2|2,1:2|0:0,0:0:0:0:
85,194,152922,1,0,0:0:0:0:
45,269,153047,6,0,L|158:293,1,113.999996520996,2|0,0:0|0:0,0:0:0:0:
250,218,153422,1,0,0:0:0:0:
224,103,153547,2,0,P|278:100|348:64,1,113.999996520996,2|2,1:2|0:0,0:0:0:0:
449,59,153922,1,0,0:0:0:0:
482,183,154047,6,0,P|436:182|407:172,1,56.9999982604981,2|0,0:0|0:0,0:0:0:0:
388,259,154297,2,0,P|361:250|331:226,1,56.9999982604981
265,317,154547,2,0,P|238:277|224:207,1,113.999996520996,2|0,1:2|0:0,0:0:0:0:
293,137,154922,1,0,0:0:0:0:
142,164,155047,6,0,P|136:214|108:273,1,113.999996520996,2|0,0:0|0:0,0:0:0:0:
91,91,155547,1,0,1:0:0:0:
223,241,155797,1,0,0:0:0:0:
287,194,155922,1,0,0:0:0:0:
366,185,156047,1,0,0:0:0:0:
434,226,156172,1,0,0:0:0:0:
460,301,156297,1,0,0:0:0:0:
223,241,156547,1,2,1:2:0:0:
396,62,156797,1,0,0:0:0:0:
256,192,157047,12,0,158547,0:0:0:0:
270,177,158672,5,0,0:0:0:0:
261,203,158734,1,0,0:0:0:0:
251,230,158797,2,0,L|237:275,3,47.5
226,302,159047,6,0,L|349:287,1,95,4|0,1:2|0:0,0:0:0:0:
470,81,159297,2,0,L|347:96,1,95,0|0,1:0|0:3,0:0:0:0:
341,107,159484,1,0,0:3:0:0:
303,102,159547,1,0,0:3:0:0:
210,123,159672,1,2,0:3:0:0:
133,66,159797,1,0,0:0:0:0:
61,133,159922,6,0,P|37:183|101:308,1,190,2|0,1:3|1:0,0:0:0:0:
179,221,160297,2,0,L|297:212,1,95,0|0,1:0|0:0,0:0:0:0:
494,339,160547,2,0,P|433:297|305:313,1,190,2|0,0:0|0:0,0:0:0:0:
174,313,160922,1,0,0:0:0:0:
329,203,161047,6,0,P|344:150|324:33,1,152,0|0,1:0|0:0,0:0:0:0:
259,72,161422,1,0,0:0:0:0:
187,98,161547,2,0,P|177:140|191:188,1,76,0|0,1:0|0:0,0:0:0:0:
104,264,161797,2,0,P|114:222|100:174,1,76
330,301,162047,5,2,0:0:0:0:
258,274,162172,1,2,0:0:0:0:
196,318,162297,2,0,L|197:367,2,38
204,220,162547,2,0,L|205:171,2,38,0|0|0,1:0|0:0|0:0,0:0:0:0:
270,354,162797,1,2,0:0:0:0:
319,223,162922,1,2,0:0:0:0:
394,355,163047,6,0,P|409:306|395:251,1,95,4|0,1:2|0:0,0:0:0:0:
262,39,163297,2,0,P|247:88|261:143,1,95,0|0,1:0|0:0,0:0:0:0:
275,150,163484,1,0,0:0:0:0:
302,158,163547,2,0,L|416:140,1,95,0|2,0:0|0:3,0:0:0:0:
354,52,163797,1,0,0:0:0:0:
190,203,163922,6,0,P|139:177|3:204,1,190,2|0,1:3|1:0,0:0:0:0:
241,338,164297,2,0,L|263:245,1,95,0|0,1:0|0:0,0:0:0:0:
425,321,164547,2,0,P|351:338|310:322,1,95,2|0,0:0|0:0,0:0:0:0:
305,145,164797,2,0,P|379:128|420:144,1,95
224,93,165047,6,0,P|169:68|75:82,1,152,0|0,1:0|0:0,0:0:0:0:
30,173,165422,1,0,0:0:0:0:
136,172,165547,1,0,1:0:0:0:
322,306,165797,1,0,0:0:0:0:
254,270,165922,1,0,0:0:0:0:
178,274,166047,6,0,P|136:285|106:312,1,76,2|2,0:0|0:0,0:0:0:0:
226,349,166297,1,0,0:0:0:0:
344,228,166422,1,0,0:0:0:0:
344,228,166484,1,0,0:0:0:0:
344,228,166547,2,0,L|383:226,2,38,0|0|0,1:0|0:0|0:0,0:0:0:0:
158,187,166797,1,2,0:0:0:0:
294,60,166922,1,2,0:0:0:0:
256,192,167047,6,0,L|272:312,1,95,4|0,1:2|0:0,0:0:0:0:
64,192,167297,2,0,L|48:72,1,95,0|0,1:0|0:0,0:0:0:0:
75,68,167484,1,0,0:0:0:0:
113,64,167547,1,0,0:0:0:0:
206,153,167672,1,2,0:3:0:0:
294,60,167797,2,0,L|189:74,1,95,0|2,1:0|0:3,0:0:0:0:
0,39,168047,5,2,0:0:0:0:
255,274,168297,1,2,0:0:0:0:
512,39,168547,1,2,0:0:0:0:
439,202,168672,5,0,0:0:0:0:
439,202,168734,1,0,0:0:0:0:
439,202,168797,2,0,P|407:245|390:289,1,95
214,352,169047,6,0,P|198:313|166:270,1,95,0|0,1:0|0:0,0:0:0:0:
260,219,169297,2,0,P|275:180|307:137,1,95,0|0,1:0|0:0,0:0:0:0:
393,86,169547,2,0,P|318:106|217:31,1,190,2|0,0:3|1:3,0:0:0:0:
136,99,169922,1,0,1:3:0:0:
119,203,170047,6,0,P|160:179|206:172,1,76,0|2,0:0|0:0,0:0:0:0:
285,192,170297,2,0,P|327:209|348:229,1,76,0|2,1:0|0:0,0:0:0:0:
316,324,170547,2,0,L|311:372,2,38,0|0|2,0:0|0:0|0:0,0:0:0:0:
191,294,170797,2,0,L|186:246,2,38,0|0|2,1:0|0:0|0:0,0:0:0:0:
32,355,171047,6,0,L|49:262,1,95,4|0,1:2|0:0,0:0:0:0:
101,192,171297,2,0,L|89:104,1,76
163,81,171547,6,0,L|180:175,1,95,4|0,1:2|0:0,0:0:0:0:
229,265,171797,2,0,L|217:353,1,76
290,366,172047,6,0,L|307:273,1,95,4|0,1:2|0:0,0:0:0:0:
353,139,172297,2,0,L|341:51,1,76
415,28,172547,6,0,L|432:122,1,95,4|0,1:2|0:0,0:0:0:0:
493,236,172797,2,0,L|481:324,1,76
312,192,173047,6,0,L|408:192,1,95,4|0,1:2|0:0,0:0:0:0:
200,192,173297,2,0,L|104:192,1,95,4|0,1:2|0:0,0:0:0:0:
255,353,173547,6,0,P|270:301|253:253,1,95,4|0,1:2|0:0,0:0:0:0:
36,145,173797,2,0,P|21:197|38:245,1,95,4|0,1:2|0:0,0:0:0:0:
173,293,174047,5,2,0:0:0:0:
142,125,174172,1,2,0:0:0:0:
94,297,174297,5,2,0:0:0:0:
206,175,174422,1,2,0:0:0:0:
334,282,174547,6,0,L|388:292,2,47.5,0|0|0,1:0|1:0|1:0,0:0:0:0:
137,217,174797,1,0,1:0:0:0:
316,142,174922,1,0,1:0:0:0:
194,53,175047,6,0,P|107:44|49:132,1,190,12|8,0:0|0:0,0:0:0:0:
234,136,175422,2,0,P|273:104|289:44,1,95,2|8,0:2|0:0,0:0:0:0:
142,125,175672,1,2,0:2:0:0:
185,216,175797,2,0,P|242:228|294:203,1,95,8|0,0:0|0:0,0:0:0:0:
406,135,176047,6,0,P|367:178|362:235,1,95,8|0,0:0|0:0,0:0:0:0:
371,368,176297,2,0,P|352:312|305:280,1,95,8|2,0:0|0:2,0:0:0:0:
162,295,176547,2,0,L|61:315,1,95,8|2,0:0|0:2,0:0:0:0:
54,69,176797,2,0,L|155:49,1,95,4|8,0:2|0:0,0:0:0:0:
387,188,177047,6,0,P|326:119|215:135,1,190,8|8,0:0|0:0,0:0:0:0:
361,277,177422,2,0,P|416:278|466:248,1,95,2|8,0:2|0:0,0:0:0:0:
290,211,177672,1,2,0:2:0:0:
196,230,177797,2,0,P|141:229|91:259,1,95,8|0,0:0|0:0,0:0:0:0:
23,121,178047,6,0,L|128:137,1,95,8|0,0:0|0:0,0:0:0:0:
143,124,178234,1,8,0:0:0:0:
169,113,178297,1,8,0:0:0:0:
249,164,178422,1,8,0:0:0:0:
308,43,178547,2,0,L|287:91,2,47.5,8|8|8,0:0|0:0|0:0,0:0:0:0:
352,251,178797,2,0,L|325:136,1,95,8|8,0:0|0:0,0:0:0:0:
447,237,179047,6,0,P|435:306|332:350,1,190,12|8,0:0|0:0,0:0:0:0:
199,185,179422,1,2,0:2:0:0:
418,150,179547,2,0,P|394:105|398:44,1,95,8|2,0:0|0:2,0:0:0:0:
360,208,179797,2,0,L|246:228,1,95,8|0,0:0|0:0,0:0:0:0:
52,117,180047,6,0,L|166:137,1,95,8|0,0:0|0:0,0:0:0:0:
132,306,180297,2,0,P|113:263|123:201,1,95,8|2,0:0|0:2,0:0:0:0:
215,77,180547,2,0,P|279:111|408:53,1,190,8|4,0:0|0:2,0:0:0:0:
474,188,180922,1,8,0:0:0:0:
404,310,181047,6,0,L|287:283,1,95,8|2,0:0|0:2,0:0:0:0:
106,297,181297,2,0,L|223:324,1,95,8|2,0:0|0:2,0:0:0:0:
376,221,181547,2,0,L|259:194,1,95,8|2,0:0|0:2,0:0:0:0:
78,208,181797,2,0,L|195:235,1,95,8|2,0:0|0:2,0:0:0:0:
287,116,182047,5,8,0:0:0:0:
117,82,182172,2,0,L|141:135,2,47.5,2|8|8,0:2|0:0|0:0,0:0:0:0:
217,172,182422,1,8,0:0:0:0:
220,304,182547,2,0,L|253:256,2,47.5,8|8|8,0:0|0:0|0:0,0:0:0:0:
323,322,182797,2,0,B|374:314|374:314|421:317,1,95,0|2,0:0|0:0,0:0:0:0:
157,237,183047,6,0,P|89:271|0:201,1,190,12|8,0:0|0:0,0:0:0:0:
217,172,183422,2,0,P|243:213|242:258,1,95,2|8,0:2|0:0,0:0:0:0:
85,182,183672,1,2,0:2:0:0:
299,125,183797,2,0,P|272:83|273:38,1,95,8|0,0:0|0:0,0:0:0:0:
474,130,184047,6,0,P|419:136|374:181,1,95,8|0,0:0|0:0,0:0:0:0:
366,300,184297,1,8,0:0:0:0:
464,210,184422,1,2,0:2:0:0:
299,234,184547,2,0,P|239:249|182:231,1,95,8|2,0:0|0:2,0:0:0:0:
128,108,184797,1,4,0:2:0:0:
238,171,184922,1,8,0:0:0:0:
100,254,185047,6,0,P|173:250|262:332,1,190,8|8,0:0|0:0,0:0:0:0:
366,300,185422,1,2,0:2:0:0:
399,153,185547,2,0,P|346:152|290:170,1,95,8|2,0:0|0:2,0:0:0:0:
91,153,185797,2,0,P|144:154|200:136,1,95,8|0,0:0|0:0,0:0:0:0:
306,53,186047,5,8,0:0:0:0:
473,106,186172,1,0,0:0:0:0:
481,142,186234,1,8,0:0:0:0:
473,179,186297,1,8,0:0:0:0:
385,216,186422,1,8,0:0:0:0:
287,197,186547,2,0,L|217:206,2,47.5,8|8|8,0:0|0:0|0:0,0:0:0:0:
247,107,186797,1,8,0:0:0:0:
219,285,186922,1,8,0:0:0:0:
332,301,187047,6,0,P|395:315|435:305,1,95,12|0,0:0|0:0,0:0:0:0:
440,126,187297,2,0,P|377:112|337:122,1,95,8|2,0:0|0:2,0:0:0:0:
385,216,187547,2,0,L|501:223,1,95,8|2,0:0|0:2,0:0:0:0:
293,207,187797,1,8,0:0:0:0:
263,360,187922,1,0,0:0:0:0:
142,244,188047,6,0,L|26:251,1,95,8|0,0:0|0:0,0:0:0:0:
219,285,188297,2,0,P|226:228|199:176,1,95,8|2,0:0|0:2,0:0:0:0:
129,65,188547,2,0,P|122:122|149:174,1,95,8|2,0:0|0:2,0:0:0:0:
309,290,188797,1,4,0:2:0:0:
424,106,188922,1,8,0:0:0:0:
287,176,189047,6,0,P|360:176|446:271,1,190,8|0,0:0|0:0,0:0:0:0:
172,296,189422,2,0,P|99:296|13:201,1,190,2|2,0:2|0:2,0:0:0:0:
268,272,189797,2,0,P|265:323|245:367,1,95,8|2,0:0|0:2,0:0:0:0:
287,176,190047,6,0,P|345:214|367:263,1,95,0|2,0:0|0:0,0:0:0:0:
429,352,190297,2,0,P|432:282|464:239,1,95,0|2,0:0|0:0,0:0:0:0:
488,152,190547,2,0,L|431:184,2,47.5,0|0|0,1:0|1:0|1:0,0:0:0:0:
370,123,190797,1,0,1:0:0:0:
481,62,190922,1,0,1:0:0:0:
322,43,191047,6,0,L|211:58,1,95,12|0,0:0|0:0,0:0:0:0:
104,178,191297,1,8,0:0:0:0:
143,45,191422,1,2,0:0:0:0:
187,215,191547,2,0,P|193:170|180:122,1,95,8|0,0:0|0:0,0:0:0:0:
24,224,191797,2,0,P|17:268|30:316,1,95,10|0,0:0|0:0,0:0:0:0:
129,357,192047,5,8,0:0:0:0:
119,256,192172,1,0,0:0:0:0:
241,281,192297,2,0,L|233:395,1,95,8|0,0:0|0:0,0:0:0:0:
349,309,192547,1,8,0:3:0:0:
339,208,192672,1,0,0:0:0:0:
453,257,192797,2,0,L|445:371,1,95,4|8,0:3|0:0,0:0:0:0:
477,217,193047,6,0,P|393:233|313:156,1,190,12|8,0:0|0:0,0:0:0:0:
354,63,193422,1,2,0:0:0:0:
230,162,193547,2,0,P|242:226|231:282,1,95,8|0,0:0|0:0,0:0:0:0:
145,214,193797,1,10,0:0:0:0:
147,114,193922,1,0,0:0:0:0:
61,159,194047,6,0,P|49:95|60:39,1,95,8|0,0:0|0:0,0:0:0:0:
76,50,194234,1,8,0:0:0:0:
102,39,194297,2,0,L|205:26,1,95,8|8,0:0|0:0,0:0:0:0:
354,63,194547,2,0,L|421:79,2,47.5,4|8|8,0:2|0:0|0:0,0:0:0:0:
256,120,194797,2,0,L|256:224,1,95,8|8,0:0|0:0,0:0:0:0:
341,352,195047,6,0,P|371:305|366:252,1,95,12|0,0:0|0:0,0:0:0:0:
141,267,195297,2,0,P|141:305|171:352,1,95,8|2,0:0|0:0,0:0:0:0:
296,288,195547,1,8,0:0:0:0:
178,192,195672,1,0,0:0:0:0:
216,288,195797,1,10,0:0:0:0:
333,193,195922,1,0,0:0:0:0:
438,302,196047,6,0,P|434:248|469:197,1,95,8|0,0:0|0:0,0:0:0:0:
333,193,196297,2,0,P|375:155|438:148,1,95,8|0,0:0|0:0,0:0:0:0:
314,50,196547,2,0,P|377:53|429:78,1,95,8|0,0:3|0:0,0:0:0:0:
264,131,196797,1,4,0:3:0:0:
235,31,196922,1,8,0:0:0:0:
180,158,197047,6,0,P|112:170|15:90,1,190,12|8,0:0|0:0,0:0:0:0:
122,67,197422,1,2,0:0:0:0:
205,247,197547,2,0,P|202:296|209:354,1,95,8|0,0:0|0:0,0:0:0:0:
435,212,197797,2,0,P|438:163|431:105,1,95,10|0,0:0|0:0,0:0:0:0:
289,296,198047,6,0,L|385:284,1,95,12|0,0:0|0:0,0:0:0:0:
411,289,198234,1,8,0:0:0:0:
438,295,198297,1,8,0:0:0:0:
343,369,198422,1,10,0:0:0:0:
296,214,198547,1,8,0:0:0:0:
288,177,198609,1,8,0:0:0:0:
299,140,198672,1,8,0:0:0:0:
401,67,198797,2,0,L|504:47,1,95,0|2,0:0|0:0,0:0:0:0:
239,86,199047,6,0,L|116:107,1,95,12|0,0:0|0:0,0:0:0:0:
0,178,199297,1,8,0:0:0:0:
141,185,199422,1,2,0:0:0:0:
83,47,199547,2,0,P|64:102|74:149,1,95,8|0,0:0|0:0,0:0:0:0:
132,272,199797,1,10,0:0:0:0:
217,158,199922,1,0,0:0:0:0:
327,277,200047,6,0,L|224:305,1,95,8|0,0:0|0:0,0:0:0:0:
375,192,200297,2,0,L|280:188,1,95,8|0,0:0|0:0,0:0:0:0:
423,269,200547,2,0,B|407:295|407:295|416:375,1,95,8|0,0:3|0:0,0:0:0:0:
460,191,200797,2,0,B|476:165|476:165|467:85,1,95,4|8,0:3|0:0,0:0:0:0:
311,35,201047,5,12,0:0:0:0:
380,99,201172,1,0,0:0:0:0:
256,177,201297,2,0,L|216:85,1,95,8|2,0:0|0:0,0:0:0:0:
109,131,201547,1,8,0:0:0:0:
130,223,201672,1,0,0:0:0:0:
0,234,201797,2,0,L|-1:123,1,95,10|0,0:0|0:0,0:0:0:0:
69,298,202047,5,8,0:0:0:0:
256,177,202172,1,0,0:0:0:0:
256,177,202234,1,8,0:0:0:0:
256,177,202297,2,0,L|254:283,1,95,8|8,0:0|0:0,0:0:0:0:
177,158,202547,1,4,0:2:0:0:
197,115,202609,1,8,0:0:0:0:
239,93,202672,1,8,0:0:0:0:
359,157,202797,1,8,0:0:0:0:
460,83,202922,1,8,0:0:0:0:
407,220,203047,6,0,L|420:320,1,95,12|0,0:0|0:0,0:0:0:0:
296,352,203297,1,8,0:0:0:0:
315,258,203422,1,2,0:0:0:0:
191,206,203547,2,0,L|204:306,1,95,8|0,0:0|0:0,0:0:0:0:
80,338,203797,1,10,0:0:0:0:
99,244,203922,1,0,0:0:0:0:
25,158,204047,6,0,P|96:158|129:145,1,95,8|0,0:0|0:0,0:0:0:0:
300,105,204297,2,0,P|229:105|196:118,1,95,8|0,0:0|0:0,0:0:0:0:
357,201,204547,2,0,P|405:147|380:26,1,190,8|4,0:3|0:3,0:0:0:0:
263,198,204922,1,8,0:0:0:0:
401,285,205047,6,0,B|313:256|311:323|207:286,1,190,12|0,0:0|0:0,0:0:0:0:
215,114,205422,2,0,P|278:107|316:121,1,95,10|0,0:0|0:0,0:0:0:0:
263,198,205672,1,0,0:0:0:0:
164,197,205797,2,0,L|54:195,1,95,10|0,0:0|0:0,0:0:0:0:
58,118,206047,6,0,B|72:92|72:92|59:21,1,95,0|2,0:0|0:0,0:0:0:0:
54,267,206297,2,0,B|40:293|40:293|53:364,1,95,0|2,0:0|0:0,0:0:0:0:
160,286,206547,1,0,1:0:0:0:
196,296,206609,1,0,1:0:0:0:
234,296,206672,1,0,1:0:0:0:
270,285,206734,1,0,1:0:0:0:
303,267,206797,2,0,P|347:247|407:240,1,95,0|0,1:0|1:0,0:0:0:0:
430,247,206984,1,0,1:0:0:0:
464,263,207047,6,0,L|446:137,1,95,12|0,0:0|0:0,0:0:0:0:
391,332,207297,1,0,0:0:0:0:
338,157,207422,2,0,P|268:176|170:113,1,190,8|0,0:0|0:0,0:0:0:0:
94,196,207797,2,0,P|113:258|116:300,1,95,8|0,0:0|0:0,0:0:0:0:
272,69,208047,6,0,L|379:46,1,95,8|0,0:0|0:0,0:0:0:0:
512,144,208297,1,8,0:0:0:0:
420,119,208422,1,0,0:0:0:0:
245,177,208547,2,0,L|352:154,1,95,8|0,0:0|0:0,0:0:0:0:
485,252,208797,1,8,0:0:0:0:
393,227,208922,1,0,0:0:0:0:
311,343,209047,6,0,P|318:298|301:237,1,95,8|0,0:0|0:0,0:0:0:0:
224,302,209297,1,0,0:0:0:0:
127,165,209422,2,0,B|176:253|98:265|142:358,1,190,8|0,0:0|0:0,0:0:0:0:
42,209,209797,2,0,P|32:162|39:117,1,95,8|0,0:0|0:0,0:0:0:0:
216,25,210047,6,0,P|226:72|219:117,1,95,8|0,0:0|0:0,0:0:0:0:
234,228,210297,2,0,P|270:195|312:178,1,95,8|0,0:0|0:0,0:0:0:0:
403,119,210547,2,0,P|356:104|320:75,1,95,8|0,0:0|0:0,0:0:0:0:
321,279,210797,2,0,L|309:392,1,95,8|0,0:0|0:0,0:0:0:0:
480,169,211047,6,0,P|407:211|312:178,1,190,12|0,0:0|0:0,0:0:0:0:
276,75,211422,1,8,0:0:0:0:
200,157,211547,2,0,P|214:199|214:267,1,95
78,360,211797,2,0,P|64:318|64:250,1,95,8|0,0:0|0:0,0:0:0:0:
180,343,212047,6,0,L|304:332,1,95,8|0,0:0|0:0,0:0:0:0:
361,294,212297,1,8,0:0:0:0:
456,301,212422,1,0,0:0:0:0:
443,206,212547,2,0,L|319:195,1,95,8|0,0:0|0:0,0:0:0:0:
262,157,212797,1,8,0:0:0:0:
167,164,212922,1,0,0:0:0:0:
70,170,213047,6,0,P|138:149|182:40,1,190,8|0,0:0|0:0,0:0:0:0:
78,65,213422,1,8,0:0:0:0:
262,157,213547,2,0,P|266:212|295:275,1,95
166,228,213797,1,8,0:0:0:0:
312,91,213922,6,0,L|424:80,1,95,0|8,0:0|0:0,0:0:0:0:
377,185,214172,1,0,0:0:0:0:
480,171,214297,2,0,P|476:221|444:266,1,95,8|0,0:0|0:0,0:0:0:0:
366,331,214547,1,0,0:2:0:0:
328,302,214609,1,0,0:2:0:0:
280,294,214672,1,0,0:2:0:0:
136,342,214797,1,8,0:0:0:0:
35,228,214922,1,0,0:2:0:0:
132,103,215047,6,0,B|139:136|139:136|126:215,1,95,12|0,0:0|0:0,0:0:0:0:
64,61,215297,1,8,0:0:0:0:
212,102,215422,2,0,P|287:113|331:96,1,95,0|8,0:0|0:0,0:0:0:0:
433,63,215672,1,0,0:0:0:0:
473,207,215797,2,0,P|398:196|354:213,1,95,8|0,0:0|0:0,0:0:0:0:
280,294,216047,5,8,0:0:0:0:
421,280,216172,1,8,0:0:0:0:
280,294,216297,2,0,P|188:308|106:229,1,190,8|8,0:0|0:0,0:0:0:0:
141,121,216672,1,0,0:0:0:0:
216,202,216797,2,0,L|328:185,1,95,8|0,0:0|0:0,0:0:0:0:
422,115,217047,5,8,0:0:0:0:
365,246,217172,1,0,0:0:0:0:
344,110,217297,1,8,0:0:0:0:
434,195,217422,2,0,P|447:248|436:296,1,95
281,294,217672,1,0,0:0:0:0:
127,372,217797,2,0,P|114:319|125:271,1,95,8|8,0:0|0:0,0:0:0:0:
242,125,218047,5,8,0:0:0:0:
201,325,218172,1,8,0:0:0:0:
157,135,218297,2,0,P|164:95|151:42,1,95,8|0,0:0|0:0,0:0:0:0:
145,211,218547,2,0,L|266:216,1,95,8|8,0:0|0:0,0:0:0:0:
440,187,218797,1,8,0:0:0:0:
324,88,218922,1,8,0:0:0:0:
353,306,219047,6,0,P|348:255|373:199,1,95,12|0,0:0|0:0,0:0:0:0:
438,276,219297,1,8,0:0:0:0:
270,323,219422,2,0,P|191:309|65:372,1,190
12,215,219797,2,0,P|76:242|122:233,1,95,8|0,0:0|0:0,0:0:0:0:
214,167,220047,5,8,0:0:0:0:
340,269,220172,1,8,0:0:0:0:
465,191,220297,2,0,P|401:164|355:173,1,95,8|0,0:0|0:0,0:0:0:0:
233,248,220547,2,0,P|288:206|303:161,1,95,8|0,0:0|0:0,0:0:0:0:
300,18,220797,2,0,P|308:86|339:122,1,95,8|0,0:0|0:0,0:0:0:0:
507,121,221047,5,8,0:0:0:0:
376,44,221172,1,0,0:0:0:0:
231,99,221297,1,8,0:0:0:0:
378,167,221422,2,0,L|403:289,1,95,0|8,0:0|0:0,0:0:0:0:
252,193,221672,1,0,0:0:0:0:
156,340,221797,2,0,L|136:246,1,95,8|8,0:0|0:0,0:0:0:0:
335,335,222047,6,0,P|288:317|229:318,1,95,8|8,0:0|0:0,0:0:0:0:
20,144,222297,2,0,P|67:162|126:161,1,95,8|8,0:0|0:0,0:0:0:0:
322,120,222547,1,8,0:0:0:0:
330,83,222609,1,8,0:0:0:0:
321,45,222672,1,8,0:0:0:0:
123,96,222797,1,8,0:0:0:0:
265,237,222922,1,8,0:0:0:0:
240,128,223047,5,4,1:0:0:0:
240,128,224047,6,0,L|219:250,1,113.999996520996,2|0,0:0|0:0,0:0:0:0:
250,315,224422,1,0,0:0:0:0:
170,304,224547,2,0,P|138:299|94:301,1,56.9999982604981,0|0,1:0|0:0,0:0:0:0:
300,252,224797,2,0,P|332:257|376:255,1,56.9999982604981
240,128,225047,6,0,L|251:251,1,113.999996520996,2|0,0:0|0:0,0:0:0:0:
297,305,225422,1,0,0:0:0:0:
217,315,225547,2,0,P|184:318|142:331,1,56.9999982604981,0|0,1:0|0:0,0:0:0:0:
329,232,225797,2,0,P|361:228|403:215,1,56.9999982604981
240,128,226047,6,0,L|282:244,1,113.999996520996,2|0,0:0|0:0,0:0:0:0:
344,287,226422,1,0,0:0:0:0:
267,315,226547,2,0,P|236:326|199:350,1,56.9999982604981,0|0,1:0|0:0,0:0:0:0:
353,205,226797,2,0,P|383:193|420:169,1,56.9999982604981
240,128,227047,6,0,L|348:294,1,190,4|0,0:0|0:0,0:0:0:0:
344,287,228047,6,0,L|219:271,1,113.999996520996,2|0,0:0|0:0,0:0:0:0:
156,301,228422,1,0,0:0:0:0:
82,270,228547,2,0,L|21:278,1,56.9999982604981,0|0,1:0|0:0,0:0:0:0:
132,167,228797,2,0,P|138:210|139:248,1,56.9999982604981
219,168,229047,6,0,P|230:118|251:56,1,113.999996520996,2|0,0:0|0:0,0:0:0:0:
324,86,229422,1,0,0:0:0:0:
403,81,229547,2,0,P|393:127|383:146,1,56.9999982604981,0|0,1:0|0:0,0:0:0:0:
291,241,229797,2,0,P|301:195|311:176,1,56.9999982604981
385,226,230047,6,0,P|431:216|472:160,1,113.999996520996,2|0,0:0|0:0,0:0:0:0:
193,286,230547,2,0,P|147:296|106:352,1,113.999996520996,0|0,1:0|0:0,0:0:0:0:
385,226,231047,6,0,P|431:216|475:88,1,190,4|0,0:0|0:0,0:0:0:0:
477,94,232047,6,0,L|355:105,1,113.999996520996,2|0,0:0|0:0,0:0:0:0:
296,146,232422,1,0,0:0:0:0:
223,113,232547,2,0,L|155:110,1,56.9999982604981,0|0,1:0|0:0,0:0:0:0:
91,82,232797,1,0,0:0:0:0:
13,100,232922,1,0,0:0:0:0:
19,180,233047,6,0,L|132:185,1,113.999996520996,2|0,0:0|0:0,0:0:0:0:
94,265,233422,1,0,0:0:0:0:
173,271,233547,2,0,L|161:343,1,56.9999982604981,0|0,1:0|0:0,0:0:0:0:
269,348,233797,1,0,0:0:0:0:
262,269,233922,1,0,0:0:0:0:
366,240,234047,6,0,L|356:365,1,113.999996520996,2|0,0:0|0:0,0:0:0:0:
462,317,234422,1,0,0:0:0:0:
455,238,234547,2,0,L|446:181,1,56.9999982604981,0|0,1:0|0:0,0:0:0:0:
403,45,234797,2,0,L|391:119,1,56.9999982604981
320,296,235047,6,0,L|331:221,1,66.4999979705811,2|0,0:0|0:0,0:0:0:0:
303,74,235297,2,0,L|313:159,1,66.4999979705811
220,264,235547,6,0,L|211:178,1,66.4999979705811,2|0,1:2|0:0,0:0:0:0:
209,52,235797,2,0,L|197:128,1,66.4999979705811
87,302,236047,6,0,L|99:213,1,76,2|0,0:0|0:0,0:0:0:0:
78,56,236297,2,0,L|87:148,1,76
338,177,236547,6,0,L|249:167,1,76,2|0,1:2|0:0,0:0:0:0:
185,194,236797,1,0,0:0:0:0:
169,272,236922,1,0,0:0:0:0:
158,357,237047,6,0,L|244:361,1,85.4999973907472,2|0,0:0|0:0,0:0:0:0:
75,262,237297,2,0,L|62:366,1,85.4999973907472,2|0,0:0|0:0,0:0:0:0:
342,274,237547,6,0,L|257:280,1,85.4999973907472,2|0,1:2|0:0,0:0:0:0:
429,229,237797,2,0,L|442:333,1,85.4999973907472,2|0,0:0|0:0,0:0:0:0:
385,155,238047,5,8,0:0:0:0:
258,203,238172,2,0,L|243:149,2,47.5,0|0|8,0:0|0:0|0:0,0:0:0:0:
165,315,238422,2,0,L|150:369,2,47.5,0|0|8,0:0|0:0|0:0,0:0:0:0:
37,169,238672,1,0,0:0:0:0:
53,146,238734,1,0,0:0:0:0:
61,118,238797,2,0,L|68:64,3,47.5
45,52,239047,6,0,L|143:37,1,95,4|0,0:2|0:0,0:0:0:0:
256,120,239297,1,0,0:0:0:0:
394,67,239422,1,8,0:0:0:0:
454,175,239547,1,0,0:0:0:0:
463,201,239609,1,0,0:0:0:0:
460,229,239672,1,8,0:0:0:0:
294,336,239797,2,0,P|283:292|289:235,1,95
299,217,239984,1,0,0:0:0:0:
313,192,240047,6,0,P|255:208|215:198,1,95,8|8,0:0|0:0,0:0:0:0:
171,88,240297,1,2,0:2:0:0:
83,176,240422,2,0,L|28:191,2,47.5,0|0|2,0:0|0:0|0:2,0:0:0:0:
260,36,240672,2,0,L|315:51,2,47.5,0|0|2,0:0|0:0|0:2,0:0:0:0:
170,195,240922,5,0,0:0:0:0:
170,195,240984,1,0,0:0:0:0:
170,195,241047,2,0,L|159:299,1,95,4|0,0:2|0:0,0:0:0:0:
254,246,241297,1,8,0:0:0:0:
241,340,241422,1,0,0:0:0:0:
404,258,241547,1,0,0:0:0:0:
391,164,241672,1,0,0:0:0:0:
338,338,241797,2,0,L|440:343,1,95
454,325,241984,1,0,0:0:0:0:
477,308,242047,6,0,L|493:247,2,47.5
368,85,242297,2,0,L|363:35,2,47.5,8|0|0,0:0|0:0|0:0,0:0:0:0:
471,148,242547,1,8,0:0:0:0:
257,109,242672,1,0,0:0:0:0:
257,109,242734,1,0,0:0:0:0:
257,109,242797,2,0,P|229:159|177:176,1,95,8|0,0:0|0:0,0:0:0:0:
45,118,243047,5,4,0:2:0:0:
179,97,243172,1,0,0:0:0:0:
243,240,243297,1,0,0:0:0:0:
117,314,243422,2,0,P|60:308|-4:330,1,95,8|0,0:0|0:0,0:0:0:0:
161,250,243672,1,8,0:0:0:0:
191,355,243797,1,0,0:0:0:0:
289,301,243922,5,0,0:0:0:0:
316,306,243984,1,0,0:0:0:0:
344,308,244047,2,0,P|402:311|452:294,1,95,8|8,0:0|0:0,0:0:0:0:
385,219,244297,1,2,0:2:0:0:
460,154,244422,2,0,L|468:92,2,47.5,0|0|2,0:0|0:0|0:2,0:0:0:0:
376,121,244672,2,0,L|373:56,2,47.5,0|0|2,0:0|0:0|0:2,0:0:0:0:
294,178,244922,5,0,0:0:0:0:
269,163,244984,1,0,0:0:0:0:
240,158,245047,1,4,0:2:0:0:
186,296,245172,1,0,0:0:0:0:
211,311,245234,1,0,0:0:0:0:
240,316,245297,1,8,0:0:0:0:
178,214,245422,1,0,0:0:0:0:
85,281,245547,2,0,P|72:330|89:390,1,95
161,110,245797,2,0,P|174:61|157:1,1,95
464,88,246047,6,0,L|344:96,1,95,2|0,0:2|0:0,0:0:0:0:
350,116,246234,1,0,0:0:0:0:
335,141,246297,2,0,P|322:190|339:250,1,95,8|0,0:0|0:0,0:0:0:0:
346,255,246484,1,0,0:0:0:0:
366,274,246547,2,0,L|404:321,2,47.5
280,336,246797,1,0,0:0:0:0:
256,320,246859,1,0,0:0:0:0:
228,310,246922,1,0,0:0:0:0:
200,314,246984,1,0,0:0:0:0:
179,323,247047,6,0,B|130:362|59:325,1,113.999996520996
122,248,247547,2,0,L|105:134,1,113.999996520996,0|0,1:0|0:0,0:0:0:0:
188,91,247922,5,0,0:0:0:0:
202,125,247984,1,0,0:0:0:0:
192,162,248047,1,8,0:0:0:0:
18,173,248172,2,0,P|9:128|28:66,1,95,8|2,0:0|0:2,0:0:0:0:
210,246,248422,2,0,L|226:306,2,47.5,0|0|2,0:0|0:0|0:2,0:0:0:0:
254,54,248672,1,0,0:0:0:0:
290,65,248734,1,0,0:0:0:0:
327,57,248797,2,0,L|424:39,1,95,2|0,0:2|0:0,0:0:0:0:
456,52,248984,1,0,0:0:0:0:
488,72,249047,5,4,0:2:0:0:
417,185,249172,2,0,L|415:138,2,47.5,0|0|8,0:0|0:0|0:0,0:0:0:0:
493,258,249422,1,0,0:0:0:0:
365,341,249547,1,0,0:0:0:0:
453,337,249672,1,0,0:0:0:0:
312,271,249797,2,0,P|261:275|214:305,1,95,8|0,0:0|0:0,0:0:0:0:
207,319,249984,1,0,0:0:0:0:
194,345,250047,6,0,L|179:244,1,95,2|0,0:2|0:0,0:0:0:0:
178,222,250234,1,0,0:0:0:0:
174,193,250297,2,0,L|124:161,2,47.5,8|0|0,0:0|0:0|0:0,0:0:0:0:
126,44,250547,2,0,L|114:97,2,47.5,8|0|0,0:0|0:0|0:0,0:0:0:0:
14,158,250797,2,0,L|115:132,1,95,8|0,0:0|0:0,0:0:0:0:
300,80,251047,5,4,0:2:0:0:
254,195,251172,1,0,0:0:0:0:
230,41,251297,1,8,0:0:0:0:
372,105,251422,1,8,0:0:0:0:
321,249,251547,2,0,L|328:304,2,47.5,0|0|8,0:0|0:0|0:0,0:0:0:0:
421,351,251797,2,0,P|424:299|435:241,1,95
438,229,251984,1,0,0:0:0:0:
452,204,252047,5,8,0:0:0:0:
312,160,252172,1,8,0:0:0:0:
241,291,252297,1,0,0:0:0:0:
118,200,252422,1,0,0:0:0:0:
94,215,252484,1,0,0:0:0:0:
65,219,252547,1,0,0:0:0:0:
59,130,252672,2,0,L|71:67,2,47.5,0|0|2,0:2|0:0|0:2,0:0:0:0:
186,120,252922,5,0,0:0:0:0:
210,105,252984,1,0,0:0:0:0:
237,96,253047,2,0,L|348:99,1,95,4|0,0:2|0:0,0:0:0:0:
495,178,253297,1,8,0:0:0:0:
349,234,253422,1,0,0:0:0:0:
456,91,253547,1,0,0:0:0:0:
443,255,253672,1,0,0:0:0:0:
264,274,253797,1,0,0:0:0:0:
413,171,253922,6,0,L|364:169,2,47.5,0|0|8,0:0|0:0|0:0,0:0:0:0:
282,183,254172,1,0,0:0:0:0:
391,330,254297,2,0,B|439:341|439:341|495:334,1,95,8|0,0:0|0:0,0:0:0:0:
228,347,254547,2,0,B|180:336|180:336|124:343,1,95
183,224,254797,1,8,0:0:0:0:
190,201,254859,1,0,0:0:0:0:
197,178,254922,1,8,0:0:0:0:
189,155,254984,1,0,0:0:0:0:
181,132,255047,1,2,0:2:0:0:
256,192,255172,12,0,256797,0:0:0:0:
256,192,257047,12,0,258797,0:0:0:0:
256,192,259047,12,0,262422,0:0:0:0:
256,192,262672,6,0,L|256:136,4,47.5
256,48,263047,1,8,1:0:0:0:
512,217,264047,6,0,P|461:248|329:206,1,190
256,56,265047,1,4,0:0:0:0:
0,256,266047,6,0,P|51:287|183:245,1,190
256,92,267047,1,4,0:0:0:0:
512,300,268047,6,0,P|461:331|329:289,1,190
256,132,269047,1,4,0:0:0:0:
256,92,270047,1,4,0:0:0:0:
256,56,271047,6,0,L|384:40,1,113.999996520996,8|0,0:1|0:0,0:0:0:0:
419,104,271422,1,0,0:0:0:0:
421,186,271547,2,0,P|353:159|342:126,1,113.999996520996,0|0,1:0|0:0,0:0:0:0:
271,165,271922,1,0,0:0:0:0:
202,124,272047,6,0,L|142:138,1,56.9999982604981,2|2,0:2|0:2,0:0:0:0:
33,103,272297,2,0,L|93:89,1,56.9999982604981,0|2,0:0|0:2,0:0:0:0:
176,222,272547,2,0,P|124:215|65:258,1,113.999996520996,0|2,1:0|0:2,0:0:0:0:
139,297,272922,1,0,0:0:0:0:
102,372,273047,6,0,P|154:379|213:336,1,113.999996520996,8|0,0:1|0:0,0:0:0:0:
246,279,273422,1,0,0:0:0:0:
323,260,273547,2,0,L|343:385,1,113.999996520996,0|0,1:0|0:0,0:0:0:0:
417,349,273922,1,0,0:0:0:0:
479,299,274047,5,2,0:2:0:0:
404,271,274172,1,2,0:2:0:0:
466,221,274297,1,0,0:0:0:0:
391,191,274422,1,2,0:2:0:0:
452,140,274547,2,0,P|398:113|337:134,1,113.999996520996,0|2,1:0|0:2,0:0:0:0:
270,144,274922,1,0,0:0:0:0:
309,213,275047,6,0,L|304:329,1,113.999996520996,8|0,0:1|0:0,0:0:0:0:
224,312,275422,1,0,0:0:0:0:
155,270,275547,2,0,P|105:282|51:255,1,113.999996520996,0|0,1:0|0:0,0:0:0:0:
110,201,275922,1,0,0:0:0:0:
70,131,276047,6,0,L|59:70,1,56.9999982604981,2|2,0:2|0:2,0:0:0:0:
258,93,276297,2,0,L|269:154,1,56.9999982604981,0|2,0:0|0:2,0:0:0:0:
175,158,276547,2,0,L|152:33,1,113.999996520996,0|2,1:0|0:2,0:0:0:0:
256,16,276922,1,0,0:0:0:0:
357,45,277047,6,0,L|337:158,1,113.999996520996,8|0,0:1|0:0,0:0:0:0:
355,235,277422,1,0,0:0:0:0:
321,314,277547,2,0,P|382:315|438:254,1,132.999995941162,0|0,1:0|0:0,0:0:0:0:
355,235,277922,1,0,0:0:0:0:
264,246,278047,6,0,P|234:283|224:334,1,76,2|0,0:3|0:0,0:0:0:0:
57,263,278297,6,0,P|114:262|155:243,1,85.4999973907472,2|0,0:3|0:0,0:0:0:0:
296,144,278547,6,0,P|237:148|184:114,1,95,2|0,0:3|0:0,0:0:0:0:
379,43,278797,6,0,B|385:78|385:78|379:104|379:104|390:153,1,104.500003189087,2|0,0:3|0:0,0:0:0:0:
495,308,279047,6,0,P|424:309|383:263,1,113.999996520996,12|0,0:2|0:0,0:0:0:0:
464,230,279297,1,8,0:0:0:0:
312,319,279422,2,0,L|199:334,1,113.999996520996,4|8,0:2|0:0,0:0:0:0:
45,233,279672,1,0,0:0:0:0:
129,83,279797,2,0,L|242:68,1,113.999996520996,12|0,0:2|0:0,0:0:0:0:
482,79,280047,6,2,P|421:99|357:252,1,227.999993041992,10|10,0:0|0:0,0:0:0:0:
476,214,280422,1,2,0:2:0:0:
315,355,280547,2,2,L|435:326,1,113.999996520996,8|2,0:0|0:2,0:0:0:0:
254,231,280797,1,10,0:0:0:0:
154,353,280922,1,8,0:0:0:0:
81,213,281047,6,2,B|88:252|88:252|68:336,1,113.999996520996,8|0,0:0|0:2,0:0:0:0:
27,149,281297,1,8,0:0:0:0:
152,175,281422,2,2,B|145:136|145:136|165:52,1,113.999996520996,0|8,0:0|0:0,0:0:0:0:
248,128,281672,1,0,0:0:0:0:
174,256,281797,1,8,0:0:0:0:
320,256,281922,6,2,P|383:256|492:371,1,227.999993041992
285,350,282297,2,2,L|164:373,1,113.999996520996,8|8,0:2|0:0,0:0:0:0:
38,258,282547,1,8,0:2:0:0:
30,213,282609,1,8,0:0:0:0:
41,168,282672,1,8,0:0:0:0:
171,35,282797,1,8,0:2:0:0:
236,213,282922,1,8,0:0:0:0:
147,140,283047,6,0,L|278:111,1,113.999996520996,12|0,0:2|0:0,0:0:0:0:
392,310,283297,2,0,L|301:211,1,113.999996520996,8|4,0:0|0:2,0:0:0:0:
412,18,283547,2,2,L|371:145,1,113.999996520996,8|0,0:0|0:0,0:0:0:0:
126,345,283797,2,2,L|166:217,1,113.999996520996,12|0,0:2|0:0,0:0:0:0:
258,115,284047,5,8,0:0:0:0:
238,294,284172,1,2,0:2:0:0:
85,196,284297,1,8,0:0:0:0:
321,174,284422,1,2,0:2:0:0:
195,49,284547,2,0,L|330:29,1,113.999996520996,8|2,0:0|0:2,0:0:0:0:
352,39,284734,1,0,0:0:0:0:
387,68,284797,2,0,B|405:123|405:123|394:179,1,113.999996520996,8|0,0:0|0:0,0:0:0:0:
463,320,285047,6,2,P|388:287|300:335,1,170.999994781494,10|8,0:0|0:0,0:0:0:0:
238,294,285297,2,0,P|181:320|103:302,1,113.999996520996,8|8,0:0|0:0,0:0:0:0:
85,196,285547,2,2,B|93:142|93:142|83:77,1,113.999996520996,10|8,0:0|0:0,0:0:0:0:
298,125,285797,2,0,B|290:179|290:179|300:244,1,113.999996520996,8|8,0:0|0:0,0:0:0:0:
198,121,286047,6,2,P|267:124|343:62,1,170.999994781494,10|8,0:0|0:0,0:0:0:0:
419,51,286297,2,0,L|491:157,1,113.999996520996,8|8,0:2|0:0,0:0:0:0:
373,337,286547,1,8,0:0:0:0:
351,297,286609,1,8,0:0:0:0:
351,251,286672,1,8,0:2:0:0:
367,208,286734,1,8,0:0:0:0:
399,175,286797,2,0,L|269:210,1,113.999996520996,0|2,0:0|0:0,0:0:0:0:
100,133,287047,6,0,L|78:44,2,85.4999973907472,10|0|0,0:0|0:0|0:0,0:0:0:0:
112,208,287297,1,8,0:0:0:0:
67,269,287390,2,0,P|107:347|176:368,1,142.499995651245,2|8,0:0|0:0,0:0:0:0:
224,319,287640,2,0,L|240:224,1,85.4999973907472,4|0,0:2|0:0,0:0:0:0:
172,103,287797,2,0,P|228:50|343:61,1,170.999994781494,10|0,0:0|0:0,0:0:0:0:
395,81,288047,6,0,L|483:70,2,85.4999973907472,10|0|2,0:0|0:0|0:2,0:0:0:0:
334,138,288297,2,0,L|239:150,2,85.4999973907472,10|0|2,0:0|0:0|0:2,0:0:0:0:
414,165,288547,1,8,0:0:0:0:
492,259,288672,2,0,P|440:255|373:301,1,113.999996520996,6|8,0:2|0:0,0:0:0:0:
303,345,288859,2,0,L|177:337,1,113.999996520996,2|0,0:2|0:0,0:0:0:0:
61,351,289047,6,2,P|145:333|164:235,1,170.999994781494,10|0,0:0|0:0,0:0:0:0:
119,194,289297,2,2,P|35:212|16:310,1,170.999994781494,10|0,0:0|0:0,0:0:0:0:
90,273,289547,2,0,L|171:260,1,82.3333295644126,10|0,0:0|0:0,0:0:0:0:
279,169,289713,2,0,L|192:182,1,82.3333295644126,6|8,0:2|0:0,0:0:0:0:
324,266,289880,2,0,L|421:253,1,82.3333295644126,2|0,0:0|0:0,0:0:0:0:
480,140,290047,6,2,B|416:124|416:124|355:141|319:91,1,170.999994781494,8|8,0:0|0:0,0:0:0:0:
384,53,290297,2,2,P|394:119|345:162,1,113.999996520996,8|8,0:2|0:0,0:0:0:0:
235,74,290547,1,8,0:2:0:0:
259,35,290609,1,8,0:0:0:0:
299,13,290672,1,8,0:0:0:0:
383,240,290797,2,0,P|320:234|280:187,1,113.999996520996,8|8,0:2|0:0,0:0:0:0:
50,241,291047,6,0,B|97:255|125:255|160:233|160:233|172:274|199:300|256:311,1,227.999993041992,10|8,0:0|0:0,0:0:0:0:
117,349,291422,1,0,0:0:0:0:
97,157,291547,2,2,P|88:102|105:36,1,113.999996520996,10|0,0:0|0:0,0:0:0:0:
327,250,291797,2,0,P|336:305|319:371,1,113.999996520996,8|0,0:0|0:0,0:0:0:0:
251,164,292047,6,2,B|320:155|320:155|365:165|365:165|408:149|408:149|493:141,1,227.999993041992,10|8,0:0|0:0,0:0:0:0:
456,264,292422,2,0,L|444:333,2,56.9999982604981,0|0|8,0:0|0:0|0:0,0:0:0:0:
350,23,292765,2,0,L|360:80,3,56.9999982604981
312,160,293047,6,0,L|288:288,1,113.999996520996,8|0,0:0|0:0,0:0:0:0:
188,342,293234,2,2,B|197:300|197:300|208:276|208:276|204:252|204:252|216:228|216:228|228:164,1,170.999994781494,0|8,0:0|0:0,0:0:0:0:
237,56,293547,2,2,B|181:72|181:72|115:66,1,113.999996520996
10,202,293797,2,2,B|66:186|66:186|132:192,1,113.999996520996,8|0,0:0|0:0,0:0:0:0:
391,193,294047,1,0,0:0:0:0:
391,193,294547,6,0,L|396:257,2,56.9999982604981,0|0|0,1:0|1:0|1:0,0:0:0:0:
359,98,294797,1,0,1:0:0:0:
494,208,294922,1,0,1:0:0:0:
323,288,295047,6,0,P|259:268|120:334,1,190,8|8,0:0|0:0,0:0:0:0:
125,129,295422,2,0,P|130:194|115:236,1,95,2|8,0:2|0:0,0:0:0:0:
41,171,295672,1,2,0:2:0:0:
46,77,295797,2,0,P|100:38|156:38,1,95,8|0,0:0|0:0,0:0:0:0:
217,99,296047,5,8,0:0:0:0:
361,169,296172,2,0,P|279:177|209:268,1,190,2|2,0:2|0:2,0:0:0:0:
456,148,296547,2,0,P|419:90|367:67,1,95,12|0,0:2|0:0,0:0:0:0:
330,293,296797,1,12,0:2:0:0:
508,317,296922,1,8,0:0:0:0:
330,293,297047,6,0,P|275:234|158:258,1,190,8|8,0:0|0:0,0:0:0:0:
408,347,297422,2,0,P|421:288|406:236,1,95,2|8,0:2|0:0,0:0:0:0:
233,324,297672,1,2,0:2:0:0:
99,185,297797,2,0,P|86:244|101:296,1,95,8|0,0:0|0:0,0:0:0:0:
186,174,298047,5,8,0:0:0:0:
49,119,298172,2,0,L|-1:140,2,47.5,2|8|8,0:2|0:0|0:0,0:0:0:0:
186,84,298422,1,8,0:0:0:0:
325,119,298547,2,0,L|375:140,2,47.5,12|8|8,0:2|0:0|0:0,0:0:0:0:
308,216,298797,1,12,0:2:0:0:
386,51,298922,1,8,0:0:0:0:
466,113,299047,6,0,L|476:194,2,63.3333333333333,8|0|2,0:0|0:0|0:2,0:0:0:0:
408,281,299297,2,0,L|398:200,2,63.3333333333333,8|0|2,0:0|0:0|0:2,0:0:0:0:
357,363,299547,1,8,0:0:0:0:
173,299,299672,1,0,0:0:0:0:
173,299,299734,1,2,0:2:0:0:
173,299,299797,2,0,L|166:378,2,63.3333333333333,8|0|2,0:0|0:0|0:2,0:0:0:0:
78,270,300047,6,0,L|71:150,1,95,8|0,0:0|0:0,0:0:0:0:
183,55,300297,1,8,0:0:0:0:
328,134,300422,2,0,B|238:99|231:179|130:135,1,190,2|2,0:2|0:2,0:0:0:0:
288,216,300797,1,12,0:2:0:0:
339,36,300922,1,8,0:0:0:0:
425,117,301047,6,0,P|404:165|414:230,1,95,8|2,0:0|0:2,0:0:0:0:
481,293,301297,1,8,0:0:0:0:
381,289,301422,2,0,P|298:297|216:376,1,190,2|2,0:2|0:2,0:0:0:0:
98,153,301797,2,0,L|85:40,1,95,12|2,0:2|0:2,0:0:0:0:
16,224,302047,6,0,P|103:253|147:322,1,142.5,12|8,0:2|0:0,0:0:0:0:
173,222,302297,2,0,L|190:107,1,95,8|8,0:0|0:0,0:0:0:0:
316,63,302547,2,0,L|284:116,2,47.5,8|8|8,0:0|0:0|0:0,0:0:0:0:
458,171,302797,2,0,L|342:167,1,95,8|8,0:0|0:0,0:0:0:0:
98,153,303047,5,8,0:0:0:0:
122,172,303547,5,8,0:0:0:0:
164,269,303797,6,0,L|156:335,3,47.5
193,243,304047,2,0,L|317:239,1,95,8|0,0:0|0:0,0:0:0:0:
409,184,304297,1,2,0:2:0:0:
420,163,304359,1,2,0:2:0:0:
422,139,304422,1,2,0:2:0:0:
317,46,304547,1,8,0:0:0:0:
264,176,304672,1,2,0:2:0:0:
374,256,304797,1,8,0:0:0:0:
334,125,304922,1,2,0:2:0:0:
185,156,305047,6,0,P|135:163|77:154,1,95,8|2,0:0|0:2,0:0:0:0:
41,27,305297,1,0,0:0:0:0:
232,68,305422,2,0,P|282:61|340:70,1,95,2|8,0:2|0:0,0:0:0:0:
469,222,305672,1,2,0:2:0:0:
278,266,305797,2,0,P|228:273|170:264,1,95,0|2,0:0|0:2,0:0:0:0:
264,176,306047,5,8,0:0:0:0:
374,256,306172,1,2,0:2:0:0:
481,136,306297,2,0,L|360:157,1,95,0|2,0:0|0:2,0:0:0:0:
363,167,306484,1,0,0:0:0:0:
339,183,306547,2,0,P|354:137|337:82,1,95,8|2,0:0|0:2,0:0:0:0:
176,132,306797,2,0,L|286:135,1,95,8|8,0:0|0:0,0:0:0:0:
111,205,307047,6,0,P|43:182|12:138,1,95,12|8,0:2|0:0,0:0:0:0:
18,129,307234,1,8,0:0:0:0:
19,90,307297,1,8,0:0:0:0:
429,178,307547,2,0,P|423:225|434:282,1,95,8|8,0:0|0:0,0:0:0:0:
441,297,307734,1,8,0:0:0:0:
455,321,307797,2,0,P|408:315|351:326,1,95,8|8,0:0|0:0,0:0:0:0:
188,375,308047,6,0,P|216:337|235:282,1,95,12|8,0:2|0:0,0:0:0:0:
241,265,308234,1,8,0:0:0:0:
241,236,308297,1,8,0:0:0:0:
279,123,308422,2,0,P|297:166|335:210,1,95,0|8,0:0|0:0,0:0:0:0:
380,103,308672,1,0,0:0:0:0:
194,154,308797,2,0,L|83:173,1,95,8|0,0:0|0:0,0:0:0:0:
86,351,309047,6,0,P|96:290|84:234,1,95,12|8,0:2|0:0,0:0:0:0:
44,106,309297,1,8,0:0:0:0:
200,61,309422,2,0,P|190:122|202:178,1,95,8|8,0:0|0:0,0:0:0:0:
242,306,309672,1,8,0:0:0:0:
383,334,309797,2,0,P|393:273|381:217,1,95,8|8,0:0|0:0,0:0:0:0:
310,105,310047,5,6,2:0:0:0:
303,142,310109,1,2,2:0:0:0:
311,179,310172,1,2,2:0:0:0:
453,173,310297,1,2,2:0:0:0:
460,136,310359,1,2,2:0:0:0:
452,99,310422,1,2,2:0:0:0:
382,139,310547,1,6,2:0:0:0:
254,235,310672,1,8,2:3:0:0:
239,62,310797,1,4,2:3:0:0:
366,240,310922,1,4,2:3:0:0:
170,117,311047,6,0,P|106:134|43:239,1,190,0|2,0:0|2:0,0:0:0:0:
159,366,311422,2,0,P|223:349|286:244,1,190,0|2,0:0|2:0,0:0:0:0:
166,237,311797,1,0,0:0:0:0:
166,237,312172,6,0,B|257:202|255:277|374:243,1,190,0|0,0:0|2:0,0:0:0:0:
363,93,312547,2,0,P|315:77|252:100,1,95,8|0,0:3|2:0,0:0:0:0:
313,169,312797,2,0,L|426:173,1,95,4|0,0:3|2:0,0:0:0:0:
189,38,313047,6,0,P|169:112|56:161,1,190,4|2,0:0|2:0,0:0:0:0:
49,365,313422,2,0,P|69:291|182:242,1,190,0|2,0:0|2:0,0:0:0:0:
284,312,313797,1,0,0:0:0:0:
284,312,314172,6,0,B|251:220|328:218|281:120,1,190,0|0,0:0|2:0,0:0:0:0:
362,265,314547,2,0,P|414:293|468:294,1,95,8|0,0:3|2:0,0:0:0:0:
214,169,314797,2,0,P|162:141|108:140,1,95,4|0,0:3|2:0,0:0:0:0:
19,142,315047,6,0,P|89:135|161:39,1,190,4|2,0:0|2:0,0:0:0:0:
352,46,315422,2,0,P|423:135|493:142,1,190,0|2,0:0|2:0,0:0:0:0:
256,96,315797,1,0,0:0:0:0:
256,96,316172,6,0,B|286:192|222:194|260:291,1,190,0|0,0:0|2:0,0:0:0:0:
387,289,316547,2,0,P|396:246|384:184,1,95,8|0,0:3|2:0,0:0:0:0:
125,95,316797,2,0,P|116:138|128:200,1,95,4|0,0:3|2:0,0:0:0:0:
323,237,317047,6,0,L|541:198,1,190,4|2,0:0|2:0,0:0:0:0:
374,54,317422,2,0,B|350:84|350:84|323:97|323:97|316:138|316:138|290:149|290:149|255:191,1,190,0|2,0:0|2:0,0:0:0:0:
217,97,317797,1,0,0:0:0:0:
217,97,318172,6,0,B|233:147|233:147|255:167|255:167|247:213|247:213|263:232|263:232|278:292,1,190,0|0,0:0|2:0,0:0:0:0:
131,250,318547,2,0,L|147:150,1,95,8|0,0:3|2:0,0:0:0:0:
127,63,318797,2,0,L|43:122,1,95,4|0,0:3|2:0,0:0:0:0:
1,340,319047,6,0,P|85:369|200:320,1,190,0|2,0:0|0:2,0:0:0:0:
435,269,319422,2,0,P|385:259|335:271,1,95
283,380,319672,1,2,0:2:0:0:
207,207,319797,2,0,L|181:87,1,95
298,187,320047,1,0,0:0:0:0:
116,251,320172,6,0,P|69:220|58:73,1,190,2|0,0:2|0:0,0:0:0:0:
207,297,320547,2,0,P|166:333|110:345,1,95,8|2,0:3|0:2,0:0:0:0:
89,345,320734,1,2,0:2:0:0:
53,331,320797,1,4,0:3:0:0:
140,145,320922,1,2,0:2:0:0:
290,260,321047,6,0,P|344:208|475:224,1,190,4|2,0:0|0:2,0:0:0:0:
288,141,321422,2,0,L|284:22,1,95
393,304,321672,1,2,0:2:0:0:
457,115,321797,2,0,L|453:234,1,95
406,384,322047,1,0,0:0:0:0:
240,338,322172,6,0,B|143:298|149:365|34:325,1,190,2|2,0:2|0:2,0:0:0:0:
34,298,322484,1,2,0:2:0:0:
43,260,322547,2,0,L|39:199,2,47.5,8|0|2,0:3|0:0|0:2,0:0:0:0:
131,155,322797,2,0,L|116:273,1,95,4|2,0:3|0:2,0:0:0:0:
58,104,323047,5,4,0:0:0:0:
58,104,323172,2,0,L|189:90,1,113.999996520996
235,145,323547,2,0,P|292:159|348:131,1,113.999996520996,0|0,1:0|0:0,0:0:0:0:
283,79,323922,1,0,0:0:0:0:
200,217,324047,6,0,P|236:231|278:234,1,56.9999982604981,0|0,0:0|0:0,0:0:0:0:
385,200,324297,2,0,P|350:223|315:232,1,56.9999982604981,0|0,0:0|0:0,0:0:0:0:
186,304,324547,2,0,P|151:287|52:297,1,113.999996520996,0|0,1:0|0:0,0:0:0:0:
90,204,324922,1,0,0:0:0:0:
41,140,325047,1,8,0:1:0:0:
256,192,325172,12,0,326047,0:0:0:0:
256,192,326172,5,2,0:2:0:0:
303,128,326297,1,0,0:0:0:0:
211,261,326422,1,2,0:2:0:0:
214,113,326547,5,0,0:0:0:0:
302,271,326672,1,2,0:2:0:0:
153,202,326797,5,0,0:0:0:0:
366,176,326922,1,2,0:2:0:0:
236,319,327047,6,0,P|154:269|51:298,1,190,12|8,0:0|0:2,0:0:0:0:
134,370,327422,1,2,0:2:0:0:
50,195,327547,2,0,P|95:159|118:108,1,95,8|2,0:0|0:2,0:0:0:0:
185,21,327797,2,0,P|193:77|226:123,1,95,8|0,0:2|0:0,0:0:0:0:
274,225,328047,6,0,P|220:204|164:209,1,95,8|0,0:0|0:0,0:0:0:0:
351,171,328297,1,8,0:2:0:0:
284,90,328422,1,2,0:2:0:0:
431,132,328547,2,0,P|422:75|389:29,1,95,8|2,0:0|0:2,0:0:0:0:
367,252,328797,1,12,0:2:0:0:
494,195,328922,1,8,0:0:0:0:
367,252,329047,6,0,P|430:252|505:362,1,190,8|8,0:0|0:2,0:0:0:0:
399,352,329422,1,2,0:2:0:0:
286,311,329547,2,0,P|270:265|286:204,1,95,8|2,0:0|0:2,0:0:0:0:
216,363,329797,2,0,P|174:336|152:271,1,95,8|0,0:2|0:0,0:0:0:0:
219,113,330047,6,0,P|216:162|171:214,1,95,8|0,0:0|0:0,0:0:0:0:
165,209,330234,1,8,0:0:0:0:
136,210,330297,2,0,L|26:198,1,95,8|8,0:2|0:0,0:0:0:0:
122,74,330547,2,0,L|134:119,2,47.5,8|8|8,0:0|0:0|0:0,0:0:0:0:
306,138,330797,2,0,P|323:82|345:41,1,95,8|8,0:2|0:0,0:0:0:0:
397,168,331047,6,0,P|406:221|422:287,1,95,12|0,0:0|0:0,0:0:0:0:
488,184,331297,1,8,0:2:0:0:
320,227,331422,1,2,0:2:0:0:
229,362,331547,2,0,P|238:309|254:243,1,95,8|2,0:0|0:2,0:0:0:0:
320,346,331797,1,8,0:2:0:0:
152,303,331922,1,0,0:0:0:0:
192,71,332047,6,0,P|201:111|210:164,1,95,8|0,0:0|0:0,0:0:0:0:
29,290,332297,2,0,P|19:249|10:196,1,95,8|2,0:2|0:2,0:0:0:0:
79,77,332547,1,8,0:0:0:0:
145,223,332672,1,2,0:2:0:0:
121,145,332797,1,12,0:2:0:0:
152,303,332922,1,8,0:0:0:0:
283,213,333047,6,0,P|334:224|399:232,1,95,8|2,0:0|0:2,0:0:0:0:
346,138,333297,1,8,0:2:0:0:
309,308,333422,1,2,0:2:0:0:
224,160,333547,2,0,P|182:166|131:177,1,95,8|2,0:0|0:2,0:0:0:0:
194,252,333797,1,8,0:2:0:0:
157,82,333922,1,2,0:2:0:0:
284,85,334047,6,0,P|345:87|431:34,1,142.5,8|8,0:0|0:0,0:0:0:0:
436,128,334297,2,0,P|435:176|446:238,1,95,10|8,0:2|0:0,0:0:0:0:
309,308,334547,1,8,0:0:0:0:
316,280,334609,1,8,0:0:0:0:
319,251,334672,1,8,0:0:0:0:
317,222,334734,1,8,0:0:0:0:
309,194,334797,2,0,L|198:207,1,95,0|2,0:0|0:0,0:0:0:0:
30,135,335047,6,0,P|108:138|192:48,1,190,12|8,0:0|0:2,0:0:0:0:
352,92,335422,1,2,0:2:0:0:
214,206,335547,2,0,P|201:267|204:315,1,95,8|2,0:0|0:2,0:0:0:0:
413,341,335797,2,0,P|426:280|423:232,1,95,8|0,0:2|0:0,0:0:0:0:
241,129,336047,6,0,L|122:119,1,95,8|0,0:0|0:0,0:0:0:0:
45,249,336297,1,8,0:2:0:0:
133,213,336422,1,2,0:2:0:0:
183,294,336547,2,0,L|153:385,1,95,8|2,0:0|0:2,0:0:0:0:
295,343,336797,1,12,0:2:0:0:
267,252,336922,1,8,0:0:0:0:
372,269,337047,6,0,P|368:211|356:160,1,95,8|0,0:0|0:0,0:0:0:0:
278,133,337297,1,8,0:2:0:0:
448,196,337422,1,2,0:2:0:0:
191,179,337547,2,0,P|187:237|175:288,1,95,8|2,0:0|0:2,0:0:0:0:
97,315,337797,1,8,0:2:0:0:
267,252,337922,1,0,0:0:0:0:
45,184,338047,6,0,P|49:126|61:75,1,95,8|0,0:0|0:0,0:0:0:0:
79,73,338234,1,8,0:0:0:0:
106,64,338297,2,0,L|207:44,1,95,8|8,0:2|0:0,0:0:0:0:
378,83,338547,1,8,0:0:0:0:
388,119,338609,1,8,0:0:0:0:
376,155,338672,1,8,0:0:0:0:
248,196,338797,1,8,0:2:0:0:
276,60,338922,1,8,0:0:0:0:
331,228,339047,6,0,P|339:278|329:342,1,95,12|0,0:0|0:0,0:0:0:0:
293,146,339297,2,0,P|245:127|195:87,1,95,8|2,0:2|0:2,0:0:0:0:
376,155,339547,2,0,P|415:123|475:99,1,95,8|2,0:0|0:2,0:0:0:0:
420,230,339797,1,8,0:2:0:0:
338,74,339922,1,0,0:0:0:0:
243,225,340047,6,0,P|197:242|154:281,1,95,8|0,0:0|0:0,0:0:0:0:
62,357,340297,2,0,P|70:308|58:251,1,95,8|2,0:2|0:2,0:0:0:0:
39,135,340547,2,0,P|76:166|131:184,1,95,8|2,0:0|0:2,0:0:0:0:
247,117,340797,1,12,0:2:0:0:
130,37,340922,1,8,0:0:0:0:
201,182,341047,6,0,B|208:229|208:229|200:283,1,95,8|2,0:0|0:2,0:0:0:0:
87,302,341297,1,0,0:0:0:0:
335,208,341422,2,0,B|328:161|328:161|336:107,1,95,2|0,0:2|0:2,0:0:0:0:
449,88,341672,1,2,0:2:0:0:
442,215,341797,2,0,B|449:262|449:262|441:316,1,95,8|2,0:0|0:2,0:0:0:0:
237,286,342047,6,0,L|122:275,1,95,0|2,0:0|0:0,0:0:0:0:
0,328,342297,2,0,L|115:339,1,95,0|2,0:0|0:0,0:0:0:0:
319,298,342547,2,0,L|390:305,2,47.5,0|0|0,1:0|1:0|1:0,0:0:0:0:
182,368,342797,1,0,1:0:0:0:
70,227,342922,1,0,1:0:0:0:
173,102,343047,6,0,L|172:221,1,95,12|0,0:0|0:0,0:0:0:0:
265,49,343297,2,0,L|282:166,1,95,8|2,0:2|0:0,0:0:0:0:
94,61,343547,2,0,B|63:71|63:71|-1:67,1,95,8|8,0:0|0:2,0:0:0:0:
253,238,343797,2,0,B|284:228|284:228|348:232,1,95,10|0,0:0|0:0,0:0:0:0:
258,326,344047,6,0,P|205:314|180:185,1,190,8|8,0:0|0:2,0:0:0:0:
303,125,344422,1,0,0:0:0:0:
425,218,344547,2,0,B|416:252|416:252|424:332,1,95,8|8,0:3|0:2,0:0:0:0:
420,138,344797,2,0,B|429:104|429:104|421:24,1,95,4|8,0:3|0:2,0:0:0:0:
339,208,345047,6,0,B|244:184|248:260|149:225,1,190,12|8,0:0|0:2,0:0:0:0:
193,148,345422,1,2,0:0:0:0:
130,80,345547,2,0,P|188:62|239:73,1,95,8|8,0:0|0:2,0:0:0:0:
269,302,345797,2,0,P|211:320|160:309,1,95,2|0,0:0|0:0,0:0:0:0:
42,211,346047,6,0,L|200:191,1,142.5,8|8,0:0|0:0,0:0:0:0:
253,203,346297,2,0,P|279:161|346:134,1,95,8|8,0:2|0:0,0:0:0:0:
366,230,346547,1,8,0:0:0:0:
402,220,346609,1,8,0:0:0:0:
440,222,346672,1,8,0:2:0:0:
416,318,346797,2,0,P|469:348|491:380,1,95,8|8,0:2|0:0,0:0:0:0:
307,289,347047,6,0,L|212:313,1,95,12|0,0:0|0:0,0:0:0:0:
39,321,347297,1,8,0:2:0:0:
130,348,347422,1,2,0:0:0:0:
292,206,347547,2,0,L|197:230,1,95,8|8,0:0|0:2,0:0:0:0:
24,238,347797,1,2,0:0:0:0:
115,265,347922,1,0,0:0:0:0:
195,141,348047,6,0,P|116:138|54:34,1,190,8|8,0:0|0:2,0:0:0:0:
157,45,348422,1,0,0:0:0:0:
284,158,348547,2,0,B|274:192|274:192|292:278,1,95,8|8,0:3|0:2,0:0:0:0:
430,268,348797,1,4,0:3:0:0:
441,85,348922,1,8,0:2:0:0:
389,173,349047,6,0,L|503:183,1,95,12|0,0:0|0:0,0:0:0:0:
323,236,349297,1,8,0:2:0:0:
230,255,349422,1,2,0:0:0:0:
400,278,349547,2,0,L|514:288,1,95,8|8,0:0|0:2,0:0:0:0:
334,341,349797,1,2,0:0:0:0:
241,360,349922,1,0,0:0:0:0:
151,229,350047,6,0,P|182:165|160:72,1,142.5,12|8,0:0|0:0,0:0:0:0:
236,58,350297,2,0,P|285:94|344:99,1,95,8|10,0:2|0:0,0:0:0:0:
474,185,350547,1,8,0:0:0:0:
436,178,350609,1,8,0:0:0:0:
397,182,350672,1,8,0:2:0:0:
364,201,350734,1,8,0:0:0:0:
340,230,350797,2,0,L|359:343,1,95,0|2,0:0|0:0,0:0:0:0:
355,111,351047,6,0,L|374:-2,1,95,12|0,0:0|0:0,0:0:0:0:
255,51,351297,1,8,0:2:0:0:
272,144,351422,1,2,0:0:0:0:
143,123,351547,2,0,L|162:10,1,95,8|8,0:0|0:2,0:0:0:0:
18,74,351797,1,2,0:0:0:0:
35,167,351922,1,0,0:0:0:0:
190,250,352047,6,0,P|116:237|28:319,1,190,8|8,0:0|0:2,0:0:0:0:
141,349,352422,1,0,0:0:0:0:
299,271,352547,2,0,P|303:223|261:169,1,95,8|8,0:3|0:2,0:0:0:0:
246,364,352797,1,4,0:3:0:0:
406,311,352922,1,8,0:2:0:0:
206,154,353047,6,0,P|268:164|373:63,1,190,12|8,0:0|0:2,0:0:0:0:
488,86,353422,1,2,0:0:0:0:
402,195,353547,2,0,P|390:243|399:304,1,95,8|8,0:0|0:2,0:0:0:0:
294,314,353797,2,0,P|268:275|211:252,1,95,2|0,0:0|0:0,0:0:0:0:
23,313,354047,6,0,P|119:294|153:243,1,142.5,8|8,0:0|0:0,0:0:0:0:
177,191,354297,2,0,P|159:145|173:86,1,95,8|8,0:2|0:0,0:0:0:0:
332,39,354547,1,4,0:2:0:0:
349,82,354609,1,8,0:0:0:0:
336,128,354672,1,8,0:2:0:0:
257,243,354797,1,8,0:2:0:0:
250,78,354922,1,8,0:0:0:0:
416,139,355047,6,0,L|433:250,1,95,12|0,0:0|0:0,0:0:0:0:
342,219,355297,2,0,L|339:330,1,95,8|2,0:2|0:0,0:0:0:0:
255,158,355547,1,8,0:0:0:0:
97,164,355672,1,8,0:2:0:0:
177,191,355797,1,2,0:0:0:0:
79,78,355922,1,0,0:0:0:0:
84,251,356047,6,0,P|81:311|95:367,1,95,8|0,0:0|0:0,0:0:0:0:
165,292,356297,1,8,0:2:0:0:
16,203,356422,1,0,0:0:0:0:
258,149,356547,2,0,P|261:209|247:265,1,95,8|8,0:3|0:2,0:0:0:0:
177,190,356797,1,4,0:3:0:0:
326,101,356922,1,8,0:2:0:0:
476,267,357047,6,0,P|418:259|321:362,1,190,12|8,0:0|0:2,0:0:0:0:
401,170,357422,2,0,P|400:128|420:68,1,95,10|0,0:0|0:0,0:0:0:0:
431,370,357672,1,8,0:2:0:0:
291,237,357797,2,0,P|278:184|241:130,1,95,2|0,0:0|0:0,0:0:0:0:
177,56,358047,6,0,B|212:62|212:62|291:45,1,95,0|2,0:0|0:0,0:0:0:0:
98,93,358297,2,0,B|63:87|63:87|-16:104,1,95,0|2,0:0|0:0,0:0:0:0:
205,258,358547,1,0,1:0:0:0:
222,303,358609,1,0,1:0:0:0:
210,350,358672,1,0,1:0:0:0:
130,308,358797,1,0,1:0:0:0:
57,355,358922,1,0,1:0:0:0:
40,310,358984,1,0,1:0:0:0:
48,263,359047,6,0,L|66:137,1,95,12|0,0:0|0:0,0:0:0:0:
130,308,359297,1,0,0:0:0:0:
174,157,359422,2,0,P|244:176|342:113,1,190,8|0,0:0|0:0,0:0:0:0:
418,196,359797,2,0,P|399:258|396:300,1,95,8|0,0:0|0:0,0:0:0:0:
240,69,360047,6,0,L|133:46,1,95,8|0,0:0|0:0,0:0:0:0:
0,144,360297,1,8,0:0:0:0:
92,119,360422,1,0,0:0:0:0:
267,177,360547,2,0,L|160:154,1,95,8|0,0:2|0:0,0:0:0:0:
27,252,360797,1,8,0:0:0:0:
119,227,360922,1,0,0:0:0:0:
201,343,361047,6,0,P|194:298|211:237,1,95,8|0,0:0|0:0,0:0:0:0:
288,302,361297,1,0,0:0:0:0:
385,165,361422,2,0,B|336:253|414:265|370:358,1,190,8|0,0:0|0:0,0:0:0:0:
470,209,361797,2,0,P|480:162|473:117,1,95,8|0,0:0|0:0,0:0:0:0:
296,25,362047,6,0,P|286:72|293:117,1,95,8|0,0:0|0:0,0:0:0:0:
279,228,362297,2,0,P|243:195|201:178,1,95,8|0,0:0|0:0,0:0:0:0:
109,119,362547,2,0,P|156:104|192:75,1,95,8|0,0:2|0:0,0:0:0:0:
191,279,362797,2,0,L|203:392,1,95,8|0,0:0|0:0,0:0:0:0:
33,169,363047,6,0,P|106:211|200:178,1,190,12|0,0:0|0:0,0:0:0:0:
236,75,363422,1,8,0:0:0:0:
312,157,363547,2,0,P|298:199|298:267,1,95
434,360,363797,2,0,P|448:318|448:250,1,95,8|0,0:0|0:0,0:0:0:0:
332,343,364047,6,0,L|208:332,1,95,8|0,0:0|0:0,0:0:0:0:
151,294,364297,1,8,0:0:0:0:
56,301,364422,1,0,0:0:0:0:
69,206,364547,2,0,L|193:195,1,95,8|0,0:2|0:0,0:0:0:0:
250,157,364797,1,8,0:0:0:0:
345,164,364922,1,0,0:0:0:0:
442,170,365047,6,0,P|374:149|330:40,1,190,8|0,0:0|0:0,0:0:0:0:
434,65,365422,1,8,0:0:0:0:
250,157,365547,2,0,P|246:212|217:275,1,95
346,228,365797,1,8,0:0:0:0:
200,91,365922,6,0,L|88:80,1,95,0|8,0:0|0:0,0:0:0:0:
154,177,366172,1,0,0:0:0:0:
49,143,366297,2,0,P|44:198|63:243,1,95,8|0,0:0|0:0,0:0:0:0:
146,331,366547,1,8,0:2:0:0:
184,302,366609,1,0,0:0:0:0:
232,294,366672,1,0,0:0:0:0:
376,342,366797,1,8,0:0:0:0:
477,228,366922,1,0,0:0:0:0:
372,99,367047,6,0,P|363:149|379:198,1,95,4|0,0:2|0:0,0:0:0:0:
447,144,367297,1,8,0:2:0:0:
299,234,367422,2,2,P|216:206|105:257,1,190,0|2,0:0|0:0,0:0:0:0:
378,284,367797,2,0,P|431:308|488:299,1,95,8|0,0:2|0:0,0:0:0:0:
374,190,368047,5,8,0:0:0:0:
293,322,368172,1,8,0:0:0:0:
265,124,368297,2,0,P|284:79|331:37,1,95,8|0,0:2|0:0,0:0:0:0:
465,70,368547,1,10,0:0:0:0:
374,190,368672,1,8,0:2:0:0:
374,98,368797,1,8,0:2:0:0:
465,219,368922,1,8,0:2:0:0:
295,242,369047,6,0,P|241:229|183:246,1,95,8|0,0:0|0:0,0:0:0:0:
119,314,369297,1,8,0:2:0:0:
8,192,369422,2,2,P|89:206|169:124,1,190,0|2,0:0|0:0,0:0:0:0:
66,107,369797,1,8,0:2:0:0:
27,294,369922,1,8,0:0:0:0:
203,236,370047,5,8,0:0:0:0:
66,107,370172,1,8,0:0:0:0:
120,284,370297,2,0,L|144:384,1,95,2|0,0:0|0:0,0:0:0:0:
343,355,370547,1,10,0:0:0:0:
286,163,370672,1,8,0:2:0:0:
238,347,370797,1,8,0:2:0:0:
425,296,370922,1,8,0:2:0:0:
315,259,371047,6,0,L|401:218,1,95,4|0,0:2|0:0,0:0:0:0:
511,263,371297,1,8,0:2:0:0:
478,122,371422,2,2,P|399:128|323:26,1,190,0|2,0:0|0:0,0:0:0:0:
70,133,371797,2,0,P|136:126|189:144,1,95,8|0,0:2|0:0,0:0:0:0:
335,194,372047,5,8,0:0:0:0:
190,303,372172,1,8,0:0:0:0:
258,126,372297,2,0,L|221:227,1,95,8|0,0:2|0:0,0:0:0:0:
104,303,372547,2,0,B|111:263|111:263|91:188,1,95,10|8,0:0|0:2,0:0:0:0:
285,267,372797,2,0,B|278:307|278:307|298:382,1,95,8|8,0:2|0:2,0:0:0:0:
470,312,373047,5,8,0:0:0:0:
405,151,373172,1,0,0:0:0:0:
386,349,373297,1,8,0:2:0:0:
405,151,373422,2,0,L|415:31,1,95,2|8,0:0|0:0,0:0:0:0:
278,41,373672,1,10,0:0:0:0:
294,146,373797,1,8,0:2:0:0:
165,166,373922,6,0,L|174:62,1,95,8|8,0:0|0:0,0:0:0:0:
104,252,374172,1,8,0:0:0:0:
239,203,374297,1,2,0:0:0:0:
75,168,374422,1,8,0:0:0:0:
187,273,374547,1,10,0:0:0:0:
221,288,374609,1,8,0:0:0:0:
259,288,374672,1,8,0:2:0:0:
293,273,374734,1,8,0:0:0:0:
316,242,374797,2,0,L|419:209,1,95,2|8,0:0|0:0,0:0:0:0:
472,325,375047,1,4,1:0:0:0:
256,192,375422,12,0,379047,0:0:0:0:
72,131,409297,6,0,L|48:69,2,47.5
156,106,409547,2,0,B|193:109|193:109|213:121|213:121|256:125,1,95,8|0,0:0|0:0,0:0:0:0:
275,123,409734,1,0,0:0:0:0:
303,119,409797,2,0,L|356:109,2,47.5
255,206,410047,5,8,0:0:0:0:
248,233,410109,1,0,0:0:0:0:
257,259,410172,1,8,0:0:0:0:
383,254,410297,1,0,0:0:0:0:
390,227,410359,1,0,0:0:0:0:
381,201,410422,1,0,0:0:0:0:
336,342,410547,6,0,L|438:326,1,95,8|0,0:0|0:0,0:0:0:0:
454,341,410734,1,0,0:0:0:0:
477,357,410797,2,0,L|485:293,2,47.5
231,346,411047,6,2,B|196:339|196:339|152:345|152:345|80:328,1,142.5,0|2,0:0|0:0,0:0:0:0:
64,321,411297,6,0,L|52:265,1,47.5
73,96,411484,2,0,L|85:152,1,47.5,0|8,0:0|0:0,0:0:0:0:
229,206,411672,1,0,0:0:0:0:
201,200,411734,1,0,0:0:0:0:
172,195,411797,2,0,L|139:243,6,47.5,0|0|0|0|8|0|8,0:0|0:0|0:0|0:0|0:0|0:0|0:0,0:0:0:0:
206,106,412297,6,0,B|262:99|262:99|312:108|312:108|411:98,1,190,4|8,2:3|0:0,0:0:0:0:
489,178,412672,5,0,0:0:0:0:
461,183,412734,1,0,0:0:0:0:
435,196,412797,1,0,0:0:0:0:
415,216,412859,1,0,0:0:0:0:
405,243,412922,1,0,0:0:0:0:
496,270,413047,1,8,0:0:0:0:
349,345,413172,1,8,0:0:0:0:
348,316,413234,1,0,0:0:0:0:
338,288,413297,2,0,L|317:231,2,47.5
256,303,413547,6,0,P|213:295|156:312,1,63.3333333333333,8|0,0:0|0:0,0:0:0:0:
73,332,413713,2,0,P|101:298|115:240,1,63.3333333333333,0|0,0:0|0:0,0:0:0:0:
142,161,413880,2,0,P|156:202|199:243,1,63.3333333333333,0|0,0:0|0:0,0:0:0:0:
173,369,414047,2,0,P|159:328|116:287,1,63.3333333333333,8|0,0:0|0:0,0:0:0:0:
57,225,414213,2,0,P|100:233|157:216,1,63.3333333333333,8|0,0:0|0:0,0:0:0:0:
247,185,414422,6,0,L|304:166,2,47.5,0|0|8,0:0|0:0|0:0,0:0:0:0:
395,155,414672,1,0,0:0:0:0:
383,180,414734,1,0,0:0:0:0:
378,208,414797,2,0,L|374:273,2,47.5
430,327,415047,2,0,B|383:339|383:339|325:336,1,95,8|8,0:0|0:0,0:0:0:0:
108,293,415297,2,0,B|155:281|155:281|213:284,1,95
288,181,415547,6,0,B|236:178|236:178|194:165|194:165|149:175|149:175|70:171,1,190,4|0,0:2|0:0,0:0:0:0:
33,81,415922,5,0,0:0:0:0:
147,97,416047,2,0,B|195:87|195:87|250:103,1,95,8|8,0:0|0:0,0:0:0:0:
383,180,416297,1,0,0:0:0:0:
259,263,416422,1,0,0:0:0:0:
327,107,416547,2,0,P|378:91|433:91,1,95,8|0,0:0|0:0,0:0:0:0:
339,249,416797,5,0,0:0:0:0:
355,271,416859,1,0,0:0:0:0:
366,297,416922,1,0,0:0:0:0:
185,210,417047,2,0,L|144:260,2,47.5,8|0|8,0:0|0:0|0:0,0:0:0:0:
85,142,417297,2,0,L|61:82,2,47.5
56,285,417547,2,0,L|51:344,2,47.5,8|0|0,0:0|0:0|0:0,0:0:0:0:
219,321,417797,5,0,0:0:0:0:
246,314,417859,1,0,0:0:0:0:
274,307,417922,2,0,B|308:300|308:300|334:306|334:306|385:297,1,95,0|8,0:0|0:0,0:0:0:0:
395,293,418109,1,0,0:0:0:0:
422,286,418172,1,8,0:0:0:0:
481,156,418297,5,0,0:0:0:0:
453,163,418359,1,0,0:0:0:0:
424,162,418422,1,0,0:0:0:0:
398,150,418484,1,0,0:0:0:0:
380,127,418547,2,0,L|358:17,1,95,8|0,0:0|0:0,0:0:0:0:
334,41,418734,1,0,0:0:0:0:
306,49,418797,2,0,L|297:114,2,47.5
268,170,419047,6,0,P|209:163|161:168,1,95,8|8,0:0|0:0,0:0:0:0:
52,217,419297,2,0,L|33:161,4,47.5,0|0|0|0|8,0:0|0:0|0:0|0:0|0:0,0:0:0:0:
152,344,419672,1,0,0:0:0:0:
223,227,419797,2,0,L|217:278,4,47.5,0|0|0|0|8,0:0|0:0|0:0|0:0|0:0,0:0:0:0:
289,312,420172,1,8,0:0:0:0:
382,295,420297,6,0,L|395:361,3,47.5
304,229,420547,2,0,L|352:204,3,47.5,8|0|0|0,0:0|0:0|0:0|0:0,0:0:0:0:
180,291,420797,2,0,L|124:290,3,47.5
135,163,421047,2,0,L|192:166,3,47.5,8|0|0|0,0:0|0:0|0:0|0:0,0:0:0:0:
208,146,421297,5,0,0:0:0:0:
231,130,421359,1,0,0:0:0:0:
255,114,421422,1,0,0:0:0:0:
278,98,421484,1,0,0:0:0:0:
303,84,421547,2,0,L|369:85,3,47.5,8|0|0|0,0:0|0:0|0:0|0:0,0:0:0:0:
413,129,421797,2,0,L|473:128,3,47.5
375,201,422047,2,0,L|354:251,3,47.5,8|0|0|0,0:0|0:0|0:0|0:0,0:0:0:0:
444,262,422297,6,0,L|456:314,1,47.5
345,335,422422,2,0,L|357:387,1,47.5
229,258,422547,2,0,L|241:310,1,47.5,8|0,0:0|0:0,0:0:0:0:
130,331,422672,2,0,L|142:383,1,47.5
24,273,422797,5,0,0:0:0:0:
51,266,422859,1,0,0:0:0:0:
79,260,422922,1,0,0:0:0:0:
106,254,422984,1,0,0:0:0:0:
134,248,423047,2,0,L|143:193,1,47.5,8|0,0:0|0:0,0:0:0:0:
77,118,423172,2,0,L|68:180,1,47.5
124,46,423297,1,0,0:0:0:0:
233,93,423422,1,0,0:0:0:0:
233,93,423484,1,0,0:0:0:0:
233,93,423547,6,0,B|286:91|286:91|325:108|325:108|387:108,1,142.5,4|0,0:2|2:0,0:0:0:0:
451,115,423797,6,0,L|500:94,3,47.5
453,196,424047,2,0,L|502:217,3,47.5
368,200,424297,5,0,0:0:0:0:
352,211,424359,1,0,0:0:0:0:
336,222,424422,1,0,0:0:0:0:
319,231,424484,1,0,0:0:0:0:
307,238,424547,2,0,L|321:298,11,35.625001358986
239,289,425297,2,0,L|232:337,8,35.625001358986
256,192,425922,12,0,428422,0:0:0:0:
