osu file format v12

[General]
AudioFilename: 14. t+pazolite Feat. - Distorted Lovesong.mp3
AudioLeadIn: 3000
PreviewTime: 81125
Countdown: 0
SampleSet: Normal
StackLeniency: 0.7
Mode: 1
LetterboxInBreaks: 0
SkinPreference:taiko
WidescreenStoryboard: 0

[Editor]
Bookmarks: 169125
DistanceSpacing: 1
BeatDivisor: 4
GridSize: 32

[Metadata]
Title:Distorted Lovesong
TitleUnicode:Distorted Lovesong
Artist:t+pazolite Feat. Rizuna
ArtistUnicode:t+pazolite Feat. Rizuna
Creator:OnosakiHito
Version:Taiko Oni
Source:
Tags:rizna HARDCORE SYNDROME 4
BeatmapID:136911
BeatmapSetID:41478

[Difficulty]
HPDrainRate:6
CircleSize:5
OverallDifficulty:6
ApproachRate:5
SliderMultiplier:1.4
SliderTickRate:1

[Events]
//Background and Video events
0,0,"Taiko_BG.jpg",0,0
//Break Periods
//Storyboard Layer 0 (Background)
//Storyboard Layer 1 (Fail)
//Storyboard Layer 2 (Pass)
//Storyboard Layer 3 (Foreground)
Sprite,Foreground,Centre,"Taiko_SB\caution.png",320,240 F,0,1125,,0 M,0,1125,2125,202,105,399,99
//Storyboard Sound Samples
//Background Colour Transformations
3,100,163,162,255

[TimingPoints]
125,250,4,1,0,80,1,0
46875,-105.263157894737,4,1,0,80,0,0
47125,-111.111111111111,4,1,0,80,0,0
47375,-117.647058823529,4,1,0,80,0,0
47625,-125,4,1,0,80,0,0
47875,-133.333333333333,4,1,0,80,0,0
48125,-142.857142857143,4,1,0,80,0,0
48375,-153.846153846154,4,1,0,80,0,0
48625,-166.666666666667,4,1,0,80,0,0
48875,-181.818181818182,4,1,0,80,0,0
49125,-200,4,1,0,80,0,0
53375,-181.818181818182,4,1,0,80,0,0
57125,-166.666666666667,4,1,0,80,0,0
59125,-153.846153846154,4,1,0,80,0,0
61125,-142.857142857143,4,1,0,80,0,0
63125,-133.333333333333,4,1,0,80,0,0
64375,-125,4,1,0,80,0,0
64500,-117.647058823529,4,1,0,80,0,0
64625,-111.111111111111,4,1,0,80,0,0
64750,-105.263157894737,4,1,0,80,0,0
65125,-100,4,1,0,80,0,0
81125,-100,4,1,0,80,0,1
113125,-100,4,1,0,80,0,0
121125,-100,4,1,0,80,0,1
129125,-100,4,1,0,80,0,0
129375,-200,4,1,0,80,0,0
144125,-117.647058823529,4,1,0,80,0,0
144875,-117.647058823529,4,1,0,80,0,0
145250,-100,4,1,0,80,0,0
161375,-133.333333333333,4,1,0,80,0,0
171125,-142.857142857143,4,1,0,80,0,0
173125,-153.846153846154,4,1,0,80,0,0
175125,-166.666666666667,4,1,0,80,0,0
176125,-181.818181818182,4,1,0,80,0,0
177125,-200,4,1,0,80,0,0
185125,-133.333333333333,4,1,0,80,0,0
200375,-125,4,1,0,80,0,0
200500,-117.647058823529,4,1,0,80,0,0
200625,-111.111111111111,4,1,0,80,0,0
200750,-107.52688172043,4,1,0,80,0,0
200875,-104.166666666667,4,1,0,80,0,0
201000,-101.010101010101,4,1,0,80,0,0
201125,-100,4,1,0,80,0,1
215125,-100,4,1,0,80,0,0
217125,-100,4,1,0,80,0,1
233125,-100,4,1,0,80,0,0
241125,-100,4,1,0,80,0,1
249125,-100,4,1,0,80,0,0
250125,-133.333333333333,4,1,0,80,0,0
261125,-142.857142857143,4,1,0,80,0,0
262125,-153.846153846154,4,1,0,80,0,0
263125,-166.666666666667,4,1,0,80,0,0

[HitObjects]
256,192,125,1,8,0:0:0:0:
256,192,375,5,8,0:0:0:0:
256,192,625,1,8,0:0:0:0:
256,192,875,5,0,0:0:0:0:
256,192,1125,1,0,0:0:0:0:
256,192,1250,5,8,0:0:0:0:
256,192,1375,1,8,0:0:0:0:
256,192,1500,5,0,0:0:0:0:
256,192,1625,5,8,0:0:0:0:
256,192,1750,5,0,0:0:0:0:
256,192,1875,1,0,0:0:0:0:
256,192,2000,5,8,0:0:0:0:
256,192,2125,5,0,0:0:0:0:
256,192,2250,1,0,0:0:0:0:
256,192,2375,1,0,0:0:0:0:
256,192,2500,5,8,0:0:0:0:
256,192,2625,5,0,0:0:0:0:
256,192,2750,5,8,0:0:0:0:
256,192,2875,5,0,0:0:0:0:
256,192,3000,5,8,0:0:0:0:
256,192,3125,1,8,0:0:0:0:
256,192,3375,5,0,0:0:0:0:
256,192,3500,5,8,0:0:0:0:
256,192,3625,1,8,0:0:0:0:
256,192,3750,5,0,0:0:0:0:
256,192,3875,1,0,0:0:0:0:
256,192,4000,5,8,0:0:0:0:
256,192,4125,5,0,0:0:0:0:
256,192,4250,1,0,0:0:0:0:
256,192,4375,1,0,0:0:0:0:
256,192,4500,5,8,0:0:0:0:
256,192,4625,1,8,0:0:0:0:
256,192,4750,5,0,0:0:0:0:
256,192,4875,1,0,0:0:0:0:
256,192,5000,5,8,0:0:0:0:
256,192,5125,5,0,0:0:0:0:
256,192,5250,5,8,0:0:0:0:
256,192,5375,5,0,0:0:0:0:
256,192,5500,5,8,0:0:0:0:
256,192,5625,5,0,0:0:0:0:
256,192,5750,1,0,0:0:0:0:
256,192,5875,1,0,0:0:0:0:
256,192,6000,5,8,0:0:0:0:
256,192,6125,5,0,0:0:0:0:
256,192,6250,1,0,0:0:0:0:
256,192,6375,1,0,0:0:0:0:
256,192,6500,5,8,0:0:0:0:
256,192,6625,1,8,0:0:0:0:
256,192,6750,5,0,0:0:0:0:
256,192,6875,1,0,0:0:0:0:
256,192,7000,5,8,0:0:0:0:
256,192,7125,1,8,0:0:0:0:
256,192,7375,5,0,0:0:0:0:
256,192,7500,5,8,0:0:0:0:
256,192,7750,5,0,0:0:0:0:
256,192,7875,1,0,0:0:0:0:
256,192,8000,5,8,0:0:0:0:
256,192,8063,1,8,0:0:0:0:
256,192,8125,1,8,0:0:0:0:
256,192,8250,5,0,0:0:0:0:
256,192,8375,5,8,0:0:0:0:
256,192,8500,1,8,0:0:0:0:
256,192,8625,5,0,0:0:0:0:
256,192,8688,1,0,0:0:0:0:
256,192,8750,5,8,0:0:0:0:
256,192,8813,1,8,0:0:0:0:
256,192,8875,5,0,0:0:0:0:
256,192,8938,5,8,0:0:0:0:
256,192,9000,1,8,0:0:0:0:
256,192,9125,5,0,0:0:0:0:
256,192,9250,1,0,0:0:0:0:
256,192,9375,5,8,0:0:0:0:
256,192,9500,5,0,0:0:0:0:
256,192,9625,5,8,0:0:0:0:
256,192,9750,5,0,0:0:0:0:
256,192,9875,1,0,0:0:0:0:
256,192,10000,5,8,0:0:0:0:
256,192,10250,5,0,0:0:0:0:
256,192,10375,1,0,0:0:0:0:
256,192,10500,1,0,0:0:0:0:
256,192,10625,5,8,0:0:0:0:
256,192,10750,5,0,0:0:0:0:
256,192,10875,1,0,0:0:0:0:
256,192,11000,5,8,0:0:0:0:
256,192,11125,1,8,0:0:0:0:
256,192,11375,5,0,0:0:0:0:
256,192,11500,5,8,0:0:0:0:
256,192,11750,5,0,0:0:0:0:
256,192,11875,1,0,0:0:0:0:
256,192,12000,5,8,0:0:0:0:
256,192,12125,1,8,0:0:0:0:
256,192,12250,5,0,0:0:0:0:
256,192,12375,5,8,0:0:0:0:
256,192,12500,1,8,0:0:0:0:
256,192,12625,5,0,0:0:0:0:
256,192,12750,1,0,0:0:0:0:
256,192,12875,1,0,0:0:0:0:
256,192,13000,5,8,0:0:0:0:
256,192,13125,5,0,0:0:0:0:
256,192,13375,1,0,0:0:0:0:
256,192,13500,5,8,0:0:0:0:
256,192,13750,1,8,0:0:0:0:
256,192,13875,5,0,0:0:0:0:
256,192,14000,5,8,0:0:0:0:
256,192,14250,5,0,0:0:0:0:
256,192,14375,1,0,0:0:0:0:
256,192,14500,1,0,0:0:0:0:
256,192,14625,5,8,0:0:0:0:
256,192,14750,5,0,0:0:0:0:
256,192,14875,1,0,0:0:0:0:
256,192,15000,5,8,0:0:0:0:
256,192,15125,1,8,0:0:0:0:
256,192,15375,5,0,0:0:0:0:
256,192,15500,5,8,0:0:0:0:
256,192,15750,1,8,0:0:0:0:
256,192,15875,5,0,0:0:0:0:
256,192,16000,5,8,0:0:0:0:
256,192,16250,1,8,0:0:0:0:
256,192,16375,5,0,0:0:0:0:
256,192,16500,1,0,0:0:0:0:
256,192,16625,5,8,0:0:0:0:
256,192,16688,1,8,0:0:0:0:
256,192,16750,5,0,0:0:0:0:
256,192,16875,1,0,0:0:0:0:
256,192,16938,1,0,0:0:0:0:
256,192,17000,5,8,0:0:0:0:
256,192,17125,5,4,0:0:0:0:
256,192,17375,1,0,0:0:0:0:
256,192,17500,5,8,0:0:0:0:
256,192,17625,5,0,0:0:0:0:
256,192,17750,5,8,0:0:0:0:
256,192,17875,5,0,0:0:0:0:
256,192,18000,1,0,0:0:0:0:
256,192,18125,1,0,0:0:0:0:
256,192,18250,5,8,0:0:0:0:
256,192,18375,5,0,0:0:0:0:
256,192,18500,1,0,0:0:0:0:
256,192,18625,1,0,0:0:0:0:
256,192,18750,5,8,0:0:0:0:
256,192,18875,5,0,0:0:0:0:
256,192,19000,5,8,0:0:0:0:
256,192,19125,5,0,0:0:0:0:
256,192,19250,1,0,0:0:0:0:
256,192,19375,5,8,0:0:0:0:
256,192,19500,5,0,0:0:0:0:
256,192,19625,5,8,0:0:0:0:
256,192,19750,1,8,0:0:0:0:
256,192,19875,5,0,0:0:0:0:
256,192,20000,5,8,0:0:0:0:
256,192,20125,1,8,0:0:0:0:
256,192,20250,5,0,0:0:0:0:
256,192,20375,1,0,0:0:0:0:
256,192,20500,5,8,0:0:0:0:
256,192,20625,5,0,0:0:0:0:
256,192,20750,5,8,0:0:0:0:
256,192,20875,1,8,0:0:0:0:
256,192,21000,1,8,0:0:0:0:
256,192,21125,5,4,0:0:0:0:
256,192,21375,1,0,0:0:0:0:
256,192,21500,5,8,0:0:0:0:
256,192,21625,1,8,0:0:0:0:
256,192,21750,5,0,0:0:0:0:
256,192,21875,1,0,0:0:0:0:
256,192,22000,5,8,0:0:0:0:
256,192,22125,5,0,0:0:0:0:
256,192,22250,1,0,0:0:0:0:
256,192,22375,1,0,0:0:0:0:
256,192,22500,1,0,0:0:0:0:
256,192,22625,5,8,0:0:0:0:
256,192,22750,5,0,0:0:0:0:
256,192,22875,1,0,0:0:0:0:
256,192,23000,5,8,0:0:0:0:
256,192,23125,5,0,0:0:0:0:
256,192,23250,1,0,0:0:0:0:
256,192,23375,5,8,0:0:0:0:
256,192,23500,5,0,0:0:0:0:
256,192,23625,5,8,0:0:0:0:
256,192,23750,5,0,0:0:0:0:
256,192,23875,1,0,0:0:0:0:
256,192,24000,5,8,0:0:0:0:
256,192,24125,1,8,0:0:0:0:
256,192,24250,5,0,0:0:0:0:
256,192,24375,5,8,0:0:0:0:
256,192,24500,5,0,0:0:0:0:
256,192,24625,1,0,0:0:0:0:
256,192,24688,5,8,0:0:0:0:
256,192,24751,5,0,0:0:0:0:
256,192,24875,5,8,0:0:0:0:
256,192,24938,1,8,0:0:0:0:
256,192,25000,5,0,0:0:0:0:
256,192,25125,1,0,0:0:0:0:
256,192,25250,5,8,0:0:0:0:
256,192,25375,5,0,0:0:0:0:
256,192,25500,5,8,0:0:0:0:
256,192,25625,5,0,0:0:0:0:
256,192,25750,1,0,0:0:0:0:
256,192,25875,1,0,0:0:0:0:
256,192,26000,5,8,0:0:0:0:
256,192,26125,5,0,0:0:0:0:
256,192,26250,1,0,0:0:0:0:
256,192,26375,1,0,0:0:0:0:
256,192,26500,1,0,0:0:0:0:
256,192,26625,5,8,0:0:0:0:
256,192,26750,5,0,0:0:0:0:
256,192,26875,1,0,0:0:0:0:
256,192,27000,1,0,0:0:0:0:
256,192,27125,5,8,0:0:0:0:
256,192,27250,5,0,0:0:0:0:
256,192,27375,5,8,0:0:0:0:
256,192,27500,5,0,0:0:0:0:
256,192,27625,5,8,0:0:0:0:
256,192,27750,5,0,0:0:0:0:
256,192,27875,1,0,0:0:0:0:
256,192,28000,5,8,0:0:0:0:
256,192,28125,5,0,0:0:0:0:
256,192,28250,1,0,0:0:0:0:
256,192,28375,1,0,0:0:0:0:
256,192,28500,5,8,0:0:0:0:
256,192,28625,1,8,0:0:0:0:
256,192,28750,5,0,0:0:0:0:
256,192,28875,1,0,0:0:0:0:
256,192,29000,5,8,0:0:0:0:
256,192,29125,5,0,0:0:0:0:
256,192,29250,5,8,0:0:0:0:
256,192,29375,5,0,0:0:0:0:
256,192,29500,5,8,0:0:0:0:
256,192,29625,5,0,0:0:0:0:
256,192,29750,5,8,0:0:0:0:
256,192,29875,5,0,0:0:0:0:
256,192,30000,5,8,0:0:0:0:
256,192,30125,5,0,0:0:0:0:
256,192,30188,1,0,0:0:0:0:
256,192,30250,5,8,0:0:0:0:
256,192,30375,5,0,0:0:0:0:
256,192,30500,5,8,0:0:0:0:
256,192,30625,5,0,0:0:0:0:
256,192,30750,5,8,0:0:0:0:
256,192,30813,1,8,0:0:0:0:
256,192,30875,5,0,0:0:0:0:
256,192,30938,1,0,0:0:0:0:
256,192,31000,5,8,0:0:0:0:
256,192,31125,5,0,0:0:0:0:
256,192,31250,5,8,0:0:0:0:
256,192,31375,5,0,0:0:0:0:
256,192,31500,5,8,0:0:0:0:
256,192,31625,5,0,0:0:0:0:
256,192,31750,5,8,0:0:0:0:
256,192,31813,1,8,0:0:0:0:
256,192,31875,5,0,0:0:0:0:
256,192,32000,1,0,0:0:0:0:
256,192,32063,1,0,0:0:0:0:
256,192,32125,5,8,0:0:0:0:
256,192,32250,5,0,0:0:0:0:
256,192,32375,5,8,0:0:0:0:
256,192,32500,1,8,0:0:0:0:
256,192,32625,1,8,0:0:0:0:
256,192,32688,1,8,0:0:0:0:
256,192,32750,1,8,0:0:0:0:
256,192,32875,1,8,0:0:0:0:
256,192,33000,5,0,0:0:0:0:
256,192,33125,1,0,0:0:0:0:
256,192,33375,1,0,0:0:0:0:
256,192,33625,5,8,0:0:0:0:
256,192,33875,5,0,0:0:0:0:
256,192,34000,5,8,0:0:0:0:
256,192,34125,5,0,0:0:0:0:
256,192,34250,1,0,0:0:0:0:
256,192,34375,1,0,0:0:0:0:
256,192,34625,5,8,0:0:0:0:
256,192,34875,5,0,0:0:0:0:
256,192,35125,1,0,0:0:0:0:
256,192,35250,1,0,0:0:0:0:
256,192,35375,1,0,0:0:0:0:
256,192,35625,5,8,0:0:0:0:
256,192,35875,5,0,0:0:0:0:
256,192,36000,5,8,0:0:0:0:
256,192,36250,1,8,0:0:0:0:
256,192,36375,5,0,0:0:0:0:
256,192,36625,5,8,0:0:0:0:
256,192,36875,5,0,0:0:0:0:
256,192,37125,1,0,0:0:0:0:
256,192,37250,1,0,0:0:0:0:
256,192,37375,1,0,0:0:0:0:
256,192,37625,5,8,0:0:0:0:
256,192,37875,5,0,0:0:0:0:
256,192,38125,1,0,0:0:0:0:
256,192,38250,1,0,0:0:0:0:
256,192,38375,5,8,0:0:0:0:
256,192,38500,1,8,0:0:0:0:
256,192,38625,1,8,0:0:0:0:
256,192,38875,5,0,0:0:0:0:
256,192,39125,1,0,0:0:0:0:
256,192,39375,5,8,0:0:0:0:
256,192,39500,5,0,0:0:0:0:
256,192,39625,5,8,0:0:0:0:
256,192,39875,5,0,0:0:0:0:
256,192,40000,5,8,0:0:0:0:
256,192,40250,1,8,0:0:0:0:
256,192,40375,5,0,0:0:0:0:
256,192,40625,5,8,0:0:0:0:
256,192,40875,5,0,0:0:0:0:
256,192,41125,1,0,0:0:0:0:
256,192,41375,1,0,0:0:0:0:
256,192,41500,1,0,0:0:0:0:
256,192,41625,5,8,0:0:0:0:
256,192,41875,5,0,0:0:0:0:
256,192,42125,5,8,0:0:0:0:
256,192,42250,1,8,0:0:0:0:
256,192,42375,5,0,0:0:0:0:
256,192,42625,5,8,0:0:0:0:
256,192,42875,5,0,0:0:0:0:
256,192,43125,1,0,0:0:0:0:
256,192,43250,5,8,0:0:0:0:
256,192,43500,5,0,0:0:0:0:
256,192,43625,5,8,0:0:0:0:
256,192,43875,5,0,0:0:0:0:
256,192,44000,5,8,0:0:0:0:
256,192,44250,1,8,0:0:0:0:
256,192,44375,5,0,0:0:0:0:
256,192,44625,5,8,0:0:0:0:
256,192,44875,5,0,0:0:0:0:
256,192,45125,1,0,0:0:0:0:
256,192,45250,1,0,0:0:0:0:
256,192,45375,1,0,0:0:0:0:
256,192,45500,5,8,0:0:0:0:
256,192,45625,5,0,0:0:0:0:
256,192,45875,1,0,0:0:0:0:
256,192,46000,5,8,0:0:0:0:
256,192,46250,1,8,0:0:0:0:
256,192,46375,5,0,0:0:0:0:
256,192,46625,5,8,0:0:0:0:
256,192,46750,5,0,0:0:0:0:
256,192,46875,1,0,0:0:0:0:
256,192,47125,5,8,0:0:0:0:
256,192,47375,5,0,0:0:0:0:
256,192,47625,5,8,0:0:0:0:
256,192,47875,5,0,0:0:0:0:
256,192,48125,5,8,0:0:0:0:
256,192,48375,5,0,0:0:0:0:
256,192,48625,5,8,0:0:0:0:
256,192,48875,5,0,0:0:0:0:
256,192,49125,5,8,0:0:0:0:
256,192,49250,1,8,0:0:0:0:
256,192,49375,1,8,0:0:0:0:
256,192,49625,5,0,0:0:0:0:
256,192,49875,5,8,0:0:0:0:
256,192,50000,1,8,0:0:0:0:
256,192,50125,5,0,0:0:0:0:
256,192,50375,5,8,0:0:0:0:
256,192,50625,5,0,0:0:0:0:
256,192,50750,5,8,0:0:0:0:
256,192,50875,5,0,0:0:0:0:
256,192,51125,1,0,0:0:0:0:
256,192,51375,5,8,0:0:0:0:
256,192,51500,1,8,0:0:0:0:
256,192,51625,5,0,0:0:0:0:
256,192,51750,1,0,0:0:0:0:
256,192,51875,5,8,0:0:0:0:
256,192,52125,5,0,0:0:0:0:
256,192,52375,5,8,0:0:0:0:
256,192,52625,5,0,0:0:0:0:
256,192,52875,5,8,0:0:0:0:
256,192,53000,1,8,0:0:0:0:
256,192,53125,5,0,0:0:0:0:
256,192,53375,5,8,0:0:0:0:
256,192,53500,1,8,0:0:0:0:
256,192,53625,1,8,0:0:0:0:
256,192,53875,5,0,0:0:0:0:
256,192,54125,5,8,0:0:0:0:
256,192,54375,5,0,0:0:0:0:
256,192,54625,5,8,0:0:0:0:
256,192,54750,5,0,0:0:0:0:
256,192,54875,1,0,0:0:0:0:
256,192,55000,5,8,0:0:0:0:
256,192,55125,1,8,0:0:0:0:
256,192,55375,5,0,0:0:0:0:
256,192,55625,5,8,0:0:0:0:
256,192,55875,1,8,0:0:0:0:
256,192,56125,1,8,0:0:0:0:
256,192,56250,1,8,0:0:0:0:
256,192,56375,1,8,0:0:0:0:
256,192,56500,5,0,0:0:0:0:
256,192,56625,5,8,0:0:0:0:
256,192,56875,5,0,0:0:0:0:
256,192,57125,5,8,0:0:0:0:
256,192,57250,1,8,0:0:0:0:
256,192,57375,1,8,0:0:0:0:
256,192,57625,5,0,0:0:0:0:
256,192,57875,5,8,0:0:0:0:
256,192,58000,1,8,0:0:0:0:
256,192,58125,1,8,0:0:0:0:
256,192,58375,5,0,0:0:0:0:
256,192,58625,1,0,0:0:0:0:
256,192,58750,5,8,0:0:0:0:
256,192,58875,5,0,0:0:0:0:
256,192,59125,1,0,0:0:0:0:
256,192,59375,5,8,0:0:0:0:
256,192,59625,1,8,0:0:0:0:
256,192,59750,1,8,0:0:0:0:
256,192,59875,5,0,0:0:0:0:
256,192,60125,5,8,0:0:0:0:
256,192,60375,5,0,0:0:0:0:
256,192,60625,5,8,0:0:0:0:
256,192,60750,1,8,0:0:0:0:
256,192,60875,1,8,0:0:0:0:
256,192,61125,5,0,0:0:0:0:
256,192,61375,1,0,0:0:0:0:
256,192,61625,5,8,0:0:0:0:
256,192,61875,5,0,0:0:0:0:
256,192,62125,5,8,0:0:0:0:
256,192,62375,5,0,0:0:0:0:
256,192,62625,1,0,0:0:0:0:
256,192,62875,1,0,0:0:0:0:
256,192,63125,5,8,0:0:0:0:
256,192,63375,1,8,0:0:0:0:
256,192,63625,1,8,0:0:0:0:
256,192,63875,1,8,0:0:0:0:
256,192,64125,1,8,0:0:0:0:
256,192,64250,1,8,0:0:0:0:
256,192,64375,1,8,0:0:0:0:
256,192,64500,1,8,0:0:0:0:
256,192,64625,1,8,0:0:0:0:
256,192,64750,5,0,0:0:0:0:
256,192,64813,1,0,0:0:0:0:
256,192,64875,5,8,0:0:0:0:
256,192,64938,1,8,0:0:0:0:
256,192,65000,5,0,0:0:0:0:
256,192,65125,1,4,0:0:0:0:
256,192,65375,1,4,0:0:0:0:
256,192,65625,1,0,0:0:0:0:
256,192,65688,1,0,0:0:0:0:
256,192,65750,5,8,0:0:0:0:
256,192,65875,1,8,0:0:0:0:
256,192,66000,5,4,0:0:0:0:
256,192,66250,1,4,0:0:0:0:
256,192,66500,1,0,0:0:0:0:
256,192,66625,5,8,0:0:0:0:
256,192,66875,5,0,0:0:0:0:
256,192,67125,1,4,0:0:0:0:
256,192,67375,1,0,0:0:0:0:
256,192,67625,5,8,0:0:0:0:
256,192,67750,5,0,0:0:0:0:
256,192,67875,1,0,0:0:0:0:
256,192,67938,1,0,0:0:0:0:
256,192,68000,5,8,0:0:0:0:
256,192,68125,1,8,0:0:0:0:
256,192,68250,5,0,0:0:0:0:
256,192,68375,1,0,0:0:0:0:
256,192,68438,1,0,0:0:0:0:
256,192,68500,1,0,0:0:0:0:
256,192,68563,1,0,0:0:0:0:
256,192,68625,5,8,0:0:0:0:
256,192,68750,5,0,0:0:0:0:
256,192,68875,5,8,0:0:0:0:
256,192,68938,5,0,0:0:0:0:
256,192,69000,5,8,0:0:0:0:
256,192,69125,5,4,0:0:0:0:
256,192,69375,1,4,0:0:0:0:
256,192,69625,5,8,0:0:0:0:
256,192,69750,1,8,0:0:0:0:
256,192,69875,1,8,0:0:0:0:
256,192,70000,5,4,0:0:0:0:
256,192,70250,1,4,0:0:0:0:
256,192,70500,1,0,0:0:0:0:
256,192,70625,5,8,0:0:0:0:
256,192,70875,1,8,0:0:0:0:
256,192,71000,1,8,0:0:0:0:
256,192,71125,5,4,0:0:0:0:
256,192,71375,5,8,0:0:0:0:
256,192,71500,5,0,0:0:0:0:
256,192,71625,5,8,0:0:0:0:
256,192,71875,5,0,0:0:0:0:
256,192,71938,1,0,0:0:0:0:
256,192,72000,5,8,0:0:0:0:
256,192,72125,1,8,0:0:0:0:
256,192,72188,1,8,0:0:0:0:
256,192,72250,5,0,0:0:0:0:
256,192,72313,1,0,0:0:0:0:
256,192,72375,5,8,0:0:0:0:
256,192,72500,1,8,0:0:0:0:
256,192,72625,1,8,0:0:0:0:
256,192,72688,1,8,0:0:0:0:
256,192,72750,1,8,0:0:0:0:
256,192,72813,1,8,0:0:0:0:
256,192,72875,5,0,0:0:0:0:
256,192,72938,1,0,0:0:0:0:
256,192,73000,1,0,0:0:0:0:
256,192,73125,1,4,0:0:0:0:
256,192,73375,1,4,0:0:0:0:
256,192,73625,1,0,0:0:0:0:
256,192,73750,5,8,0:0:0:0:
256,192,73875,5,0,0:0:0:0:
256,192,74000,5,8,0:0:0:0:
256,192,74125,1,8,0:0:0:0:
256,192,74375,1,8,0:0:0:0:
256,192,74500,5,0,0:0:0:0:
256,192,74625,1,0,0:0:0:0:
256,192,74688,1,0,0:0:0:0:
256,192,74750,1,0,0:0:0:0:
256,192,74813,1,0,0:0:0:0:
256,192,74875,5,8,0:0:0:0:
256,192,74938,1,8,0:0:0:0:
256,192,75000,1,8,0:0:0:0:
256,192,75125,5,4,0:0:0:0:
256,192,75375,1,4,0:0:0:0:
256,192,75625,5,8,0:0:0:0:
256,192,75875,5,4,0:0:0:0:
256,192,76000,1,4,0:0:0:0:
256,192,76250,1,4,0:0:0:0:
256,192,76375,1,4,0:0:0:0:
256,192,76625,5,8,0:0:0:0:
256,192,76688,1,8,0:0:0:0:
256,192,76750,5,0,0:0:0:0:
256,192,76813,1,0,0:0:0:0:
256,192,76875,5,8,0:0:0:0:
256,192,76938,1,8,0:0:0:0:
256,192,77000,1,8,0:0:0:0:
256,192,77125,5,4,0:0:0:0:
256,192,77375,1,4,0:0:0:0:
256,192,77625,5,8,0:0:0:0:
256,192,77688,5,0,0:0:0:0:
256,192,77750,1,0,0:0:0:0:
256,192,77875,5,8,0:0:0:0:
256,192,78000,1,8,0:0:0:0:
256,192,78125,5,0,0:0:0:0:
256,192,78375,5,8,0:0:0:0:
256,192,78438,1,8,0:0:0:0:
256,192,78500,1,8,0:0:0:0:
256,192,78625,5,0,0:0:0:0:
256,192,78875,5,8,0:0:0:0:
256,192,78938,1,8,0:0:0:0:
256,192,79000,1,8,0:0:0:0:
256,192,79125,5,0,0:0:0:0:
256,192,79250,5,8,0:0:0:0:
256,192,79375,5,0,0:0:0:0:
256,192,79500,5,8,0:0:0:0:
256,192,79625,5,0,0:0:0:0:
256,192,79750,5,8,0:0:0:0:
256,192,79875,5,0,0:0:0:0:
256,192,80000,1,0,0:0:0:0:
256,192,80125,5,8,0:0:0:0:
256,192,80188,1,8,0:0:0:0:
256,192,80250,1,8,0:0:0:0:
256,192,80313,1,8,0:0:0:0:
256,192,80375,1,8,0:0:0:0:
256,192,80438,1,8,0:0:0:0:
256,192,80500,1,8,0:0:0:0:
256,192,80563,1,8,0:0:0:0:
256,192,80625,5,0,0:0:0:0:
256,192,80688,1,0,0:0:0:0:
256,192,80750,1,0,0:0:0:0:
256,192,80813,1,0,0:0:0:0:
256,192,80875,1,0,0:0:0:0:
256,192,81000,1,0,0:0:0:0:
256,192,81125,1,0,0:0:0:0:
256,192,81250,5,8,0:0:0:0:
256,192,81375,5,0,0:0:0:0:
256,192,81500,5,8,0:0:0:0:
256,192,81625,5,0,0:0:0:0:
256,192,81750,5,8,0:0:0:0:
256,192,81875,5,0,0:0:0:0:
256,192,82000,1,0,0:0:0:0:
256,192,82125,5,8,0:0:0:0:
256,192,82188,1,8,0:0:0:0:
256,192,82250,1,8,0:0:0:0:
256,192,82313,1,8,0:0:0:0:
256,192,82375,5,0,0:0:0:0:
256,192,82500,1,0,0:0:0:0:
256,192,82625,5,8,0:0:0:0:
256,192,82750,5,0,0:0:0:0:
256,192,82875,5,8,0:0:0:0:
256,192,83000,1,8,0:0:0:0:
256,192,83125,5,0,0:0:0:0:
256,192,83250,5,8,0:0:0:0:
256,192,83375,5,0,0:0:0:0:
256,192,83500,5,8,0:0:0:0:
256,192,83625,5,0,0:0:0:0:
256,192,83750,5,8,0:0:0:0:
256,192,83875,5,0,0:0:0:0:
256,192,83938,1,0,0:0:0:0:
256,192,84000,5,8,0:0:0:0:
256,192,84063,1,8,0:0:0:0:
256,192,84125,5,0,0:0:0:0:
256,192,84250,1,0,0:0:0:0:
256,192,84375,1,0,0:0:0:0:
256,192,84500,1,0,0:0:0:0:
256,192,84625,1,0,0:0:0:0:
256,192,84750,1,0,0:0:0:0:
256,192,84813,1,0,0:0:0:0:
256,192,84875,5,8,0:0:0:0:
256,192,85000,5,0,0:0:0:0:
256,192,85125,1,0,0:0:0:0:
256,192,85250,5,8,0:0:0:0:
256,192,85375,5,0,0:0:0:0:
256,192,85500,5,8,0:0:0:0:
256,192,85625,5,0,0:0:0:0:
256,192,85750,5,8,0:0:0:0:
256,192,85875,5,0,0:0:0:0:
256,192,86000,5,8,0:0:0:0:
256,192,86125,5,0,0:0:0:0:
256,192,86188,1,0,0:0:0:0:
256,192,86250,5,8,0:0:0:0:
256,192,86375,5,0,0:0:0:0:
256,192,86438,5,8,0:0:0:0:
256,192,86500,1,8,0:0:0:0:
256,192,86625,1,8,0:0:0:0:
256,192,86688,1,8,0:0:0:0:
256,192,86750,1,8,0:0:0:0:
256,192,86875,1,8,0:0:0:0:
256,192,86938,1,8,0:0:0:0:
256,192,87000,5,0,0:0:0:0:
256,192,87125,1,0,0:0:0:0:
256,192,87188,5,8,0:0:0:0:
256,192,87250,1,8,0:0:0:0:
256,192,87313,1,8,0:0:0:0:
256,192,87375,5,0,0:0:0:0:
256,192,87438,5,8,0:0:0:0:
256,192,87500,1,8,0:0:0:0:
256,192,87563,1,8,0:0:0:0:
256,192,87625,5,0,0:0:0:0:
256,192,87750,5,8,0:0:0:0:
256,192,87875,5,0,0:0:0:0:
256,192,88000,5,8,0:0:0:0:
256,192,88063,1,8,0:0:0:0:
256,192,88125,5,0,0:0:0:0:
256,192,88250,1,0,0:0:0:0:
256,192,88375,5,8,0:0:0:0:
256,192,88500,5,0,0:0:0:0:
256,192,88625,1,0,0:0:0:0:
256,192,88688,1,0,0:0:0:0:
256,192,88750,1,0,0:0:0:0:
256,192,88813,1,0,0:0:0:0:
256,192,88875,5,8,0:0:0:0:
256,192,88938,1,8,0:0:0:0:
256,192,89000,5,0,0:0:0:0:
256,192,89125,1,4,0:0:0:0:
256,192,89375,1,0,0:0:0:0:
256,192,89500,5,8,0:0:0:0:
256,192,89625,5,0,0:0:0:0:
256,192,89750,5,8,0:0:0:0:
256,192,89875,1,8,0:0:0:0:
256,192,89938,1,8,0:0:0:0:
256,192,90000,5,0,0:0:0:0:
256,192,90125,5,8,0:0:0:0:
256,192,90250,1,8,0:0:0:0:
256,192,90375,5,0,0:0:0:0:
256,192,90500,5,8,0:0:0:0:
256,192,90625,5,0,0:0:0:0:
256,192,90688,5,8,0:0:0:0:
256,192,90750,1,8,0:0:0:0:
256,192,90813,1,8,0:0:0:0:
256,192,90875,5,0,0:0:0:0:
256,192,91000,1,0,0:0:0:0:
256,192,91125,1,0,0:0:0:0:
256,192,91188,1,0,0:0:0:0:
256,192,91250,5,8,0:0:0:0:
256,192,91313,1,8,0:0:0:0:
256,192,91375,5,0,0:0:0:0:
256,192,91500,5,8,0:0:0:0:
256,192,91625,5,0,0:0:0:0:
256,192,91750,5,8,0:0:0:0:
256,192,91875,5,0,0:0:0:0:
256,192,92000,5,8,0:0:0:0:
256,192,92063,1,8,0:0:0:0:
256,192,92125,5,0,0:0:0:0:
256,192,92250,1,0,0:0:0:0:
256,192,92313,1,0,0:0:0:0:
256,192,92375,5,8,0:0:0:0:
256,192,92500,1,8,0:0:0:0:
256,192,92625,5,0,0:0:0:0:
256,192,92750,1,0,0:0:0:0:
256,192,92875,5,8,0:0:0:0:
256,192,92938,1,8,0:0:0:0:
256,192,93000,1,8,0:0:0:0:
256,192,93063,1,8,0:0:0:0:
256,192,93125,5,0,0:0:0:0:
256,192,93250,1,0,0:0:0:0:
256,192,93375,1,0,0:0:0:0:
256,192,93500,1,0,0:0:0:0:
256,192,93625,1,0,0:0:0:0:
256,192,93875,1,0,0:0:0:0:
256,192,94000,1,0,0:0:0:0:
256,192,94125,1,0,0:0:0:0:
256,192,94375,1,0,0:0:0:0:
256,192,94625,5,8,0:0:0:0:
256,192,94688,1,8,0:0:0:0:
256,192,94750,5,0,0:0:0:0:
256,192,94813,1,0,0:0:0:0:
256,192,94875,5,8,0:0:0:0:
256,192,95000,1,8,0:0:0:0:
256,192,95125,1,12,0:0:0:0:
256,192,95500,1,12,0:0:0:0:
256,192,95875,1,12,0:0:0:0:
256,192,96125,1,8,0:0:0:0:
256,192,96188,1,8,0:0:0:0:
256,192,96250,1,8,0:0:0:0:
256,192,96313,1,8,0:0:0:0:
256,192,96375,5,0,0:0:0:0:
256,192,96438,1,0,0:0:0:0:
256,192,96500,5,8,0:0:0:0:
256,192,96563,1,8,0:0:0:0:
256,192,96625,5,0,0:0:0:0:
256,192,96750,1,0,0:0:0:0:
256,192,96875,1,0,0:0:0:0:
256,192,97000,5,8,0:0:0:0:
256,192,97125,5,0,0:0:0:0:
256,192,97188,1,0,0:0:0:0:
256,192,97250,5,8,0:0:0:0:
256,192,97313,1,8,0:0:0:0:
256,192,97375,5,0,0:0:0:0:
256,192,97438,1,0,0:0:0:0:
256,192,97500,5,8,0:0:0:0:
256,192,97750,1,8,0:0:0:0:
256,192,97813,1,8,0:0:0:0:
256,192,97875,5,0,0:0:0:0:
256,192,98000,1,0,0:0:0:0:
256,192,98125,5,8,0:0:0:0:
256,192,98188,1,8,0:0:0:0:
256,192,98250,5,0,0:0:0:0:
256,192,98313,1,0,0:0:0:0:
256,192,98375,5,8,0:0:0:0:
256,192,98500,1,8,0:0:0:0:
256,192,98625,5,0,0:0:0:0:
256,192,98750,5,8,0:0:0:0:
256,192,98875,5,0,0:0:0:0:
256,192,99000,1,0,0:0:0:0:
256,192,99125,1,0,0:0:0:0:
256,192,99188,1,0,0:0:0:0:
256,192,99250,5,8,0:0:0:0:
256,192,99375,5,0,0:0:0:0:
256,192,99500,5,8,0:0:0:0:
256,192,99625,5,0,0:0:0:0:
256,192,99688,1,0,0:0:0:0:
256,192,99750,5,8,0:0:0:0:
256,192,99875,1,8,0:0:0:0:
256,192,100000,5,0,0:0:0:0:
256,192,100125,5,8,0:0:0:0:
256,192,100188,1,8,0:0:0:0:
256,192,100250,5,0,0:0:0:0:
256,192,100313,1,0,0:0:0:0:
256,192,100375,5,8,0:0:0:0:
256,192,100500,1,8,0:0:0:0:
256,192,100625,5,0,0:0:0:0:
256,192,100688,5,8,0:0:0:0:
256,192,100750,5,0,0:0:0:0:
256,192,100875,1,0,0:0:0:0:
256,192,101000,1,0,0:0:0:0:
256,192,101125,1,0,0:0:0:0:
256,192,101250,5,8,0:0:0:0:
256,192,101375,5,0,0:0:0:0:
256,192,101500,5,8,0:0:0:0:
256,192,101563,1,8,0:0:0:0:
256,192,101625,5,0,0:0:0:0:
256,192,101750,1,0,0:0:0:0:
256,192,101813,1,0,0:0:0:0:
256,192,101875,5,8,0:0:0:0:
256,192,102000,5,0,0:0:0:0:
256,192,102125,5,8,0:0:0:0:
256,192,102188,1,8,0:0:0:0:
256,192,102250,5,0,0:0:0:0:
256,192,102313,1,0,0:0:0:0:
256,192,102375,5,8,0:0:0:0:
256,192,102438,1,8,0:0:0:0:
256,192,102500,5,0,0:0:0:0:
256,192,102625,1,0,0:0:0:0:
256,192,102875,1,0,0:0:0:0:
256,192,103000,1,0,0:0:0:0:
256,192,103063,1,0,0:0:0:0:
256,192,103125,1,0,0:0:0:0:
256,192,103250,5,8,0:0:0:0:
256,192,103375,5,0,0:0:0:0:
256,192,103500,5,8,0:0:0:0:
256,192,103625,5,0,0:0:0:0:
256,192,103750,5,8,0:0:0:0:
256,192,103875,5,0,0:0:0:0:
256,192,104000,5,8,0:0:0:0:
256,192,104063,1,8,0:0:0:0:
256,192,104125,5,0,0:0:0:0:
256,192,104250,1,0,0:0:0:0:
256,192,104375,1,0,0:0:0:0:
256,192,104500,1,0,0:0:0:0:
256,192,104625,5,8,0:0:0:0:
256,192,104688,5,0,0:0:0:0:
256,192,104750,1,0,0:0:0:0:
256,192,104813,1,0,0:0:0:0:
256,192,104875,5,8,0:0:0:0:
256,192,104938,1,8,0:0:0:0:
256,192,105000,5,0,0:0:0:0:
256,192,105125,1,4,0:0:0:0:
256,192,105250,5,8,0:0:0:0:
256,192,105375,5,0,0:0:0:0:
256,192,105500,5,8,0:0:0:0:
256,192,105625,5,0,0:0:0:0:
256,192,105750,5,8,0:0:0:0:
256,192,105875,5,0,0:0:0:0:
256,192,106000,1,0,0:0:0:0:
256,192,106125,5,8,0:0:0:0:
256,192,106188,1,8,0:0:0:0:
256,192,106250,5,0,0:0:0:0:
256,192,106313,1,0,0:0:0:0:
256,192,106375,5,8,0:0:0:0:
256,192,106500,1,8,0:0:0:0:
256,192,106625,5,0,0:0:0:0:
256,192,106688,5,8,0:0:0:0:
256,192,106750,5,0,0:0:0:0:
256,192,106875,1,0,0:0:0:0:
256,192,106938,1,0,0:0:0:0:
256,192,107000,5,8,0:0:0:0:
256,192,107063,1,8,0:0:0:0:
256,192,107125,5,0,0:0:0:0:
256,192,107250,5,8,0:0:0:0:
256,192,107375,5,0,0:0:0:0:
256,192,107500,5,8,0:0:0:0:
256,192,107625,5,0,0:0:0:0:
256,192,107750,5,8,0:0:0:0:
256,192,107875,1,8,0:0:0:0:
256,192,108000,5,0,0:0:0:0:
256,192,108125,5,8,0:0:0:0:
256,192,108188,1,8,0:0:0:0:
256,192,108250,5,0,0:0:0:0:
256,192,108313,5,8,0:0:0:0:
256,192,108375,5,0,0:0:0:0:
256,192,108438,1,0,0:0:0:0:
256,192,108500,5,8,0:0:0:0:
256,192,108625,1,8,0:0:0:0:
256,192,108750,5,0,0:0:0:0:
256,192,108813,1,0,0:0:0:0:
256,192,108875,1,0,0:0:0:0:
256,192,109000,5,8,0:0:0:0:
256,192,109125,5,0,0:0:0:0:
256,192,109250,5,8,0:0:0:0:
256,192,109375,5,0,0:0:0:0:
256,192,109500,5,8,0:0:0:0:
256,192,109625,5,0,0:0:0:0:
256,192,109750,5,8,0:0:0:0:
256,192,109875,1,8,0:0:0:0:
256,192,109938,1,8,0:0:0:0:
256,192,110000,5,0,0:0:0:0:
256,192,110125,5,8,0:0:0:0:
256,192,110250,5,0,0:0:0:0:
256,192,110375,1,0,0:0:0:0:
256,192,110500,1,0,0:0:0:0:
256,192,110625,5,8,0:0:0:0:
256,192,110750,5,0,0:0:0:0:
256,192,110875,1,0,0:0:0:0:
256,192,111000,1,0,0:0:0:0:
256,192,111125,1,4,0:0:0:0:
256,192,111500,1,4,0:0:0:0:
256,192,111875,1,4,0:0:0:0:
256,192,112125,5,8,0:0:0:0:
256,192,112188,1,8,0:0:0:0:
256,192,112250,1,8,0:0:0:0:
256,192,112313,1,8,0:0:0:0:
256,192,112375,5,0,0:0:0:0:
256,192,112438,1,0,0:0:0:0:
256,192,112500,5,8,0:0:0:0:
256,192,112563,1,8,0:0:0:0:
256,192,112625,5,0,0:0:0:0:
256,192,112688,1,0,0:0:0:0:
256,192,112750,1,0,0:0:0:0:
256,192,112875,1,0,0:0:0:0:
256,192,113000,1,0,0:0:0:0:
256,192,113125,1,0,0:0:0:0:
256,192,113250,1,0,0:0:0:0:
256,192,113375,5,8,0:0:0:0:
256,192,113500,5,0,0:0:0:0:
256,192,113625,5,8,0:0:0:0:
256,192,113750,5,0,0:0:0:0:
256,192,113875,1,0,0:0:0:0:
256,192,114000,1,4,0:0:0:0:
256,192,114250,1,0,0:0:0:0:
256,192,114375,1,0,0:0:0:0:
256,192,114500,5,8,0:0:0:0:
256,192,114625,1,12,0:0:0:0:
256,192,114875,5,0,0:0:0:0:
256,192,115000,5,8,0:0:0:0:
256,192,115125,5,12,0:0:0:0:
256,192,115375,1,0,0:0:0:0:
256,192,115500,1,0,0:0:0:0:
256,192,115625,5,12,0:0:0:0:
256,192,115750,5,0,0:0:0:0:
256,192,115875,1,0,0:0:0:0:
256,192,116000,5,8,0:0:0:0:
256,192,116125,5,0,0:0:0:0:
256,192,116250,1,0,0:0:0:0:
256,192,116375,5,8,0:0:0:0:
256,192,116500,1,8,0:0:0:0:
256,192,116625,1,8,0:0:0:0:
256,192,116750,5,0,0:0:0:0:
256,192,116875,1,0,0:0:0:0:
256,192,117000,5,8,0:0:0:0:
256,192,117125,5,4,0:0:0:0:
256,192,117375,1,0,0:0:0:0:
256,192,117500,5,12,0:0:0:0:
256,192,117750,5,0,0:0:0:0:
256,192,117875,1,0,0:0:0:0:
256,192,118000,5,8,0:0:0:0:
256,192,118125,5,0,0:0:0:0:
256,192,118250,1,0,0:0:0:0:
256,192,118375,1,0,0:0:0:0:
256,192,118500,5,8,0:0:0:0:
256,192,118625,5,0,0:0:0:0:
256,192,118750,5,8,0:0:0:0:
256,192,118875,1,8,0:0:0:0:
256,192,119000,5,0,0:0:0:0:
256,192,119125,5,12,0:0:0:0:
256,192,119375,5,0,0:0:0:0:
256,192,119500,5,12,0:0:0:0:
256,192,119750,5,0,0:0:0:0:
256,192,119875,1,0,0:0:0:0:
256,192,120000,5,8,0:0:0:0:
256,192,120125,1,8,0:0:0:0:
256,192,120250,5,0,0:0:0:0:
256,192,120375,5,8,0:0:0:0:
256,192,120500,1,8,0:0:0:0:
256,192,120625,5,0,0:0:0:0:
256,192,120750,5,8,0:0:0:0:
256,192,120813,1,8,0:0:0:0:
256,192,120875,5,0,0:0:0:0:
256,192,120938,5,8,0:0:0:0:
256,192,121000,1,8,0:0:0:0:
256,192,121125,5,0,0:0:0:0:
256,192,121250,5,8,0:0:0:0:
256,192,121375,5,0,0:0:0:0:
256,192,121500,5,8,0:0:0:0:
256,192,121625,5,0,0:0:0:0:
256,192,121750,5,8,0:0:0:0:
256,192,121813,1,8,0:0:0:0:
256,192,121875,5,0,0:0:0:0:
256,192,121938,1,0,0:0:0:0:
256,192,122000,5,8,0:0:0:0:
256,192,122125,5,0,0:0:0:0:
256,192,122188,1,0,0:0:0:0:
256,192,122250,5,8,0:0:0:0:
256,192,122375,5,0,0:0:0:0:
256,192,122500,5,8,0:0:0:0:
256,192,122625,1,8,0:0:0:0:
256,192,122688,1,8,0:0:0:0:
256,192,122750,1,8,0:0:0:0:
256,192,122813,1,8,0:0:0:0:
256,192,122875,5,0,0:0:0:0:
256,192,123000,5,8,0:0:0:0:
256,192,123125,5,0,0:0:0:0:
256,192,123250,5,8,0:0:0:0:
256,192,123375,5,0,0:0:0:0:
256,192,123500,5,8,0:0:0:0:
256,192,123625,5,0,0:0:0:0:
256,192,123750,1,0,0:0:0:0:
256,192,123813,1,0,0:0:0:0:
256,192,123875,5,8,0:0:0:0:
256,192,124000,1,8,0:0:0:0:
256,192,124063,1,8,0:0:0:0:
256,192,124125,5,0,0:0:0:0:
256,192,124250,1,0,0:0:0:0:
256,192,124375,5,8,0:0:0:0:
256,192,124500,1,8,0:0:0:0:
256,192,124625,5,0,0:0:0:0:
256,192,124750,1,0,0:0:0:0:
256,192,124813,1,0,0:0:0:0:
256,192,124875,1,0,0:0:0:0:
256,192,125000,5,8,0:0:0:0:
256,192,125125,5,4,0:0:0:0:
256,192,125375,1,4,0:0:0:0:
256,192,125625,5,8,0:0:0:0:
256,192,125750,5,0,0:0:0:0:
256,192,125875,1,0,0:0:0:0:
256,192,126000,5,8,0:0:0:0:
256,192,126063,1,8,0:0:0:0:
256,192,126125,5,0,0:0:0:0:
256,192,126250,1,0,0:0:0:0:
256,192,126375,1,0,0:0:0:0:
256,192,126438,1,0,0:0:0:0:
256,192,126500,5,8,0:0:0:0:
256,192,126625,5,0,0:0:0:0:
256,192,126750,5,8,0:0:0:0:
256,192,126875,5,0,0:0:0:0:
256,192,127000,5,8,0:0:0:0:
256,192,127125,5,4,0:0:0:0:
256,192,127375,1,4,0:0:0:0:
256,192,127625,5,8,0:0:0:0:
256,192,127750,5,0,0:0:0:0:
256,192,127813,1,0,0:0:0:0:
256,192,127875,5,8,0:0:0:0:
256,192,128000,1,8,0:0:0:0:
256,192,128125,1,8,0:0:0:0:
256,192,128188,1,8,0:0:0:0:
256,192,128250,5,0,0:0:0:0:
256,192,128375,1,0,0:0:0:0:
256,192,128500,5,8,0:0:0:0:
256,192,128563,1,8,0:0:0:0:
256,192,128625,5,0,0:0:0:0:
256,192,128688,1,0,0:0:0:0:
256,192,128750,1,0,0:0:0:0:
256,192,128813,1,0,0:0:0:0:
256,192,128875,5,8,0:0:0:0:
256,192,129000,1,8,0:0:0:0:
256,192,129125,5,4,0:0:0:0:
256,192,129625,1,0,0:0:0:0:
256,192,129875,5,8,0:0:0:0:
256,192,130000,1,8,0:0:0:0:
256,192,130125,5,0,0:0:0:0:
256,192,130625,5,8,0:0:0:0:
256,192,131125,5,0,0:0:0:0:
256,192,131625,5,8,0:0:0:0:
256,192,131875,1,8,0:0:0:0:
256,192,132000,1,8,0:0:0:0:
256,192,132125,5,0,0:0:0:0:
256,192,132625,5,8,0:0:0:0:
256,192,132875,1,8,0:0:0:0:
256,192,133125,5,0,0:0:0:0:
256,192,133375,1,0,0:0:0:0:
256,192,133625,5,8,0:0:0:0:
256,192,133875,5,0,0:0:0:0:
256,192,134125,1,0,0:0:0:0:
256,192,134625,5,8,0:0:0:0:
256,192,135125,5,0,0:0:0:0:
256,192,135625,5,8,0:0:0:0:
256,192,135875,1,8,0:0:0:0:
256,192,136000,1,8,0:0:0:0:
256,192,136125,5,0,0:0:0:0:
256,192,136625,5,8,0:0:0:0:
256,192,137125,5,4,0:0:0:0:
256,192,137625,5,8,0:0:0:0:
256,192,137875,5,0,0:0:0:0:
256,192,138000,5,8,0:0:0:0:
256,192,138125,5,0,0:0:0:0:
256,192,138625,5,8,0:0:0:0:
256,192,139125,5,0,0:0:0:0:
256,192,139375,1,0,0:0:0:0:
256,192,139625,5,8,0:0:0:0:
256,192,139875,5,0,0:0:0:0:
256,192,140000,5,8,0:0:0:0:
256,192,140125,5,0,0:0:0:0:
256,192,140375,1,0,0:0:0:0:
256,192,140625,5,8,0:0:0:0:
256,192,140875,1,8,0:0:0:0:
256,192,141125,5,0,0:0:0:0:
256,192,141625,5,8,0:0:0:0:
256,192,141875,1,8,0:0:0:0:
256,192,142000,1,8,0:0:0:0:
256,192,142125,5,0,0:0:0:0:
256,192,142375,5,8,0:0:0:0:
256,192,142625,1,8,0:0:0:0:
256,192,142875,1,8,0:0:0:0:
256,192,143000,1,8,0:0:0:0:
256,192,143125,5,0,0:0:0:0:
256,192,143625,1,0,0:0:0:0:
256,192,143875,5,8,0:0:0:0:
256,192,144125,1,8,0:0:0:0:
256,192,144188,1,8,0:0:0:0:
256,192,144250,5,0,0:0:0:0:
256,192,144313,1,0,0:0:0:0:
256,192,144375,5,8,0:0:0:0:
256,192,144438,1,8,0:0:0:0:
256,192,144500,5,0,0:0:0:0:
256,192,144563,1,0,0:0:0:0:
256,192,144625,5,8,0:0:0:0:
256,192,144750,1,8,0:0:0:0:
256,192,144875,5,0,0:0:0:0:
256,192,144938,1,0,0:0:0:0:
256,192,145000,5,8,0:0:0:0:
256,192,145063,1,8,0:0:0:0:
256,192,145125,5,0,0:0:0:0:
256,192,145250,1,0,0:0:0:0:
256,192,145375,5,8,0:0:0:0:
256,192,145500,1,8,0:0:0:0:
256,192,145625,5,0,0:0:0:0:
256,192,145750,5,8,0:0:0:0:
256,192,145875,5,0,0:0:0:0:
256,192,146000,1,0,0:0:0:0:
256,192,146063,1,0,0:0:0:0:
256,192,146125,5,8,0:0:0:0:
256,192,146250,1,8,0:0:0:0:
256,192,146375,5,0,0:0:0:0:
256,192,146500,5,8,0:0:0:0:
256,192,146625,5,0,0:0:0:0:
256,192,146750,1,0,0:0:0:0:
256,192,146875,5,8,0:0:0:0:
256,192,147000,5,0,0:0:0:0:
256,192,147125,5,8,0:0:0:0:
256,192,147250,1,8,0:0:0:0:
256,192,147313,1,8,0:0:0:0:
256,192,147375,5,0,0:0:0:0:
256,192,147500,1,0,0:0:0:0:
256,192,147750,1,0,0:0:0:0:
256,192,147875,5,8,0:0:0:0:
256,192,148000,5,0,0:0:0:0:
256,192,148125,5,8,0:0:0:0:
256,192,148188,1,8,0:0:0:0:
256,192,148250,1,8,0:0:0:0:
256,192,148313,1,8,0:0:0:0:
256,192,148375,5,0,0:0:0:0:
256,192,148438,1,0,0:0:0:0:
256,192,148500,1,0,0:0:0:0:
256,192,148563,1,0,0:0:0:0:
256,192,148625,5,8,0:0:0:0:
256,192,148750,5,0,0:0:0:0:
256,192,148875,5,8,0:0:0:0:
256,192,149000,1,8,0:0:0:0:
256,192,149125,5,4,0:0:0:0:
256,192,149375,5,8,0:0:0:0:
256,192,149500,1,8,0:0:0:0:
256,192,149625,5,0,0:0:0:0:
256,192,149750,1,0,0:0:0:0:
256,192,149875,1,0,0:0:0:0:
256,192,150000,5,8,0:0:0:0:
256,192,150063,1,8,0:0:0:0:
256,192,150125,5,0,0:0:0:0:
256,192,150250,5,8,0:0:0:0:
256,192,150375,5,0,0:0:0:0:
256,192,150500,5,8,0:0:0:0:
256,192,150625,1,8,0:0:0:0:
256,192,150750,1,8,0:0:0:0:
256,192,150813,1,8,0:0:0:0:
256,192,150875,5,0,0:0:0:0:
256,192,151000,1,0,0:0:0:0:
256,192,151125,5,8,0:0:0:0:
256,192,151375,1,8,0:0:0:0:
256,192,151500,1,8,0:0:0:0:
256,192,151625,5,0,0:0:0:0:
256,192,151750,5,8,0:0:0:0:
256,192,152000,1,8,0:0:0:0:
256,192,152125,5,0,0:0:0:0:
256,192,152188,1,0,0:0:0:0:
256,192,152250,1,0,0:0:0:0:
256,192,152375,5,8,0:0:0:0:
256,192,152438,1,8,0:0:0:0:
256,192,152500,1,8,0:0:0:0:
256,192,152625,5,0,0:0:0:0:
256,192,152750,1,0,0:0:0:0:
256,192,152875,5,8,0:0:0:0:
256,192,152938,1,8,0:0:0:0:
256,192,153000,1,8,0:0:0:0:
256,192,153063,1,8,0:0:0:0:
256,192,153125,5,0,0:0:0:0:
256,192,153625,1,0,0:0:0:0:
256,192,153875,5,8,0:0:0:0:
256,192,154000,1,8,0:0:0:0:
256,192,154125,1,8,0:0:0:0:
256,192,154188,1,8,0:0:0:0:
256,192,154250,5,0,0:0:0:0:
256,192,154375,1,0,0:0:0:0:
256,192,154500,5,8,0:0:0:0:
256,192,154625,5,0,0:0:0:0:
256,192,154750,1,0,0:0:0:0:
256,192,154875,5,8,0:0:0:0:
256,192,154938,1,8,0:0:0:0:
256,192,155000,1,8,0:0:0:0:
256,192,155063,1,8,0:0:0:0:
256,192,155125,5,0,0:0:0:0:
256,192,155250,1,0,0:0:0:0:
256,192,155375,5,8,0:0:0:0:
256,192,155500,5,0,0:0:0:0:
256,192,155750,1,0,0:0:0:0:
256,192,155875,5,8,0:0:0:0:
256,192,156000,1,8,0:0:0:0:
256,192,156125,5,0,0:0:0:0:
256,192,156188,1,0,0:0:0:0:
256,192,156250,1,0,0:0:0:0:
256,192,156313,1,0,0:0:0:0:
256,192,156375,5,8,0:0:0:0:
256,192,156438,1,8,0:0:0:0:
256,192,156500,1,8,0:0:0:0:
256,192,156625,1,8,0:0:0:0:
256,192,156750,5,0,0:0:0:0:
256,192,156875,5,8,0:0:0:0:
256,192,157000,1,8,0:0:0:0:
256,192,157125,5,4,0:0:0:0:
256,192,157375,1,0,0:0:0:0:
256,192,157500,5,8,0:0:0:0:
256,192,157750,1,8,0:0:0:0:
256,192,157875,1,8,0:0:0:0:
256,192,158000,5,0,0:0:0:0:
256,192,158125,5,8,0:0:0:0:
256,192,158250,5,0,0:0:0:0:
256,192,158375,1,0,0:0:0:0:
256,192,158438,1,0,0:0:0:0:
256,192,158500,5,8,0:0:0:0:
256,192,158625,1,8,0:0:0:0:
256,192,158750,5,0,0:0:0:0:
256,192,158875,5,8,0:0:0:0:
256,192,158938,1,8,0:0:0:0:
256,192,159000,5,0,0:0:0:0:
256,192,159063,1,0,0:0:0:0:
256,192,159125,5,8,0:0:0:0:
256,192,159250,1,8,0:0:0:0:
256,192,159375,1,8,0:0:0:0:
256,192,159438,1,8,0:0:0:0:
256,192,159500,1,8,0:0:0:0:
256,192,159625,5,0,0:0:0:0:
256,192,159750,1,0,0:0:0:0:
256,192,159875,5,8,0:0:0:0:
256,192,160000,5,0,0:0:0:0:
256,192,160125,5,8,0:0:0:0:
256,192,160188,1,8,0:0:0:0:
256,192,160250,5,0,0:0:0:0:
256,192,160313,1,0,0:0:0:0:
256,192,160375,5,8,0:0:0:0:
256,192,160500,1,8,0:0:0:0:
256,192,160625,5,0,0:0:0:0:
256,192,160750,1,0,0:0:0:0:
256,192,160875,5,8,0:0:0:0:
256,192,160938,1,8,0:0:0:0:
256,192,161000,1,8,0:0:0:0:
256,192,161063,1,8,0:0:0:0:
256,192,161125,5,0,0:0:0:0:
256,192,161625,5,8,0:0:0:0:
256,192,161875,1,8,0:0:0:0:
256,192,162000,1,8,0:0:0:0:
256,192,162125,5,0,0:0:0:0:
256,192,162375,5,8,0:0:0:0:
256,192,162625,5,0,0:0:0:0:
256,192,162875,1,0,0:0:0:0:
256,192,163125,5,8,0:0:0:0:
256,192,163375,1,8,0:0:0:0:
256,192,163625,1,8,0:0:0:0:
256,192,163875,1,8,0:0:0:0:
256,192,164125,5,0,0:0:0:0:
256,192,164375,1,0,0:0:0:0:
256,192,164625,1,0,0:0:0:0:
256,192,164875,1,0,0:0:0:0:
256,192,165125,5,8,0:0:0:0:
256,192,165250,5,0,0:0:0:0:
256,192,165375,1,0,0:0:0:0:
256,192,165500,5,8,0:0:0:0:
256,192,165625,5,0,0:0:0:0:
256,192,165750,1,0,0:0:0:0:
256,192,165875,5,8,0:0:0:0:
256,192,166000,5,0,0:0:0:0:
256,192,166125,1,0,0:0:0:0:
256,192,166250,5,8,0:0:0:0:
256,192,166375,5,0,0:0:0:0:
256,192,166625,1,0,0:0:0:0:
256,192,166875,5,8,0:0:0:0:
256,192,167125,1,8,0:0:0:0:
256,192,167250,1,8,0:0:0:0:
256,192,167500,1,8,0:0:0:0:
256,192,167625,1,8,0:0:0:0:
256,192,167875,1,8,0:0:0:0:
256,192,168000,1,8,0:0:0:0:
256,192,168250,1,8,0:0:0:0:
256,192,168313,1,8,0:0:0:0:
256,192,168375,1,8,0:0:0:0:
256,192,168500,1,8,0:0:0:0:
256,192,168625,1,8,0:0:0:0:
256,192,168750,1,8,0:0:0:0:
256,192,168813,1,8,0:0:0:0:
256,192,168875,1,8,0:0:0:0:
256,192,168938,1,8,0:0:0:0:
256,192,169000,1,8,0:0:0:0:
256,192,169125,5,4,0:0:0:0:
256,192,170125,5,8,0:0:0:0:
256,192,170188,1,8,0:0:0:0:
256,192,170250,1,8,0:0:0:0:
256,192,170313,1,8,0:0:0:0:
256,192,170375,1,8,0:0:0:0:
256,192,171125,5,0,0:0:0:0:
256,192,172125,5,8,0:0:0:0:
256,192,172188,1,8,0:0:0:0:
256,192,172250,1,8,0:0:0:0:
256,192,172313,1,8,0:0:0:0:
256,192,172375,1,8,0:0:0:0:
256,192,173125,5,0,0:0:0:0:
256,192,174125,5,8,0:0:0:0:
256,192,174188,1,8,0:0:0:0:
256,192,174250,1,8,0:0:0:0:
256,192,174313,1,8,0:0:0:0:
256,192,174375,1,8,0:0:0:0:
256,192,175125,5,0,0:0:0:0:
256,192,176125,5,8,0:0:0:0:
256,192,177125,5,0,0:0:0:0:
256,192,177375,1,0,0:0:0:0:
256,192,177625,5,8,0:0:0:0:
256,192,177875,1,8,0:0:0:0:
256,192,178000,5,0,0:0:0:0:
256,192,178125,5,8,0:0:0:0:
256,192,178250,1,8,0:0:0:0:
256,192,178375,5,0,0:0:0:0:
256,192,178500,1,0,0:0:0:0:
256,192,178625,5,8,0:0:0:0:
256,192,178875,1,8,0:0:0:0:
256,192,179000,1,8,0:0:0:0:
256,192,179125,5,0,0:0:0:0:
256,192,179375,1,0,0:0:0:0:
256,192,179625,5,8,0:0:0:0:
256,192,179875,1,8,0:0:0:0:
256,192,180000,5,0,0:0:0:0:
256,192,180125,5,8,0:0:0:0:
256,192,180250,5,0,0:0:0:0:
256,192,180500,1,0,0:0:0:0:
256,192,180625,5,8,0:0:0:0:
256,192,180875,1,8,0:0:0:0:
256,192,181000,1,8,0:0:0:0:
256,192,181125,5,0,0:0:0:0:
256,192,181375,1,0,0:0:0:0:
256,192,181625,5,8,0:0:0:0:
256,192,181875,5,0,0:0:0:0:
256,192,182000,5,8,0:0:0:0:
256,192,182125,1,8,0:0:0:0:
256,192,182250,5,0,0:0:0:0:
256,192,182500,1,0,0:0:0:0:
256,192,182625,5,8,0:0:0:0:
256,192,182875,1,8,0:0:0:0:
256,192,183000,1,8,0:0:0:0:
256,192,183125,5,0,0:0:0:0:
256,192,183375,1,0,0:0:0:0:
256,192,183625,5,8,0:0:0:0:
256,192,183875,5,0,0:0:0:0:
256,192,184125,5,8,0:0:0:0:
256,192,184375,1,8,0:0:0:0:
256,192,184625,1,8,0:0:0:0:
256,192,184875,5,0,0:0:0:0:
256,192,185125,1,4,0:0:0:0:
256,192,185500,1,4,0:0:0:0:
256,192,185875,1,4,0:0:0:0:
256,192,186250,1,4,0:0:0:0:
256,192,186625,1,4,0:0:0:0:
256,192,186875,5,12,0:0:0:0:
256,192,187125,5,4,0:0:0:0:
256,192,187500,1,4,0:0:0:0:
256,192,187875,1,4,0:0:0:0:
256,192,188250,1,4,0:0:0:0:
256,192,188625,1,4,0:0:0:0:
256,192,188875,5,12,0:0:0:0:
256,192,189125,1,12,0:0:0:0:
256,192,189500,5,4,0:0:0:0:
256,192,189875,1,4,0:0:0:0:
256,192,190250,1,4,0:0:0:0:
256,192,190625,5,12,0:0:0:0:
256,192,190875,5,4,0:0:0:0:
256,192,191125,5,12,0:0:0:0:
256,192,191375,5,4,0:0:0:0:
256,192,191500,5,12,0:0:0:0:
256,192,191875,1,12,0:0:0:0:
256,192,192125,1,12,0:0:0:0:
256,192,192250,1,12,0:0:0:0:
256,192,192500,1,12,0:0:0:0:
256,192,192625,5,4,0:0:0:0:
256,192,192875,1,4,0:0:0:0:
256,192,193125,5,12,0:0:0:0:
256,192,193500,5,4,0:0:0:0:
256,192,193875,1,4,0:0:0:0:
256,192,194250,1,4,0:0:0:0:
256,192,194625,1,4,0:0:0:0:
256,192,194875,5,12,0:0:0:0:
256,192,195125,5,4,0:0:0:0:
256,192,195375,5,12,0:0:0:0:
256,192,195500,5,4,0:0:0:0:
256,192,195875,1,4,0:0:0:0:
256,192,196125,5,12,0:0:0:0:
256,192,196250,5,4,0:0:0:0:
256,192,196625,1,4,0:0:0:0:
256,192,196875,1,4,0:0:0:0:
256,192,197125,1,4,0:0:0:0:
256,192,197625,5,8,0:0:0:0:
256,192,198625,1,8,0:0:0:0:
256,192,198875,5,0,0:0:0:0:
256,192,199125,5,12,0:0:0:0:
256,192,200250,1,8,0:0:0:0:
256,192,200375,1,8,0:0:0:0:
256,192,200500,1,8,0:0:0:0:
256,192,200625,1,8,0:0:0:0:
256,192,200750,1,8,0:0:0:0:
256,192,200875,1,8,0:0:0:0:
256,192,201000,1,8,0:0:0:0:
256,192,201125,5,0,0:0:0:0:
256,192,201250,5,8,0:0:0:0:
256,192,201375,5,0,0:0:0:0:
256,192,201500,5,8,0:0:0:0:
256,192,201625,5,0,0:0:0:0:
256,192,201750,5,8,0:0:0:0:
256,192,201875,5,0,0:0:0:0:
256,192,202000,5,8,0:0:0:0:
256,192,202125,5,0,0:0:0:0:
256,192,202188,1,0,0:0:0:0:
256,192,202250,1,0,0:0:0:0:
256,192,202313,1,0,0:0:0:0:
256,192,202375,5,8,0:0:0:0:
256,192,202500,5,0,0:0:0:0:
256,192,202625,5,8,0:0:0:0:
256,192,202688,1,8,0:0:0:0:
256,192,202750,1,8,0:0:0:0:
256,192,202813,1,8,0:0:0:0:
256,192,202875,5,0,0:0:0:0:
256,192,203000,5,8,0:0:0:0:
256,192,203125,5,0,0:0:0:0:
256,192,203250,5,8,0:0:0:0:
256,192,203375,5,0,0:0:0:0:
256,192,203500,5,8,0:0:0:0:
256,192,203625,5,0,0:0:0:0:
256,192,203750,5,8,0:0:0:0:
256,192,203875,5,0,0:0:0:0:
256,192,204000,5,8,0:0:0:0:
256,192,204063,1,8,0:0:0:0:
256,192,204125,5,0,0:0:0:0:
256,192,204250,1,0,0:0:0:0:
256,192,204375,1,0,0:0:0:0:
256,192,204438,1,0,0:0:0:0:
256,192,204500,5,8,0:0:0:0:
256,192,204625,5,0,0:0:0:0:
256,192,204688,5,8,0:0:0:0:
256,192,204750,5,0,0:0:0:0:
256,192,204813,5,8,0:0:0:0:
256,192,204875,5,0,0:0:0:0:
256,192,205000,5,8,0:0:0:0:
256,192,205125,5,0,0:0:0:0:
256,192,205250,5,8,0:0:0:0:
256,192,205375,5,0,0:0:0:0:
256,192,205500,5,8,0:0:0:0:
256,192,205625,5,0,0:0:0:0:
256,192,205750,5,8,0:0:0:0:
256,192,205875,5,0,0:0:0:0:
256,192,206000,5,8,0:0:0:0:
256,192,206125,5,0,0:0:0:0:
256,192,206188,1,0,0:0:0:0:
256,192,206250,5,8,0:0:0:0:
256,192,206313,1,8,0:0:0:0:
256,192,206375,5,0,0:0:0:0:
256,192,206500,5,8,0:0:0:0:
256,192,206625,5,0,0:0:0:0:
256,192,206688,1,0,0:0:0:0:
256,192,206750,5,8,0:0:0:0:
256,192,206875,5,0,0:0:0:0:
256,192,206938,1,0,0:0:0:0:
256,192,207000,5,8,0:0:0:0:
256,192,207125,5,0,0:0:0:0:
256,192,207250,5,8,0:0:0:0:
256,192,207375,5,0,0:0:0:0:
256,192,207500,5,8,0:0:0:0:
256,192,207625,5,0,0:0:0:0:
256,192,207750,5,8,0:0:0:0:
256,192,207875,5,0,0:0:0:0:
256,192,208000,5,8,0:0:0:0:
256,192,208125,5,0,0:0:0:0:
256,192,208188,1,0,0:0:0:0:
256,192,208250,1,0,0:0:0:0:
256,192,208313,1,0,0:0:0:0:
256,192,208375,5,8,0:0:0:0:
256,192,208500,5,0,0:0:0:0:
256,192,208563,1,0,0:0:0:0:
256,192,208625,5,8,0:0:0:0:
256,192,208688,1,8,0:0:0:0:
256,192,208750,1,8,0:0:0:0:
256,192,208813,1,8,0:0:0:0:
256,192,208875,5,0,0:0:0:0:
256,192,208938,1,0,0:0:0:0:
256,192,209000,5,8,0:0:0:0:
256,192,209125,5,0,0:0:0:0:
256,192,209250,5,8,0:0:0:0:
256,192,209375,5,0,0:0:0:0:
256,192,209500,5,8,0:0:0:0:
256,192,209625,5,0,0:0:0:0:
256,192,209750,5,8,0:0:0:0:
256,192,209875,5,0,0:0:0:0:
256,192,210000,5,8,0:0:0:0:
256,192,210125,5,0,0:0:0:0:
256,192,210188,1,0,0:0:0:0:
256,192,210250,1,0,0:0:0:0:
256,192,210313,1,0,0:0:0:0:
256,192,210375,1,0,0:0:0:0:
256,192,210500,1,0,0:0:0:0:
256,192,210625,5,8,0:0:0:0:
256,192,210688,1,8,0:0:0:0:
256,192,210750,1,8,0:0:0:0:
256,192,210813,1,8,0:0:0:0:
256,192,210875,5,0,0:0:0:0:
256,192,211000,1,0,0:0:0:0:
256,192,211125,5,8,0:0:0:0:
256,192,211188,1,8,0:0:0:0:
256,192,211250,5,0,0:0:0:0:
256,192,211313,1,0,0:0:0:0:
256,192,211375,5,8,0:0:0:0:
256,192,211500,1,8,0:0:0:0:
256,192,211625,5,0,0:0:0:0:
256,192,211750,5,8,0:0:0:0:
256,192,211875,5,0,0:0:0:0:
256,192,212000,5,8,0:0:0:0:
256,192,212063,1,8,0:0:0:0:
256,192,212125,5,0,0:0:0:0:
256,192,212250,5,8,0:0:0:0:
256,192,212375,5,0,0:0:0:0:
256,192,212438,1,0,0:0:0:0:
256,192,212500,5,8,0:0:0:0:
256,192,212625,1,8,0:0:0:0:
256,192,212688,1,8,0:0:0:0:
256,192,212750,1,8,0:0:0:0:
256,192,212813,1,8,0:0:0:0:
256,192,212875,1,8,0:0:0:0:
256,192,212938,1,8,0:0:0:0:
256,192,213000,1,8,0:0:0:0:
256,192,213125,5,0,0:0:0:0:
256,192,213250,1,0,0:0:0:0:
256,192,213375,5,8,0:0:0:0:
256,192,213500,5,0,0:0:0:0:
256,192,213625,5,8,0:0:0:0:
256,192,213875,1,8,0:0:0:0:
256,192,214000,5,0,0:0:0:0:
256,192,214125,5,8,0:0:0:0:
256,192,214375,1,8,0:0:0:0:
256,192,214625,5,0,0:0:0:0:
256,192,214688,1,0,0:0:0:0:
256,192,214750,5,8,0:0:0:0:
256,192,214813,1,8,0:0:0:0:
256,192,214875,5,0,0:0:0:0:
256,192,215000,5,8,0:0:0:0:
256,192,215125,5,4,0:0:0:0:
256,192,215500,1,4,0:0:0:0:
256,192,215875,5,12,0:0:0:0:
256,192,216125,1,8,0:0:0:0:
256,192,216188,1,8,0:0:0:0:
256,192,216250,5,0,0:0:0:0:
256,192,216313,1,0,0:0:0:0:
256,192,216375,5,8,0:0:0:0:
256,192,216438,5,0,0:0:0:0:
256,192,216500,1,0,0:0:0:0:
256,192,216563,1,0,0:0:0:0:
256,192,216625,5,8,0:0:0:0:
256,192,216875,1,8,0:0:0:0:
256,192,217000,1,8,0:0:0:0:
256,192,217125,5,0,0:0:0:0:
256,192,217188,1,0,0:0:0:0:
256,192,217250,5,8,0:0:0:0:
256,192,217313,1,8,0:0:0:0:
256,192,217375,5,0,0:0:0:0:
256,192,217500,5,8,0:0:0:0:
256,192,217750,1,8,0:0:0:0:
256,192,217813,1,8,0:0:0:0:
256,192,217875,5,0,0:0:0:0:
256,192,218000,1,0,0:0:0:0:
256,192,218125,5,8,0:0:0:0:
256,192,218188,1,8,0:0:0:0:
256,192,218250,5,0,0:0:0:0:
256,192,218313,1,0,0:0:0:0:
256,192,218375,5,8,0:0:0:0:
256,192,218500,1,8,0:0:0:0:
256,192,218625,5,0,0:0:0:0:
256,192,218688,1,0,0:0:0:0:
256,192,218750,5,8,0:0:0:0:
256,192,218875,5,0,0:0:0:0:
256,192,219000,1,0,0:0:0:0:
256,192,219125,1,0,0:0:0:0:
256,192,219188,1,0,0:0:0:0:
256,192,219250,5,8,0:0:0:0:
256,192,219313,1,8,0:0:0:0:
256,192,219375,5,0,0:0:0:0:
256,192,219500,1,0,0:0:0:0:
256,192,219750,1,0,0:0:0:0:
256,192,219813,1,0,0:0:0:0:
256,192,219875,5,8,0:0:0:0:
256,192,220000,5,0,0:0:0:0:
256,192,220125,5,8,0:0:0:0:
256,192,220188,5,0,0:0:0:0:
256,192,220250,5,8,0:0:0:0:
256,192,220313,5,0,0:0:0:0:
256,192,220375,5,8,0:0:0:0:
256,192,220500,1,8,0:0:0:0:
256,192,220625,1,8,0:0:0:0:
256,192,220688,1,8,0:0:0:0:
256,192,220750,1,8,0:0:0:0:
256,192,220813,1,8,0:0:0:0:
256,192,220875,5,0,0:0:0:0:
256,192,221000,1,0,0:0:0:0:
256,192,221125,1,0,0:0:0:0:
256,192,221188,1,0,0:0:0:0:
256,192,221250,5,8,0:0:0:0:
256,192,221313,1,8,0:0:0:0:
256,192,221375,5,0,0:0:0:0:
256,192,221500,5,8,0:0:0:0:
256,192,221750,1,8,0:0:0:0:
256,192,221813,1,8,0:0:0:0:
256,192,221875,5,0,0:0:0:0:
256,192,222000,1,0,0:0:0:0:
256,192,222125,5,8,0:0:0:0:
256,192,222188,1,8,0:0:0:0:
256,192,222250,5,0,0:0:0:0:
256,192,222313,1,0,0:0:0:0:
256,192,222375,5,8,0:0:0:0:
256,192,222500,5,0,0:0:0:0:
256,192,222625,1,0,0:0:0:0:
256,192,222688,1,0,0:0:0:0:
256,192,222750,5,8,0:0:0:0:
256,192,222875,1,8,0:0:0:0:
256,192,223000,5,0,0:0:0:0:
256,192,223125,1,4,0:0:0:0:
256,192,223375,1,0,0:0:0:0:
256,192,223500,1,4,0:0:0:0:
256,192,223750,1,0,0:0:0:0:
256,192,223813,1,0,0:0:0:0:
256,192,223875,5,8,0:0:0:0:
256,192,224000,1,8,0:0:0:0:
256,192,224125,5,0,0:0:0:0:
256,192,224188,1,0,0:0:0:0:
256,192,224250,5,8,0:0:0:0:
256,192,224313,1,8,0:0:0:0:
256,192,224375,5,0,0:0:0:0:
256,192,224438,1,0,0:0:0:0:
256,192,224500,5,8,0:0:0:0:
256,192,224625,1,8,0:0:0:0:
256,192,224750,5,0,0:0:0:0:
256,192,224813,1,0,0:0:0:0:
256,192,224875,5,8,0:0:0:0:
256,192,224938,1,8,0:0:0:0:
256,192,225000,1,8,0:0:0:0:
256,192,225063,1,8,0:0:0:0:
256,192,225125,5,0,0:0:0:0:
256,192,225250,5,8,0:0:0:0:
256,192,225375,5,0,0:0:0:0:
256,192,225438,1,0,0:0:0:0:
256,192,225500,5,8,0:0:0:0:
256,192,225750,1,8,0:0:0:0:
256,192,225875,5,0,0:0:0:0:
256,192,226000,1,0,0:0:0:0:
256,192,226125,5,8,0:0:0:0:
256,192,226188,1,8,0:0:0:0:
256,192,226250,5,0,0:0:0:0:
256,192,226313,5,8,0:0:0:0:
256,192,226375,5,0,0:0:0:0:
256,192,226438,1,0,0:0:0:0:
256,192,226500,5,8,0:0:0:0:
256,192,226625,1,8,0:0:0:0:
256,192,226750,1,8,0:0:0:0:
256,192,226813,1,8,0:0:0:0:
256,192,226875,5,0,0:0:0:0:
256,192,227000,1,0,0:0:0:0:
256,192,227125,1,0,0:0:0:0:
256,192,227250,5,8,0:0:0:0:
256,192,227313,1,8,0:0:0:0:
256,192,227375,5,0,0:0:0:0:
256,192,227500,5,8,0:0:0:0:
256,192,227750,1,8,0:0:0:0:
256,192,227875,5,0,0:0:0:0:
256,192,228000,1,0,0:0:0:0:
256,192,228125,5,8,0:0:0:0:
256,192,228188,1,8,0:0:0:0:
256,192,228250,5,0,0:0:0:0:
256,192,228375,1,0,0:0:0:0:
256,192,228438,1,0,0:0:0:0:
256,192,228500,5,8,0:0:0:0:
256,192,228625,1,8,0:0:0:0:
256,192,228688,1,8,0:0:0:0:
256,192,228750,1,8,0:0:0:0:
256,192,228813,1,8,0:0:0:0:
256,192,228875,5,0,0:0:0:0:
256,192,229000,1,0,0:0:0:0:
256,192,229125,1,0,0:0:0:0:
256,192,229188,1,0,0:0:0:0:
256,192,229250,5,8,0:0:0:0:
256,192,229313,1,8,0:0:0:0:
256,192,229375,5,0,0:0:0:0:
256,192,229500,5,8,0:0:0:0:
256,192,229750,1,8,0:0:0:0:
256,192,229875,5,0,0:0:0:0:
256,192,229938,1,0,0:0:0:0:
256,192,230000,5,8,0:0:0:0:
256,192,230125,5,0,0:0:0:0:
256,192,230250,5,8,0:0:0:0:
256,192,230375,5,0,0:0:0:0:
256,192,230500,5,8,0:0:0:0:
256,192,230625,5,0,0:0:0:0:
256,192,230688,1,0,0:0:0:0:
256,192,230750,5,8,0:0:0:0:
256,192,230813,1,8,0:0:0:0:
256,192,230875,5,0,0:0:0:0:
256,192,230938,1,0,0:0:0:0:
256,192,231000,5,8,0:0:0:0:
256,192,231125,5,4,0:0:0:0:
256,192,231500,5,12,0:0:0:0:
256,192,231875,5,4,0:0:0:0:
256,192,232125,5,8,0:0:0:0:
256,192,232188,1,8,0:0:0:0:
256,192,232250,1,8,0:0:0:0:
256,192,232313,1,8,0:0:0:0:
256,192,232375,5,0,0:0:0:0:
256,192,232438,1,0,0:0:0:0:
256,192,232500,1,0,0:0:0:0:
256,192,232563,1,0,0:0:0:0:
256,192,232625,5,8,0:0:0:0:
256,192,232688,1,8,0:0:0:0:
256,192,232750,5,0,0:0:0:0:
256,192,232813,1,0,0:0:0:0:
256,192,232875,5,8,0:0:0:0:
256,192,233000,1,8,0:0:0:0:
256,192,233125,5,0,0:0:0:0:
256,192,233250,5,8,0:0:0:0:
256,192,233375,1,8,0:0:0:0:
256,192,233500,5,0,0:0:0:0:
256,192,233625,5,8,0:0:0:0:
256,192,233750,5,0,0:0:0:0:
256,192,233875,1,0,0:0:0:0:
256,192,234000,1,4,0:0:0:0:
256,192,234250,1,0,0:0:0:0:
256,192,234375,1,0,0:0:0:0:
256,192,234500,5,8,0:0:0:0:
256,192,234625,5,4,0:0:0:0:
256,192,234750,1,0,0:0:0:0:
256,192,234875,5,8,0:0:0:0:
256,192,235000,5,0,0:0:0:0:
256,192,235125,5,12,0:0:0:0:
256,192,235375,5,0,0:0:0:0:
256,192,235500,5,8,0:0:0:0:
256,192,235625,1,12,0:0:0:0:
256,192,235750,5,0,0:0:0:0:
256,192,235875,1,0,0:0:0:0:
256,192,236000,5,12,0:0:0:0:
256,192,236250,5,0,0:0:0:0:
256,192,236375,1,0,0:0:0:0:
256,192,236500,5,8,0:0:0:0:
256,192,236625,5,0,0:0:0:0:
256,192,236750,5,8,0:0:0:0:
256,192,236875,5,0,0:0:0:0:
256,192,237000,5,8,0:0:0:0:
256,192,237125,5,4,0:0:0:0:
256,192,237375,1,0,0:0:0:0:
256,192,237500,5,8,0:0:0:0:
256,192,237625,1,8,0:0:0:0:
256,192,237750,5,0,0:0:0:0:
256,192,237875,1,0,0:0:0:0:
256,192,238000,1,0,0:0:0:0:
256,192,238125,1,4,0:0:0:0:
256,192,238375,1,4,0:0:0:0:
256,192,238625,5,12,0:0:0:0:
256,192,238875,5,4,0:0:0:0:
256,192,239125,5,8,0:0:0:0:
256,192,239250,5,0,0:0:0:0:
256,192,239375,1,0,0:0:0:0:
256,192,239500,5,8,0:0:0:0:
256,192,239625,1,8,0:0:0:0:
256,192,239750,5,0,0:0:0:0:
256,192,239875,5,8,0:0:0:0:
256,192,240000,1,8,0:0:0:0:
256,192,240125,5,4,0:0:0:0:
256,192,240250,5,8,0:0:0:0:
256,192,240375,5,0,0:0:0:0:
256,192,240500,5,8,0:0:0:0:
256,192,240625,5,0,0:0:0:0:
256,192,240688,1,0,0:0:0:0:
256,192,240750,1,0,0:0:0:0:
256,192,240813,1,0,0:0:0:0:
256,192,240875,5,8,0:0:0:0:
256,192,241000,5,0,0:0:0:0:
256,192,241125,1,0,0:0:0:0:
256,192,241250,5,8,0:0:0:0:
256,192,241375,5,0,0:0:0:0:
256,192,241500,5,8,0:0:0:0:
256,192,241625,5,0,0:0:0:0:
256,192,241750,1,0,0:0:0:0:
256,192,241875,1,0,0:0:0:0:
256,192,242000,5,8,0:0:0:0:
256,192,242125,5,0,0:0:0:0:
256,192,242250,5,8,0:0:0:0:
256,192,242313,1,8,0:0:0:0:
256,192,242375,5,0,0:0:0:0:
256,192,242500,5,8,0:0:0:0:
256,192,242625,5,0,0:0:0:0:
256,192,242750,5,8,0:0:0:0:
256,192,242813,1,8,0:0:0:0:
256,192,242875,5,0,0:0:0:0:
256,192,243000,5,8,0:0:0:0:
256,192,243125,5,0,0:0:0:0:
256,192,243250,5,8,0:0:0:0:
256,192,243375,5,0,0:0:0:0:
256,192,243500,5,8,0:0:0:0:
256,192,243625,5,0,0:0:0:0:
256,192,243750,1,0,0:0:0:0:
256,192,243813,1,0,0:0:0:0:
256,192,243875,1,0,0:0:0:0:
256,192,244000,5,8,0:0:0:0:
256,192,244125,1,8,0:0:0:0:
256,192,244250,5,0,0:0:0:0:
256,192,244375,5,8,0:0:0:0:
256,192,244438,1,8,0:0:0:0:
256,192,244500,5,0,0:0:0:0:
256,192,244625,5,8,0:0:0:0:
256,192,244750,5,0,0:0:0:0:
256,192,244875,1,0,0:0:0:0:
256,192,244938,1,0,0:0:0:0:
256,192,245000,5,8,0:0:0:0:
256,192,245125,5,4,0:0:0:0:
256,192,245375,1,4,0:0:0:0:
256,192,245625,1,4,0:0:0:0:
256,192,245750,1,0,0:0:0:0:
256,192,245813,1,0,0:0:0:0:
256,192,245875,5,8,0:0:0:0:
256,192,246000,1,8,0:0:0:0:
256,192,246063,1,8,0:0:0:0:
256,192,246125,1,8,0:0:0:0:
256,192,246188,1,8,0:0:0:0:
256,192,246250,5,0,0:0:0:0:
256,192,246375,1,0,0:0:0:0:
256,192,246500,1,0,0:0:0:0:
256,192,246625,5,8,0:0:0:0:
256,192,246688,1,8,0:0:0:0:
256,192,246750,1,8,0:0:0:0:
256,192,246813,1,8,0:0:0:0:
256,192,246875,5,0,0:0:0:0:
256,192,247000,5,8,0:0:0:0:
256,192,247125,5,4,0:0:0:0:
256,192,247375,1,4,0:0:0:0:
256,192,247625,1,4,0:0:0:0:
256,192,247750,1,0,0:0:0:0:
256,192,247813,1,0,0:0:0:0:
256,192,247875,5,8,0:0:0:0:
256,192,248000,1,8,0:0:0:0:
256,192,248063,1,8,0:0:0:0:
256,192,248125,1,8,0:0:0:0:
256,192,248188,1,8,0:0:0:0:
256,192,248250,5,0,0:0:0:0:
256,192,248375,1,0,0:0:0:0:
256,192,248500,5,8,0:0:0:0:
256,192,248625,1,8,0:0:0:0:
256,192,248688,1,8,0:0:0:0:
256,192,248750,1,8,0:0:0:0:
256,192,248813,1,8,0:0:0:0:
256,192,248875,5,0,0:0:0:0:
256,192,249000,5,8,0:0:0:0:
256,192,249125,5,4,0:0:0:0:
256,192,250125,5,8,0:0:0:0:
256,192,250375,5,0,0:0:0:0:
256,192,250625,5,8,0:0:0:0:
256,192,250875,5,0,0:0:0:0:
256,192,251125,1,0,0:0:0:0:
256,192,251375,1,0,0:0:0:0:
256,192,251625,5,8,0:0:0:0:
256,192,251875,5,0,0:0:0:0:
256,192,252125,5,8,0:0:0:0:
256,192,252375,5,0,0:0:0:0:
256,192,252500,1,0,0:0:0:0:
256,192,252625,5,8,0:0:0:0:
256,192,252875,5,0,0:0:0:0:
256,192,253125,5,8,0:0:0:0:
256,192,253375,5,0,0:0:0:0:
256,192,253625,5,8,0:0:0:0:
256,192,253875,5,0,0:0:0:0:
256,192,254125,5,8,0:0:0:0:
256,192,254375,5,0,0:0:0:0:
256,192,254500,5,8,0:0:0:0:
256,192,254625,1,8,0:0:0:0:
256,192,254875,5,0,0:0:0:0:
256,192,255125,5,8,0:0:0:0:
256,192,255375,5,0,0:0:0:0:
256,192,255625,5,8,0:0:0:0:
256,192,255875,5,0,0:0:0:0:
256,192,256125,5,8,0:0:0:0:
256,192,256375,5,0,0:0:0:0:
256,192,256625,5,8,0:0:0:0:
256,192,256750,1,8,0:0:0:0:
256,192,256875,5,0,0:0:0:0:
256,192,257125,5,8,0:0:0:0:
256,192,257375,5,0,0:0:0:0:
256,192,257625,5,8,0:0:0:0:
256,192,257875,5,0,0:0:0:0:
256,192,258125,5,8,0:0:0:0:
256,192,258375,5,0,0:0:0:0:
256,192,258625,5,8,0:0:0:0:
256,192,258875,5,0,0:0:0:0:
256,192,259125,5,8,0:0:0:0:
256,192,259625,5,0,0:0:0:0:
256,192,260125,5,8,0:0:0:0:
256,192,260375,5,0,0:0:0:0:
256,192,260625,5,8,0:0:0:0:
256,192,260875,5,0,0:0:0:0:
256,192,261125,1,0,0:0:0:0:
256,192,261375,1,0,0:0:0:0:
256,192,261625,5,8,0:0:0:0:
256,192,261875,5,0,0:0:0:0:
256,192,262125,1,0,0:0:0:0:
256,192,262375,1,0,0:0:0:0:
256,192,262625,5,8,0:0:0:0:
256,192,262875,5,0,0:0:0:0:
256,192,263125,5,8,0:0:0:0:
256,192,263375,5,0,0:0:0:0:
256,192,263625,5,8,0:0:0:0:
256,192,263875,5,0,0:0:0:0:
256,192,264125,5,8,0:0:0:0:
256,192,264375,1,8,0:0:0:0:
256,192,264500,1,8,0:0:0:0:
256,192,264625,1,8,0:0:0:0:
256,192,264875,5,0,0:0:0:0:
