osu file format v12

[General]
AudioFilename: 14. t+pazolite Feat. - Distorted Lovesong.mp3
AudioLeadIn: 3000
PreviewTime: 81125
Countdown: 0
SampleSet: Soft
StackLeniency: 0.7
Mode: 0
LetterboxInBreaks: 0
WidescreenStoryboard: 0

[Editor]
Bookmarks: 1125,33125,49125,65125,81125,113125,129125,145125,169125,185125,201125,217125,233125,265125
DistanceSpacing: 2
BeatDivisor: 4
GridSize: 4

[Metadata]
Title:Distorted Lovesong
TitleUnicode:Distorted Lovesong
Artist:t+pazolite Feat. Rizuna
ArtistUnicode:t+pazolite Feat. Rizuna
Creator:OnosakiHito
Version:Insane
Source:
Tags:rizna HARDCORE SYNDROME 4
BeatmapID:135502
BeatmapSetID:41478

[Difficulty]
HPDrainRate:6
CircleSize:4
OverallDifficulty:7
ApproachRate:9
SliderMultiplier:1.4
SliderTickRate:1

[Events]
//Background and Video events
0,0,"BG.jpg",0,0
//Break Periods
2,33324,40525
2,99325,102525
2,129325,136525
2,169325,176525
2,219325,224375
//Storyboard Layer 0 (Background)
//Storyboard Layer 1 (Fail)
//Storyboard Layer 2 (Pass)
//Storyboard Layer 3 (Foreground)
Sprite,Foreground,Centre,"SB\green_p.png",320,240 M,0,9125,,330,195 S,0,9125,,0.8361599 F,0,9125,9625,0,1 F,0,9625,10125,1,0 F,0,10125,10625,0,1 F,0,10625,11125,1,0 F,0,11125,11625,0,1 F,0,11625,12125,1,0 F,0,12125,12625,0,1 F,0,12625,13125,1,0 F,0,13125,13625,0,1 F,0,13625,14125,1,0 F,0,14125,14625,0,1 F,0,14625,15125,1,0 F,0,15125,15625,0,1 F,0,15625,16125,1,0 F,0,16125,16625,0,1 F,0,16625,17125,1,0 F,0,17125,17625,0,1 F,0,17625,18125,1,0 F,0,18125,18625,0,1 F,0,18625,19125,1,0 F,0,19125,19625,0,1 F,0,19625,20125,1,0 F,0,20125,20625,0,1 F,0,20625,21125,1,0 F,0,21125,21625,0,1 F,0,21625,22125,1,0 F,0,22125,22625,0,1 F,0,22625,23125,1,0 F,0,23125,23625,0,1 F,0,23625,24125,1,0 F,0,24125,24625,0,1 F,0,24625,25125,1,0 F,0,25125,25625,0,1 F,0,25625,26125,1,0 F,0,26125,26625,0,1 F,0,26625,27125,1,0 F,0,27125,27625,0,1 F,0,27625,28125,1,0 F,0,28125,28625,0,1 F,0,28625,29125,1,0 F,0,29125,29625,0,1 F,0,29625,30125,1,0 F,0,30125,30625,0,1 F,0,30625,31125,1,0 F,0,31125,31625,0,1 F,0,31625,32125,1,0 F,0,32125,32625,0,1 F,0,32625,33125,1,0 F,0,33125,49125,0 F,0,49125,49250,0,1 F,0,49250,49375,1,0 F,0,49375,49875,0,0.03200001 F,0,49875,50000,0.03200001,1 F,0,50000,50125,1,0 F,0,50125,50625,0,0.05599999 F,0,50625,50750,0.05599999,1 F,0,50750,50875,1,0 F,0,50875,51375,0 F,0,51375,51500,0,1 F,0,51500,51625,1,0 F,0,51625,52125,0 F,0,52125,52250,0,1 F,0,52250,52375,1,0 F,0,52375,52875,0,0.04800002 F,0,52875,53000,0.04800002,1 F,0,53000,53125,1,0.07200003 F,0,53125,53625,0.07200003,0.101696 F,0,53625,53750,0.101696,1 F,0,53750,53875,1,0 F,0,53875,54375,0 F,0,54375,54500,0,1 F,0,54500,54625,1,0 F,0,54625,55125,0 F,0,55125,55250,0,1 F,0,55250,55375,1,0 F,0,55375,55875,0 F,0,55875,56000,0,1 F,0,56000,56125,1,0 F,0,56125,56625,0,0.07200003 F,0,56625,56750,0.07200003,1 F,0,56750,56875,1,0 F,0,56875,57375,0 F,0,57375,57500,0,1 F,0,57500,57625,1,0 F,0,57625,58125,0 F,0,58125,58250,0,1 F,0,58250,58375,1,0 F,0,58375,58875,0 F,0,58875,59000,0,1 F,0,59000,59125,1,0 F,0,59125,59625,0 F,0,59625,59750,0,1 F,0,59750,59875,1,0 F,0,59875,60375,0,0.05599999 F,0,60375,60500,0.05599999,1 F,0,60500,60625,1,0 F,0,60625,80125,0,0.035728 F,0,80125,80187,0.035728,1 F,0,80187,80250,1,0 F,0,80250,80562,0 F,0,80562,80625,0,1 F,0,80625,80687,1,0 F,0,80687,185125,0,0.03548798 F,0,185125,185625,0.03548798,1 F,0,185625,199125,1,0.9826388 F,0,199125,200125,0.9826388,0 F,0,200125,251125,0 F,0,251125,252125,0,1 F,0,252125,253125,1,0 F,0,253125,254125,0,1 F,0,254125,255125,1,0 F,0,255125,256125,0,1 F,0,256125,257125,1,0
Sprite,Foreground,Centre,"SB\green_p.png",320,240 M,0,9125,,371,195 S,0,9125,,0.8361599 F,0,17125,,0 F,0,17125,17625,0,1 F,0,17625,18125,1,0 F,0,18125,18625,0,1 F,0,18625,19125,1,0 F,0,19125,19625,0,1 F,0,19625,20125,1,0 F,0,20125,20625,0,1 F,0,20625,21125,1,0 F,0,21125,21625,0,1 F,0,21625,22125,1,0 F,0,22125,22625,0,1 F,0,22625,23125,1,0 F,0,23125,23625,0,1 F,0,23625,24125,1,0 F,0,24125,24625,0,1 F,0,24625,25125,1,0 F,0,25125,25625,0,1 F,0,25625,26125,1,0 F,0,26125,26625,0,1 F,0,26625,27125,1,0 F,0,27125,27625,0,1 F,0,27625,28125,1,0 F,0,28125,28625,0,1 F,0,28625,29125,1,0 F,0,29125,29625,0,1 F,0,29625,30125,1,0 F,0,30125,30625,0,1 F,0,30625,31125,1,0 F,0,31125,31625,0,1 F,0,31625,32125,1,0 F,0,32125,32625,0,1 F,0,32625,33125,1,0 F,0,33125,193125,0 F,0,193125,193625,0,1 F,0,193625,199125,1 F,0,199125,200125,1,0 F,0,200125,251125,0 F,0,251125,252125,0,1 F,0,252125,253125,1,0 F,0,253125,254125,0,1 F,0,254125,255125,1,0 F,0,255125,256125,0,1 F,0,256125,257125,1,0
Sprite,Foreground,Centre,"SB\green_p.png",320,240 M,0,9125,,418,195 S,0,9125,,0.8361599 F,0,25125,,0 F,0,25125,25625,0,1 F,0,25625,26125,1,0 F,0,26125,26625,0,1 F,0,26625,27125,1,0 F,0,27125,27625,0,1 F,0,27625,28125,1,0 F,0,28125,28625,0,1 F,0,28625,29125,1,0 F,0,29125,29625,0,1 F,0,29625,30125,1,0 F,0,30125,30625,0,1 F,0,30625,31125,1,0 F,0,31125,31625,0,1 F,0,31625,32125,1,0 F,0,32125,32625,0,1 F,0,32625,33125,1,0 F,0,33125,197125,0 F,0,197125,197625,0,1 F,0,197625,199125,1 F,0,199125,200125,1,0 F,0,200125,251125,0 F,0,251125,252125,0,1 F,0,252125,253125,1,0 F,0,253125,254125,0,1 F,0,254125,255125,1,0 F,0,255125,256125,0,1 F,0,256125,257125,1,0
Sprite,Foreground,Centre,"SB\orange_p.png",320,240 M,0,33125,,415,193 S,0,33125,,0.76448 F,0,33125,34125,0,1 F,0,34125,35125,1,0 F,0,35125,36125,0,1 F,0,36125,37125,1,0 F,0,37125,38125,0,1 F,0,38125,39125,1,0 F,0,39125,40125,0,1 F,0,40125,41125,1,0 F,0,41125,169375,0 F,0,169375,170125,0,1 F,0,170125,171125,1,0 F,0,171125,172125,0,1 F,0,172125,173125,1,0 F,0,173125,174125,0,1 F,0,174125,175125,1,0 F,0,175125,176125,0,1 F,0,176125,177125,1,0 F,0,177125,183125,0,0.007000029 F,0,183125,184875,0.007000029,1 F,0,184875,196125,1 F,0,196125,197125,1,0 F,0,197125,257125,0 F,0,257125,258125,0,1 F,0,258125,259125,1,0 F,0,259125,260125,0,1 F,0,260125,261125,1,0
Sprite,Foreground,Centre,"SB\orange_p.png",320,240 M,0,33125,,373,193 S,0,33125,,0.76448 F,0,33125,34125,0,1 F,0,34125,35125,1,0 F,0,35125,36125,0,1 F,0,36125,37125,1,0 F,0,37125,38125,0,1 F,0,38125,39125,1,0 F,0,39125,40125,0,1 F,0,40125,41125,1,0 F,0,41125,49375,0 F,0,49375,49500,0,1 F,0,49500,49625,1,0 F,0,49625,50125,0 F,0,50125,50250,0,1 F,0,50250,50375,1,0 F,0,50375,50875,0 F,0,50875,51000,0,1 F,0,51000,51125,1,0 F,0,51125,51625,0,0.07200003 F,0,51625,51750,0.07200003,1 F,0,51750,51875,1,0 F,0,51875,52375,0 F,0,52375,52500,0,1 F,0,52500,52625,1,0 F,0,52625,53125,0 F,0,53125,53250,0,1 F,0,53250,53375,1,0 F,0,53375,53875,0 F,0,53875,54000,0,1 F,0,54000,54125,1,0 F,0,54125,54625,0 F,0,54625,54750,0,1 F,0,54750,54875,1,0 F,0,54875,55375,0,0.01599997 F,0,55375,55500,0.01599997,1 F,0,55500,55625,1,0 F,0,55625,56125,0 F,0,56125,56250,0,1 F,0,56250,56375,1,0 F,0,56375,56875,0 F,0,56875,57000,0,1 F,0,57000,57125,1,0 F,0,57125,57625,0,0.07200003 F,0,57625,57750,0.07200003,1 F,0,57750,57875,1,0 F,0,57875,58375,0,0.07200003 F,0,58375,58500,0.07200003,1 F,0,58500,58625,1,0 F,0,58625,59125,0 F,0,59125,59250,0,1 F,0,59250,59375,1,0 F,0,59375,59875,0 F,0,59875,60000,0,1 F,0,60000,60125,1,0 F,0,60125,60625,0 F,0,60625,60750,0,1 F,0,60750,60875,1,0 F,0,60875,80312,0 F,0,80312,80375,0,1 F,0,80375,80437,1,0 F,0,80437,80750,0,0.09677422 F,0,80750,80812,0.09677422,1 F,0,80812,80875,1,0 F,0,80875,169375,0 F,0,169375,170125,0,1 F,0,170125,171125,1,0 F,0,171125,172125,0,1 F,0,172125,173125,1,0 F,0,173125,174125,0,1 F,0,174125,175125,1,0 F,0,175125,176125,0,1 F,0,176125,177125,1,0 F,0,177125,181125,0,0.001999974 F,0,181125,183125,0.001999974,1 F,0,183125,192125,1 F,0,192125,193125,1,0 F,0,193125,257125,0 F,0,257125,258125,0,1 F,0,258125,259125,1,0 F,0,259125,260125,0,1 F,0,260125,261125,1,0
Sprite,Foreground,Centre,"SB\orange_p.png",320,240 M,0,33125,,334,193 S,0,33125,,0.76448 F,0,33125,34125,0,1 F,0,34125,35125,1,0 F,0,35125,36125,0,1 F,0,36125,37125,1,0 F,0,37125,38125,0,1 F,0,38125,39125,1,0 F,0,39125,40125,0,1 F,0,40125,41125,1,0 F,0,41125,175125,0 F,0,175125,176125,0,1 F,0,176125,177125,1,0 F,0,177125,179125,0 F,0,179125,181125,0,1 F,0,181125,184125,1 F,0,184125,184875,1,0 F,0,184875,257125,0 F,0,257125,258125,0,1 F,0,258125,259125,1,0 F,0,259125,260125,0,1 F,0,260125,261125,1,0
Sprite,Foreground,Centre,"SB\red_p.png",320,240 M,0,65125,,330,194 S,0,65125,,0.8259201 F,0,65125,65375,0,1 F,0,65375,67125,1,0 F,0,67125,67375,0,1 F,0,67375,69125,1,0 F,0,69125,69375,0,1 F,0,69375,71125,1,0 F,0,71125,71375,0,1 F,0,71375,73125,1,0 F,0,73125,261125,0 F,0,261125,262125,0,1 F,0,262125,263125,1,0 F,0,263125,264125,0,1 F,0,264125,265125,1,0
Sprite,Foreground,Centre,"SB\red_p.png",320,240 M,0,65125,,371,194 S,0,65125,,0.8259201 F,0,65125,65375,0,1 F,0,65375,67125,1,0 F,0,67125,67375,0,1 F,0,67375,69125,1,0 F,0,69125,69375,0,1 F,0,69375,71125,1,0 F,0,71125,71375,0,1 F,0,71375,73125,1,0 F,0,73125,261125,0 F,0,261125,262125,0,1 F,0,262125,263125,1,0 F,0,263125,264125,0,1 F,0,264125,265125,1,0
Sprite,Foreground,Centre,"SB\red_p.png",320,240 M,0,65125,,417,194 S,0,65125,,0.8259201 F,0,65125,65375,0,1 F,0,65375,67125,1,0 F,0,67125,67375,0,1 F,0,67375,69125,1,0 F,0,69125,69375,0,1 F,0,69375,71125,1,0 F,0,71125,71375,0,1 F,0,71375,73125,1,0 F,0,73125,261125,0 F,0,261125,262125,0,1 F,0,262125,263125,1,0 F,0,263125,264125,0,1 F,0,264125,265125,1,0
Sprite,Foreground,Centre,"SB\orange_p.png",320,240 M,0,73125,,330,192 S,0,73125,,0.8156802 F,0,73125,73375,0,1 F,0,73375,75125,1,0 F,0,75125,75375,0,1 F,0,75375,77125,1,0 F,0,77125,77375,0,1 F,0,77375,78125,1,0 F,0,78125,78375,0,1 F,0,78375,79125,1,0 F,0,79125,79375,0,1 F,0,79375,79625,1,0 F,0,79625,79875,0,1 F,0,79875,80125,1,0
Sprite,Foreground,Centre,"SB\orange_p.png",320,240 M,0,73125,,375,192 S,0,73125,,0.8156802 F,0,73125,73375,0,1 F,0,73375,75125,1,0 F,0,75125,75375,0,1 F,0,75375,77125,1,0 F,0,77125,77375,0,1 F,0,77375,78125,1,0 F,0,78125,78375,0,1 F,0,78375,79125,1,0 F,0,79125,79375,0,1 F,0,79375,79625,1,0 F,0,79625,79875,0,1 F,0,79875,80125,1,0
Sprite,Foreground,Centre,"SB\orange_p.png",320,240 M,0,73125,,417,192 S,0,73125,,0.8156802 F,0,73125,73375,0,1 F,0,73375,75125,1,0 F,0,75125,75375,0,1 F,0,75375,77125,1,0 F,0,77125,77375,0,1 F,0,77375,78125,1,0 F,0,78125,78375,0,1 F,0,78375,79125,1,0 F,0,79125,79375,0,1 F,0,79375,79625,1,0 F,0,79625,79875,0,1 F,0,79875,80125,1,0
Sprite,Foreground,Centre,"SB\green_p.png",320,240 M,0,130125,,331,190 S,0,130125,,0.7952 F,0,130125,130250,0,1 F,0,130250,130375,1,0 F,0,130375,131125,0 F,0,131125,131250,0,1 F,0,131250,131375,1,0 F,0,131375,132125,0,0.01599997 F,0,132125,132250,0.01599997,1 F,0,132250,132375,1,0 F,0,132375,133125,0 F,0,133125,133250,0,1 F,0,133250,133375,1,0 F,0,133375,134125,0 F,0,134125,134250,0,1 F,0,134250,134375,1,0 F,0,134375,135125,0 F,0,135125,135250,0,1 F,0,135250,135375,1,0 F,0,135375,136125,0 F,0,136125,136250,0,1 F,0,136250,136375,1,0 F,0,136375,137125,0,0.01599997 F,0,137125,137250,0.01599997,1 F,0,137250,137375,1,0 F,0,137375,138125,0,0.01599997 F,0,138125,138250,0.01599997,1 F,0,138250,138375,1,0 F,0,138375,139125,0 F,0,139125,139250,0,1 F,0,139250,139375,1,0 F,0,139375,140125,0 F,0,140125,140250,0,1 F,0,140250,140375,1,0 F,0,140375,141125,0 F,0,141125,141250,0,1 F,0,141250,141375,1,0 F,0,141375,142125,0 F,0,142125,142250,0,1 F,0,142250,142375,1,0 F,0,142375,143125,0 F,0,143125,143250,0,1 F,0,143250,143375,1,0
Sprite,Foreground,Centre,"SB\orange_p.png",320,240 M,0,130375,,374,191 S,0,130375,,0.7952 F,0,130375,130500,0,1 F,0,130500,130625,1,0 F,0,130625,130875,0 F,0,130875,131000,0,1 F,0,131000,131125,1,0 F,0,131125,131375,0 F,0,131375,131500,0,1 F,0,131500,131625,1,0 F,0,131625,131875,0 F,0,131875,132000,0,1 F,0,132000,132125,1,0 F,0,132125,132375,0 F,0,132375,132500,0,1 F,0,132500,132625,1,0 F,0,132625,132875,0 F,0,132875,133000,0,1 F,0,133000,133125,1,0 F,0,133125,133375,0 F,0,133375,133500,0,1 F,0,133500,133625,1,0 F,0,133625,133875,0 F,0,133875,134000,0,1 F,0,134000,134125,1,0 F,0,134125,134375,0 F,0,134375,134500,0,1 F,0,134500,134625,1,0 F,0,134625,134875,0 F,0,134875,135000,0,1 F,0,135000,135125,1,0 F,0,135125,135375,0 F,0,135375,135500,0,1 F,0,135500,135625,1,0 F,0,135625,135875,0 F,0,135875,136000,0,1 F,0,136000,136125,1,0 F,0,136125,136375,0 F,0,136375,136500,0,1 F,0,136500,136625,1,0 F,0,136625,136875,0 F,0,136875,137000,0,1 F,0,137000,137125,1,0 F,0,137125,144125,0 F,0,144125,144250,0,1 F,0,144250,144375,1,0 F,0,144375,144500,0,1 F,0,144500,144625,1,0 F,0,144625,144750,0,1 F,0,144750,144875,1,0 F,0,144875,145000,0,1 F,0,145000,145125,1,0
Sprite,Foreground,Centre,"SB\red_p.png",320,240 M,0,130625,,415,190 S,0,130625,,0.7952 F,0,130625,130750,0,1 F,0,130750,130875,1,0 F,0,130875,131625,0 F,0,131625,131750,0,1 F,0,131750,131875,1,0 F,0,131875,132625,0,0.01599997 F,0,132625,132750,0.01599997,1 F,0,132750,132875,1,0 F,0,132875,133625,0 F,0,133625,133750,0,1 F,0,133750,133875,1,0 F,0,133875,134625,0 F,0,134625,134750,0,1 F,0,134750,134875,1,0 F,0,134875,135625,0 F,0,135625,135750,0,1 F,0,135750,135875,1,0 F,0,135875,136625,0 F,0,136625,136750,0,1 F,0,136750,136875,1,0 F,0,136875,137625,0,0.01599997 F,0,137625,137750,0.01599997,1 F,0,137750,137875,1,0 F,0,137875,138625,0,0.01599997 F,0,138625,138750,0.01599997,1 F,0,138750,138875,1,0 F,0,138875,139625,0 F,0,139625,139750,0,1 F,0,139750,139875,1,0 F,0,139875,140625,0 F,0,140625,140750,0,1 F,0,140750,140875,1,0 F,0,140875,141625,0 F,0,141625,141750,0,1 F,0,141750,141875,1,0 F,0,141875,142625,0 F,0,142625,142750,0,1 F,0,142750,142875,1,0 F,0,142875,143625,0 F,0,143625,143750,0,1 F,0,143750,143875,1,0
Sprite,Foreground,Centre,"SB\love_girl.png",323,260 F,0,-3125,0,1 S,0,0,,0.8 F,0,0,266413,1
Sprite,Foreground,Centre,"SB\red_p.png",320,240 M,0,49625,,419,193 S,0,49625,,0.7952 F,0,49625,49750,0,1 F,0,49750,49875,1,0 F,0,49875,50375,0,0.03200001 F,0,50375,50500,0.03200001,1 F,0,50500,50625,1,0 F,0,50625,51125,0 F,0,51125,51250,0,1 F,0,51250,51375,1,0 F,0,51375,51875,0 F,0,51875,52000,0,1 F,0,52000,52125,1,0 F,0,52125,52625,0 F,0,52625,52750,0,1 F,0,52750,52875,1,0 F,0,52875,53375,0 F,0,53375,53500,0,1 F,0,53500,53625,1,0 F,0,53625,54125,0 F,0,54125,54250,0,1 F,0,54250,54375,1,0 F,0,54375,54875,0 F,0,54875,55000,0,1 F,0,55000,55125,1,0 F,0,55125,55625,0 F,0,55625,55750,0,1 F,0,55750,55875,1,0 F,0,55875,56375,0 F,0,56375,56500,0,1 F,0,56500,56625,1,0 F,0,56625,57125,0 F,0,57125,57250,0,1 F,0,57250,57375,1,0 F,0,57375,57875,0 F,0,57875,58000,0,1 F,0,58000,58125,1,0 F,0,58125,58625,0 F,0,58625,58750,0,1 F,0,58750,58875,1,0 F,0,58875,59375,0 F,0,59375,59500,0,1 F,0,59500,59625,1,0 F,0,59625,60125,0 F,0,60125,60250,0,1 F,0,60250,60375,1,0 F,0,60375,60875,0 F,0,60875,61000,0,1 F,0,61000,61125,1,0 F,0,61125,80437,0 F,0,80437,80500,0,1 F,0,80500,80562,1,0 F,0,80562,80875,0,0.01612902 F,0,80875,80937,0.01612902,1 F,0,80937,81000,1,0
Sprite,Foreground,Centre,"SB\BG_blurred.jpg",320,240 F,0,81250,81375,0.009090909,1 M,0,81375,,320,240 S,0,81375,,0.8054401 F,0,81375,95125,1 F,0,95125,95250,1,0 F,0,95250,105250,0 F,0,105250,105375,0,1 F,0,105375,113125,1 F,0,113125,129250,1,0.8170213 F,0,129250,129375,0.8170213,0 F,0,129375,201250,0 F,0,201250,201375,0,1 F,0,201375,216250,1 F,0,216250,216375,1,0 F,0,216375,225250,0,0.01599997 F,0,225250,225375,0.01599997,1 F,0,225375,233250,1 F,0,233250,233375,1 F,0,233375,241250,1 F,0,241250,241375,1 F,0,241375,249250,1 F,0,249250,249375,1,0
Sprite,Foreground,Centre,"SB\BG_white.jpg",320,240 M,0,81125,,320,240 S,0,81125,81187,0.8054399,0.8975999 F,0,81125,81250,0,0.5 S,0,81187,81250,0.8975999,0.8054399 F,0,81250,82125,0.5,0 S,0,81250,95125,0.8054399 F,0,82125,95125,0 F,0,95125,95187,0,1 S,0,95125,95187,0.8054399,0.90784 S,0,95187,95250,0.90784,0.8054399 F,0,95187,96125,1,0 S,0,95250,105125,0.8054399 F,0,96125,105125,0 F,0,105125,105187,0,1 S,0,105125,105187,0.8054399,0.91808 S,0,105187,105250,0.91808,0.8054399 F,0,105187,106125,1,0 S,0,105250,113125,0.8054399 F,0,106125,113125,0 F,0,113125,113187,0,1 S,0,113125,113187,0.8054399,0.9078399 S,0,113187,113250,0.9078399,0.8054399 F,0,113187,114125,1,0 S,0,113250,121125,0.8054399 F,0,114125,121125,0 F,0,121125,121187,0,1 S,0,121125,121187,0.8054399,0.8976001 S,0,121187,121250,0.8976001,0.8054399 F,0,121187,122125,1,0 S,0,121250,129125,0.8054399 F,0,122125,129125,0 F,0,129125,129187,0,1 S,0,129125,129187,0.8054399,0.9078399 S,0,129187,129250,0.9078399,0.8054399 F,0,129187,131125,1,0 S,0,129250,201125,0.8054399 F,0,131125,201125,0 F,0,201125,201187,0,1 S,0,201125,201187,0.8054399,0.8975999 S,0,201187,201250,0.8975999,0.8054399 F,0,201187,202125,1,0 S,0,201250,209125,0.8054399 F,0,202125,209125,0 F,0,209125,209187,0,1 S,0,209125,209187,0.8054399,0.8975999 S,0,209187,209250,0.8975999,0.8054399 F,0,209187,210125,1,0 S,0,209250,216125,0.8054399 F,0,210125,216125,0 F,0,216125,216187,0,1 S,0,216125,216187,0.8054399,0.8975999 S,0,216187,216250,0.8975999,0.8054399 F,0,216187,217125,1,0 S,0,216250,225125,0.8054399 F,0,217125,225125,0 F,0,225125,225187,0,1 S,0,225125,225187,0.8054399,0.8975999 S,0,225187,225250,0.8975999,0.8054399 F,0,225187,226125,1,0 S,0,225250,231125,0.8054399 F,0,226125,231125,0 F,0,231125,231187,0,1 S,0,231125,231187,0.8054399,0.8975999 S,0,231187,231250,0.8975999,0.8054399 F,0,231187,231500,1,0 S,0,231250,231500,0.8054399,0.8112913 F,0,231500,231562,0,1 S,0,231500,231562,0.8112913,0.9034514 S,0,231562,231625,0.9034514,0.8112913 F,0,231562,231875,1,0 S,0,231625,231875,0.8112913,0.824457 F,0,231875,231937,0,1 S,0,231875,231937,0.824457,0.8961371 S,0,231937,232000,0.8961371,0.824457 F,0,231937,232625,1 S,0,232000,233125,0.824457,0.8267326 F,0,232625,233125,1,0 F,0,233125,233187,0,1 S,0,233125,233187,0.8267326,0.8984126 S,0,233187,233250,0.8984126,0.8267326 F,0,233187,235125,1,0 S,0,233250,241125,0.8267326,0.8054399 F,0,235125,241125,0 F,0,241125,241187,0,1 S,0,241125,241187,0.8054399,0.8975999 S,0,241187,241250,0.8975999,0.8054399 F,0,241187,241625,1,0 S,0,241250,243125,0.8054399,0.8083656 F,0,241625,242125,0 F,0,242125,243125,0 F,0,243125,243187,0,1 S,0,243125,243187,0.8083656,0.8902856 S,0,243187,243250,0.8902856,0.8083656 F,0,243187,243625,1,0 S,0,243250,245125,0.8083656,0.8200684 F,0,243625,244125,0 F,0,244125,245125,0 F,0,245125,245187,0,1 S,0,245125,245187,0.8200684,0.9019884 S,0,245187,245250,0.9019884,0.8200684 F,0,245187,245625,1,0 S,0,245250,247125,0.8200684,0.8252697 F,0,245625,246125,0 F,0,246125,247125,0 F,0,247125,247187,0,1 S,0,247125,247187,0.8252697,0.9071897 S,0,247187,247250,0.9071897,0.8252697 F,0,247187,247625,1,0 S,0,247250,248125,0.8252697,0.8264833 F,0,247625,248125,0 F,0,248125,248187,0,1 S,0,248125,248187,0.8264833,0.8982493 S,0,248187,248250,0.8982493,0.8266567 F,0,248187,248625,1,0 S,0,248250,249125,0.8266567,0.8278703 F,0,248625,249125,0 F,0,249125,249187,0,1 S,0,249125,249187,0.8278703,0.8995503 S,0,249187,249250,0.8995503,0.8278703 F,0,249187,251125,1,0
Sprite,Foreground,Centre,"Taiko_SB\caution.png",320,240 F,0,77125,77625,0,1 F,0,77625,78125,1,0 F,0,78125,78625,0,1 F,0,78625,79125,1,0 F,0,79125,79625,0,1 F,0,79625,80125,1,0 F,0,80125,80625,0,1 F,0,80625,81125,1,0 F,0,81125,95625,0 F,0,81125,96125,0,1 F,0,95625,96125,0 F,0,96125,96625,1,0 F,0,96625,119125,0 F,0,119125,119625,0,1 F,0,119625,120125,1,0 F,0,120125,120625,0,1 F,0,120625,121125,1,0 F,0,121125,197125,0 M,0,197125,,316,441 F,0,197125,197625,0,1 F,0,197625,198125,1,0 F,0,198125,198625,0,1 F,0,198625,199125,1,0 F,0,199125,199625,0,1 F,0,199625,201125,1,0 F,0,201125,239125,0,0.042 F,0,239125,239625,0.042,1 F,0,239625,240125,1,0 F,0,240125,240625,0,1 F,0,240625,241125,1,0
Sprite,Foreground,Centre,"SB\beatmapbyono.png",320,240 M,0,34125,,317,438 S,0,34125,,0.5084799 F,0,34125,34375,0,1 F,0,34375,36875,1,0.964 F,0,36875,37125,0.964,0
Sprite,Foreground,Centre,"SB\SBbyono.png",320,240 M,0,37125,,324,435 S,0,37125,,0.4982399 F,0,37125,37375,0,1 F,0,37375,40875,1,0.984 F,0,40875,41125,0.984,0
Sprite,Foreground,Centre,"SB\thx.png",320,240 M,0,251125,,325,448 S,0,251125,,0.5084801 F,0,251125,251375,0,1 F,0,251375,252875,1,0.8928571 F,0,252875,253125,0.8928571,0 F,0,253125,,0
//Storyboard Sound Samples
//Background Colour Transformations
3,100,163,162,255

[TimingPoints]
125,250,4,2,2,80,1,0
750,-100,4,1,0,80,0,0
1000,-100,4,1,1,80,0,0
33125,-100,4,2,1,80,0,0
46875,-200,4,2,0,80,0,0
49000,-200,4,1,0,50,0,0
60875,-285.884313258747,4,1,0,65,0,0
64125,-200,4,1,0,80,0,0
65125,-100,4,1,0,80,0,0
68125,-100,4,1,0,80,0,0
69062,-100,4,1,1,80,0,0
71000,-200,4,1,1,80,0,0
71750,-100,4,1,0,80,0,0
72000,-100,4,1,0,80,0,0
75125,-100,4,1,1,80,0,0
77125,-100,4,1,1,80,0,0
81125,-100,4,1,1,80,0,1
93125,-400,4,1,1,80,0,1
94250,-100,4,1,0,80,0,1
96000,-66.6666666666667,4,1,0,80,0,1
96625,-100,4,1,0,80,0,1
97125,-100,4,1,0,80,0,1
99125,-100,4,2,1,80,0,0
103125,-100,4,1,0,80,0,0
104875,-66.6666666666667,4,1,0,80,0,0
105125,-100,4,1,1,80,0,1
112000,-66.6666666666667,4,1,0,80,0,1
112625,-100,4,1,1,80,0,1
113125,-100,4,1,1,80,0,0
121125,-100,4,1,1,80,0,1
122625,-100,4,2,1,80,0,1
123125,-100,4,1,1,80,0,1
126625,-100,4,2,1,80,0,1
127125,-100,4,1,1,80,0,1
128750,-100,4,2,1,80,0,1
129125,-100,4,2,1,80,0,0
129375,-100,4,2,2,80,0,0
145062,-100,4,2,1,80,0,0
146125,-100,4,1,1,80,0,0
146375,-100,4,2,1,80,0,0
148625,-100,4,1,1,80,0,0
149000,-100,4,1,0,80,0,0
149250,-100,4,2,0,80,0,0
150875,-100,4,1,0,80,0,0
151125,-133.333333333333,4,2,0,80,0,0
152125,-200,4,2,0,80,0,0
153875,-100,4,1,1,80,0,0
154375,-100,4,2,1,80,0,0
154625,-100,4,1,1,80,0,0
155312,-100,4,1,1,80,0,0
155625,-100,4,2,1,80,0,0
156000,-100,4,1,1,80,0,0
156187,-100,4,2,1,80,0,0
156625,-100,4,1,1,80,0,0
158000,-100,4,2,1,80,0,0
159375,-100,4,1,1,80,0,0
159625,-100,4,2,1,80,0,0
160125,-100,4,1,1,80,0,0
161000,-200,4,2,0,80,0,0
163000,-200,4,2,0,80,0,0
169000,-200,4,2,1,80,0,0
169375,-100,4,2,0,80,0,0
184125,-100,4,2,2,80,0,0
185000,-50,4,1,0,80,0,0
196375,-100,4,1,0,80,0,0
197125,-100,4,1,1,80,0,0
199000,-200,4,1,1,80,0,0
200187,-100,4,1,0,80,0,0
201125,-100,4,1,1,80,0,1
208375,-100,4,2,2,80,0,1
208812,-66.6666666666667,4,1,1,80,0,1
209250,-100,4,1,1,80,0,1
213125,-400,4,1,1,80,0,1
213250,-400,4,1,0,80,0,1
214125,-400,4,1,1,80,0,1
214250,-100,4,1,1,80,0,1
216125,-50,4,1,1,80,0,1
216687,-100,4,1,1,80,0,1
219125,-100,4,2,1,80,0,0
225125,-100,4,1,1,80,0,1
232125,-66.6666666666667,4,1,1,80,0,1
232687,-100,4,1,1,80,0,1
233125,-100,4,1,1,80,0,0
241125,-100,4,1,1,80,0,1
242125,-100,4,1,0,80,0,1
242625,-100,4,2,1,80,0,1
243125,-100,4,1,2,80,0,1
243250,-100,4,1,0,80,0,1
244625,-100,4,1,1,80,0,1
245125,-100,4,1,2,80,0,1
245250,-100,4,1,0,80,0,1
245375,-100,4,1,1,80,0,1
245437,-100,4,1,0,80,0,1
245875,-100,4,1,1,80,0,1
246000,-100,4,1,0,80,0,1
246625,-100,4,2,1,80,0,1
247125,-100,4,1,2,80,0,1
247187,-100,4,1,1,80,0,1
249125,-100,4,2,1,80,0,0

[Colours]
Combo1 : 255,255,255
Combo2 : 128,0,0
Combo3 : 45,45,45
SliderBorder : 255,255,255

[HitObjects]
92,84,125,1,0,0:0:0:0:
200,172,375,5,0,0:0:0:0:
232,36,625,5,0,0:0:0:0:
324,144,875,5,4,0:0:0:0:
324,284,1125,2,0,B|160:292,1,140,4|0,0:0|0:0,0:0:0:0:
240,332,1500,2,0,B|392:324,1,140,4|0,0:0|0:0,0:0:0:0:
428,272,1875,1,0,0:0:0:0:
440,204,2000,6,0,B|436:132,1,70
372,104,2250,2,0,B|288:152,1,70
248,108,2500,2,0,B|264:36,2,70
228,176,2875,1,8,0:0:0:0:
212,244,3000,1,0,0:0:0:0:
188,312,3125,6,0,B|44:312,1,140,4|0,0:0|0:0,0:0:0:0:
60,244,3500,2,0,B|100:172|52:104,1,140,4|0,0:0|0:0,0:0:0:0:
92,52,3875,1,0,0:0:0:0:
160,72,4000,6,0,B|224:48|304:48,1,140
332,108,4375,1,0,0:0:0:0:
364,48,4500,1,0,0:0:0:0:
400,108,4625,1,0,0:0:0:0:
424,172,4750,1,0,0:0:0:0:
444,240,4875,2,0,B|488:208|488:208,3,35,2|0|0|0,0:0|0:0|0:0|0:0,0:0:0:0:
444,240,5125,6,0,B|296:304,1,140,4|0,0:0|0:0,0:0:0:0:
324,228,5500,2,0,B|188:180,1,140,4|0,0:0|0:0,0:0:0:0:
184,252,5875,2,0,B|108:268|108:268,3,70
68,216,6375,1,0,0:0:0:0:
112,164,6500,1,0,0:0:0:0:
112,96,6625,2,0,B|172:64|264:64,1,140,0|8,0:0|0:0,0:0:0:0:
384,84,7000,1,0,0:0:0:0:
292,188,7125,5,4,0:0:0:0:
340,240,7250,1,0,0:0:0:0:
272,256,7375,2,0,B|192:288,2,70,0|4|0,0:0|0:0|0:0,0:0:0:0:
308,316,7750,2,0,B|352:336|404:336,1,70
432,292,8000,6,0,B|472:148,1,140
400,164,8375,2,0,B|348:108,1,70
288,88,8625,1,0,0:0:0:0:
220,100,8750,1,0,0:0:0:0:
168,148,8875,2,0,B|136:192|136:192,3,35,2|0|0|0,0:0|0:0|0:0|0:0,0:0:0:0:
136,208,9125,6,0,B|284:208,1,140,4|0,0:0|0:0,0:0:0:0:
324,260,9500,2,0,B|180:260,1,140,4|0,0:0|0:0,0:0:0:0:
128,304,9875,1,0,0:0:0:0:
60,288,10000,1,0,0:0:0:0:
60,220,10125,6,0,B|44:152|72:72,1,140,2|0,0:0|0:0,0:0:0:0:
348,88,10625,2,0,B|372:156|344:232,1,140,2|8,0:0|0:0,0:0:0:0:
224,160,11125,1,4,0:0:0:0:
224,160,11375,1,0,0:0:0:0:
236,176,11500,1,4,0:0:0:0:
248,192,11625,5,0,0:0:0:0:
300,240,11750,2,0,B|384:240,1,70
240,288,12000,2,0,B|160:244|148:156,1,140
140,112,12375,1,0,0:0:0:0:
184,56,12500,1,0,0:0:0:0:
252,72,12625,2,0,B|284:96|324:100,1,70,0|0,0:0|0:0,0:0:0:0:
376,64,12875,6,0,B|436:112|436:192,1,140,8|4,0:0|0:0,0:0:0:0:
336,220,13250,1,0,0:0:0:0:
436,256,13375,1,0,0:0:0:0:
340,300,13500,1,4,0:0:0:0:
436,344,13625,1,0,0:0:0:0:
368,364,13750,1,0,0:0:0:0:
296,364,13875,1,0,0:0:0:0:
228,344,14000,6,0,B|144:228,1,140
212,212,14375,2,0,B|224:140,1,70
160,112,14625,2,0,B|80:144|80:144,2,70,0|0|2,0:0|0:0|0:0,0:0:0:0:
216,72,15000,1,0,0:0:0:0:
288,72,15125,6,0,B|424:124,1,140,4|0,0:0|0:0,0:0:0:0:
480,88,15500,2,0,B|344:192,1,140,4|0,0:0|0:0,0:0:0:0:
304,200,15875,1,0,0:0:0:0:
236,200,16000,2,0,B|156:200|120:272|120:272,1,140
192,288,16375,2,0,B|248:324|336:324,1,140,0|2,0:0|0:0,0:0:0:0:
380,280,16750,1,0,0:0:0:0:
376,212,16875,1,2,0:0:0:0:
364,180,16938,1,0,0:0:0:0:
352,148,17000,1,0,0:0:0:0:
336,116,17063,1,0,0:0:0:0:
320,84,17125,6,0,B|160:84,1,140,4|4,0:0|0:0,0:0:0:0:
72,264,17625,2,0,B|224:264,1,140
396,160,18125,2,0,B|304:160|304:160,3,70
220,160,18625,2,0,B|220:308,1,140
416,224,19125,6,4,B|390:156|416:76,1,140
236,196,19625,2,0,B|260:264|240:340,1,140
180,296,20000,2,0,B|168:220|96:168,1,140
60,132,20375,2,0,B|132:136|204:80,1,140
240,44,20750,1,0,0:0:0:0:
308,28,20875,2,0,B|352:36,3,35,8|0|0|0,0:0|0:0|0:0|0:0,0:0:0:0:
376,48,21125,6,4,B|392:116|376:196,1,140
196,300,21625,2,0,B|184:228|196:156,1,140
380,264,22125,2,0,B|432:316,1,70
412,208,22375,2,0,B|480:208,1,70
392,156,22625,2,0,B|456:104,2,70
340,204,23000,1,0,0:0:0:0:
284,248,23125,6,4,B|224:288|148:288,1,140
152,216,23500,2,0,B|92:172|64:88,1,140
70,104,23875,1,0,0:0:0:0:
124,60,24000,2,0,B|200:56,1,70,0|0,0:0|0:0,0:0:0:0:
264,56,24250,2,0,B|352:52,1,70
404,68,24500,2,0,B|368:144,1,70
364,148,24688,1,0,0:0:0:0:
356,164,24750,1,0,0:0:0:0:
348,180,24813,1,0,0:0:0:0:
340,196,24875,1,0,0:0:0:0:
332,212,24938,1,0,0:0:0:0:
324,228,25000,1,0,0:0:0:0:
268,268,25125,6,0,B|120:268,1,140,6|0,0:0|0:0,0:0:0:0:
84,212,25500,1,0,0:0:0:0:
128,156,25625,1,0,0:0:0:0:
88,96,25750,1,0,0:0:0:0:
88,96,25875,1,0,0:0:0:0:
156,76,26000,6,0,B|296:76,1,140
364,80,26375,2,0,B|400:148,1,70
364,204,26625,2,0,B|324:132,1,70
260,144,26875,1,0,0:0:0:0:
192,144,27000,1,0,0:0:0:0:
140,192,27125,6,0,B|44:296,1,140,4|0,0:0|0:0,0:0:0:0:
116,292,27500,2,0,B|212:184,1,140
280,188,27875,1,0,0:0:0:0:
244,248,28000,2,0,B|296:300|380:300,1,140
428,260,28375,1,0,0:0:0:0:
460,200,28500,1,0,0:0:0:0:
448,132,28625,2,0,B|408:108|408:108,3,35
400,108,28875,1,8,0:0:0:0:
384,104,28938,1,0,0:0:0:0:
368,100,29000,1,0,0:0:0:0:
352,96,29063,1,0,0:0:0:0:
336,92,29125,6,4,B|188:92,1,140
92,276,29625,2,0,B|240:276,1,140
304,276,30000,1,0,0:0:0:0:
264,220,30125,1,0,0:0:0:0:
212,172,30250,1,0,0:0:0:0:
148,140,30375,1,0,0:0:0:0:
80,124,30500,1,0,0:0:0:0:
80,220,30625,5,0,0:0:0:0:
148,204,30750,1,0,0:0:0:0:
212,172,30875,1,0,0:0:0:0:
264,124,31000,1,0,0:0:0:0:
312,72,31125,6,4,B|348:136|440:140,1,140
388,200,31500,2,0,B|260:272,1,140
265,268,31875,1,0,0:0:0:0:
265,268,32000,1,0,0:0:0:0:
204,304,32125,2,0,B|116:304,1,70
84,252,32375,2,0,B|52:188,1,70
64,120,32625,2,0,B|100:84|100:84,3,35
116,72,32875,2,0,B|256:72,1,140,0|4,0:0|0:0,0:0:0:0:
372,76,41125,5,0,0:0:0:0:
360,84,41375,1,0,0:0:0:0:
348,92,41625,1,0,0:0:0:0:
336,100,41875,1,0,0:0:0:0:
376,308,42125,5,0,0:0:0:0:
368,296,42375,1,0,0:0:0:0:
360,284,42625,1,0,0:0:0:0:
352,272,42875,1,0,0:0:0:0:
128,296,43125,5,0,0:0:0:0:
136,284,43375,1,0,0:0:0:0:
144,272,43625,1,0,0:0:0:0:
152,260,43875,1,0,0:0:0:0:
120,64,44125,5,0,0:0:0:0:
132,72,44375,1,0,0:0:0:0:
144,80,44625,1,0,0:0:0:0:
156,88,44875,1,0,0:0:0:0:
324,212,45125,5,2,0:0:0:0:
68,324,45625,1,0,0:0:0:0:
280,144,46125,1,0,0:0:0:0:
472,348,46625,1,0,0:0:0:0:
432,72,47125,6,0,B|392:128,1,70
268,60,47625,2,0,B|268:144,1,70
128,116,48125,2,0,B|168:172,1,70
116,304,48625,2,0,B|200:304,1,70
324,304,49125,6,0,B|448:304|496:192|408:120,1,280
280,180,50625,1,0,0:0:0:0:
240,124,50875,1,0,0:0:0:0:
212,188,51125,1,0,0:0:0:0:
108,284,51625,5,0,0:0:0:0:
48,320,51875,1,0,0:0:0:0:
48,252,52125,1,0,0:0:0:0:
248,308,52625,1,2,0:0:0:0:
372,244,53125,6,0,B|304:108|140:108,1,280
128,248,54625,1,0,0:0:0:0:
232,232,54875,1,0,0:0:0:0:
164,152,55125,1,0,0:0:0:0:
372,116,55625,5,0,0:0:0:0:
456,180,55875,1,0,0:0:0:0:
356,216,56125,2,0,B|308:272|220:280,1,140,0|2,0:0|0:0,0:0:0:0:
140,92,57125,6,0,B|248:132|356:88,1,210
345,92,58125,1,0,0:0:0:0:
348,304,58625,1,0,0:0:0:0:
248,332,58875,1,0,0:0:0:0:
148,300,59125,1,2,0:0:0:0:
148,92,59625,5,0,0:0:0:0:
248,60,59875,1,0,0:0:0:0:
348,96,60125,1,2,0:0:0:0:
248,128,60375,1,0,0:0:0:0:
248,128,60625,5,2,0:0:0:0:
328,196,61125,2,0,B|180:216,1,146.912575629624,2|0,0:0|0:0,0:0:0:0:
152,308,62375,1,0,0:0:0:0:
248,320,62625,1,0,0:0:0:0:
344,296,62875,1,0,0:0:0:0:
404,220,63125,6,0,B|386:143|324:96,1,146.912575139542,2|0,0:0|0:0,0:0:0:0:
292,168,64125,1,0,0:0:0:0:
216,152,64375,1,0,0:0:0:0:
92,236,64625,2,0,B|112:252|112:252,3,17.5
132,256,64875,2,0,B|164:256|164:256,3,17.5
204,256,65125,5,4,0:0:0:0:
364,120,65375,1,4,0:0:0:0:
384,260,65625,2,0,B|308:228,1,70
300,164,65875,1,0,0:0:0:0:
232,176,66000,6,0,B|72:204,1,140,4|0,0:0|0:0,0:0:0:0:
40,156,66375,1,0,0:0:0:0:
28,88,66500,1,0,0:0:0:0:
96,108,66625,2,0,B|156:72|156:72|236:72,1,140
256,208,67125,1,4,0:0:0:0:
256,208,67625,5,0,0:0:0:0:
144,124,67875,2,0,B|168:100|168:100,3,35
196,76,68125,1,0,0:0:0:0:
256,36,68250,1,0,0:0:0:0:
360,40,68375,2,0,B|328:24|328:24,2,35
388,60,68562,1,0,0:0:0:0:
412,88,68625,1,0,0:0:0:0:
432,116,68687,1,0,0:0:0:0:
444,148,68750,1,0,0:0:0:0:
376,168,68875,2,0,B|312:200,1,70
248,228,69125,5,4,0:0:0:0:
248,228,69375,1,4,0:0:0:0:
376,288,69625,2,0,B|240:336,1,140
348,352,70000,2,0,B|488:304,1,140,4|0,0:0|0:0,0:0:0:0:
452,244,70375,1,0,0:0:0:0:
476,180,70500,1,0,0:0:0:0:
420,136,70625,6,0,B|296:64,1,140
172,124,71125,2,0,B|216:264,1,140,4|0,0:0|0:0,0:0:0:0:
264,308,71750,1,0,0:0:0:0:
196,320,71875,1,0,0:0:0:0:
292,216,72125,6,0,B|408:136|408:132,1,140
416,64,72500,1,0,0:0:0:0:
468,112,72625,1,0,0:0:0:0:
488,140,72687,1,0,0:0:0:0:
496,176,72750,1,0,0:0:0:0:
500,212,72812,1,0,0:0:0:0:
496,248,72875,1,0,0:0:0:0:
300,320,73125,5,4,0:0:0:0:
316,216,73250,1,0,0:0:0:0:
328,112,73375,1,4,0:0:0:0:
212,188,73625,2,0,B|136:188|136:188|80:112,1,140,0|4,0:0|0:0,0:0:0:0:
168,120,74000,6,0,B|236:120|236:120|292:172,1,140
336,220,74375,1,0,0:0:0:0:
240,260,74500,1,0,0:0:0:0:
140,296,74625,1,0,0:0:0:0:
276,136,74875,2,0,B|300:108|300:108,3,35
324,88,75125,6,0,B|464:88|464:88,2,140,4|4|0,0:0|0:0|0:0,0:0:0:0:
184,88,75875,1,0,0:0:0:0:
156,108,76000,1,0,0:0:0:0:
152,316,76250,1,0,0:0:0:0:
180,296,76375,2,0,B|240:248|240:248|308:248,1,140
340,248,76687,5,0,0:0:0:0:
376,248,76750,1,0,0:0:0:0:
408,232,76812,1,0,0:0:0:0:
436,208,76875,1,0,0:0:0:0:
440,140,77000,1,0,0:0:0:0:
380,100,77125,5,4,0:0:0:0:
356,112,77625,1,4,0:0:0:0:
332,128,78125,1,4,0:0:0:0:
308,144,78625,1,4,0:0:0:0:
84,308,79125,1,4,0:0:0:0:
92,300,79375,1,4,0:0:0:0:
100,288,79625,1,4,0:0:0:0:
108,276,79875,1,4,0:0:0:0:
116,264,80125,6,8,B|332:264,1,210
376,212,80625,2,0,B|412:212|412:212,4,35
312,184,81000,1,0,0:0:0:0:
260,140,81125,6,0,B|200:80,1,70,0|0,0:0|0:0,0:0:0:0:
104,124,81375,2,0,B|168:188,1,70
236,248,81625,2,0,B|180:304,1,70
300,304,81875,2,0,B|364:240,1,70
448,212,82125,5,2,0:0:0:0:
372,148,82250,1,0,0:0:0:0:
460,120,82375,1,0,0:0:0:0:
388,44,82500,1,0,0:0:0:0:
284,48,82625,2,0,B|116:48,1,140
216,124,83000,1,0,0:0:0:0:
112,128,83125,6,0,B|112:204|112:204|172:244|172:244,1,140
124,336,83500,1,0,0:0:0:0:
220,292,83625,2,0,B|260:368,1,70
300,300,83875,2,0,B|364:344,2,70,0|0|2,0:0|0:0|0:0,0:0:0:0:
260,220,84250,5,0,0:0:0:0:
248,188,84312,1,0,0:0:0:0:
224,164,84375,2,0,B|128:164,1,70
136,60,84625,5,0,0:0:0:0:
168,44,84687,1,0,0:0:0:0:
204,36,84750,1,0,0:0:0:0:
240,36,84812,1,0,0:0:0:0:
276,44,84875,1,0,0:0:0:0:
268,148,85000,1,0,0:0:0:0:
372,140,85125,6,0,B|432:196,1,70
288,224,85375,2,0,B|316:312,1,70
188,224,85625,2,0,B|172:304,1,70
84,240,85875,1,0,0:0:0:0:
84,240,86000,1,0,0:0:0:0:
68,136,86125,6,0,B|216:80,1,140,8|0,0:0|0:0,0:0:0:0:
292,136,86500,1,0,0:0:0:0:
204,192,86625,2,0,B|356:252,1,140
368,256,86937,1,0,0:0:0:0:
400,240,87000,1,0,0:0:0:0:
424,216,87062,1,0,0:0:0:0:
432,180,87125,6,0,B|432:100,1,70
300,56,87375,2,0,B|300:152,1,70
196,220,87625,2,0,B|196:136,1,70
84,64,87875,2,0,B|84:144,1,70
80,276,88125,5,2,0:0:0:0:
136,320,88250,1,0,0:0:0:0:
204,336,88375,1,0,0:0:0:0:
272,336,88500,1,0,0:0:0:0:
340,316,88625,2,0,B|376:300|376:300,3,35
400,280,88875,2,0,B|440:216|448:136,1,140,0|4,0:0|0:0,0:0:0:0:
372,72,89250,5,0,0:0:0:0:
304,152,89375,1,0,0:0:0:0:
236,72,89500,1,0,0:0:0:0:
68,200,89750,1,0,0:0:0:0:
112,256,89875,1,0,0:0:0:0:
176,288,90000,1,0,0:0:0:0:
244,292,90125,2,0,B|308:320,1,70,8|0,0:0|0:0,0:0:0:0:
364,192,90375,2,0,B|292:160,1,70
160,176,90625,5,0,0:0:0:0:
164,140,90687,1,0,0:0:0:0:
180,108,90750,1,0,0:0:0:0:
208,88,90812,1,0,0:0:0:0:
240,76,90875,1,0,0:0:0:0:
344,60,91000,1,0,0:0:0:0:
276,140,91125,6,0,B|344:140|344:140|424:164,1,140,0|0,0:0|0:0,0:0:0:0:
480,244,91500,1,0,0:0:0:0:
412,160,91625,2,0,B|352:204|352:204|332:276,1,140
356,332,92000,1,0,0:0:0:0:
288,320,92125,2,0,B|248:320,3,35,2|0|0|0,0:0|0:0|0:0|0:0,0:0:0:0:
224,340,92375,2,0,B|188:340,3,35
156,336,92625,2,0,B|92:272|80:192,1,140
124,120,93000,1,0,0:0:0:0:
216,72,93125,6,0,B|364:72,1,140,4|8,0:0|0:0,0:0:0:0:
412,116,94250,1,0,0:0:0:0:
440,180,94375,1,0,0:0:0:0:
444,248,94500,1,0,0:0:0:0:
404,304,94625,6,0,B|336:316|260:316,1,140
208,244,95000,1,0,0:0:0:0:
116,232,95125,1,4,0:0:0:0:
376,52,95500,1,4,0:0:0:0:
468,352,95875,1,4,0:0:0:0:
368,252,96125,6,0,B|312:144|228:148|240:228|328:236|316:144|316:136|264:80|188:40|96:160,1,419.999987483025
88,184,96687,1,0,0:0:0:0:
84,212,96750,1,0,0:0:0:0:
88,240,96812,1,0,0:0:0:0:
100,264,96875,1,0,0:0:0:0:
140,304,97000,1,0,0:0:0:0:
196,312,97125,1,0,0:0:0:0:
256,192,97250,12,0,98875,0:0:0:0:
256,192,99125,5,4,0:0:0:0:
408,88,103125,5,0,0:0:0:0:
304,84,103250,1,0,0:0:0:0:
356,176,103375,2,0,B|304:228,1,70
164,220,103625,2,0,B|216:164,1,70
180,68,103875,1,0,0:0:0:0:
212,168,104000,5,0,0:0:0:0:
256,264,104125,2,0,B|368:288|472:260,1,210
404,348,104625,1,0,0:0:0:0:
368,348,104687,1,0,0:0:0:0:
332,348,104750,1,0,0:0:0:0:
296,348,104812,1,0,0:0:0:0:
260,348,104875,6,0,B|100:320|108:232|188:240|176:332|92:316|100:232,1,209.999993741512
80,216,105250,1,0,0:0:0:0:
72,148,105375,1,0,0:0:0:0:
136,172,105500,2,0,B|216:192|292:192,1,140
352,120,105875,1,0,0:0:0:0:
392,216,106000,1,0,0:0:0:0:
300,268,106125,2,0,B|224:292,3,70
328,336,106625,2,0,B|404:312|404:312,3,70,0|0|2|0,0:0|0:0|0:0|0:0,0:0:0:0:
456,280,107125,6,0,B|480:208,1,70
480,144,107375,2,0,B|456:80,1,70
392,112,107625,1,0,0:0:0:0:
344,164,107750,1,0,0:0:0:0:
292,208,107875,1,0,0:0:0:0:
232,240,108000,1,0,0:0:0:0:
164,260,108125,6,0,B|120:184,1,70
112,96,108375,1,0,0:0:0:0:
140,76,108437,1,0,0:0:0:0:
176,68,108500,1,0,0:0:0:0:
256,136,108625,1,2,0:0:0:0:
288,152,108687,1,0,0:0:0:0:
324,152,108750,1,0,0:0:0:0:
400,80,108875,2,0,B|432:64|432:64,3,35,2|0|0|0,0:0|0:0|0:0|0:0,0:0:0:0:
464,80,109125,6,0,B|436:156,1,70
492,212,109375,2,0,B|436:252,1,70
476,328,109625,2,0,B|408:348,1,70
304,340,109875,2,0,B|268:336|234:340,2,70
272,272,110250,1,0,0:0:0:0:
240,208,110375,1,0,0:0:0:0:
184,164,110500,1,0,0:0:0:0:
144,236,110625,5,8,0:0:0:0:
204,268,110750,1,0,0:0:0:0:
272,272,110875,1,0,0:0:0:0:
340,256,111000,1,0,0:0:0:0:
376,196,111125,5,4,0:0:0:0:
80,84,111500,1,4,0:0:0:0:
244,352,111875,1,4,0:0:0:0:
416,228,112125,2,0,B|380:124|256:56|136:120|92:228,1,419.999987483025
88,256,112687,5,0,0:0:0:0:
96,292,112750,1,0,0:0:0:0:
120,316,112812,1,0,0:0:0:0:
156,324,112875,1,0,0:0:0:0:
212,284,113000,1,0,0:0:0:0:
260,236,113125,5,4,0:0:0:0:
400,224,113250,1,0,0:0:0:0:
272,168,113375,1,0,0:0:0:0:
412,156,113500,1,4,0:0:0:0:
284,100,113625,1,0,0:0:0:0:
232,52,113750,5,0,0:0:0:0:
164,40,113875,1,0,0:0:0:0:
96,60,114000,2,0,B|132:144|124:220,1,140,0|0,0:0|0:0,0:0:0:0:
68,236,114375,2,0,B|164:248|212:308,1,140,0|0,0:0|0:0,0:0:0:0:
256,324,114750,1,0,0:0:0:0:
324,328,114875,1,2,0:0:0:0:
384,292,115000,1,8,0:0:0:0:
384,224,115125,5,4,0:0:0:0:
252,180,115250,1,0,0:0:0:0:
388,152,115375,1,0,0:0:0:0:
256,104,115500,2,0,B|120:76,1,140,4|0,0:0|0:0,0:0:0:0:
52,96,115875,1,0,0:0:0:0:
104,140,116000,6,0,B|132:208|132:288,1,140
60,272,116375,2,0,B|136:328|216:328,1,140
256,324,116750,1,0,0:0:0:0:
292,264,116875,1,2,0:0:0:0:
248,208,117000,1,8,0:0:0:0:
280,144,117125,5,4,0:0:0:0:
152,92,117250,1,0,0:0:0:0:
284,52,117375,1,0,0:0:0:0:
196,160,117500,1,4,0:0:0:0:
428,316,117750,1,0,0:0:0:0:
460,252,117875,1,0,0:0:0:0:
468,184,118000,6,0,B|396:160|396:160|376:84,1,140
312,112,118375,2,0,B|332:192|332:192|292:256,1,140
248,284,118750,1,0,0:0:0:0:
180,292,118875,2,0,B|112:292,1,70,8|2,0:0|0:0,0:0:0:0:
56,248,119125,5,4,0:0:0:0:
112,120,119250,1,0,0:0:0:0:
232,52,119375,1,0,0:0:0:0:
372,68,119500,2,0,B|420:132|420:216,1,140,4|0,0:0|0:0,0:0:0:0:
348,196,119875,1,0,0:0:0:0:
384,256,120000,6,0,B|324:296|244:296,1,140
180,296,120375,2,0,B|120:348,1,70
112,240,120625,2,0,B|32:240,1,70,2|0,0:0|0:0,0:0:0:0:
96,148,120875,2,0,B|64:172|64:172,3,35,2|0|0|0,0:0|0:0|0:0|0:0,0:0:0:0:
116,144,121125,6,4,B|264:144,1,140
372,220,121500,1,0,0:0:0:0:
464,332,121625,2,4,B|320:332,1,140
200,80,122125,1,0,0:0:0:0:
224,144,122250,1,0,0:0:0:0:
268,200,122375,1,0,0:0:0:0:
324,240,122500,1,0,0:0:0:0:
408,172,122625,5,8,0:0:0:0:
352,132,122750,1,8,0:0:0:0:
288,108,122875,1,8,0:0:0:0:
220,100,123000,1,8,0:0:0:0:
152,104,123125,2,4,B|84:232,1,140
348,332,123625,2,4,B|404:192,1,140
408,132,124000,1,0,0:0:0:0:
372,72,124125,6,0,B|268:116|156:104,1,210
96,120,124625,1,2,0:0:0:0:
48,172,124750,1,2,0:0:0:0:
56,240,124875,1,2,0:0:0:0:
112,284,125000,1,2,0:0:0:0:
180,272,125125,6,0,B|240:216,1,70,4|0,0:0|0:0,0:0:0:0:
320,284,125375,2,0,B|324:212,1,70,4|0,0:0|0:0,0:0:0:0:
428,236,125625,2,0,B|392:152,1,70,4|0,0:0|0:0,0:0:0:0:
360,76,125875,1,4,0:0:0:0:
300,160,126000,6,0,B|212:160|152:112,1,140
100,136,126375,1,0,0:0:0:0:
68,196,126500,2,0,B|88:264,1,70,0|8,0:0|0:0,0:0:0:0:
144,304,126750,1,8,0:0:0:0:
212,312,126875,1,8,0:0:0:0:
280,304,127000,1,8,0:0:0:0:
340,268,127125,5,4,0:0:0:0:
204,108,127375,1,4,0:0:0:0:
308,108,127500,1,0,0:0:0:0:
160,256,127750,6,0,B|124:272|124:272,3,35,4|0|0|0,0:0|0:0|0:0|0:0,0:0:0:0:
176,248,128000,2,0,B|320:192,1,140,4|4,0:0|0:0,0:0:0:0:
360,240,128375,2,0,B|388:88,1,140,0|4,0:0|0:0,0:0:0:0:
376,68,128687,1,0,0:0:0:0:
348,44,128750,1,8,0:0:0:0:
316,32,128812,1,8,0:0:0:0:
280,24,128875,1,8,0:0:0:0:
212,28,129000,1,8,0:0:0:0:
148,56,129125,1,4,0:0:0:0:
256,196,137125,5,0,0:0:0:0:
288,224,138125,1,0,0:0:0:0:
256,256,139125,1,0,0:0:0:0:
224,288,140125,1,0,0:0:0:0:
192,256,141125,5,0,0:0:0:0:
224,224,142125,1,0,0:0:0:0:
256,192,143125,1,0,0:0:0:0:
256,192,143625,1,0,0:0:0:0:
164,124,144125,6,0,B|196:104|196:104,3,35,2|0|0|0,0:0|0:0|0:0|0:0,0:0:0:0:
212,100,144375,2,0,B|256:96|256:96,3,35,2|0|0|0,0:0|0:0|0:0|0:0,0:0:0:0:
264,100,144625,2,0,B|316:104|316:104,3,35,2|0|0|0,0:0|0:0|0:0|0:0,0:0:0:0:
316,112,144875,1,2,0:0:0:0:
376,144,145000,1,2,0:0:0:0:
404,208,145125,6,0,B|404:292,1,70
276,340,145375,2,0,B|276:252,1,70
92,168,145750,1,0,0:0:0:0:
256,36,146000,5,0,0:0:0:0:
324,56,146125,2,0,B|388:96,1,70
332,184,146375,2,0,B|368:208|368:208,3,35
300,168,146625,2,0,B|160:168,1,140
96,252,147000,1,0,0:0:0:0:
148,344,147125,6,0,B|220:344,1,70
324,344,147375,2,0,B|272:284,1,70
464,192,147750,1,0,0:0:0:0:
256,216,148000,1,0,0:0:0:0:
156,180,148125,2,0,B|132:148|132:148,3,35
128,116,148375,1,0,0:0:0:0:
132,80,148437,1,0,0:0:0:0:
152,52,148500,1,0,0:0:0:0:
184,36,148562,1,0,0:0:0:0:
220,32,148625,5,0,0:0:0:0:
388,256,148875,1,0,0:0:0:0:
108,256,149125,2,0,B|160:320,1,70,4|0,0:0|0:0,0:0:0:0:
232,240,149375,1,0,0:0:0:0:
152,310,149500,6,0,B|220:332|220:332|296:332,1,140
384,288,149875,1,0,0:0:0:0:
300,224,150000,1,0,0:0:0:0:
400,188,150125,1,0,0:0:0:0:
400,188,150250,1,0,0:0:0:0:
360,92,150375,2,0,B|292:68|200:92,1,140
184,148,150750,1,0,0:0:0:0:
148,88,150875,1,0,0:0:0:0:
76,284,151125,6,0,B|172:336|280:336|380:292,1,315.000012016297
336,88,152125,2,0,B|236:40|124:92,1,210
40,192,153125,2,0,B|72:260|164:248,1,140
340,144,153875,2,0,B|332:180|300:208,1,70
212,252,154125,1,0,0:0:0:0:
224,320,154250,1,0,0:0:0:0:
292,328,154375,2,0,B|332:328|332:328,3,35
360,316,154625,2,0,B|420:260|420:260|420:192,1,140
316,200,155000,2,0,B|316:120|316:120|364:76|364:76,1,140
260,48,155375,2,0,B|184:96,1,70
52,232,155750,1,0,0:0:0:0:
108,192,155875,1,0,0:0:0:0:
112,260,156000,5,0,0:0:0:0:
208,304,156125,1,0,0:0:0:0:
240,316,156187,1,0,0:0:0:0:
276,320,156250,1,0,0:0:0:0:
308,312,156375,2,0,B|340:296|340:296,3,35
364,272,156625,6,0,B|408:200,1,70
388,108,156875,2,0,B|320:108,1,70
184,152,157125,2,0,B|256:152,1,70,4|0,0:0|0:0,0:0:0:0:
296,212,157375,1,0,0:0:0:0:
244,260,157500,2,0,B|292:316|292:316|360:316,1,140
416,276,157875,1,0,0:0:0:0:
448,212,158000,1,0,0:0:0:0:
452,144,158125,5,0,0:0:0:0:
444,112,158187,1,0,0:0:0:0:
424,84,158250,1,0,0:0:0:0:
372,132,158375,2,0,B|340:144|216:144,1,140
92,144,158875,1,0,0:0:0:0:
112,284,159125,6,0,B|166:338,1,70
240,260,159375,2,0,B|312:288,1,70
352,192,159625,2,0,B|424:192,1,70
372,100,159875,2,0,B|328:44,1,70
248,112,160125,2,0,B|180:68,1,70
124,156,160375,2,0,B|40:156,1,70
88,256,160625,5,0,0:0:0:0:
112,280,160687,1,0,0:0:0:0:
140,300,160750,1,0,0:0:0:0:
172,316,160812,1,0,0:0:0:0:
208,324,160875,1,0,0:0:0:0:
348,324,161125,6,0,B|388:224|352:112,1,210
236,192,162375,1,0,0:0:0:0:
180,132,162625,1,0,0:0:0:0:
152,212,162875,1,0,0:0:0:0:
284,260,163125,2,0,B|352:224|384:164|388:88,1,210
248,100,164125,2,0,B|136:100|60:184,1,210
256,192,165125,12,4,169125,0:0:0:0:
120,116,177125,5,0,0:0:0:0:
144,184,177375,1,0,0:0:0:0:
188,128,177625,1,0,0:0:0:0:
236,260,177875,2,0,B|312:268|376:252,2,140,0|2|0,0:0|0:0|0:0,0:0:0:0:
300,136,178625,1,0,0:0:0:0:
352,88,178875,1,0,0:0:0:0:
368,156,179125,1,0,0:0:0:0:
380,224,179375,5,0,0:0:0:0:
272,312,179625,2,0,B|208:248|120:248,1,140,0|2,0:0|0:0,0:0:0:0:
80,252,180000,2,0,B|80:160|148:100,1,140,2|2,0:0|0:0,0:0:0:0:
168,180,180375,2,2,B|240:180,1,70
224,112,180625,1,2,0:0:0:0:
364,112,180875,1,2,0:0:0:0:
396,176,181125,1,0,0:0:0:0:
364,240,181375,1,0,0:0:0:0:
300,268,181625,5,0,0:0:0:0:
272,132,181875,2,0,B|184:132|108:176,2,140,0|2|0,0:0|0:0|0:0,0:0:0:0:
220,264,182625,1,0,0:0:0:0:
344,332,182875,1,0,0:0:0:0:
256,192,183125,12,0,183875,0:0:0:0:
384,64,184125,5,0,0:0:0:0:
384,76,184375,1,0,0:0:0:0:
384,88,184625,1,0,0:0:0:0:
384,100,184875,1,0,0:0:0:0:
248,136,185125,5,0,0:0:0:0:
388,292,185500,1,0,0:0:0:0:
180,320,185875,1,0,0:0:0:0:
344,192,186250,1,0,0:0:0:0:
136,224,186625,1,0,0:0:0:0:
88,172,186875,1,0,0:0:0:0:
188,72,187125,1,0,0:0:0:0:
388,140,187500,6,0,B|520:172|488:324|384:360|272:320|256:172|380:140,1,420,4|0,0:0|0:0,0:0:0:0:
116,144,188250,2,0,B|-8:176|8:324|120:364|224:328|256:176|124:144,1,420,4|0,0:0|0:0,0:0:0:0:
328,64,188875,1,0,0:0:0:0:
316,204,189125,1,0,0:0:0:0:
116,144,189500,6,0,B|-8:176|8:324|120:364|224:328|256:176|124:144,1,420,4|0,0:0|0:0,0:0:0:0:
388,148,190250,2,0,B|520:180|488:332|384:368|272:328|256:180|380:148,1,420,4|0,0:0|0:0,0:0:0:0:
256,60,190875,1,0,0:0:0:0:
144,144,191125,1,0,0:0:0:0:
256,228,191375,5,0,0:0:0:0:
256,228,191500,1,4,0:0:0:0:
360,48,191875,1,0,0:0:0:0:
420,176,192125,1,0,0:0:0:0:
420,176,192250,1,4,0:0:0:0:
288,124,192500,1,0,0:0:0:0:
288,124,192625,1,0,0:0:0:0:
164,60,192875,1,0,0:0:0:0:
124,192,193125,6,0,B|0:224|16:372|128:412|232:376|264:224|132:192,1,420,0|4,0:0|0:0,0:0:0:0:
396,192,193875,2,0,B|528:224|496:376|392:412|280:372|264:224|388:192,1,420,0|4,0:0|0:0,0:0:0:0:
204,56,194625,1,0,0:0:0:0:
332,112,194875,1,0,0:0:0:0:
216,188,195125,1,0,0:0:0:0:
344,248,195375,5,0,0:0:0:0:
288,292,195500,1,4,0:0:0:0:
160,252,195750,1,0,0:0:0:0:
124,192,195875,1,0,0:0:0:0:
196,72,196125,1,0,0:0:0:0:
264,56,196250,1,4,0:0:0:0:
384,128,196500,2,0,B|476:96|476:96,3,70
368,220,197125,5,4,0:0:0:0:
228,224,197375,1,0,0:0:0:0:
104,160,197625,1,0,0:0:0:0:
200,60,197875,1,0,0:0:0:0:
324,128,198125,1,0,0:0:0:0:
184,132,198375,1,0,0:0:0:0:
148,268,198625,1,0,0:0:0:0:
284,232,198875,1,0,0:0:0:0:
184,132,199125,6,0,B|248:76|324:56|396:48|452:56|452:56,1,280,4|0,0:0|0:0,0:0:0:0:
436,124,200250,1,0,0:0:0:0:
416,192,200375,5,0,0:0:0:0:
384,252,200500,5,0,0:0:0:0:
328,292,200625,5,0,0:0:0:0:
260,308,200750,5,0,0:0:0:0:
192,300,200875,5,0,0:0:0:0:
140,252,201000,5,0,0:0:0:0:
108,192,201125,6,0,B|80:108,1,70,4|0,0:0|0:0,0:0:0:0:
192,112,201375,2,0,B|232:48,1,70
312,116,201625,2,0,B|392:88|392:88,2,70
224,176,202000,1,0,0:0:0:0:
328,180,202125,6,0,B|384:232|412:296,1,140,2|0,0:0|0:0,0:0:0:0:
492,224,202500,1,0,0:0:0:0:
492,328,202625,2,0,B|432:360|336:360,1,140,0|0,0:0|0:0,0:0:0:0:
252,340,203000,1,0,0:0:0:0:
136,264,203125,6,0,B|60:264,1,70,4|0,0:0|0:0,0:0:0:0:
172,172,203375,2,0,B|108:140,1,70
244,104,203625,2,0,B|204:40,1,70
344,76,203875,2,0,B|336:8,2,70,0|0|2,0:0|0:0|0:0,0:0:0:0:
360,148,204250,1,0,0:0:0:0:
296,232,204375,5,0,0:0:0:0:
276,260,204437,1,0,0:0:0:0:
248,280,204500,1,0,0:0:0:0:
180,200,204625,1,0,0:0:0:0:
152,216,204687,1,0,0:0:0:0:
132,244,204750,1,0,0:0:0:0:
164,344,204875,1,4,0:0:0:0:
232,356,205000,1,0,0:0:0:0:
300,340,205125,6,0,B|464:340,1,140,4|0,0:0|0:0,0:0:0:0:
388,292,205500,2,0,B|440:148,1,140
408,56,205875,1,0,0:0:0:0:
328,120,206000,1,0,0:0:0:0:
252,44,206125,6,0,B|200:96,1,70,8|0,0:0|0:0,0:0:0:0:
68,136,206375,2,0,B|132:72,1,70
228,176,206625,2,0,B|168:236,1,70
56,292,206875,1,0,0:0:0:0:
80,316,206937,1,0,0:0:0:0:
112,332,207000,1,0,0:0:0:0:
148,340,207062,1,0,0:0:0:0:
184,340,207125,5,4,0:0:0:0:
396,156,207375,2,0,B|348:208,1,70
364,68,207750,2,0,B|300:96|196:92,1,140
132,132,208125,2,0,B|192:176|188:268,1,140,2|0,0:0|0:0,0:0:0:0:
200,264,208437,5,0,0:0:0:0:
212,276,208500,1,0,0:0:0:0:
224,288,208562,1,0,0:0:0:0:
236,300,208625,1,0,0:0:0:0:
312,336,208750,1,0,0:0:0:0:
404,316,208875,2,0,B|404:104,1,209.999993741512,0|4,0:0|0:0,0:0:0:0:
324,176,209250,5,0,0:0:0:0:
248,100,209375,1,0,0:0:0:0:
148,72,209500,1,0,0:0:0:0:
52,260,209750,1,0,0:0:0:0:
148,216,209875,1,0,0:0:0:0:
252,208,210000,1,0,0:0:0:0:
292,304,210125,6,0,B|376:304,1,70,8|0,0:0|0:0,0:0:0:0:
456,200,210375,2,0,B|376:200,1,70
272,116,210625,2,0,B|368:116,1,70
464,44,210875,1,4,0:0:0:0:
464,44,211000,5,4,0:0:0:0:
360,40,211125,2,0,B|260:40,1,70,4|0,0:0|0:0,0:0:0:0:
212,112,211375,2,0,B|116:140,1,70
112,232,211625,2,0,B|52:280,1,70
144,336,211875,2,0,B|220:336|288:312,1,140,0|2,0:0|0:0,0:0:0:0:
292,208,212250,1,0,0:0:0:0:
396,188,212375,5,0,0:0:0:0:
452,100,212500,1,0,0:0:0:0:
428,72,212562,1,0,0:0:0:0:
396,56,212625,1,0,0:0:0:0:
364,48,212687,1,0,0:0:0:0:
328,44,212750,1,0,0:0:0:0:
248,112,212875,1,4,0:0:0:0:
152,68,213000,1,4,0:0:0:0:
120,168,213125,6,0,B|144:236|216:268,1,140,4|8,0:0|0:0,0:0:0:0:
284,280,214250,1,0,0:0:0:0:
352,272,214375,1,0,0:0:0:0:
404,224,214500,1,0,0:0:0:0:
440,164,214625,2,0,B|384:100|300:88,1,140,0|4,0:0|0:0,0:0:0:0:
252,168,215000,1,4,0:0:0:0:
180,92,215125,5,4,0:0:0:0:
412,304,215500,1,4,0:0:0:0:
96,316,215875,1,4,0:0:0:0:
320,152,216125,6,0,B|424:160|416:292|384:340|276:368|160:304|136:208|184:80|328:80,1,560,0|0,0:0|0:0,0:0:0:0:
304,80,216687,1,0,0:0:0:0:
340,76,216750,1,0,0:0:0:0:
376,76,216812,1,0,0:0:0:0:
412,84,216875,1,4,0:0:0:0:
468,124,217000,1,4,0:0:0:0:
488,192,217125,1,4,0:0:0:0:
256,192,217250,12,4,219125,0:0:0:0:
408,68,225125,5,0,0:0:0:0:
340,88,225250,1,0,0:0:0:0:
284,132,225375,1,0,0:0:0:0:
252,196,225500,1,0,0:0:0:0:
240,264,225625,1,0,0:0:0:0:
256,332,225750,1,0,0:0:0:0:
192,308,225875,1,0,0:0:0:0:
132,272,226000,1,0,0:0:0:0:
88,220,226125,6,0,B|48:160,1,70
136,100,226375,2,0,B|136:24,1,70
240,56,226625,2,0,B|288:36|336:36|340:36,3,70,0|0|2|0,0:0|0:0|0:0|0:0,0:0:0:0:
412,60,227125,5,0,0:0:0:0:
464,108,227250,1,0,0:0:0:0:
492,172,227375,1,0,0:0:0:0:
504,240,227500,1,0,0:0:0:0:
484,308,227625,1,0,0:0:0:0:
436,260,227750,1,0,0:0:0:0:
376,224,227875,1,0,0:0:0:0:
308,216,228000,1,0,0:0:0:0:
248,252,228125,5,0,0:0:0:0:
124,184,228375,1,0,0:0:0:0:
108,216,228437,1,0,0:0:0:0:
100,252,228500,1,0,0:0:0:0:
192,200,228625,1,8,0:0:0:0:
220,176,228687,1,0,0:0:0:0:
232,144,228750,1,0,0:0:0:0:
144,88,228875,1,8,0:0:0:0:
204,48,229000,1,0,0:0:0:0:
272,48,229125,6,0,B|348:48,1,70
348,152,229375,2,0,B|400:212,1,70
320,280,229625,2,0,B|320:360,1,70
224,308,229875,2,0,B|172:240,1,70
124,164,230125,5,0,0:0:0:0:
164,108,230250,1,0,0:0:0:0:
220,68,230375,1,0,0:0:0:0:
284,44,230500,1,0,0:0:0:0:
352,40,230625,1,0,0:0:0:0:
416,64,230750,1,0,0:0:0:0:
460,116,230875,1,2,0:0:0:0:
476,184,231000,1,0,0:0:0:0:
444,248,231125,5,4,0:0:0:0:
164,108,231500,1,4,0:0:0:0:
396,316,231875,1,4,0:0:0:0:
112,180,232125,6,0,B|36:184|24:56|180:28|260:96|236:252|156:280|84:276|40:220,1,419.999987483025
44,232,232687,1,0,0:0:0:0:
20,204,232750,1,0,0:0:0:0:
8,172,232812,1,0,0:0:0:0:
4,136,232875,1,0,0:0:0:0:
28,72,233000,1,0,0:0:0:0:
88,36,233125,5,4,0:0:0:0:
184,80,233250,1,0,0:0:0:0:
284,108,233375,1,0,0:0:0:0:
388,84,233500,1,0,0:0:0:0:
412,148,233625,5,0,0:0:0:0:
436,212,233750,1,0,0:0:0:0:
416,280,233875,1,0,0:0:0:0:
348,272,234000,2,0,B|312:212|240:184,1,140
192,232,234375,1,0,0:0:0:0:
176,164,234500,1,0,0:0:0:0:
228,116,234625,2,0,B|296:96|336:28,1,140,0|2,0:0|0:0,0:0:0:0:
388,76,235000,1,8,0:0:0:0:
404,144,235125,5,4,0:0:0:0:
324,212,235250,1,0,0:0:0:0:
416,264,235375,1,0,0:0:0:0:
324,312,235500,2,0,B|180:312,1,140
124,272,235875,1,0,0:0:0:0:
88,212,236000,6,0,B|76:168|76:124,1,70
188,56,236250,2,0,B|216:80|224:128,1,70
224,256,236500,2,0,B|176:220|168:192,1,70
144,144,236750,1,0,0:0:0:0:
148,76,236875,1,2,0:0:0:0:
204,36,237000,1,8,0:0:0:0:
264,72,237125,5,4,0:0:0:0:
360,116,237250,1,0,0:0:0:0:
260,152,237375,1,0,0:0:0:0:
360,184,237500,1,0,0:0:0:0:
348,252,237625,2,0,B|312:276|292:312,1,70,0|0,0:0|0:0,0:0:0:0:
248,252,237875,5,0,0:0:0:0:
196,296,238000,2,0,B|60:228,1,140
36,172,238375,2,0,B|168:240,1,140,4|0,0:0|0:0,0:0:0:0:
228,216,238750,1,0,0:0:0:0:
256,152,238875,1,12,0:0:0:0:
228,88,239000,1,2,0:0:0:0:
168,48,239125,5,4,0:0:0:0:
272,36,239250,1,0,0:0:0:0:
376,60,239375,1,0,0:0:0:0:
440,144,239500,1,0,0:0:0:0:
372,148,239625,1,0,0:0:0:0:
412,204,239750,2,0,B|368:264,1,70
328,204,240000,6,0,B|268:252|200:252|196:252,1,140
128,244,240375,1,0,0:0:0:0:
80,196,240500,1,0,0:0:0:0:
136,156,240625,1,6,0:0:0:0:
100,96,240750,1,0,0:0:0:0:
152,48,240875,2,0,B|196:36,3,35,6|0|0|0,0:0|0:0|0:0|0:0,0:0:0:0:
212,40,241125,5,4,0:0:0:0:
404,244,241375,1,4,0:0:0:0:
156,112,241625,1,4,0:0:0:0:
332,328,241875,1,4,0:0:0:0:
60,260,242125,2,0,B|96:264|132:248,1,70
156,112,242375,2,0,B|124:108|88:124,1,70
208,268,242625,2,8,B|248:264|272:236,1,70
308,52,242875,2,8,B|276:36|232:48,1,70
336,148,243125,5,6,0:0:0:0:
116,324,243375,1,4,0:0:0:0:
384,244,243625,1,4,0:0:0:0:
340,300,243750,1,0,0:0:0:0:
276,324,243875,1,0,0:0:0:0:
180,284,244000,1,0,0:0:0:0:
172,216,244125,1,0,0:0:0:0:
180,148,244250,1,0,0:0:0:0:
180,148,244375,5,0,0:0:0:0:
360,40,244625,1,2,0:0:0:0:
360,108,244750,1,2,0:0:0:0:
364,176,244875,1,2,0:0:0:0:
364,176,245000,1,8,0:0:0:0:
364,176,245125,6,0,B|280:176,1,70,2|0,0:0|0:0,0:0:0:0:
244,84,245375,2,0,B|200:156,1,70,4|0,0:0|0:0,0:0:0:0:
104,116,245625,2,0,B|128:196,1,70,0|0,0:0|0:0,0:0:0:0:
132,216,245812,1,0,0:0:0:0:
144,252,245875,5,4,0:0:0:0:
240,296,246000,1,0,0:0:0:0:
224,192,246125,1,4,0:0:0:0:
288,220,246250,1,0,0:0:0:0:
284,152,246375,2,0,B|300:120|340:96,1,70,4|0,0:0|0:0,0:0:0:0:
400,116,246625,2,8,B|448:184|448:184|448:256,1,140
384,324,247000,1,8,0:0:0:0:
280,344,247125,5,2,0:0:0:0:
264,344,247187,1,0,0:0:0:0:
248,344,247250,1,0,0:0:0:0:
184,260,247375,1,0,0:0:0:0:
168,260,247437,1,0,0:0:0:0:
152,260,247500,1,0,0:0:0:0:
76,188,247625,1,4,0:0:0:0:
120,136,247750,2,0,B|208:120,1,70,0|4,0:0|0:0,0:0:0:0:
256,112,248000,5,0,0:0:0:0:
372,188,248125,2,0,B|408:212|408:212,2,35,4|0|0,0:0|0:0|0:0,0:0:0:0:
244,244,248375,2,0,B|248:288|248:288,2,35,4|0|0,0:0|0:0|0:0,0:0:0:0:
116,180,248625,1,0,0:0:0:0:
112,144,248687,1,0,0:0:0:0:
116,108,248750,1,0,0:0:0:0:
132,76,248812,1,0,0:0:0:0:
160,56,248875,2,0,B|196:48|196:48,3,35,4|0|0|0,0:0|0:0|0:0|0:0,0:0:0:0:
228,44,249125,5,4,0:0:0:0:
