osu file format v12

[General]
AudioFilename: 14. t+pazolite Feat. - Distorted Lovesong.mp3
AudioLeadIn: 3000
PreviewTime: 81125
Countdown: 0
SampleSet: Soft
StackLeniency: 0.7
Mode: 0
LetterboxInBreaks: 0
WidescreenStoryboard: 0

[Editor]
Bookmarks: 33125,169125
DistanceSpacing: 1
BeatDivisor: 4
GridSize: 4
TimelineZoom: 1

[Metadata]
Title:Distorted Lovesong
TitleUnicode:Distorted Lovesong
Artist:t+pazolite Feat. Rizuna
ArtistUnicode:t+pazolite Feat. Rizuna
Creator:OnosakiHito
Version:Hard
Source:
Tags:rizna HARDCORE SYNDROME 4
BeatmapID:273874
BeatmapSetID:41478

[Difficulty]
HPDrainRate:5
CircleSize:3
OverallDifficulty:6
ApproachRate:8
SliderMultiplier:1.4
SliderTickRate:1

[Events]
//Background and Video events
0,0,"BG.jpg",0,0
//Break Periods
2,33324,40375
2,99325,104375
2,129325,136375
2,169325,176375
2,219325,224375
//Storyboard Layer 0 (Background)
//Storyboard Layer 1 (Fail)
//Storyboard Layer 2 (Pass)
//Storyboard Layer 3 (Foreground)
Sprite,Foreground,Centre,"SB\green_p.png",320,240 M,0,9125,,330,195 S,0,9125,,0.8361599 F,0,9125,9625,0,1 F,0,9625,10125,1,0 F,0,10125,10625,0,1 F,0,10625,11125,1,0 F,0,11125,11625,0,1 F,0,11625,12125,1,0 F,0,12125,12625,0,1 F,0,12625,13125,1,0 F,0,13125,13625,0,1 F,0,13625,14125,1,0 F,0,14125,14625,0,1 F,0,14625,15125,1,0 F,0,15125,15625,0,1 F,0,15625,16125,1,0 F,0,16125,16625,0,1 F,0,16625,17125,1,0 F,0,17125,17625,0,1 F,0,17625,18125,1,0 F,0,18125,18625,0,1 F,0,18625,19125,1,0 F,0,19125,19625,0,1 F,0,19625,20125,1,0 F,0,20125,20625,0,1 F,0,20625,21125,1,0 F,0,21125,21625,0,1 F,0,21625,22125,1,0 F,0,22125,22625,0,1 F,0,22625,23125,1,0 F,0,23125,23625,0,1 F,0,23625,24125,1,0 F,0,24125,24625,0,1 F,0,24625,25125,1,0 F,0,25125,25625,0,1 F,0,25625,26125,1,0 F,0,26125,26625,0,1 F,0,26625,27125,1,0 F,0,27125,27625,0,1 F,0,27625,28125,1,0 F,0,28125,28625,0,1 F,0,28625,29125,1,0 F,0,29125,29625,0,1 F,0,29625,30125,1,0 F,0,30125,30625,0,1 F,0,30625,31125,1,0 F,0,31125,31625,0,1 F,0,31625,32125,1,0 F,0,32125,32625,0,1 F,0,32625,33125,1,0 F,0,33125,49125,0 F,0,49125,49250,0,1 F,0,49250,49375,1,0 F,0,49375,49875,0,0.03200001 F,0,49875,50000,0.03200001,1 F,0,50000,50125,1,0 F,0,50125,50625,0,0.05599999 F,0,50625,50750,0.05599999,1 F,0,50750,50875,1,0 F,0,50875,51375,0 F,0,51375,51500,0,1 F,0,51500,51625,1,0 F,0,51625,52125,0 F,0,52125,52250,0,1 F,0,52250,52375,1,0 F,0,52375,52875,0,0.04800002 F,0,52875,53000,0.04800002,1 F,0,53000,53125,1,0.07200003 F,0,53125,53625,0.07200003,0.101696 F,0,53625,53750,0.101696,1 F,0,53750,53875,1,0 F,0,53875,54375,0 F,0,54375,54500,0,1 F,0,54500,54625,1,0 F,0,54625,55125,0 F,0,55125,55250,0,1 F,0,55250,55375,1,0 F,0,55375,55875,0 F,0,55875,56000,0,1 F,0,56000,56125,1,0 F,0,56125,56625,0,0.07200003 F,0,56625,56750,0.07200003,1 F,0,56750,56875,1,0 F,0,56875,57375,0 F,0,57375,57500,0,1 F,0,57500,57625,1,0 F,0,57625,58125,0 F,0,58125,58250,0,1 F,0,58250,58375,1,0 F,0,58375,58875,0 F,0,58875,59000,0,1 F,0,59000,59125,1,0 F,0,59125,59625,0 F,0,59625,59750,0,1 F,0,59750,59875,1,0 F,0,59875,60375,0,0.05599999 F,0,60375,60500,0.05599999,1 F,0,60500,60625,1,0 F,0,60625,80125,0,0.035728 F,0,80125,80187,0.035728,1 F,0,80187,80250,1,0 F,0,80250,80562,0 F,0,80562,80625,0,1 F,0,80625,80687,1,0 F,0,80687,185125,0,0.03548798 F,0,185125,185625,0.03548798,1 F,0,185625,199125,1,0.9826388 F,0,199125,200125,0.9826388,0 F,0,200125,251125,0 F,0,251125,252125,0,1 F,0,252125,253125,1,0 F,0,253125,254125,0,1 F,0,254125,255125,1,0 F,0,255125,256125,0,1 F,0,256125,257125,1,0
Sprite,Foreground,Centre,"SB\green_p.png",320,240 M,0,9125,,371,195 S,0,9125,,0.8361599 F,0,17125,,0 F,0,17125,17625,0,1 F,0,17625,18125,1,0 F,0,18125,18625,0,1 F,0,18625,19125,1,0 F,0,19125,19625,0,1 F,0,19625,20125,1,0 F,0,20125,20625,0,1 F,0,20625,21125,1,0 F,0,21125,21625,0,1 F,0,21625,22125,1,0 F,0,22125,22625,0,1 F,0,22625,23125,1,0 F,0,23125,23625,0,1 F,0,23625,24125,1,0 F,0,24125,24625,0,1 F,0,24625,25125,1,0 F,0,25125,25625,0,1 F,0,25625,26125,1,0 F,0,26125,26625,0,1 F,0,26625,27125,1,0 F,0,27125,27625,0,1 F,0,27625,28125,1,0 F,0,28125,28625,0,1 F,0,28625,29125,1,0 F,0,29125,29625,0,1 F,0,29625,30125,1,0 F,0,30125,30625,0,1 F,0,30625,31125,1,0 F,0,31125,31625,0,1 F,0,31625,32125,1,0 F,0,32125,32625,0,1 F,0,32625,33125,1,0 F,0,33125,193125,0 F,0,193125,193625,0,1 F,0,193625,199125,1 F,0,199125,200125,1,0 F,0,200125,251125,0 F,0,251125,252125,0,1 F,0,252125,253125,1,0 F,0,253125,254125,0,1 F,0,254125,255125,1,0 F,0,255125,256125,0,1 F,0,256125,257125,1,0
Sprite,Foreground,Centre,"SB\green_p.png",320,240 M,0,9125,,418,195 S,0,9125,,0.8361599 F,0,25125,,0 F,0,25125,25625,0,1 F,0,25625,26125,1,0 F,0,26125,26625,0,1 F,0,26625,27125,1,0 F,0,27125,27625,0,1 F,0,27625,28125,1,0 F,0,28125,28625,0,1 F,0,28625,29125,1,0 F,0,29125,29625,0,1 F,0,29625,30125,1,0 F,0,30125,30625,0,1 F,0,30625,31125,1,0 F,0,31125,31625,0,1 F,0,31625,32125,1,0 F,0,32125,32625,0,1 F,0,32625,33125,1,0 F,0,33125,197125,0 F,0,197125,197625,0,1 F,0,197625,199125,1 F,0,199125,200125,1,0 F,0,200125,251125,0 F,0,251125,252125,0,1 F,0,252125,253125,1,0 F,0,253125,254125,0,1 F,0,254125,255125,1,0 F,0,255125,256125,0,1 F,0,256125,257125,1,0
Sprite,Foreground,Centre,"SB\orange_p.png",320,240 M,0,33125,,415,193 S,0,33125,,0.76448 F,0,33125,34125,0,1 F,0,34125,35125,1,0 F,0,35125,36125,0,1 F,0,36125,37125,1,0 F,0,37125,38125,0,1 F,0,38125,39125,1,0 F,0,39125,40125,0,1 F,0,40125,41125,1,0 F,0,41125,169375,0 F,0,169375,170125,0,1 F,0,170125,171125,1,0 F,0,171125,172125,0,1 F,0,172125,173125,1,0 F,0,173125,174125,0,1 F,0,174125,175125,1,0 F,0,175125,176125,0,1 F,0,176125,177125,1,0 F,0,177125,183125,0,0.007000029 F,0,183125,184875,0.007000029,1 F,0,184875,196125,1 F,0,196125,197125,1,0 F,0,197125,257125,0 F,0,257125,258125,0,1 F,0,258125,259125,1,0 F,0,259125,260125,0,1 F,0,260125,261125,1,0
Sprite,Foreground,Centre,"SB\orange_p.png",320,240 M,0,33125,,373,193 S,0,33125,,0.76448 F,0,33125,34125,0,1 F,0,34125,35125,1,0 F,0,35125,36125,0,1 F,0,36125,37125,1,0 F,0,37125,38125,0,1 F,0,38125,39125,1,0 F,0,39125,40125,0,1 F,0,40125,41125,1,0 F,0,41125,49375,0 F,0,49375,49500,0,1 F,0,49500,49625,1,0 F,0,49625,50125,0 F,0,50125,50250,0,1 F,0,50250,50375,1,0 F,0,50375,50875,0 F,0,50875,51000,0,1 F,0,51000,51125,1,0 F,0,51125,51625,0,0.07200003 F,0,51625,51750,0.07200003,1 F,0,51750,51875,1,0 F,0,51875,52375,0 F,0,52375,52500,0,1 F,0,52500,52625,1,0 F,0,52625,53125,0 F,0,53125,53250,0,1 F,0,53250,53375,1,0 F,0,53375,53875,0 F,0,53875,54000,0,1 F,0,54000,54125,1,0 F,0,54125,54625,0 F,0,54625,54750,0,1 F,0,54750,54875,1,0 F,0,54875,55375,0,0.01599997 F,0,55375,55500,0.01599997,1 F,0,55500,55625,1,0 F,0,55625,56125,0 F,0,56125,56250,0,1 F,0,56250,56375,1,0 F,0,56375,56875,0 F,0,56875,57000,0,1 F,0,57000,57125,1,0 F,0,57125,57625,0,0.07200003 F,0,57625,57750,0.07200003,1 F,0,57750,57875,1,0 F,0,57875,58375,0,0.07200003 F,0,58375,58500,0.07200003,1 F,0,58500,58625,1,0 F,0,58625,59125,0 F,0,59125,59250,0,1 F,0,59250,59375,1,0 F,0,59375,59875,0 F,0,59875,60000,0,1 F,0,60000,60125,1,0 F,0,60125,60625,0 F,0,60625,60750,0,1 F,0,60750,60875,1,0 F,0,60875,80312,0 F,0,80312,80375,0,1 F,0,80375,80437,1,0 F,0,80437,80750,0,0.09677422 F,0,80750,80812,0.09677422,1 F,0,80812,80875,1,0 F,0,80875,169375,0 F,0,169375,170125,0,1 F,0,170125,171125,1,0 F,0,171125,172125,0,1 F,0,172125,173125,1,0 F,0,173125,174125,0,1 F,0,174125,175125,1,0 F,0,175125,176125,0,1 F,0,176125,177125,1,0 F,0,177125,181125,0,0.001999974 F,0,181125,183125,0.001999974,1 F,0,183125,192125,1 F,0,192125,193125,1,0 F,0,193125,257125,0 F,0,257125,258125,0,1 F,0,258125,259125,1,0 F,0,259125,260125,0,1 F,0,260125,261125,1,0
Sprite,Foreground,Centre,"SB\orange_p.png",320,240 M,0,33125,,334,193 S,0,33125,,0.76448 F,0,33125,34125,0,1 F,0,34125,35125,1,0 F,0,35125,36125,0,1 F,0,36125,37125,1,0 F,0,37125,38125,0,1 F,0,38125,39125,1,0 F,0,39125,40125,0,1 F,0,40125,41125,1,0 F,0,41125,175125,0 F,0,175125,176125,0,1 F,0,176125,177125,1,0 F,0,177125,179125,0 F,0,179125,181125,0,1 F,0,181125,184125,1 F,0,184125,184875,1,0 F,0,184875,257125,0 F,0,257125,258125,0,1 F,0,258125,259125,1,0 F,0,259125,260125,0,1 F,0,260125,261125,1,0
Sprite,Foreground,Centre,"SB\red_p.png",320,240 M,0,65125,,330,194 S,0,65125,,0.8259201 F,0,65125,65375,0,1 F,0,65375,67125,1,0 F,0,67125,67375,0,1 F,0,67375,69125,1,0 F,0,69125,69375,0,1 F,0,69375,71125,1,0 F,0,71125,71375,0,1 F,0,71375,73125,1,0 F,0,73125,261125,0 F,0,261125,262125,0,1 F,0,262125,263125,1,0 F,0,263125,264125,0,1 F,0,264125,265125,1,0
Sprite,Foreground,Centre,"SB\red_p.png",320,240 M,0,65125,,371,194 S,0,65125,,0.8259201 F,0,65125,65375,0,1 F,0,65375,67125,1,0 F,0,67125,67375,0,1 F,0,67375,69125,1,0 F,0,69125,69375,0,1 F,0,69375,71125,1,0 F,0,71125,71375,0,1 F,0,71375,73125,1,0 F,0,73125,261125,0 F,0,261125,262125,0,1 F,0,262125,263125,1,0 F,0,263125,264125,0,1 F,0,264125,265125,1,0
Sprite,Foreground,Centre,"SB\red_p.png",320,240 M,0,65125,,417,194 S,0,65125,,0.8259201 F,0,65125,65375,0,1 F,0,65375,67125,1,0 F,0,67125,67375,0,1 F,0,67375,69125,1,0 F,0,69125,69375,0,1 F,0,69375,71125,1,0 F,0,71125,71375,0,1 F,0,71375,73125,1,0 F,0,73125,261125,0 F,0,261125,262125,0,1 F,0,262125,263125,1,0 F,0,263125,264125,0,1 F,0,264125,265125,1,0
Sprite,Foreground,Centre,"SB\orange_p.png",320,240 M,0,73125,,330,192 S,0,73125,,0.8156802 F,0,73125,73375,0,1 F,0,73375,75125,1,0 F,0,75125,75375,0,1 F,0,75375,77125,1,0 F,0,77125,77375,0,1 F,0,77375,78125,1,0 F,0,78125,78375,0,1 F,0,78375,79125,1,0 F,0,79125,79375,0,1 F,0,79375,79625,1,0 F,0,79625,79875,0,1 F,0,79875,80125,1,0
Sprite,Foreground,Centre,"SB\orange_p.png",320,240 M,0,73125,,375,192 S,0,73125,,0.8156802 F,0,73125,73375,0,1 F,0,73375,75125,1,0 F,0,75125,75375,0,1 F,0,75375,77125,1,0 F,0,77125,77375,0,1 F,0,77375,78125,1,0 F,0,78125,78375,0,1 F,0,78375,79125,1,0 F,0,79125,79375,0,1 F,0,79375,79625,1,0 F,0,79625,79875,0,1 F,0,79875,80125,1,0
Sprite,Foreground,Centre,"SB\orange_p.png",320,240 M,0,73125,,417,192 S,0,73125,,0.8156802 F,0,73125,73375,0,1 F,0,73375,75125,1,0 F,0,75125,75375,0,1 F,0,75375,77125,1,0 F,0,77125,77375,0,1 F,0,77375,78125,1,0 F,0,78125,78375,0,1 F,0,78375,79125,1,0 F,0,79125,79375,0,1 F,0,79375,79625,1,0 F,0,79625,79875,0,1 F,0,79875,80125,1,0
Sprite,Foreground,Centre,"SB\green_p.png",320,240 M,0,130125,,331,190 S,0,130125,,0.7952 F,0,130125,130250,0,1 F,0,130250,130375,1,0 F,0,130375,131125,0 F,0,131125,131250,0,1 F,0,131250,131375,1,0 F,0,131375,132125,0,0.01599997 F,0,132125,132250,0.01599997,1 F,0,132250,132375,1,0 F,0,132375,133125,0 F,0,133125,133250,0,1 F,0,133250,133375,1,0 F,0,133375,134125,0 F,0,134125,134250,0,1 F,0,134250,134375,1,0 F,0,134375,135125,0 F,0,135125,135250,0,1 F,0,135250,135375,1,0 F,0,135375,136125,0 F,0,136125,136250,0,1 F,0,136250,136375,1,0 F,0,136375,137125,0,0.01599997 F,0,137125,137250,0.01599997,1 F,0,137250,137375,1,0 F,0,137375,138125,0,0.01599997 F,0,138125,138250,0.01599997,1 F,0,138250,138375,1,0 F,0,138375,139125,0 F,0,139125,139250,0,1 F,0,139250,139375,1,0 F,0,139375,140125,0 F,0,140125,140250,0,1 F,0,140250,140375,1,0 F,0,140375,141125,0 F,0,141125,141250,0,1 F,0,141250,141375,1,0 F,0,141375,142125,0 F,0,142125,142250,0,1 F,0,142250,142375,1,0 F,0,142375,143125,0 F,0,143125,143250,0,1 F,0,143250,143375,1,0
Sprite,Foreground,Centre,"SB\orange_p.png",320,240 M,0,130375,,374,191 S,0,130375,,0.7952 F,0,130375,130500,0,1 F,0,130500,130625,1,0 F,0,130625,130875,0 F,0,130875,131000,0,1 F,0,131000,131125,1,0 F,0,131125,131375,0 F,0,131375,131500,0,1 F,0,131500,131625,1,0 F,0,131625,131875,0 F,0,131875,132000,0,1 F,0,132000,132125,1,0 F,0,132125,132375,0 F,0,132375,132500,0,1 F,0,132500,132625,1,0 F,0,132625,132875,0 F,0,132875,133000,0,1 F,0,133000,133125,1,0 F,0,133125,133375,0 F,0,133375,133500,0,1 F,0,133500,133625,1,0 F,0,133625,133875,0 F,0,133875,134000,0,1 F,0,134000,134125,1,0 F,0,134125,134375,0 F,0,134375,134500,0,1 F,0,134500,134625,1,0 F,0,134625,134875,0 F,0,134875,135000,0,1 F,0,135000,135125,1,0 F,0,135125,135375,0 F,0,135375,135500,0,1 F,0,135500,135625,1,0 F,0,135625,135875,0 F,0,135875,136000,0,1 F,0,136000,136125,1,0 F,0,136125,136375,0 F,0,136375,136500,0,1 F,0,136500,136625,1,0 F,0,136625,136875,0 F,0,136875,137000,0,1 F,0,137000,137125,1,0 F,0,137125,144125,0 F,0,144125,144250,0,1 F,0,144250,144375,1,0 F,0,144375,144500,0,1 F,0,144500,144625,1,0 F,0,144625,144750,0,1 F,0,144750,144875,1,0 F,0,144875,145000,0,1 F,0,145000,145125,1,0
Sprite,Foreground,Centre,"SB\red_p.png",320,240 M,0,130625,,415,190 S,0,130625,,0.7952 F,0,130625,130750,0,1 F,0,130750,130875,1,0 F,0,130875,131625,0 F,0,131625,131750,0,1 F,0,131750,131875,1,0 F,0,131875,132625,0,0.01599997 F,0,132625,132750,0.01599997,1 F,0,132750,132875,1,0 F,0,132875,133625,0 F,0,133625,133750,0,1 F,0,133750,133875,1,0 F,0,133875,134625,0 F,0,134625,134750,0,1 F,0,134750,134875,1,0 F,0,134875,135625,0 F,0,135625,135750,0,1 F,0,135750,135875,1,0 F,0,135875,136625,0 F,0,136625,136750,0,1 F,0,136750,136875,1,0 F,0,136875,137625,0,0.01599997 F,0,137625,137750,0.01599997,1 F,0,137750,137875,1,0 F,0,137875,138625,0,0.01599997 F,0,138625,138750,0.01599997,1 F,0,138750,138875,1,0 F,0,138875,139625,0 F,0,139625,139750,0,1 F,0,139750,139875,1,0 F,0,139875,140625,0 F,0,140625,140750,0,1 F,0,140750,140875,1,0 F,0,140875,141625,0 F,0,141625,141750,0,1 F,0,141750,141875,1,0 F,0,141875,142625,0 F,0,142625,142750,0,1 F,0,142750,142875,1,0 F,0,142875,143625,0 F,0,143625,143750,0,1 F,0,143750,143875,1,0
Sprite,Foreground,Centre,"SB\love_girl.png",323,260 F,0,-3125,0,1 S,0,0,,0.8 F,0,0,266413,1
Sprite,Foreground,Centre,"SB\red_p.png",320,240 M,0,49625,,419,193 S,0,49625,,0.7952 F,0,49625,49750,0,1 F,0,49750,49875,1,0 F,0,49875,50375,0,0.03200001 F,0,50375,50500,0.03200001,1 F,0,50500,50625,1,0 F,0,50625,51125,0 F,0,51125,51250,0,1 F,0,51250,51375,1,0 F,0,51375,51875,0 F,0,51875,52000,0,1 F,0,52000,52125,1,0 F,0,52125,52625,0 F,0,52625,52750,0,1 F,0,52750,52875,1,0 F,0,52875,53375,0 F,0,53375,53500,0,1 F,0,53500,53625,1,0 F,0,53625,54125,0 F,0,54125,54250,0,1 F,0,54250,54375,1,0 F,0,54375,54875,0 F,0,54875,55000,0,1 F,0,55000,55125,1,0 F,0,55125,55625,0 F,0,55625,55750,0,1 F,0,55750,55875,1,0 F,0,55875,56375,0 F,0,56375,56500,0,1 F,0,56500,56625,1,0 F,0,56625,57125,0 F,0,57125,57250,0,1 F,0,57250,57375,1,0 F,0,57375,57875,0 F,0,57875,58000,0,1 F,0,58000,58125,1,0 F,0,58125,58625,0 F,0,58625,58750,0,1 F,0,58750,58875,1,0 F,0,58875,59375,0 F,0,59375,59500,0,1 F,0,59500,59625,1,0 F,0,59625,60125,0 F,0,60125,60250,0,1 F,0,60250,60375,1,0 F,0,60375,60875,0 F,0,60875,61000,0,1 F,0,61000,61125,1,0 F,0,61125,80437,0 F,0,80437,80500,0,1 F,0,80500,80562,1,0 F,0,80562,80875,0,0.01612902 F,0,80875,80937,0.01612902,1 F,0,80937,81000,1,0
Sprite,Foreground,Centre,"SB\BG_blurred.jpg",320,240 F,0,81250,81375,0.009090909,1 M,0,81375,,320,240 S,0,81375,,0.8054401 F,0,81375,95125,1 F,0,95125,95250,1,0 F,0,95250,105250,0 F,0,105250,105375,0,1 F,0,105375,113125,1 F,0,113125,129250,1,0.8170213 F,0,129250,129375,0.8170213,0 F,0,129375,201250,0 F,0,201250,201375,0,1 F,0,201375,216250,1 F,0,216250,216375,1,0 F,0,216375,225250,0,0.01599997 F,0,225250,225375,0.01599997,1 F,0,225375,233250,1 F,0,233250,233375,1 F,0,233375,241250,1 F,0,241250,241375,1 F,0,241375,249250,1 F,0,249250,249375,1,0
Sprite,Foreground,Centre,"SB\BG_white.jpg",320,240 M,0,81125,,320,240 S,0,81125,81187,0.8054399,0.8975999 F,0,81125,81250,0,0.5 S,0,81187,81250,0.8975999,0.8054399 F,0,81250,82125,0.5,0 S,0,81250,95125,0.8054399 F,0,82125,95125,0 F,0,95125,95187,0,1 S,0,95125,95187,0.8054399,0.90784 S,0,95187,95250,0.90784,0.8054399 F,0,95187,96125,1,0 S,0,95250,105125,0.8054399 F,0,96125,105125,0 F,0,105125,105187,0,1 S,0,105125,105187,0.8054399,0.91808 S,0,105187,105250,0.91808,0.8054399 F,0,105187,106125,1,0 S,0,105250,113125,0.8054399 F,0,106125,113125,0 F,0,113125,113187,0,1 S,0,113125,113187,0.8054399,0.9078399 S,0,113187,113250,0.9078399,0.8054399 F,0,113187,114125,1,0 S,0,113250,121125,0.8054399 F,0,114125,121125,0 F,0,121125,121187,0,1 S,0,121125,121187,0.8054399,0.8976001 S,0,121187,121250,0.8976001,0.8054399 F,0,121187,122125,1,0 S,0,121250,129125,0.8054399 F,0,122125,129125,0 F,0,129125,129187,0,1 S,0,129125,129187,0.8054399,0.9078399 S,0,129187,129250,0.9078399,0.8054399 F,0,129187,131125,1,0 S,0,129250,201125,0.8054399 F,0,131125,201125,0 F,0,201125,201187,0,1 S,0,201125,201187,0.8054399,0.8975999 S,0,201187,201250,0.8975999,0.8054399 F,0,201187,202125,1,0 S,0,201250,209125,0.8054399 F,0,202125,209125,0 F,0,209125,209187,0,1 S,0,209125,209187,0.8054399,0.8975999 S,0,209187,209250,0.8975999,0.8054399 F,0,209187,210125,1,0 S,0,209250,216125,0.8054399 F,0,210125,216125,0 F,0,216125,216187,0,1 S,0,216125,216187,0.8054399,0.8975999 S,0,216187,216250,0.8975999,0.8054399 F,0,216187,217125,1,0 S,0,216250,225125,0.8054399 F,0,217125,225125,0 F,0,225125,225187,0,1 S,0,225125,225187,0.8054399,0.8975999 S,0,225187,225250,0.8975999,0.8054399 F,0,225187,226125,1,0 S,0,225250,231125,0.8054399 F,0,226125,231125,0 F,0,231125,231187,0,1 S,0,231125,231187,0.8054399,0.8975999 S,0,231187,231250,0.8975999,0.8054399 F,0,231187,231500,1,0 S,0,231250,231500,0.8054399,0.8112913 F,0,231500,231562,0,1 S,0,231500,231562,0.8112913,0.9034514 S,0,231562,231625,0.9034514,0.8112913 F,0,231562,231875,1,0 S,0,231625,231875,0.8112913,0.824457 F,0,231875,231937,0,1 S,0,231875,231937,0.824457,0.8961371 S,0,231937,232000,0.8961371,0.824457 F,0,231937,232625,1 S,0,232000,233125,0.824457,0.8267326 F,0,232625,233125,1,0 F,0,233125,233187,0,1 S,0,233125,233187,0.8267326,0.8984126 S,0,233187,233250,0.8984126,0.8267326 F,0,233187,235125,1,0 S,0,233250,241125,0.8267326,0.8054399 F,0,235125,241125,0 F,0,241125,241187,0,1 S,0,241125,241187,0.8054399,0.8975999 S,0,241187,241250,0.8975999,0.8054399 F,0,241187,241625,1,0 S,0,241250,243125,0.8054399,0.8083656 F,0,241625,242125,0 F,0,242125,243125,0 F,0,243125,243187,0,1 S,0,243125,243187,0.8083656,0.8902856 S,0,243187,243250,0.8902856,0.8083656 F,0,243187,243625,1,0 S,0,243250,245125,0.8083656,0.8200684 F,0,243625,244125,0 F,0,244125,245125,0 F,0,245125,245187,0,1 S,0,245125,245187,0.8200684,0.9019884 S,0,245187,245250,0.9019884,0.8200684 F,0,245187,245625,1,0 S,0,245250,247125,0.8200684,0.8252697 F,0,245625,246125,0 F,0,246125,247125,0 F,0,247125,247187,0,1 S,0,247125,247187,0.8252697,0.9071897 S,0,247187,247250,0.9071897,0.8252697 F,0,247187,247625,1,0 S,0,247250,248125,0.8252697,0.8264833 F,0,247625,248125,0 F,0,248125,248187,0,1 S,0,248125,248187,0.8264833,0.8982493 S,0,248187,248250,0.8982493,0.8266567 F,0,248187,248625,1,0 S,0,248250,249125,0.8266567,0.8278703 F,0,248625,249125,0 F,0,249125,249187,0,1 S,0,249125,249187,0.8278703,0.8995503 S,0,249187,249250,0.8995503,0.8278703 F,0,249187,251125,1,0
Sprite,Foreground,Centre,"Taiko_SB\caution.png",320,240 F,0,77125,77625,0,1 F,0,77625,78125,1,0 F,0,78125,78625,0,1 F,0,78625,79125,1,0 F,0,79125,79625,0,1 F,0,79625,80125,1,0 F,0,80125,80625,0,1 F,0,80625,81125,1,0 F,0,81125,95625,0 F,0,81125,96125,0,1 F,0,95625,96125,0 F,0,96125,96625,1,0 F,0,96625,119125,0 F,0,119125,119625,0,1 F,0,119625,120125,1,0 F,0,120125,120625,0,1 F,0,120625,121125,1,0 F,0,121125,197125,0 M,0,197125,,316,441 F,0,197125,197625,0,1 F,0,197625,198125,1,0 F,0,198125,198625,0,1 F,0,198625,199125,1,0 F,0,199125,199625,0,1 F,0,199625,201125,1,0 F,0,201125,239125,0,0.042 F,0,239125,239625,0.042,1 F,0,239625,240125,1,0 F,0,240125,240625,0,1 F,0,240625,241125,1,0
Sprite,Foreground,Centre,"SB\beatmapbyono.png",320,240 M,0,34125,,317,438 S,0,34125,,0.5084799 F,0,34125,34375,0,1 F,0,34375,36875,1,0.964 F,0,36875,37125,0.964,0
Sprite,Foreground,Centre,"SB\SBbyono.png",320,240 M,0,37125,,324,435 S,0,37125,,0.4982399 F,0,37125,37375,0,1 F,0,37375,40875,1,0.984 F,0,40875,41125,0.984,0
Sprite,Foreground,Centre,"SB\thx.png",320,240 M,0,251125,,325,448 S,0,251125,,0.5084801 F,0,251125,251375,0,1 F,0,251375,252875,1,0.8928571 F,0,252875,253125,0.8928571,0 F,0,253125,,0
//Storyboard Sound Samples
//Background Colour Transformations
3,100,163,162,255

[TimingPoints]
125,250,4,2,2,80,1,0
875,-100,4,1,1,80,0,0
33125,-100,4,2,1,80,0,0
45125,-133.333333333333,4,2,1,80,0,0
47125,-100,4,2,1,80,0,0
49125,-200,4,1,0,80,0,0
65125,-100,4,1,1,80,0,0
81125,-100,4,1,1,80,0,1
99125,-100,4,2,1,80,0,0
105125,-100,4,1,1,80,0,1
113125,-100,4,1,2,80,0,0
113375,-100,4,1,1,80,0,0
115125,-100,4,1,2,80,0,0
115375,-100,4,1,1,80,0,0
117125,-100,4,1,2,80,0,0
117375,-100,4,1,1,80,0,0
119125,-100,4,1,2,80,0,0
119375,-100,4,1,1,80,0,0
121125,-100,4,1,1,80,0,1
122625,-100,4,2,1,80,0,1
123125,-100,4,1,1,80,0,1
124625,-100,4,2,1,80,0,1
125125,-100,4,1,1,80,0,1
126625,-100,4,2,1,80,0,1
127125,-100,4,1,1,80,0,1
128875,-100,4,2,1,80,0,1
129125,-100,4,2,1,80,0,0
144125,-100,4,1,1,80,0,0
145125,-100,4,2,1,80,0,0
145500,-100,4,1,1,80,0,0
146000,-100,4,2,1,80,0,0
146125,-100,4,1,1,80,0,0
146375,-100,4,2,1,80,0,0
147375,-100,4,1,1,80,0,0
147500,-100,4,2,1,80,0,0
148625,-100,4,1,1,80,0,0
150500,-100,4,2,1,80,0,0
151375,-100,4,1,1,80,0,0
151625,-100,4,2,1,80,0,0
152125,-100,4,1,1,80,0,0
152625,-100,4,2,1,80,0,0
154125,-100,4,1,1,80,0,0
154375,-100,4,2,1,80,0,0
155250,-100,4,1,1,80,0,0
156125,-100,4,2,1,80,0,0
156625,-100,4,1,1,80,0,0
158375,-100,4,2,1,80,0,0
159250,-100,4,1,1,80,0,0
159500,-100,4,2,1,80,0,0
160125,-100,4,1,1,80,0,0
163125,-100,4,1,2,80,0,0
169125,-100,4,2,1,80,0,0
177125,-133.333333333333,4,1,1,80,0,0
184125,-133.333333333333,4,2,2,80,0,0
184875,-133.333333333333,4,1,0,80,0,0
185125,-100,4,1,1,80,0,0
192250,-100,4,2,1,80,0,0
192625,-100,4,1,1,80,0,0
199875,-100,4,1,1,10,0,0
200125,-100,4,1,1,80,0,0
201125,-100,4,1,1,80,0,1
216125,-133.333333333333,4,1,0,80,0,1
219125,-133.333333333333,4,2,1,80,0,0
225125,-100,4,1,1,80,0,1
232125,-100,4,1,0,80,0,1
232250,-100,4,1,1,80,0,1
232625,-100,4,2,1,80,0,1
233125,-100,4,1,1,80,0,0
241125,-100,4,1,1,80,0,1
242625,-100,4,2,1,80,0,1
243125,-100,4,1,1,80,0,1
246625,-100,4,2,1,80,0,1
247125,-100,4,1,1,80,0,1
248687,-100,4,2,2,80,0,1
249125,-100,4,1,1,80,0,0

[Colours]
Combo1 : 255,255,255
Combo2 : 128,0,0
Combo3 : 45,45,45
SliderBorder : 255,255,255

[HitObjects]
92,84,125,1,0,0:0:0:0:
100,92,375,5,0,0:0:0:0:
108,100,625,5,0,0:0:0:0:
116,108,875,5,0,0:0:0:0:
124,116,1125,2,0,B|280:116,1,140,4|0,0:0|0:0,0:0:0:0:
352,176,1500,2,0,B|296:224|296:224|200:224,1,140,4|0,0:0|0:0,0:0:0:0:
160,224,1875,1,0,0:0:0:0:
96,196,2000,1,0,0:0:0:0:
52,144,2125,2,0,B|96:80|204:76,1,140
216,176,2500,1,0,0:0:0:0:
264,268,2625,2,0,B|344:252|376:192,1,140,0|8,0:0|0:0,0:0:0:0:
312,68,3125,5,4,0:0:0:0:
192,140,3375,1,0,0:0:0:0:
192,140,3500,1,4,0:0:0:0:
176,280,3750,1,0,0:0:0:0:
236,316,3875,1,0,0:0:0:0:
304,332,4000,2,0,B|392:328|448:272,1,140
468,224,4375,2,0,B|488:156,1,70
420,132,4625,2,0,B|408:56,1,70
340,60,4875,2,0,B|288:16,1,70,2|0,0:0|0:0,0:0:0:0:
220,32,5125,5,4,0:0:0:0:
112,120,5375,1,0,0:0:0:0:
112,120,5500,1,4,0:0:0:0:
204,308,5750,2,0,B|292:308|292:308,2,70
136,292,6125,2,0,B|84:252|84:252|84:172,1,140
216,188,6500,1,0,0:0:0:0:
272,80,6625,2,0,B|336:104|336:104|360:176,1,140,0|8,0:0|0:0,0:0:0:0:
352,312,7125,5,4,0:0:0:0:
256,212,7375,1,0,0:0:0:0:
256,212,7500,2,0,B|152:116,1,140,4|0,0:0|0:0,0:0:0:0:
84,116,7875,2,0,B|32:192,1,70
60,244,8125,2,0,B|108:304|196:324,1,140
196,180,8625,1,2,0:0:0:0:
256,144,8750,2,0,B|296:140|296:140,5,35,0|0|2|0|0|0,0:0|0:0|0:0|0:0|0:0|0:0,0:0:0:0:
324,144,9125,6,0,B|404:280,1,140,4|0,0:0|0:0,0:0:0:0:
340,312,9500,2,0,B|260:332|260:332|180:332,1,140,4|0,0:0|0:0,0:0:0:0:
136,312,9875,1,0,0:0:0:0:
84,268,10000,2,0,B|44:200|44:124|44:124,2,140
152,256,10625,1,0,0:0:0:0:
236,144,10875,1,8,0:0:0:0:
280,196,11000,1,0,0:0:0:0:
304,132,11125,6,0,B|360:88|440:88,1,140,4|0,0:0|0:0,0:0:0:0:
468,148,11500,2,0,B|400:192|380:264,1,140,4|0,0:0|0:0,0:0:0:0:
372,324,11875,1,0,0:0:0:0:
320,276,12000,2,0,B|176:276|176:276,2,140
384,248,12625,2,0,B|424:228|448:184,1,70
440,132,12875,2,0,B|428:88|400:72,1,70,2|0,0:0|0:0,0:0:0:0:
336,60,13125,6,0,B|176:60,1,140,4|0,0:0|0:0,0:0:0:0:
152,156,13500,2,0,B|296:156,1,140,4|0,0:0|0:0,0:0:0:0:
356,188,13875,1,0,0:0:0:0:
384,252,14000,1,0,0:0:0:0:
360,316,14125,2,0,B|284:336|196:336,1,140
84,180,14625,2,0,B|168:180|252:168,1,140,0|8,0:0|0:0,0:0:0:0:
44,60,15125,5,4,0:0:0:0:
184,36,15375,1,0,0:0:0:0:
184,36,15500,1,4,0:0:0:0:
320,72,15750,2,0,B|380:116,1,70
376,113,16000,1,0,0:0:0:0:
300,308,16250,1,0,0:0:0:0:
300,308,16375,2,0,B|232:276,1,70
176,240,16625,2,0,B|120:196|96:128|136:40|208:24|264:48,1,280,0|4,0:0|0:0,0:0:0:0:
364,84,17375,5,4,0:0:0:0:
248,160,17625,1,0,0:0:0:0:
368,232,17875,1,0,0:0:0:0:
256,316,18125,2,0,B|168:316|168:316,3,70
116,316,18625,2,0,B|40:292|40:208,1,140,0|0,0:0|0:0,0:0:0:0:
112,92,19125,5,4,0:0:0:0:
248,52,19375,1,4,0:0:0:0:
216,188,19625,1,0,0:0:0:0:
248,52,19875,1,0,0:0:0:0:
248,52,20000,1,0,0:0:0:0:
248,52,20125,6,0,B|384:96,1,140
364,164,20500,1,0,0:0:0:0:
320,220,20625,2,0,B|224:248,1,70,2|0,0:0|0:0,0:0:0:0:
344,292,20875,2,0,B|304:356,1,70,2|0,0:0|0:0,0:0:0:0:
408,320,21125,5,4,0:0:0:0:
464,192,21375,1,4,0:0:0:0:
420,60,21625,1,0,0:0:0:0:
280,44,21875,1,0,0:0:0:0:
192,152,22125,2,0,B|96:152|96:152,3,70
52,152,22625,2,0,B|28:216|28:216|60:272,2,105,8|0|0,0:0|0:0|0:0,0:0:0:0:
88,92,23125,6,0,B|148:48|224:48,1,140,4|4,0:0|0:0,0:0:0:0:
288,64,23500,1,0,0:0:0:0:
332,120,23625,2,0,B|352:204|352:204,3,70,0|0|0|0,0:0|0:0|0:0|0:0,0:0:0:0:
344,256,24125,1,0,0:0:0:0:
404,292,24250,1,0,0:0:0:0:
408,224,24375,1,0,0:0:0:0:
228,180,24625,1,0,0:0:0:0:
176,132,24750,2,0,B|144:108|144:108,5,35
116,100,25125,6,0,B|64:144|64:144|64:224,1,140,4|4,0:0|0:0,0:0:0:0:
244,324,25625,2,0,B|244:248|244:248|204:192,1,140,0|0,0:0|0:0,0:0:0:0:
320,112,26125,2,0,B|376:184|376:184,4,70,0|0|0|0|2,0:0|0:0|0:0|0:0|0:0,0:0:0:0:
192,56,26875,1,0,0:0:0:0:
124,180,27125,6,0,B|156:248|156:248|220:272,1,140,4|0,0:0|0:0,0:0:0:0:
428,248,27625,2,0,B|408:172|408:172|352:128,1,140,0|0,0:0|0:0,0:0:0:0:
296,160,28000,1,0,0:0:0:0:
220,44,28250,2,0,B|128:48,1,70
128,112,28500,2,0,B|56:148,1,70,0|0,0:0|0:0,0:0:0:0:
76,212,28750,2,0,B|44:296,1,70,0|8,0:0|0:0,0:0:0:0:
116,300,29000,6,0,B|172:368,1,70,0|4,0:0|0:0,0:0:0:0:
200,220,29375,1,4,0:0:0:0:
248,88,29625,1,0,0:0:0:0:
356,176,29875,1,0,0:0:0:0:
412,220,30000,2,0,B|340:236|284:300,1,140
236,328,30375,2,0,B|224:244|160:188,1,140
124,160,30750,1,0,0:0:0:0:
56,164,30875,6,0,B|36:204|20:236|20:236,2,70,8|0|4,0:0|0:0|0:0,0:0:0:0:
146,61,31375,1,0,0:0:0:0:
146,61,31500,1,0,0:0:0:0:
288,60,31750,1,0,0:0:0:0:
288,60,31875,1,0,0:0:0:0:
288,60,32000,6,0,B|384:164,1,140,4|4,0:0|0:0,0:0:0:0:
428,216,32375,1,0,0:0:0:0:
444,284,32500,1,0,0:0:0:0:
392,328,32625,2,0,B|332:332|332:332,3,35
320,328,32875,2,0,B|236:328|184:244,1,140,0|4,0:0|0:0,0:0:0:0:
396,96,41125,5,0,0:0:0:0:
116,88,41625,1,0,0:0:0:0:
256,332,42125,1,0,0:0:0:0:
256,88,43125,1,0,0:0:0:0:
396,332,43625,1,0,0:0:0:0:
116,328,44125,1,0,0:0:0:0:
480,120,45125,6,0,B|392:200|284:228,1,209.999993741512,2|0,0:0|0:0,0:0:0:0:
88,212,46125,2,0,B|168:276|284:304,1,209.999993741512
432,72,47125,1,0,0:0:0:0:
328,332,47625,1,0,0:0:0:0:
144,120,48125,1,0,0:0:0:0:
116,308,49125,6,0,B|200:308|200:196|116:196|116:152,1,210
116,152,50125,1,0,0:0:0:0:
236,84,50625,1,0,0:0:0:0:
300,56,50875,1,0,0:0:0:0:
288,124,51125,2,0,B|316:200|392:232,1,140
448,236,51875,1,0,0:0:0:0:
400,284,52125,2,0,B|340:320|264:312,1,140,0|2,0:0|0:0,0:0:0:0:
132,148,53125,6,0,B|204:120|204:120,2,70
68,176,53875,1,0,0:0:0:0:
68,244,54125,2,0,B|120:292|208:308,1,140,0|0,0:0|0:0,0:0:0:0:
260,276,54875,1,0,0:0:0:0:
324,296,55125,2,0,B|400:272|448:208,1,140
464,152,55875,1,0,0:0:0:0:
400,184,56125,2,0,B|356:120|284:112,1,140,0|2,0:0|0:0,0:0:0:0:
112,232,57125,6,0,B|156:292|232:312|308:296,1,210
299,297,58125,1,0,0:0:0:0:
304,156,58625,2,0,B|304:84,1,70
244,48,59125,2,0,B|228:116|128:136,1,140,2|0,0:0|0:0,0:0:0:0:
72,140,59875,1,0,0:0:0:0:
124,188,60125,2,0,B|124:264,1,70,2|0,0:0|0:0,0:0:0:0:
264,264,60625,2,0,B|264:188,1,70
264,124,61125,2,0,B|368:152|480:124|480:124,2,210,2|2|2,0:0|0:0|0:0,0:0:0:0:
216,72,62875,1,0,0:0:0:0:
256,192,63125,12,0,64625,0:0:0:0:
256,192,65125,5,4,0:0:0:0:
256,192,65375,1,4,0:0:0:0:
396,192,65625,2,0,B|396:120|396:120|352:64,1,140
284,56,66000,2,0,B|236:112|236:112|140:112,1,140,4|4,0:0|0:0,0:0:0:0:
100,100,66375,1,0,0:0:0:0:
52,48,66500,1,0,0:0:0:0:
28,116,66625,6,0,B|28:208|88:268,1,140
204,288,67125,1,4,0:0:0:0:
340,44,67625,1,0,0:0:0:0:
400,172,67875,2,0,B|440:196|480:196|480:196,2,70,0|0|0,0:0|0:0|0:0,0:0:0:0:
344,128,68250,1,0,0:0:0:0:
276,128,68375,2,0,B|224:128|224:128,3,35
208,136,68625,2,0,B|168:160|168:160,3,35,0|0|0|0,0:0|0:0|0:0|0:0,0:0:0:0:
160,184,68875,2,0,B|132:260,1,70
188,296,69125,5,4,0:0:0:0:
324,264,69375,1,4,0:0:0:0:
240,376,69625,1,0,0:0:0:0:
252,236,69875,2,0,B|252:156,1,70,0|4,0:0|0:0,0:0:0:0:
384,116,70250,1,4,0:0:0:0:
268,40,70500,1,0,0:0:0:0:
268,40,70625,6,0,B|200:36|112:60,1,140
132,264,71125,2,0,B|212:288|288:272|288:272,2,140,4|0|0,0:0|0:0|0:0,0:0:0:0:
52,148,71875,1,0,0:0:0:0:
40,80,72000,1,0,0:0:0:0:
92,32,72125,2,0,B|128:24|128:24,3,35
144,56,72375,2,0,B|164:84|164:84,3,35
188,60,72625,2,0,B|228:48|228:48,3,35
256,56,72875,2,0,B|316:100,1,70
280,160,73125,5,4,0:0:0:0:
280,160,73375,1,4,0:0:0:0:
156,224,73625,2,0,B|72:224|72:224,2,70,0|0|4,0:0|0:0|0:0,0:0:0:0:
260,320,74125,2,0,B|348:336|412:292,1,140,4|0,0:0|0:0,0:0:0:0:
388,92,74625,2,0,B|308:92,1,70
248,84,74875,1,0,0:0:0:0:
180,68,75000,1,0,0:0:0:0:
112,52,75125,5,4,0:0:0:0:
52,180,75375,1,4,0:0:0:0:
192,172,75625,1,0,0:0:0:0:
128,296,75875,1,4,0:0:0:0:
128,296,76000,1,4,0:0:0:0:
268,296,76250,1,0,0:0:0:0:
268,296,76375,1,4,0:0:0:0:
404,264,76625,2,0,B|432:240|432:240,3,35,0|0|0|0,0:0|0:0|0:0|0:0,0:0:0:0:
444,208,76875,2,0,B|456:164|456:164,3,35
456,140,77125,6,0,B|348:52,1,140,4|0,0:0|0:0,0:0:0:0:
92,168,77625,2,0,B|196:264,1,140,4|0,0:0|0:0,0:0:0:0:
476,260,78125,2,0,B|368:164,1,140,4|0,0:0|0:0,0:0:0:0:
116,52,78625,2,0,B|216:152,1,140,4|0,0:0|0:0,0:0:0:0:
492,92,79125,2,0,B|428:24,1,70,4|0,0:0|0:0,0:0:0:0:
304,52,79375,2,0,B|356:108,1,70,4|0,0:0|0:0,0:0:0:0:
348,244,79625,2,0,B|284:172,1,70,4|0,0:0|0:0,0:0:0:0:
164,220,79875,2,0,B|216:276,1,70,4|4,0:0|0:0,0:0:0:0:
256,192,80125,12,0,80875,0:0:0:0:
96,60,81125,6,0,B|172:32,1,70
200,92,81375,2,0,B|296:92,1,70
292,160,81625,2,0,B|376:196,1,70
352,260,81875,2,0,B|400:332,1,70
320,328,82125,2,0,B|232:328|168:272,1,140,2|0,0:0|0:0,0:0:0:0:
216,152,82625,2,0,B|160:100|84:80,1,140
64,220,83125,5,0,0:0:0:0:
116,264,83250,1,0,0:0:0:0:
180,292,83375,1,0,0:0:0:0:
248,300,83500,1,0,0:0:0:0:
316,288,83625,1,0,0:0:0:0:
384,168,83875,2,0,B|404:136|404:84,1,70
368,40,84125,1,8,0:0:0:0:
248,116,84375,2,0,B|208:120|208:120,3,35
180,108,84625,2,0,B|152:88|152:88,3,35
120,76,84875,1,0,0:0:0:0:
64,204,85125,6,0,B|76:280,1,70
144,284,85375,2,0,B|164:212,1,70
224,188,85625,2,0,B|292:208|396:192,1,140
408,144,86000,1,0,0:0:0:0:
392,76,86125,2,0,B|340:24,1,70,2|0,0:0|0:0,0:0:0:0:
276,44,86375,2,0,B|188:28,1,70
160,84,86625,2,0,B|80:96,1,70
76,164,86875,2,0,B|48:196|48:196,3,35
48,224,87125,6,0,B|168:308|332:296,1,280
416,204,87875,1,0,0:0:0:0:
356,80,88125,2,0,B|292:92|256:188,1,140,8|0,0:0|0:0,0:0:0:0:
248,208,88438,1,0,0:0:0:0:
228,236,88500,1,0,0:0:0:0:
200,256,88563,1,0,0:0:0:0:
164,264,88625,2,0,B|112:252|88:204,1,70
76,164,88875,2,0,B|108:100|188:76,1,140,0|2,0:0|0:0,0:0:0:0:
252,68,89250,5,0,0:0:0:0:
320,76,89375,1,0,0:0:0:0:
388,92,89500,2,0,B|388:244,1,140
316,302,89875,2,0,B|316:232,1,70
240,158,90125,2,0,B|240:228,1,70,8|0,0:0|0:0,0:0:0:0:
164,298,90375,2,0,B|164:228,1,70
88,154,90625,2,0,B|88:224,1,70
120,92,90875,1,0,0:0:0:0:
120,92,91000,1,0,0:0:0:0:
176,48,91125,6,0,B|243:33|243:33|320:48,1,140,2|0,0:0|0:0,0:0:0:0:
412,232,91625,2,0,B|344:248|344:248|272:232,1,140
208,208,92000,1,0,0:0:0:0:
264,164,92125,2,0,B|296:96,1,70,8|0,0:0|0:0,0:0:0:0:
240,56,92375,2,0,B|188:44|188:44,3,35
172,48,92625,2,0,B|92:76,1,70
56,120,92875,2,0,B|20:208,1,70
32,256,93125,6,0,B|152:328|328:328,1,280,2|8,0:0|0:0,0:0:0:0:
364,300,93750,1,0,0:0:0:0:
388,236,93875,1,0,0:0:0:0:
352,176,94000,1,0,0:0:0:0:
288,144,94125,2,0,B|256:172|200:184,1,70,2|0,0:0|0:0,0:0:0:0:
164,144,94375,2,0,B|120:136|104:100,1,70,2|0,0:0|0:0,0:0:0:0:
156,56,94625,2,0,B|224:32|308:32,1,140,8|0,0:0|0:0,0:0:0:0:
364,40,95000,1,0,0:0:0:0:
364,40,95125,5,4,0:0:0:0:
440,236,95500,1,4,0:0:0:0:
236,196,95875,1,4,0:0:0:0:
140,96,96125,1,0,0:0:0:0:
116,108,96187,1,0,0:0:0:0:
92,124,96250,1,0,0:0:0:0:
76,148,96312,1,0,0:0:0:0:
68,176,96375,1,0,0:0:0:0:
68,204,96437,1,0,0:0:0:0:
76,232,96500,1,0,0:0:0:0:
104,280,96625,2,0,B|140:308|140:308,6,35
256,192,97125,12,4,99125,0:0:0:0:
304,100,105125,6,0,B|388:100,1,70
480,188,105375,2,0,B|388:188,1,70
300,276,105625,2,0,B|384:276,1,70
244,212,105875,2,0,B|160:212,1,70
104,196,106125,1,0,0:0:0:0:
52,148,106250,1,0,0:0:0:0:
56,80,106375,1,0,0:0:0:0:
112,36,106500,1,0,0:0:0:0:
180,32,106625,2,0,B|256:32,3,70,0|0|2|0,0:0|0:0|0:0|0:0,0:0:0:0:
320,36,107125,6,0,B|340:124|412:164,1,140
432,208,107500,2,0,B|368:172|268:188,1,140
252,240,107875,2,0,B|204:292,1,70
144,256,108125,1,0,0:0:0:0:
188,124,108375,1,0,0:0:0:0:
184,56,108500,1,0,0:0:0:0:
124,92,108625,2,0,B|84:96|84:96,3,35,2|0|0|0,0:0|0:0|0:0|0:0,0:0:0:0:
64,120,108875,2,0,B|36:188|36:188|36:268,1,140,2|0,0:0|0:0,0:0:0:0:
84,308,109250,5,0,0:0:0:0:
136,260,109375,1,0,0:0:0:0:
200,232,109500,1,0,0:0:0:0:
264,256,109625,1,0,0:0:0:0:
308,308,109750,1,0,0:0:0:0:
368,344,109875,1,0,0:0:0:0:
432,312,110000,1,0,0:0:0:0:
464,252,110125,6,0,B|480:212|480:212|480:172,1,70
412,164,110375,2,0,B|392:128|392:128|392:88,1,70
340,52,110625,2,0,B|296:80|296:80|256:80,1,70
208,80,110875,1,8,0:0:0:0:
208,80,111000,1,0,0:0:0:0:
208,80,111125,1,4,0:0:0:0:
60,232,111500,1,4,0:0:0:0:
264,280,111875,1,4,0:0:0:0:
404,260,112125,6,0,B|424:192|388:116,1,140
260,76,112625,2,0,B|212:72|212:72,3,35
192,84,112875,2,0,B|160:104|160:104,3,35
140,128,113125,5,2,0:0:0:0:
232,232,113375,1,2,0:0:0:0:
288,276,113500,1,8,0:0:0:0:
404,196,113750,2,0,B|496:196|496:196,2,70
332,200,114125,2,0,B|264:164|240:92,1,140
104,256,114625,2,0,B|176:280|220:352,1,140,0|0,0:0|0:0,0:0:0:0:
204,200,115125,6,0,B|148:152|128:84,1,140,2|2,0:0|0:0,0:0:0:0:
180,36,115500,2,0,B|252:72|336:68,1,140,8|0,0:0|0:0,0:0:0:0:
384,56,115875,1,0,0:0:0:0:
440,96,116000,6,0,B|440:256,1,140
356,300,116375,2,0,B|356:208,1,70
328,128,116625,2,0,B|268:180,1,70
256,280,116875,2,0,B|188:228,1,70
144,196,117125,6,0,B|132:144|168:96|240:96,1,140,2|2,0:0|0:0,0:0:0:0:
160,56,117500,2,0,B|160:116|104:160|44:144,1,140,8|0,0:0|0:0,0:0:0:0:
24,200,117875,1,0,0:0:0:0:
36,268,118000,2,0,B|84:324|84:324|160:324,1,140
220,324,118375,1,0,0:0:0:0:
184,264,118500,1,0,0:0:0:0:
216,204,118625,2,0,B|288:164,1,70
220,128,118875,2,0,B|220:60,1,70
288,40,119125,6,0,B|300:108|384:152,1,140,2|8,0:0|0:0,0:0:0:0:
440,172,119500,2,0,B|380:240|388:308,1,140,2|0,0:0|0:0,0:0:0:0:
332,252,119875,1,0,0:0:0:0:
336,320,120000,2,0,B|264:348|124:344,1,210
72,300,120500,1,0,0:0:0:0:
60,232,120625,2,0,B|56:192|52:188,3,35
56,164,120875,6,0,B|112:80|188:68,1,140,0|4,0:0|0:0,0:0:0:0:
232,272,121375,1,4,0:0:0:0:
196,64,121625,1,4,0:0:0:0:
276,260,121875,1,4,0:0:0:0:
324,128,122125,2,0,B|384:88|384:88,3,70
432,136,122625,2,8,B|432:220|432:220,3,70
424,276,123125,5,4,0:0:0:0:
240,172,123375,1,4,0:0:0:0:
388,320,123625,1,4,0:0:0:0:
320,340,123750,1,0,0:0:0:0:
252,344,123875,1,4,0:0:0:0:
184,328,124000,2,0,B|164:252|96:204,1,140
44,240,124375,2,0,B|24:168,1,70
48,104,124625,2,8,B|116:88|116:88,3,70
184,84,125125,5,4,0:0:0:0:
392,120,125375,1,4,0:0:0:0:
200,200,125625,1,4,0:0:0:0:
408,240,125875,1,4,0:0:0:0:
288,308,126125,2,0,B|216:328,1,70
152,328,126375,2,0,B|76:312,1,70
52,248,126625,1,8,0:0:0:0:
52,248,126750,1,8,0:0:0:0:
56,180,126875,1,8,0:0:0:0:
56,180,127000,1,8,0:0:0:0:
96,124,127125,6,4,B|160:72|240:64,1,140
340,240,127625,1,0,0:0:0:0:
272,260,127750,1,4,0:0:0:0:
208,228,127875,1,0,0:0:0:0:
204,160,128000,2,0,B|352:120,1,140,4|4,0:0|0:0,0:0:0:0:
408,128,128375,2,0,B|456:188,1,70,4|0,0:0|0:0,0:0:0:0:
452,252,128625,2,0,B|408:316,1,70
348,336,128875,2,0,B|296:336|296:336|296:340,4,35,8|8|8|8|4,0:0|0:0|0:0|0:0|0:0,0:0:0:0:
404,64,137125,5,8,0:0:0:0:
128,112,138125,1,0,0:0:0:0:
400,172,139125,1,0,0:0:0:0:
120,196,140125,1,0,0:0:0:0:
400,228,141125,5,8,0:0:0:0:
120,240,142125,1,0,0:0:0:0:
400,248,143125,1,0,0:0:0:0:
268,300,143625,1,0,0:0:0:0:
128,300,144125,2,0,B|64:268|28:196|48:116|100:52|192:32|280:92,1,420
396,136,145125,6,0,B|464:192,1,70
388,212,145375,2,0,B|388:292,1,70
256,328,145750,1,0,0:0:0:0:
168,220,146000,2,0,B|84:220,1,70
48,172,146250,1,0,0:0:0:0:
128,56,146500,2,0,B|196:84|276:56,1,140
328,24,146875,2,0,B|360:164,1,140
376,228,147250,1,0,0:0:0:0:
312,200,147375,6,0,B|216:192|216:192|216:188,1,70
156,304,147750,1,0,0:0:0:0:
56,208,148000,1,0,0:0:0:0:
60,140,148125,2,0,B|92:120|92:120,3,35
120,104,148375,2,0,B|160:96|160:96,3,35
188,92,148625,1,0,0:0:0:0:
328,76,148875,1,0,0:0:0:0:
256,196,149125,5,4,0:0:0:0:
336,312,149375,2,0,B|384:296|416:256,1,70
256,276,149750,1,0,0:0:0:0:
120,316,150000,1,0,0:0:0:0:
68,268,150125,1,0,0:0:0:0:
36,204,150250,1,0,0:0:0:0:
124,96,150500,2,0,B|176:140,1,70
284,52,150875,1,0,0:0:0:0:
284,52,151000,1,0,0:0:0:0:
352,72,151125,6,0,B|412:120|416:224|416:224,3,140
220,280,152125,2,0,B|168:232|152:140|152:140,3,140,0|0|0|0,0:0|0:0|0:0|0:0,0:0:0:0:
64,264,153125,1,0,0:0:0:0:
288,96,153625,1,0,0:0:0:0:
392,188,153875,1,0,0:0:0:0:
400,256,154000,5,0,0:0:0:0:
340,224,154125,2,0,B|252:216,1,70
228,276,154375,2,0,B|152:308|68:292,1,140
68,228,154750,1,0,0:0:0:0:
60,88,155000,1,0,0:0:0:0:
196,116,155250,1,0,0:0:0:0:
252,156,155375,2,0,B|404:100,1,140
448,84,155750,5,0,0:0:0:0:
436,152,155875,1,0,0:0:0:0:
464,216,156000,1,0,0:0:0:0:
452,284,156125,2,0,B|372:332|304:328,1,140
284,332,156438,1,0,0:0:0:0:
248,328,156500,1,0,0:0:0:0:
192,288,156625,1,0,0:0:0:0:
288,184,156875,1,0,0:0:0:0:
156,140,157125,1,4,0:0:0:0:
156,140,157375,5,0,0:0:0:0:
192,80,157500,2,0,B|260:52|260:52|332:72,1,140
420,176,158000,1,0,0:0:0:0:
420,244,158125,2,0,B|468:276|468:276,2,35
360,204,158375,1,0,0:0:0:0:
304,332,158625,1,0,0:0:0:0:
280,192,158875,1,0,0:0:0:0:
220,320,159125,6,0,B|136:332,1,70
168,264,159375,2,0,B|96:248,1,70
144,192,159625,2,0,B|88:144,3,70
156,116,160125,2,0,B|120:40,1,70
196,48,160375,2,0,B|284:48,1,70
336,56,160625,1,0,0:0:0:0:
368,68,160688,1,0,0:0:0:0:
388,96,160750,1,0,0:0:0:0:
388,132,160813,1,0,0:0:0:0:
364,156,160875,5,0,0:0:0:0:
240,224,161125,2,0,B|148:264|148:264|76:264|76:264,2,140
348,316,161875,1,0,0:0:0:0:
172,100,162375,2,0,B|208:60|208:60|320:60|320:60,2,140
288,180,163125,2,0,B|252:212|252:212|252:304,2,140,2|0|0,0:0|0:0|0:0,0:0:0:0:
428,180,163875,1,0,0:0:0:0:
356,60,164125,2,0,B|356:220|356:220,3,140,2|0|0|0,0:0|0:0|0:0|0:0,0:0:0:0:
256,192,165125,12,4,169125,0:0:0:0:
352,96,177125,5,4,0:0:0:0:
184,100,177625,1,0,0:0:0:0:
128,160,177875,1,0,0:0:0:0:
212,176,178125,2,0,B|312:204|364:312,1,209.999993741512
196,308,179125,5,4,0:0:0:0:
364,308,179625,1,0,0:0:0:0:
424,252,179875,1,0,0:0:0:0:
344,228,180125,2,0,B|304:120|168:88,1,209.999993741512
108,108,180875,1,4,0:0:0:0:
68,184,181125,6,0,B|92:252|124:292|124:292,2,104.999996870756,4|0|0,0:0|0:0|0:0,0:0:0:0:
108,108,181875,1,0,0:0:0:0:
180,64,182125,2,0,B|284:48|284:48|388:48,1,209.999993741512
456,100,182875,1,0,0:0:0:0:
456,100,183000,1,0,0:0:0:0:
456,100,183125,6,0,B|412:188|344:232|344:232,2,157.499995306134,4|4|4,0:0|0:0|0:0,0:0:0:0:
352,108,184125,1,0,0:0:0:0:
280,184,184375,1,0,0:0:0:0:
184,144,184625,1,0,0:0:0:0:
128,232,184875,1,4,0:0:0:0:
200,296,185125,6,0,B|364:292,1,140,4|0,0:0|0:0,0:0:0:0:
376,260,185500,2,0,B|448:132,1,140,4|0,0:0|0:0,0:0:0:0:
416,96,185875,2,0,B|344:132|344:132|268:132,1,140
244,104,186250,2,0,B|104:40,1,140
72,68,186625,1,0,0:0:0:0:
52,208,186875,1,0,0:0:0:0:
192,188,187125,6,0,B|192:264|192:264|232:320,1,140,4|0,0:0|0:0,0:0:0:0:
180,320,187500,2,0,B|144:256|144:256|64:256,1,140,4|0,0:0|0:0,0:0:0:0:
36,232,187875,2,0,B|140:124,1,140
104,92,188250,2,0,B|240:64,1,140
284,88,188625,1,0,0:0:0:0:
408,148,188875,1,0,0:0:0:0:
276,200,189125,6,0,B|140:244,1,140,4|0,0:0|0:0,0:0:0:0:
172,284,189500,2,0,B|308:336,1,140,4|0,0:0|0:0,0:0:0:0:
352,328,189875,2,0,B|456:232,1,140
476,188,190250,2,0,B|412:52,1,140
368,68,190625,1,0,0:0:0:0:
288,184,190875,1,0,0:0:0:0:
208,68,191125,6,0,B|132:68|132:68|64:96,1,140,4|0,0:0|0:0,0:0:0:0:
48,140,191500,2,0,B|84:196|84:196|168:216,1,140,4|0,0:0|0:0,0:0:0:0:
192,256,191875,2,0,B|88:352,1,140,4|0,0:0|0:0,0:0:0:0:
56,308,192250,2,8,B|16:220,1,70,8|8,0:0|0:0,0:0:0:0:
120,180,192500,2,0,B|212:160,1,70,8|4,0:0|0:0,0:0:0:0:
316,180,192875,1,4,0:0:0:0:
408,268,193125,6,0,B|456:216|464:136,1,140,4|0,0:0|0:0,0:0:0:0:
448,88,193500,2,0,B|364:100|288:76,1,140,4|0,0:0|0:0,0:0:0:0:
268,44,193875,2,0,B|224:96|120:108,1,140
88,112,194250,2,0,B|76:204|40:248,1,140
68,296,194625,1,4,0:0:0:0:
176,208,194875,1,4,0:0:0:0:
256,324,195125,6,0,B|300:272|392:260,1,140,4|0,0:0|0:0,0:0:0:0:
420,208,195500,2,0,B|384:140|400:64,1,140,4|0,0:0|0:0,0:0:0:0:
336,44,195875,2,0,B|284:132|200:136,1,140
172,96,196250,2,0,B|116:52|32:52,1,140
40,124,196625,1,4,0:0:0:0:
152,204,196875,1,4,0:0:0:0:
24,264,197125,5,4,0:0:0:0:
288,164,197625,1,0,0:0:0:0:
124,160,198625,1,0,0:0:0:0:
124,160,198875,1,0,0:0:0:0:
256,192,199125,12,0,199875,0:0:0:0:
436,216,200250,5,0,0:0:0:0:
416,148,200375,5,0,0:0:0:0:
368,96,200500,5,0,0:0:0:0:
304,64,200625,5,0,0:0:0:0:
236,56,200750,5,0,0:0:0:0:
168,64,200875,5,0,0:0:0:0:
108,104,201000,5,0,0:0:0:0:
76,164,201125,5,4,0:0:0:0:
192,320,201375,1,4,0:0:0:0:
168,124,201625,1,4,0:0:0:0:
292,276,201875,1,4,0:0:0:0:
276,136,202125,2,0,B|260:96|280:48,1,70,8|0,0:0|0:0,0:0:0:0:
368,124,202375,2,0,B|396:88|432:80,1,70
432,188,202625,2,0,B|472:188|500:212,1,70
408,268,202875,2,0,B|436:308|412:360,1,70
352,348,203125,5,4,0:0:0:0:
152,288,203375,1,4,0:0:0:0:
344,200,203625,1,4,0:0:0:0:
148,128,203875,1,4,0:0:0:0:
264,52,204125,2,0,B|340:52,1,70,2|0,0:0|0:0,0:0:0:0:
400,76,204375,2,0,B|420:112|420:112,3,35
432,140,204625,2,0,B|456:216|456:216|456:304,1,140
400,316,205000,1,0,0:0:0:0:
332,296,205125,5,4,0:0:0:0:
256,100,205375,1,4,0:0:0:0:
172,292,205625,1,4,0:0:0:0:
344,172,205875,1,4,0:0:0:0:
212,220,206125,2,0,B|140:220,1,70,8|0,0:0|0:0,0:0:0:0:
52,164,206375,2,0,B|144:164,1,70
168,112,206625,2,0,B|216:60|304:60,1,140
360,80,207000,1,0,0:0:0:0:
408,132,207125,6,4,B|440:216|440:216|440:292|440:292,3,140
308,312,208125,1,2,0:0:0:0:
172,288,208375,1,0,0:0:0:0:
148,276,208438,1,0,0:0:0:0:
124,264,208500,1,0,0:0:0:0:
100,252,208563,1,0,0:0:0:0:
80,236,208625,2,0,B|64:192|64:192,3,35
64,176,208875,6,0,B|120:96|208:96,1,140,0|4,0:0|0:0,0:0:0:0:
232,160,209250,1,0,0:0:0:0:
252,80,209375,1,0,0:0:0:0:
324,40,209500,1,0,0:0:0:0:
372,172,209750,1,0,0:0:0:0:
352,252,209875,1,0,0:0:0:0:
280,296,210000,1,0,0:0:0:0:
212,284,210125,6,0,B|136:268,1,70,8|0,0:0|0:0,0:0:0:0:
136,200,210375,2,0,B|88:148,1,70
132,92,210625,2,0,B|112:24|112:24,2,70
188,132,211000,2,0,B|272:132,1,70,0|4,0:0|0:0,0:0:0:0:
468,124,211375,1,0,0:0:0:0:
260,104,211625,1,0,0:0:0:0:
460,168,211875,1,0,0:0:0:0:
368,272,212125,2,0,B|212:308,1,140,2|0,0:0|0:0,0:0:0:0:
160,308,212500,1,0,0:0:0:0:
100,224,212625,2,0,B|64:200|64:200,2,35,2|0|0,0:0|0:0|0:0,0:0:0:0:
204,208,212875,2,0,B|220:172|220:172,2,35
132,128,213125,6,8,B|188:72|252:56|340:60|396:104,3,280
456,224,214875,1,0,0:0:0:0:
256,160,215125,1,12,0:0:0:0:
92,292,215500,1,12,0:0:0:0:
296,336,215875,1,12,0:0:0:0:
372,260,216125,2,0,B|428:160|372:48,1,209.999993741512,4|0,0:0|0:0,0:0:0:0:
352,48,216688,1,0,0:0:0:0:
328,44,216750,1,0,0:0:0:0:
300,44,216813,1,0,0:0:0:0:
276,48,216875,1,0,0:0:0:0:
256,192,217125,12,4,219125,0:0:0:0:
356,80,225125,6,0,B|424:124|448:220,1,140
396,324,225625,2,0,B|332:292|288:200,1,140
260,92,226125,1,0,0:0:0:0:
236,156,226250,1,0,0:0:0:0:
188,208,226375,1,0,0:0:0:0:
120,220,226500,1,0,0:0:0:0:
52,208,226625,2,0,B|44:124|84:64,1,140,0|2,0:0|0:0,0:0:0:0:
224,72,227125,5,0,0:0:0:0:
380,212,227375,1,0,0:0:0:0:
252,44,227625,1,0,0:0:0:0:
416,176,227875,1,0,0:0:0:0:
448,112,228000,1,0,0:0:0:0:
380,120,228125,2,0,B|308:120|260:188,1,140
284,252,228500,2,0,B|232:328|168:324,1,140,0|2,0:0|0:0,0:0:0:0:
100,316,228875,1,2,0:0:0:0:
52,264,229000,1,0,0:0:0:0:
120,248,229125,5,0,0:0:0:0:
224,340,229375,1,0,0:0:0:0:
360,304,229625,1,0,0:0:0:0:
228,256,229875,1,0,0:0:0:0:
356,204,230125,1,0,0:0:0:0:
300,160,230250,1,0,0:0:0:0:
332,100,230375,1,0,0:0:0:0:
268,72,230500,1,0,0:0:0:0:
204,104,230625,6,0,B|180:248|68:344,1,280,0|4,0:0|0:0,0:0:0:0:
76,132,231500,2,4,B|184:80|280:72,1,210
284,212,232125,2,0,B|340:292|408:312|408:312,2,140,4|0|8,0:0|0:0|0:0,0:0:0:0:
276,196,232688,1,8,0:0:0:0:
268,180,232750,1,8,0:0:0:0:
264,164,232813,1,8,0:0:0:0:
260,148,232875,1,8,0:0:0:0:
124,108,233125,5,4,0:0:0:0:
84,244,233375,1,0,0:0:0:0:
84,244,233500,1,0,0:0:0:0:
220,212,233750,2,0,B|232:296,1,70
284,324,234000,2,0,B|312:240|396:208,1,140
428,176,234375,2,0,B|404:92|340:68,1,140
288,112,234750,2,0,B|208:160,1,70,0|2,0:0|0:0,0:0:0:0:
172,104,235000,2,0,B|88:56,1,70,8|0,0:0|0:0,0:0:0:0:
60,200,235375,1,0,0:0:0:0:
60,200,235500,1,0,0:0:0:0:
164,296,235750,5,0,0:0:0:0:
180,228,235875,1,0,0:0:0:0:
232,276,236000,2,0,B|316:328|316:328|368:328,1,140
424,304,236375,2,0,B|444:232,1,70
404,180,236625,2,0,B|380:112,1,70
440,80,236875,2,0,B|496:28|496:32,2,70,2|8|0,0:0|0:0|0:0,0:0:0:0:
300,88,237375,1,0,0:0:0:0:
232,84,237500,1,0,0:0:0:0:
264,220,237750,6,0,B|200:260,1,70
136,264,238000,2,0,B|120:168|64:120,1,140
144,108,238375,2,0,B|200:160|272:168,1,140
332,136,238750,2,0,B|368:224,1,70,0|8,0:0|0:0,0:0:0:0:
340,268,239000,2,0,B|392:324,1,70,2|0,0:0|0:0,0:0:0:0:
452,196,239375,1,0,0:0:0:0:
448,128,239500,1,0,0:0:0:0:
332,48,239750,6,0,B|192:48,1,140
72,120,240250,2,0,B|36:180,1,70
120,292,240625,2,0,B|164:324|164:324,3,35
184,324,240875,2,0,B|232:324|232:324|232:328,3,35
256,324,241125,6,4,B|396:324,1,140
464,200,241625,2,4,B|304:200,1,140
184,200,242125,2,0,B|100:200|100:200,3,70
48,172,242625,1,8,0:0:0:0:
20,108,242750,1,8,0:0:0:0:
56,48,242875,1,8,0:0:0:0:
124,36,243000,1,8,0:0:0:0:
164,92,243125,6,4,B|324:92,1,140
408,184,243625,2,4,B|256:184,1,140
160,276,244125,1,0,0:0:0:0:
300,276,244375,1,0,0:0:0:0:
180,204,244625,1,2,0:0:0:0:
120,164,244750,1,2,0:0:0:0:
104,96,244875,1,2,0:0:0:0:
152,48,245000,1,8,0:0:0:0:
220,36,245125,6,0,B|248:128,1,70,4|0,0:0|0:0,0:0:0:0:
324,172,245375,2,0,B|296:88,1,70,4|0,0:0|0:0,0:0:0:0:
260,204,245625,2,0,B|292:288,1,70,4|0,0:0|0:0,0:0:0:0:
212,336,245875,2,0,B|189:271,1,70,4|0,0:0|0:0,0:0:0:0:
100,312,246125,2,0,B|60:248|48:168,1,140
140,76,246625,2,0,B|208:52|300:60,1,140,8|8,0:0|0:0,0:0:0:0:
384,152,247125,5,4,0:0:0:0:
396,220,247250,1,0,0:0:0:0:
364,284,247375,1,0,0:0:0:0:
300,312,247500,1,4,0:0:0:0:
232,316,247625,2,0,B|104:232,1,140,0|4,0:0|0:0,0:0:0:0:
168,196,248000,2,0,B|120:64,1,140,4|4,0:0|0:0,0:0:0:0:
192,68,248375,2,0,B|248:120,1,70
312,132,248625,2,0,B|372:140|372:140,8,35,4|0|0|0|0|0|0|0|4,0:0|0:0|0:0|0:0|0:0|0:0|0:0|0:0|0:0,0:0:0:0:
