osu file format v8

[General]
AudioFilename: to Luv me I for u - t+pazolite.mp3
AudioLeadIn: 0
PreviewTime: -1
Countdown: 0
SampleSet: Normal
StackLeniency: 0.7
Mode: 0
LetterboxInBreaks: 1

[Editor]
Bookmarks: 25265,62398,71125,97265,114761,134355,151810,169307,187810,206398,223852,241307
DistanceSpacing: 1.2
BeatDivisor: 2
GridSize: 16

[Metadata]
Title:to luv me I *** for u
Artist:t+pazolite
Creator:wakarimasenlol
Version:APOCALYPSE
Source:
Tags:t+pazolite

[Difficulty]
HPDrainRate:5
CircleSize:5
OverallDifficulty:5
ApproachRate:9
SliderMultiplier:2
SliderTickRate:0.5

[Events]
//Background and Video events
0,0,"ithurtstolive.jpg"
//Break Periods
2,62555,70483
2,115055,133755
//Storyboard Layer 0 (Background)
//Storyboard Layer 1 (Fail)
//Storyboard Layer 2 (Pass)
//Storyboard Layer 3 (Foreground)
//Storyboard Sound Samples
//Background Colour Transformations
3,100,163,162,255

[TimingPoints]
25265,272.727272727273,4,1,0,100,1,0
70034,-100,4,2,0,100,0,0
78719,-100,4,1,0,30,0,0
79810,-100,4,2,0,100,0,0
96174,-100,4,2,0,51,0,0
96446,-100,4,2,0,70,0,0
96719,-100,4,1,0,81,0,0
96992,-100,4,1,0,89,0,0
97265,-100,4,1,0,100,0,0
134355,-100,4,2,0,100,0,0
150446,-100,4,1,0,100,0,0

[Colours]
Combo1 : 183,0,183
Combo2 : 3,182,3
Combo3 : 4,4,191
Combo4 : 181,4,4

[HitObjects]
256,48,25265,2,8,B|256:256,1,200
32,120,25810,2,8,B|144:120,1,100,8|0
488,120,26083,2,8,B|376:120,1,100
296,192,26355,5,8
176,192,26492,1,0
56,192,26628,2,0,B|168:192,1,100,8|0
248,272,26901,2,0,B|168:192,1,100,8|0
216,88,27174,2,8,B|176:192,1,100
296,192,27446,5,8
416,192,27583,1,0
416,312,27719,1,8
296,312,27855,1,0
296,312,27992,2,0,B|176:312,1,100,8|0
72,312,28265,2,8,B|184:312,1,100
176,192,28537,6,0,B|176:80,1,100,8|0
296,96,28810,1,8
296,216,28946,2,0,B|184:216,1,100,0|8
64,216,29219,1,0
176,328,29355,2,8,B|176:216,1,100
64,216,29628,5,8
152,128,29765,1,8
272,128,29901,1,8
352,216,30037,1,8
352,336,30174,2,8,B|352:224,1,100
416,136,30446,2,8,B|344:240,1,100
240,216,30719,5,8
152,128,30855,1,0
272,128,30992,2,0,B|360:224,1,100,8|0
256,288,31265,1,8
136,288,31401,1,0
64,192,31537,2,8,B|168:120,1,100
264,160,31810,6,0,B|144:160,1,100,8|0
264,96,32083,1,8
264,96,32219,1,0
384,96,32355,2,0,B|272:96,1,100,8|0
384,160,32628,1,8
384,160,32765,1,8
384,280,32901,5,8
272,288,33037,1,0
176,352,33174,1,8
272,288,33310,1,0
160,256,33446,2,0,B|280:256,1,100,8|0
288,144,33719,2,8,B|288:248,1,100
168,168,33992,5,8
88,80,34128,1,8
200,120,34265,1,8
80,128,34401,1,8
184,72,34537,1,8
112,168,34674,1,8
136,48,34810,2,8,B|136:168,1,100
136,272,35083,5,8
256,272,35219,2,0,B|360:272,1,100,0|8
480,272,35492,1,0
472,152,35628,2,0,B|352:152,1,100,8|0
248,152,35901,1,8
256,272,36037,2,8,B|256:392,1,100
320,272,36310,5,0
408,192,36446,1,8
320,112,36583,1,0
232,192,36719,1,8
320,272,36855,1,0
408,192,36992,1,8
320,112,37128,1,8
232,192,37265,6,0,B|344:192,1,100,8|0
448,192,37537,1,8
332,192,37674,1,0
232,128,37810,1,8
232,248,37946,1,0
128,192,38083,2,8,B|8:192,1,100
96,288,38355,5,8
208,344,38492,1,8
320,296,38628,1,8
208,232,38765,2,8,B|208:128,1,100
96,96,39037,1,8
208,48,39174,1,8
320,96,39310,1,8
392,192,39446,5,8
272,192,39583,1,0
152,192,39719,2,0,B|224:272,1,100,8|0
312,192,39992,1,8
256,88,40128,1,0
152,152,40265,2,8,B|152:272,1,100
264,208,40537,5,8
184,120,40674,2,0,B|88:208,1,100,0|8
112,304,40946,2,0,B|224:304,1,100,0|8
328,272,41219,1,0
440,224,41355,1,8
328,272,41492,1,8
328,272,41628,6,8,B|224:224,1,100,8|0
120,192,41901,1,8
184,88,42037,1,0
288,152,42174,2,0,B|376:224,1,100,8|0
456,296,42446,1,8
365,215,42583,1,8
368,96,42719,6,8,B|256:96,1,100
168,168,42992,1,8
288,168,43128,1,8
216,264,43265,1,8
336,264,43401,1,8
248,344,43537,2,8,B|136:344,1,100
88,240,43810,5,12
88,240,43878,1,8
88,240,43946,1,8
168,192,44083,1,12
168,192,44151,1,8
168,192,44219,1,8
256,192,44355,1,12
256,192,44424,1,8
256,192,44492,1,8
328,240,44628,1,12
328,240,44696,1,8
328,240,44765,1,8
424,176,44901,6,0,B|368:88,1,100,8|0
248,96,45174,1,8
128,96,45310,1,0
248,96,45446,2,0,B|376:96,1,100,8|0
352,216,45719,1,8
280,312,45855,1,8
160,312,45992,6,0,B|160:208,1,100,8|0
160,88,46265,1,8
240,176,46401,1,0
160,88,46537,1,8
80,176,46674,1,0
160,264,46810,1,8
80,176,46946,1,8
160,264,47083,6,0,B|240:336,1,100,8|0
352,328,47355,1,8
352,208,47492,1,0
352,88,47628,2,0,B|256:144,1,100,8|0
160,192,47901,1,8
280,192,48037,1,8
160,192,48174,5,8
240,280,48310,1,8
440,192,48446,1,8
360,280,48583,1,8
440,192,48719,1,8
360,104,48855,1,8
160,192,48992,1,8
240,104,49128,1,8
296,216,49265,6,0,B|296:360,1,100,8|0
176,312,49537,1,8
88,232,49674,1,0
80,112,49810,2,0,B|184:112,1,100,8|0
232,216,50083,2,8,B|184:112,1,100
312,112,50355,5,8
192,112,50492,2,0,B|112:200,1,100,0|8
248,192,50765,1,0
368,192,50901,1,8
304,288,51037,1,0
184,288,51174,2,8,B|72:288,1,100
104,168,51446,6,0,B|168:72,1,100,8|0
240,176,51719,2,0,B|360:176,1,100,8|0
256,264,51992,1,8
136,264,52128,1,0
224,176,52265,1,8
104,176,52401,1,0
168,80,52537,5,8
288,80,52674,1,8
168,80,52810,1,8
288,80,52946,1,8
216,176,53083,1,8
272,280,53219,1,8
336,176,53355,1,8
400,280,53492,1,8
400,160,53628,6,0,B|320:72,1,100,8|0
216,80,53901,1,8
216,200,54037,1,0
328,232,54174,2,0,B|400:160,1,100,8|0
288,152,54446,1,8
168,152,54583,1,8
216,264,54719,6,0,B|216:368,1,100,8|0
320,304,54992,1,8
368,192,55128,2,0,B|480:192,1,100,0|8
424,80,55401,1,0
368,192,55537,1,8
320,80,55674,1,8
208,112,55810,6,0,B|88:112,2,100,8|0|8
160,224,56219,1,0
208,336,56355,2,0,B|80:336,2,100,8|0|8
256,224,56765,1,8
352,296,56901,5,8
440,216,57037,1,8
320,216,57174,2,8,B|208:216,1,100
104,216,57446,1,8
192,136,57583,1,8
312,136,57719,2,8,B|424:136,1,100
312,72,57992,6,0,B|208:128,1,100,8|0
224,240,58265,1,8
336,192,58401,1,0
224,240,58537,1,8
112,192,58674,1,0
112,312,58810,2,8,B|208:248,1,100
224,136,59083,6,0,B|224:240,1,100,8|0
344,248,59355,1,8
448,192,59492,1,0
344,144,59628,1,8
232,96,59765,1,0
120,48,59901,2,8,B|120:160,1,100
120,272,60174,5,8
120,148,60310,1,0
224,208,60446,1,8
344,208,60583,1,0
224,208,60719,2,0,B|104:208,1,100,8|0
232,152,60992,1,8
352,152,61128,1,8
472,152,61265,6,0,B|472:272,1,100,8|0
352,256,61537,1,8
352,136,61674,1,0
232,152,61810,2,0,B|232:264,1,100,8|0
112,248,62083,1,8
112,128,62219,1,8
256,192,62355,5,12
160,88,71083,6,0,B|256:64|376:96,1,200,8|0
360,328,71628,2,0,B|264:352|144:320,1,200,8|0
136,104,72174,2,8,B|112:200|144:320,1,200,8|8
376,304,72719,2,0,B|400:208|368:88,1,200,8|0
104,64,73265,6,0,B|248:216,1,200,8|0
408,64,73810,2,0,B|264:216,1,200,8|0
32,120,74355,2,8,B|232:192,1,200
480,120,74900,2,0,B|280:192,1,200,8|0
256,344,75446,5,8
200,288,75719,1,0
312,288,75992,1,8
144,232,76265,1,0
368,232,76537,1,8
88,176,76810,1,8
424,176,77083,1,8
256,40,77355,1,0
128,240,77628,6,0,B|80:128|136:32,1,200,8|0
256,248,78174,1,8
376,40,78446,2,0,B|424:152|368:248,1,200,0|8
368,248,78992,5,8
368,264,79265,5,8
352,272,79537,5,8
344,288,79810,6,0,B|232:304|144:224,1,200,8|0
96,128,80219,1,0
200,64,80355,2,0,B|312:48|408:120,1,200,8|0
448,216,80765,1,0
344,280,80901,6,8,B|304:184|192:144,1,200
248,256,81310,1,0
168,344,81446,2,0,B|120:248|176:152,1,200,8|0
280,88,81855,1,0
400,112,81992,6,0,B|312:184|192:136,1,200,8|0
112,80,82401,1,0
211,143,82537,2,0,B|288:208|272:336,1,200,8|0
176,256,82946,1,0
216,144,83083,6,8,B|108:112|52:16,1,200
176,48,83492,1,8
296,64,83628,1,8
296,80,83901,1,8
296,96,84174,6,0,B|256:200|120:208,1,200,8|0
192,96,84583,1,0
272,184,84719,2,0,B|312:280|416:320,1,200,8|0
384,200,85128,1,0
288,272,85265,6,8,B|184:312|80:256,1,200
192,192,85674,1,0
96,120,85810,2,0,B|192:72|304:128,1,200,8|0
384,200,86219,1,0
264,192,86355,6,0,B|160:216|32:184,1,200,8|0
152,104,86765,1,0
272,96,86901,2,0,B|360:152|352:272,1,200,8|0
232,264,87310,1,0
112,264,87446,5,8
176,160,87583,1,0
232,264,87719,1,8
456,168,87992,1,8
344,216,88128,1,8
344,216,88196,1,8
344,216,88265,1,12
232,264,88401,1,0
120,224,88537,6,0,B|96:112|208:48,1,200,8|0
304,112,88946,1,0
200,176,89083,2,0,B|184:288|296:352,1,200,8|0
360,248,89492,1,0
272,160,89628,6,8,B|256:56|136:16,1,200
176,136,90037,1,0
96,48,90174,2,0,B|80:160|144:240,1,200,8|0
256,264,90583,1,0
336,176,90719,6,0,B|280:88|152:48,1,200,8|0
296,48,91128,1,0
408,104,91265,2,0,B|440:200|400:320,1,200,8|0
288,272,91674,1,0
184,328,91810,6,8,B|80:280|56:160,1,200
176,216,92219,1,0
288,272,92355,2,0,B|264:160|128:112,1,200,8|0
280,128,92765,1,0
392,168,92901,6,0,B|296:200|184:160,1,200,8|0
96,96,93310,1,0
208,56,93446,2,0,B|272:152|256:264,1,200,8|0
136,248,93855,1,0
256,248,93992,6,8,B|368:176|376:64,1,200
408,208,94401,1,0
360,320,94537,2,0,B|240:336|144:288,1,200,8|0
88,200,94946,1,0
184,120,95083,6,0,B|288:64|400:128,1,200,8|0
272,56,95492,1,0
152,64,95628,2,0,B|104:152|192:272,1,200,8|0
192,264,96174,5,8
200,280,96446,5,8
224,280,96719,5,8
240,296,96992,5,8
256,320,97265,6,0,B|336:240,1,100,8|0
416,160,97537,1,8
288,160,97674,1,0
288,48,97810,2,0,B|288:176,1,100,8|0
416,160,98083,1,8
416,272,98219,1,8
304,272,98355,6,0,B|192:272,1,100,8|0
112,192,98628,1,8
208,128,98765,1,0
112,48,98901,1,8
208,128,99037,2,0,B|304:176,1,100,0|8
208,256,99310,1,8
96,272,99446,6,0,B|176:192,1,100,8|0
288,224,99719,2,0,B|176:192,1,100,8|0
128,96,99992,1,8
176,208,100128,2,0,B|208:320,1,100,0|8
320,304,100401,1,8
368,192,100537,5,8
320,80,100674,1,8
256,192,100810,1,8
208,80,100946,1,8
144,192,101083,2,8,B|208:288,1,100,8|0
320,272,101355,2,8,B|384:176,1,100
256,192,101628,5,8
256,320,101765,2,0,B|256:208,1,100,0|8
256,96,102037,2,0,B|256:208,1,100,0|8
128,192,102310,1,0
128,80,102446,1,8
128,192,102583,1,8
128,304,102719,6,0,B|224:272,1,100,8|0
128,192,102992,1,8
128,80,103128,2,8,B|240:112,1,100
320,192,103401,1,0
384,80,103537,2,8,B|272:48,1,100
208,144,103810,6,0,B|272:224,1,100,8|0
352,304,104083,1,8
272,224,104219,2,0,B|176:288,1,100,0|8
96,352,104492,1,0
188,279,104628,2,8,B|112:192,1,100
176,96,104901,5,8
288,64,105037,1,8
400,96,105174,1,8
288,64,105310,2,8,B|288:176,1,100
288,288,105583,1,8
192,224,105719,1,8
288,164,105855,1,8
160,160,105992,5,8
160,272,106128,2,0,B|272:272,1,100,0|8
384,272,106401,1,0
336,160,106537,2,0,B|256:224,1,100,8|0
160,160,106810,2,8,B|80:224,1,100
176,304,107083,5,8
288,304,107219,1,0
288,192,107355,2,0,B|256:80,1,100,8|0
176,192,107628,2,0,B|208:80,1,100,8|0
320,96,107901,1,8
432,96,108037,1,8
432,224,108174,6,0,B|368:320,1,100,8|0
256,304,108446,2,0,B|320:208,1,100,8|0
192,224,108719,1,8
80,224,108855,1,0
80,96,108992,2,8,B|160:160,1,100
256,192,109265,12,8,110083
144,192,110355,6,0,B|256:192,1,100,8|0
368,192,110628,2,0,B|240:192,1,100,8|0
256,80,110901,1,8
256,192,111037,1,0
256,320,111174,2,8,B|256:208,1,100
144,272,111446,5,8
32,240,111583,2,0,B|32:112,1,100,0|8
144,112,111855,1,0
256,144,111992,2,0,B|368:160,1,100,8|0
256,240,112265,2,8,B|368:224,1,100
464,192,112537,5,8
416,304,112674,1,0
304,336,112810,2,0,B|176:336,1,100,8|0
80,304,113083,1,8
48,192,113219,1,0
128,112,113355,2,8,B|192:192,1,100
304,192,113628,6,0,B|384:112,1,100,0|0
256,96,113901,1,8
128,112,114037,2,0,B|192:192,1,100,0|8
256,288,114310,1,0
256,176,114446,1,8
256,288,114583,1,8
256,176,114719,2,8,B|256:48,1,100,8|12
368,256,134355,6,0,B|272:288|144:256,1,200,0|8
48,64,134901,1,0
170,261,135174,1,8
170,261,135446,2,0,B|192:160|304:80,1,200,0|8
416,288,135992,1,0
170,261,136265,1,8
384,144,136537,6,0,B|272:192|144:128,1,200,0|8
64,352,137083,1,0
64,112,137355,1,8
192,320,137628,1,0
192,80,137901,1,8
416,192,138174,1,8
176,192,138446,1,8
400,112,138719,6,0,B|384:224|304:304,1,200,0|8
80,224,139265,2,0,B|96:128|160:32,1,200,0|8
192,272,139810,1,0
288,48,140083,1,8
192,272,140355,2,0,B|320:288|416:256,1,200,0|8
208,112,140901,5,0
80,320,141174,1,8
320,320,141446,2,0,B|224:288|128:208,1,200,0|8
384,224,141992,2,0,B|304:160|192:128,1,200,0|8
448,112,142537,2,0,B|448:224|384:320,1,200,8|8
160,256,143083,5,0
384,176,143355,1,8
176,48,143628,2,0,B|144:144|32:224,1,200,0|8
224,368,144174,1,0
384,176,144446,1,8
176,48,144719,2,0,B|176:160|272:240,1,200,0|8
16,192,145265,5,0
256,192,145537,1,8
32,288,145810,1,0
272,288,146083,1,8
256,48,146355,2,8,B|176:144|176:256,1,200,0|8
416,304,146901,2,0,B|384:192|288:144,1,200,8|8
64,112,147446,6,0,B|112:240|192:288,1,200,0|8
352,112,147992,1,0
112,112,148265,1,8
128,352,148537,2,0,B|224:352|352:272,1,200,0|8
256,64,149083,1,0
256,304,149355,1,8
256,192,149628,12,8,150446
256,48,150719,6,8,B|256:256,1,200
32,120,151264,2,8,B|144:120,1,100,8|0
488,120,151537,2,8,B|376:120,1,100
256,248,151810,5,0
112,64,152083,1,0
224,64,152219,1,0
336,64,152355,1,0
416,288,152628,2,0,B|304:320|208:320,1,200
112,96,153174,5,0
224,144,153310,1,0
336,96,153446,1,0
112,192,153719,2,0,B|224:224|336:192,1,200
496,352,154265,5,0
400,272,154401,1,0
288,320,154537,2,0,B|176:320|96:256,1,200
256,80,155083,1,0
256,80,155628,1,0
256,80,156174,1,0
256,80,156446,6,0,B|208:176|96:208,1,200
320,304,156992,1,0
464,112,157265,1,0
224,112,157537,1,0
320,304,157810,1,0
464,112,158083,2,0,B|400:192|256:192,1,200
48,192,158628,5,0
288,192,158901,1,0
48,192,159174,1,0
208,368,159446,2,0,B|384:208|192:16,1,400
16,192,160265,1,0
256,192,160537,1,0
480,288,160810,6,0,B|400:352|256:336,1,200
64,256,161355,1,0
291,338,161628,1,0
432,144,161901,1,0
208,32,162174,2,0,B|112:80|48:192,1,200
304,224,162719,1,0
48,64,162992,6,0,B|144:112|272:96,1,200
464,192,163537,1,0
240,256,163810,1,0
240,256,164355,1,0
400,80,164901,6,0,B|272:128|176:112,1,200
96,336,165446,1,0
336,336,165719,1,0
96,272,165992,1,0
336,272,166265,1,0
208,16,166537,1,0
256,192,167083,5,0
256,192,167628,1,0
256,336,168174,2,8,B|256:128,1,200
32,264,168719,2,8,B|144:264,1,100,8|0
488,264,168992,2,8,B|376:264,1,100
352,144,169265,6,0,B|240:160|128:112,1,200
256,64,169674,1,0
352,144,169810,2,0,B|304:240|176:272,1,200
224,144,170219,1,0
352,144,170355,6,0,B|400:256|352:368,1,200
256,304,170765,1,0
144,304,170901,2,0,B|192:208|160:96,1,200
256,192,171310,1,0
368,192,171446,6,0,B|256:144|192:64,1,200
128,176,171855,1,0
96,288,171992,2,0,B|224:304|304:288,1,200
416,288,172401,1,0
416,176,172537,6,0,B|336:96|224:80,1,200
256,208,172946,1,0
192,320,173083,2,0,B|128:240|160:96,1,200
256,208,173492,1,0
256,320,173628,6,0,B|352:288|432:176,1,200
320,128,174037,1,0
224,64,174174,2,0,B|192:160|112:240,1,200
192,320,174583,1,0
304,320,174719,6,0,B|416:288|464:208,1,200
288,224,175128,1,0
192,320,175265,2,0,B|64:288|32:192,1,200
128,112,175674,1,0
240,64,175810,6,0,B|272:160|400:192,1,200
272,160,176219,1,0
304,272,176355,2,0,B|256:192|128:112,1,200
272,160,176765,1,0
160,208,176901,6,0,B|256:160|320:64,1,200
272,160,177310,1,0
384,144,177446,2,0,B|288:192|208:304,1,200
112,272,177855,2,0,B|48:176,1,100
256,48,178265,5,0
448,192,178537,1,0
256,336,178810,1,0
64,192,179083,1,0
256,336,179355,1,0
448,192,179628,1,0
256,48,179901,2,0,B|256:272,1,200
256,48,180446,5,0
64,192,180719,1,0
256,336,180992,1,0
448,192,181265,1,0
256,48,181537,1,0
448,192,181810,1,0
256,336,182083,2,0,B|256:112,1,200
80,304,182628,6,0,B|192:352,1,100
288,304,182901,1,0
384,80,183174,2,0,B|272:48,1,100
192,128,183446,1,0
368,288,183719,2,0,B|400:176,1,100
288,256,183992,1,0
80,144,184265,5,0
80,256,184401,1,0
176,336,184537,2,0,B|288:336,1,100
208,240,184810,2,0,B|320:240,1,100
400,160,185083,2,0,B|272:160,1,100
368,64,185355,2,0,B|256:64,1,100
160,112,185628,6,0,B|96:208,1,100
224,192,185901,1,0
112,256,186037,2,0,B|208:320,1,100
256,208,186310,1,0
256,320,186446,2,0,B|352:288,1,100
288,192,186719,1,0
256,192,186753,12,0,187674
192,128,187810,5,8
304,128,187946,1,0
304,256,188083,2,0,B|176:256,1,100,8|0
112,336,188355,1,8
204,256,188492,1,0
112,176,188628,1,8
208,96,188765,1,8
320,96,188901,6,0,B|400:176,1,100,8|0
384,288,189174,2,0,B|304:368,1,100,8|0
256,256,189446,1,8
256,128,189583,1,0
160,192,189719,2,8,B|272:192,1,100,8|8
