osu file format v12

[General]
AudioFilename: to Luv me I xxx for u..mp3
AudioLeadIn: 0
PreviewTime: 96544
Countdown: 0
SampleSet: Normal
StackLeniency: 0.2
Mode: 1
LetterboxInBreaks: 0

[Editor]
DistanceSpacing: 1.5
BeatDivisor: 4
GridSize: 16

[Metadata]
Title:to Luv me I *** for u.
TitleUnicode:to Luv me I *** for u.
Artist:t+pazolite
ArtistUnicode:t+pazolite
Creator:lolcubes
Version:THIS CAN* END WELL
Source:
Tags:taiko hardcore syndrome 2 hardcore tano*c
BeatmapID:271063
BeatmapSetID:102642

[Difficulty]
HPDrainRate:5
CircleSize:5
OverallDifficulty:6
ApproachRate:5
SliderMultiplier:1.4
SliderTickRate:1

[Events]
//Background and Video events
0,0,"bgyay.jpg",0,0
//Break Periods
//Storyboard Layer 0 (Background)
//Storyboard Layer 1 (Fail)
//Storyboard Layer 2 (Pass)
//Storyboard Layer 3 (Foreground)
//Storyboard Sound Samples
//Background Colour Transformations
3,100,0,0,0

[TimingPoints]
0,333.333333333333,4,1,0,80,1,0
23999,272.727272727273,4,1,0,80,1,0
79635,-100,4,1,0,80,0,0
97089,-100,4,1,0,80,0,1
100362,-100,4,1,0,80,0,0
101453,-100,4,1,0,80,0,1
104726,-100,4,1,0,80,0,0
105817,-100,4,1,0,80,0,1
109089,-100,4,1,0,80,0,0
110180,-100,4,1,0,80,0,1
114544,-100,4,1,0,80,0,0
116726,-125,4,1,0,80,0,0
133089,-100,4,1,0,80,0,0
134180,-100,4,1,0,80,0,1
149453,-100,4,1,0,80,0,0
151908,-125,4,1,0,80,0,0
160361,-111.111111111111,4,1,0,80,0,0
167998,-100,4,1,0,80,0,0
206180,-100,4,1,0,80,0,1
222544,-100,4,1,0,80,0,0
232362,-100,4,1,0,80,0,1
240953,-100,4,1,0,80,0,0
243408,375,4,1,0,80,1,0

[Colours]
Combo1 : 170,170,255
Combo2 : 255,0,0

[HitObjects]
256,192,0,1,0,0:0:0:0:
256,192,666,1,8,0:0:0:0:
256,192,1333,1,0,0:0:0:0:
256,192,1999,1,8,0:0:0:0:
256,192,2666,1,8,0:0:0:0:
256,192,3333,1,8,0:0:0:0:
256,192,3666,1,0,0:0:0:0:
256,192,3999,1,8,0:0:0:0:
256,192,4666,1,0,0:0:0:0:
256,192,5166,1,0,0:0:0:0:
256,192,5249,1,0,0:0:0:0:
256,192,5333,1,8,0:0:0:0:
256,192,5999,1,0,0:0:0:0:
256,192,6666,1,8,0:0:0:0:
256,192,7333,1,0,0:0:0:0:
256,192,7999,1,8,0:0:0:0:
256,192,8666,1,8,0:0:0:0:
256,192,8999,1,8,0:0:0:0:
256,192,9333,1,0,0:0:0:0:
256,192,9999,1,0,0:0:0:0:
256,192,10666,1,0,0:0:0:0:
256,192,11333,1,8,0:0:0:0:
256,192,11999,1,0,0:0:0:0:
256,192,12666,1,8,0:0:0:0:
256,192,13333,1,8,0:0:0:0:
256,192,13999,1,8,0:0:0:0:
256,192,14333,1,8,0:0:0:0:
256,192,14666,1,8,0:0:0:0:
256,192,15333,1,0,0:0:0:0:
256,192,15999,1,8,0:0:0:0:
256,192,16666,1,0,0:0:0:0:
256,192,16999,1,0,0:0:0:0:
256,192,17333,1,8,0:0:0:0:
256,192,17999,1,8,0:0:0:0:
256,192,18666,1,8,0:0:0:0:
256,192,19333,1,0,0:0:0:0:
256,192,19833,1,8,0:0:0:0:
256,192,19916,1,0,0:0:0:0:
256,192,19999,1,8,0:0:0:0:
256,192,21333,8,0,24817,0:0:0:0:
256,192,25089,5,8,0:0:0:0:
256,192,25362,1,0,0:0:0:0:
256,192,25635,1,8,0:0:0:0:
256,192,25771,1,8,0:0:0:0:
256,192,25908,1,0,0:0:0:0:
256,192,26044,1,8,0:0:0:0:
256,192,26180,1,4,0:0:0:0:
256,192,27817,1,0,0:0:0:0:
256,192,27953,1,0,0:0:0:0:
256,192,28089,1,8,0:0:0:0:
256,192,28362,1,4,0:0:0:0:
256,192,29453,1,8,0:0:0:0:
256,192,29726,1,8,0:0:0:0:
256,192,29999,1,0,0:0:0:0:
256,192,30135,1,0,0:0:0:0:
256,192,30271,1,12,0:0:0:0:
256,192,30544,1,4,0:0:0:0:
256,192,31635,1,8,0:0:0:0:
256,192,31771,1,8,0:0:0:0:
256,192,31908,1,0,0:0:0:0:
256,192,32180,1,0,0:0:0:0:
256,192,32317,1,0,0:0:0:0:
256,192,32453,1,8,0:0:0:0:
256,192,32726,1,4,0:0:0:0:
256,192,33817,1,8,0:0:0:0:
256,192,34089,1,8,0:0:0:0:
256,192,34362,1,0,0:0:0:0:
256,192,34499,1,0,0:0:0:0:
256,192,34635,1,8,0:0:0:0:
256,192,34771,1,8,0:0:0:0:
256,192,34908,1,4,0:0:0:0:
256,192,35180,1,8,0:0:0:0:
256,192,35453,1,8,0:0:0:0:
256,192,35726,1,8,0:0:0:0:
256,192,35999,1,0,0:0:0:0:
256,192,36272,1,8,0:0:0:0:
256,192,36545,1,0,0:0:0:0:
256,192,36681,1,0,0:0:0:0:
256,192,36817,1,8,0:0:0:0:
256,192,36953,1,8,0:0:0:0:
256,192,37090,1,4,0:0:0:0:
256,192,37362,1,8,0:0:0:0:
256,192,37635,1,8,0:0:0:0:
256,192,37908,1,8,0:0:0:0:
256,192,38181,1,0,0:0:0:0:
256,192,38317,1,8,0:0:0:0:
256,192,38454,1,0,0:0:0:0:
256,192,38590,1,0,0:0:0:0:
256,192,38727,1,8,0:0:0:0:
256,192,38863,1,0,0:0:0:0:
256,192,38999,1,12,0:0:0:0:
256,192,39272,1,4,0:0:0:0:
256,192,39544,1,8,0:0:0:0:
256,192,39817,1,8,0:0:0:0:
256,192,40089,1,8,0:0:0:0:
256,192,40362,1,0,0:0:0:0:
256,192,40499,1,0,0:0:0:0:
256,192,40635,1,8,0:0:0:0:
256,192,40771,1,0,0:0:0:0:
256,192,40908,1,8,0:0:0:0:
256,192,41044,1,0,0:0:0:0:
256,192,41180,1,8,0:0:0:0:
256,192,41317,1,8,0:0:0:0:
256,192,41453,1,4,0:0:0:0:
256,192,41726,1,8,0:0:0:0:
256,192,41999,1,8,0:0:0:0:
256,192,42271,1,8,0:0:0:0:
256,192,42544,1,0,0:0:0:0:
256,192,42680,1,0,0:0:0:0:
256,192,42817,1,8,0:0:0:0:
256,192,42953,1,0,0:0:0:0:
256,192,43089,1,8,0:0:0:0:
256,192,43226,1,8,0:0:0:0:
256,192,43362,1,0,0:0:0:0:
256,192,43499,1,8,0:0:0:0:
256,192,43635,1,0,0:0:0:0:
256,192,43771,1,8,0:0:0:0:
256,192,43839,1,8,0:0:0:0:
256,192,43908,1,8,0:0:0:0:
256,192,43976,1,8,0:0:0:0:
256,192,44044,1,8,0:0:0:0:
256,192,44112,1,8,0:0:0:0:
256,192,44180,1,0,0:0:0:0:
256,192,44317,1,8,0:0:0:0:
256,192,44385,1,8,0:0:0:0:
256,192,44453,1,8,0:0:0:0:
256,192,44521,1,8,0:0:0:0:
256,192,44589,1,8,0:0:0:0:
256,192,44658,1,8,0:0:0:0:
256,192,44726,1,0,0:0:0:0:
256,192,44862,1,0,0:0:0:0:
256,192,44999,1,8,0:0:0:0:
256,192,45135,1,8,0:0:0:0:
256,192,45271,1,0,0:0:0:0:
256,192,45408,1,0,0:0:0:0:
256,192,45544,1,8,0:0:0:0:
256,192,45680,1,0,0:0:0:0:
256,192,45817,1,8,0:0:0:0:
256,192,45953,1,8,0:0:0:0:
256,192,46089,1,0,0:0:0:0:
256,192,46226,1,0,0:0:0:0:
256,192,46362,1,8,0:0:0:0:
256,192,46499,1,0,0:0:0:0:
256,192,46635,1,8,0:0:0:0:
256,192,46771,1,8,0:0:0:0:
256,192,46839,1,8,0:0:0:0:
256,192,46908,1,0,0:0:0:0:
256,192,47044,1,0,0:0:0:0:
256,192,47180,1,8,0:0:0:0:
256,192,47317,1,8,0:0:0:0:
256,192,47453,1,0,0:0:0:0:
256,192,47589,1,0,0:0:0:0:
256,192,47726,1,8,0:0:0:0:
256,192,47862,1,8,0:0:0:0:
256,192,47999,1,0,0:0:0:0:
256,192,48067,1,0,0:0:0:0:
256,192,48135,1,8,0:0:0:0:
256,192,48271,1,0,0:0:0:0:
256,192,48339,1,0,0:0:0:0:
256,192,48408,1,8,0:0:0:0:
256,192,48544,1,8,0:0:0:0:
256,192,48612,1,8,0:0:0:0:
256,192,48680,1,0,0:0:0:0:
256,192,48817,1,12,0:0:0:0:
256,192,49089,1,4,0:0:0:0:
256,192,49226,1,0,0:0:0:0:
256,192,49363,1,8,0:0:0:0:
256,192,49499,1,8,0:0:0:0:
256,192,49635,1,0,0:0:0:0:
256,192,49772,1,0,0:0:0:0:
256,192,49908,1,8,0:0:0:0:
256,192,50044,1,0,0:0:0:0:
256,192,50180,1,8,0:0:0:0:
256,192,50317,1,8,0:0:0:0:
256,192,50453,1,0,0:0:0:0:
256,192,50590,1,0,0:0:0:0:
256,192,50726,1,8,0:0:0:0:
256,192,50863,1,0,0:0:0:0:
256,192,50999,1,8,0:0:0:0:
256,192,51135,1,8,0:0:0:0:
256,192,51203,1,8,0:0:0:0:
256,192,51272,1,0,0:0:0:0:
256,192,51408,1,0,0:0:0:0:
256,192,51544,1,8,0:0:0:0:
256,192,51681,1,8,0:0:0:0:
256,192,51817,1,0,0:0:0:0:
256,192,51953,1,0,0:0:0:0:
256,192,52090,1,8,0:0:0:0:
256,192,52226,1,8,0:0:0:0:
256,192,52362,1,0,0:0:0:0:
256,192,52499,1,8,0:0:0:0:
256,192,52567,1,8,0:0:0:0:
256,192,52635,1,0,0:0:0:0:
256,192,52703,1,0,0:0:0:0:
256,192,52771,1,8,0:0:0:0:
256,192,52908,1,0,0:0:0:0:
256,192,53044,1,0,0:0:0:0:
256,192,53112,1,0,0:0:0:0:
256,192,53180,1,8,0:0:0:0:
256,192,53249,1,0,0:0:0:0:
256,192,53317,1,8,0:0:0:0:
256,192,53453,1,0,0:0:0:0:
256,192,53521,1,0,0:0:0:0:
256,192,53589,1,0,0:0:0:0:
256,192,53726,1,8,0:0:0:0:
256,192,53862,1,8,0:0:0:0:
256,192,53998,1,0,0:0:0:0:
256,192,54067,1,0,0:0:0:0:
256,192,54135,1,0,0:0:0:0:
256,192,54271,1,8,0:0:0:0:
256,192,54407,1,0,0:0:0:0:
256,192,54544,1,8,0:0:0:0:
256,192,54680,1,8,0:0:0:0:
256,192,54816,1,0,0:0:0:0:
256,192,54953,1,0,0:0:0:0:
256,192,55021,1,0,0:0:0:0:
256,192,55089,1,8,0:0:0:0:
256,192,55226,1,0,0:0:0:0:
256,192,55362,1,8,0:0:0:0:
256,192,55498,1,8,0:0:0:0:
256,192,55566,1,8,0:0:0:0:
256,192,55635,1,0,0:0:0:0:
256,192,55703,1,0,0:0:0:0:
256,192,55771,1,0,0:0:0:0:
256,192,55907,1,8,0:0:0:0:
256,192,56044,1,8,0:0:0:0:
256,192,56180,1,0,0:0:0:0:
256,192,56249,1,0,0:0:0:0:
256,192,56316,1,0,0:0:0:0:
256,192,56453,1,8,0:0:0:0:
256,192,56589,1,0,0:0:0:0:
256,192,56726,1,8,0:0:0:0:
256,192,56794,1,8,0:0:0:0:
256,192,56862,1,0,0:0:0:0:
256,192,56999,1,8,0:0:0:0:
256,192,57067,1,8,0:0:0:0:
256,192,57135,1,0,0:0:0:0:
256,192,57271,1,0,0:0:0:0:
256,192,57339,1,0,0:0:0:0:
256,192,57408,1,8,0:0:0:0:
256,192,57544,1,4,0:0:0:0:
256,192,57817,1,0,0:0:0:0:
256,192,57885,1,0,0:0:0:0:
256,192,57953,1,0,0:0:0:0:
256,192,58089,1,8,0:0:0:0:
256,192,58226,1,8,0:0:0:0:
256,192,58362,1,0,0:0:0:0:
256,192,58430,1,0,0:0:0:0:
256,192,58499,1,0,0:0:0:0:
256,192,58635,1,8,0:0:0:0:
256,192,58771,1,0,0:0:0:0:
256,192,58908,1,8,0:0:0:0:
256,192,59044,1,8,0:0:0:0:
256,192,59180,1,0,0:0:0:0:
256,192,59317,1,0,0:0:0:0:
256,192,59385,1,0,0:0:0:0:
256,192,59453,1,8,0:0:0:0:
256,192,59590,1,0,0:0:0:0:
256,192,59726,1,8,0:0:0:0:
256,192,59862,1,8,0:0:0:0:
256,192,59930,1,8,0:0:0:0:
256,192,59999,1,0,0:0:0:0:
256,192,60067,1,0,0:0:0:0:
256,192,60135,1,0,0:0:0:0:
256,192,60271,1,8,0:0:0:0:
256,192,60408,1,8,0:0:0:0:
256,192,60544,1,0,0:0:0:0:
256,192,60613,1,0,0:0:0:0:
256,192,60680,1,0,0:0:0:0:
256,192,60817,1,8,0:0:0:0:
256,192,60953,1,0,0:0:0:0:
256,192,61089,1,8,0:0:0:0:
256,192,61226,1,8,0:0:0:0:
256,192,61362,1,0,0:0:0:0:
256,192,61430,1,0,0:0:0:0:
256,192,61499,1,8,0:0:0:0:
256,192,61567,1,8,0:0:0:0:
256,192,61635,1,0,0:0:0:0:
256,192,61771,1,0,0:0:0:0:
256,192,61908,1,8,0:0:0:0:
256,192,62044,1,8,0:0:0:0:
256,192,62180,1,4,0:0:0:0:
256,192,62317,1,0,0:0:0:0:
256,192,62453,1,8,0:0:0:0:
256,192,62589,1,0,0:0:0:0:
256,192,62658,1,0,0:0:0:0:
256,192,62726,1,8,0:0:0:0:
256,192,62862,1,0,0:0:0:0:
256,192,63135,1,8,0:0:0:0:
256,192,63271,1,0,0:0:0:0:
256,192,63408,1,0,0:0:0:0:
256,192,63544,1,8,0:0:0:0:
256,192,63680,1,8,0:0:0:0:
256,192,63749,1,8,0:0:0:0:
256,192,63817,1,0,0:0:0:0:
256,192,63953,1,8,0:0:0:0:
256,192,64226,1,8,0:0:0:0:
256,192,64362,1,0,0:0:0:0:
256,192,64499,1,8,0:0:0:0:
256,192,64635,1,0,0:0:0:0:
256,192,64771,1,0,0:0:0:0:
256,192,64839,1,0,0:0:0:0:
256,192,64908,1,8,0:0:0:0:
256,192,65044,1,0,0:0:0:0:
256,192,65317,1,8,0:0:0:0:
256,192,65453,1,0,0:0:0:0:
256,192,65589,1,8,0:0:0:0:
256,192,65862,1,0,0:0:0:0:
256,192,65999,1,8,0:0:0:0:
256,192,66135,1,8,0:0:0:0:
256,192,66271,1,0,0:0:0:0:
256,192,66544,1,4,0:0:0:0:
256,192,66680,1,0,0:0:0:0:
256,192,66816,1,8,0:0:0:0:
256,192,66952,1,0,0:0:0:0:
256,192,67021,1,0,0:0:0:0:
256,192,67089,1,8,0:0:0:0:
256,192,67158,1,0,0:0:0:0:
256,192,67225,1,0,0:0:0:0:
256,192,67498,1,8,0:0:0:0:
256,192,67634,1,0,0:0:0:0:
256,192,67771,1,0,0:0:0:0:
256,192,67907,1,8,0:0:0:0:
256,192,68043,1,8,0:0:0:0:
256,192,68112,1,8,0:0:0:0:
256,192,68180,1,0,0:0:0:0:
256,192,68249,1,0,0:0:0:0:
256,192,68316,1,8,0:0:0:0:
256,192,68589,1,8,0:0:0:0:
256,192,68725,1,0,0:0:0:0:
256,192,68862,1,8,0:0:0:0:
256,192,68998,1,0,0:0:0:0:
256,192,69134,1,0,0:0:0:0:
256,192,69202,1,0,0:0:0:0:
256,192,69271,1,8,0:0:0:0:
256,192,69339,1,8,0:0:0:0:
256,192,69407,1,0,0:0:0:0:
256,192,69680,1,8,0:0:0:0:
256,192,69816,1,0,0:0:0:0:
256,192,69953,1,8,0:0:0:0:
256,192,70089,1,8,0:0:0:0:
256,192,70226,1,0,0:0:0:0:
256,192,70362,1,8,0:0:0:0:
256,192,70567,1,8,0:0:0:0:
256,192,70771,1,8,0:0:0:0:
256,192,70908,1,0,0:0:0:0:
256,192,71044,1,0,0:0:0:0:
256,192,71180,1,8,0:0:0:0:
256,192,71453,1,8,0:0:0:0:
256,192,71726,1,0,0:0:0:0:
256,192,71999,1,0,0:0:0:0:
256,192,72135,1,0,0:0:0:0:
256,192,72271,1,8,0:0:0:0:
256,192,72544,1,8,0:0:0:0:
256,192,72817,1,8,0:0:0:0:
256,192,73089,1,0,0:0:0:0:
256,192,73226,1,0,0:0:0:0:
256,192,73362,1,8,0:0:0:0:
256,192,73635,1,8,0:0:0:0:
256,192,73908,1,8,0:0:0:0:
256,192,74044,1,0,0:0:0:0:
256,192,74180,1,0,0:0:0:0:
256,192,74453,1,8,0:0:0:0:
256,192,74726,1,0,0:0:0:0:
256,192,74862,1,0,0:0:0:0:
256,192,74999,1,8,0:0:0:0:
256,192,75135,1,0,0:0:0:0:
256,192,75271,1,0,0:0:0:0:
256,192,75408,1,0,0:0:0:0:
256,192,75544,1,8,0:0:0:0:
256,192,75817,1,8,0:0:0:0:
256,192,76089,1,8,0:0:0:0:
256,192,76226,1,0,0:0:0:0:
256,192,76362,1,0,0:0:0:0:
256,192,76499,1,0,0:0:0:0:
256,192,76635,1,8,0:0:0:0:
256,192,76908,1,8,0:0:0:0:
256,192,77180,1,8,0:0:0:0:
256,192,77453,1,0,0:0:0:0:
256,192,77589,1,0,0:0:0:0:
256,192,77726,1,8,0:0:0:0:
256,192,77999,1,8,0:0:0:0:
256,192,78135,1,0,0:0:0:0:
256,192,78203,1,0,0:0:0:0:
256,192,78271,1,8,0:0:0:0:
256,192,78408,1,0,0:0:0:0:
144,80,78544,2,0,B|144:240|144:240|144:112|144:112|144:256,1,420
256,192,79635,1,4,0:0:0:0:
256,192,79771,1,0,0:0:0:0:
256,192,79908,1,8,0:0:0:0:
256,192,80044,1,0,0:0:0:0:
256,192,80112,1,0,0:0:0:0:
256,192,80180,1,8,0:0:0:0:
256,192,80317,1,8,0:0:0:0:
256,192,80453,1,0,0:0:0:0:
256,192,80589,1,8,0:0:0:0:
256,192,80726,1,0,0:0:0:0:
256,192,80862,1,0,0:0:0:0:
256,192,80999,1,8,0:0:0:0:
256,192,81135,1,0,0:0:0:0:
256,192,81203,1,0,0:0:0:0:
256,192,81271,1,8,0:0:0:0:
256,192,81408,1,8,0:0:0:0:
256,192,81476,1,8,0:0:0:0:
256,192,81544,1,0,0:0:0:0:
256,192,81680,1,8,0:0:0:0:
256,192,81817,1,0,0:0:0:0:
256,192,81953,1,0,0:0:0:0:
256,192,82089,1,8,0:0:0:0:
256,192,82226,1,0,0:0:0:0:
256,192,82294,1,0,0:0:0:0:
256,192,82362,1,8,0:0:0:0:
256,192,82499,1,8,0:0:0:0:
256,192,82635,1,0,0:0:0:0:
256,192,82771,1,8,0:0:0:0:
256,192,82908,1,0,0:0:0:0:
256,192,83044,1,0,0:0:0:0:
256,192,83180,1,8,0:0:0:0:
256,192,83453,1,0,0:0:0:0:
256,192,83589,1,8,0:0:0:0:
256,192,83726,1,0,0:0:0:0:
256,192,83862,1,0,0:0:0:0:
256,192,83999,1,4,0:0:0:0:
256,192,84135,1,0,0:0:0:0:
256,192,84272,1,8,0:0:0:0:
256,192,84408,1,0,0:0:0:0:
256,192,84476,1,0,0:0:0:0:
256,192,84544,1,8,0:0:0:0:
256,192,84681,1,8,0:0:0:0:
256,192,84817,1,0,0:0:0:0:
256,192,84953,1,8,0:0:0:0:
256,192,85090,1,0,0:0:0:0:
256,192,85226,1,0,0:0:0:0:
256,192,85363,1,8,0:0:0:0:
256,192,85499,1,0,0:0:0:0:
256,192,85567,1,0,0:0:0:0:
256,192,85635,1,8,0:0:0:0:
256,192,85772,1,8,0:0:0:0:
256,192,85839,1,8,0:0:0:0:
256,192,85908,1,0,0:0:0:0:
256,192,86044,1,8,0:0:0:0:
256,192,86181,1,0,0:0:0:0:
256,192,86317,1,0,0:0:0:0:
256,192,86453,1,8,0:0:0:0:
256,192,86590,1,0,0:0:0:0:
256,192,86658,1,0,0:0:0:0:
256,192,86726,1,8,0:0:0:0:
256,192,86863,1,8,0:0:0:0:
256,192,86999,1,0,0:0:0:0:
256,192,87135,1,8,0:0:0:0:
256,192,87271,1,0,0:0:0:0:
256,192,87408,1,0,0:0:0:0:
256,192,87544,1,8,0:0:0:0:
256,192,87817,1,8,0:0:0:0:
256,192,87953,1,0,0:0:0:0:
256,192,88021,1,0,0:0:0:0:
256,192,88089,1,8,0:0:0:0:
256,192,88226,1,8,0:0:0:0:
256,192,88362,1,4,0:0:0:0:
256,192,88499,1,0,0:0:0:0:
256,192,88636,1,8,0:0:0:0:
256,192,88772,1,0,0:0:0:0:
256,192,88840,1,0,0:0:0:0:
256,192,88908,1,8,0:0:0:0:
256,192,89045,1,8,0:0:0:0:
256,192,89112,1,8,0:0:0:0:
256,192,89181,1,0,0:0:0:0:
256,192,89317,1,8,0:0:0:0:
256,192,89454,1,0,0:0:0:0:
256,192,89590,1,0,0:0:0:0:
256,192,89727,1,8,0:0:0:0:
256,192,89863,1,0,0:0:0:0:
256,192,89931,1,0,0:0:0:0:
256,192,89999,1,8,0:0:0:0:
256,192,90136,1,8,0:0:0:0:
256,192,90203,1,8,0:0:0:0:
256,192,90272,1,0,0:0:0:0:
256,192,90339,1,0,0:0:0:0:
256,192,90408,1,8,0:0:0:0:
256,192,90545,1,0,0:0:0:0:
256,192,90681,1,0,0:0:0:0:
256,192,90817,1,8,0:0:0:0:
256,192,90954,1,0,0:0:0:0:
256,192,91022,1,0,0:0:0:0:
256,192,91090,1,8,0:0:0:0:
256,192,91227,1,8,0:0:0:0:
256,192,91294,1,8,0:0:0:0:
256,192,91363,1,0,0:0:0:0:
256,192,91499,1,8,0:0:0:0:
256,192,91635,1,0,0:0:0:0:
256,192,91771,1,0,0:0:0:0:
256,192,91908,1,8,0:0:0:0:
256,192,92180,1,0,0:0:0:0:
256,192,92317,1,8,0:0:0:0:
256,192,92453,1,0,0:0:0:0:
256,192,92589,1,0,0:0:0:0:
256,192,92726,1,4,0:0:0:0:
256,192,92862,1,0,0:0:0:0:
256,192,92999,1,8,0:0:0:0:
256,192,93135,1,0,0:0:0:0:
256,192,93203,1,0,0:0:0:0:
256,192,93271,1,8,0:0:0:0:
256,192,93408,1,8,0:0:0:0:
256,192,93476,1,8,0:0:0:0:
256,192,93544,1,0,0:0:0:0:
256,192,93612,1,0,0:0:0:0:
256,192,93680,1,8,0:0:0:0:
256,192,93817,1,0,0:0:0:0:
256,192,93953,1,0,0:0:0:0:
256,192,94090,1,8,0:0:0:0:
256,192,94226,1,0,0:0:0:0:
256,192,94294,1,0,0:0:0:0:
256,192,94362,1,8,0:0:0:0:
256,192,94499,1,8,0:0:0:0:
256,192,94567,1,0,0:0:0:0:
256,192,94635,1,8,0:0:0:0:
256,192,94703,1,8,0:0:0:0:
256,192,94771,1,0,0:0:0:0:
256,192,94908,1,0,0:0:0:0:
256,192,94976,1,0,0:0:0:0:
256,192,95044,1,0,0:0:0:0:
256,192,95180,1,8,0:0:0:0:
256,192,95317,1,0,0:0:0:0:
256,192,95385,1,0,0:0:0:0:
256,192,95453,1,8,0:0:0:0:
256,192,95658,1,0,0:0:0:0:
256,192,95862,1,8,0:0:0:0:
256,192,95999,1,0,0:0:0:0:
256,192,96544,1,12,0:0:0:0:
256,192,96817,1,12,0:0:0:0:
256,192,97089,1,0,0:0:0:0:
256,192,97158,1,0,0:0:0:0:
256,192,97226,1,0,0:0:0:0:
256,192,97294,1,0,0:0:0:0:
256,192,97362,1,8,0:0:0:0:
256,192,97499,1,8,0:0:0:0:
256,192,97635,1,0,0:0:0:0:
256,192,97703,1,0,0:0:0:0:
256,192,97771,1,0,0:0:0:0:
256,192,97839,1,0,0:0:0:0:
256,192,97908,1,8,0:0:0:0:
256,192,98044,1,0,0:0:0:0:
256,192,98317,1,0,0:0:0:0:
256,192,98385,1,0,0:0:0:0:
256,192,98453,1,8,0:0:0:0:
256,192,98521,1,8,0:0:0:0:
256,192,98589,1,0,0:0:0:0:
256,192,98726,1,8,0:0:0:0:
256,192,98862,1,0,0:0:0:0:
256,192,98999,1,8,0:0:0:0:
256,192,99135,1,8,0:0:0:0:
256,192,99271,1,0,0:0:0:0:
256,192,99339,1,0,0:0:0:0:
256,192,99408,1,0,0:0:0:0:
256,192,99544,1,8,0:0:0:0:
256,192,99680,1,0,0:0:0:0:
256,192,99749,1,0,0:0:0:0:
256,192,99817,1,8,0:0:0:0:
256,192,99953,1,0,0:0:0:0:
256,192,100089,1,8,0:0:0:0:
256,192,100158,1,8,0:0:0:0:
256,192,100226,1,0,0:0:0:0:
256,192,100362,1,4,0:0:0:0:
256,192,100499,1,4,0:0:0:0:
256,192,100635,1,12,0:0:0:0:
256,192,100908,1,4,0:0:0:0:
256,192,101180,1,4,0:0:0:0:
256,192,101453,1,0,0:0:0:0:
256,192,101522,1,0,0:0:0:0:
256,192,101590,1,0,0:0:0:0:
256,192,101658,1,0,0:0:0:0:
256,192,101726,1,8,0:0:0:0:
256,192,101863,1,8,0:0:0:0:
256,192,101999,1,0,0:0:0:0:
256,192,102067,1,0,0:0:0:0:
256,192,102135,1,0,0:0:0:0:
256,192,102203,1,0,0:0:0:0:
256,192,102272,1,8,0:0:0:0:
256,192,102408,1,0,0:0:0:0:
256,192,102680,1,0,0:0:0:0:
256,192,102748,1,0,0:0:0:0:
256,192,102816,1,8,0:0:0:0:
256,192,102884,1,8,0:0:0:0:
256,192,102952,1,0,0:0:0:0:
256,192,103089,1,8,0:0:0:0:
256,192,103225,1,0,0:0:0:0:
256,192,103362,1,8,0:0:0:0:
256,192,103498,1,8,0:0:0:0:
256,192,103634,1,0,0:0:0:0:
256,192,103702,1,0,0:0:0:0:
256,192,103771,1,8,0:0:0:0:
256,192,103907,1,8,0:0:0:0:
256,192,104043,1,0,0:0:0:0:
256,192,104112,1,0,0:0:0:0:
256,192,104180,1,8,0:0:0:0:
256,192,104316,1,8,0:0:0:0:
256,192,104385,1,8,0:0:0:0:
256,192,104453,1,0,0:0:0:0:
256,192,104521,1,0,0:0:0:0:
256,192,104589,1,8,0:0:0:0:
256,192,104726,1,4,0:0:0:0:
256,192,104999,1,8,0:0:0:0:
256,192,105135,1,8,0:0:0:0:
256,192,105272,1,0,0:0:0:0:
256,192,105340,1,8,0:0:0:0:
256,192,105408,1,0,0:0:0:0:
256,192,105544,1,8,0:0:0:0:
256,192,105612,1,8,0:0:0:0:
256,192,105680,1,8,0:0:0:0:
256,192,105817,1,0,0:0:0:0:
256,192,105886,1,0,0:0:0:0:
256,192,105954,1,8,0:0:0:0:
256,192,106022,1,0,0:0:0:0:
256,192,106090,1,8,0:0:0:0:
256,192,106227,1,8,0:0:0:0:
256,192,106363,1,0,0:0:0:0:
256,192,106431,1,0,0:0:0:0:
256,192,106499,1,8,0:0:0:0:
256,192,106567,1,0,0:0:0:0:
256,192,106636,1,8,0:0:0:0:
256,192,106772,1,0,0:0:0:0:
256,192,107045,1,0,0:0:0:0:
256,192,107113,1,0,0:0:0:0:
256,192,107181,1,8,0:0:0:0:
256,192,107249,1,8,0:0:0:0:
256,192,107317,1,0,0:0:0:0:
256,192,107454,1,8,0:0:0:0:
256,192,107590,1,0,0:0:0:0:
256,192,107727,1,8,0:0:0:0:
256,192,107863,1,8,0:0:0:0:
256,192,107999,1,0,0:0:0:0:
256,192,108067,1,0,0:0:0:0:
256,192,108135,1,8,0:0:0:0:
256,192,108271,1,8,0:0:0:0:
256,192,108408,1,0,0:0:0:0:
256,192,108476,1,0,0:0:0:0:
256,192,108544,1,8,0:0:0:0:
256,192,108680,1,8,0:0:0:0:
256,192,108749,1,8,0:0:0:0:
256,192,108817,1,0,0:0:0:0:
256,192,108953,1,8,0:0:0:0:
256,192,109089,1,4,0:0:0:0:
256,192,109362,1,12,0:0:0:0:
256,192,109499,1,12,0:0:0:0:
256,192,109635,1,4,0:0:0:0:
256,192,109908,1,12,0:0:0:0:
256,192,110180,1,0,0:0:0:0:
256,192,110249,1,0,0:0:0:0:
256,192,110317,1,0,0:0:0:0:
256,192,110385,1,0,0:0:0:0:
256,192,110453,1,8,0:0:0:0:
256,192,110590,1,8,0:0:0:0:
256,192,110726,1,0,0:0:0:0:
256,192,110794,1,0,0:0:0:0:
256,192,110862,1,0,0:0:0:0:
256,192,110930,1,0,0:0:0:0:
256,192,110999,1,8,0:0:0:0:
256,192,111135,1,0,0:0:0:0:
256,192,111408,1,0,0:0:0:0:
256,192,111476,1,0,0:0:0:0:
256,192,111544,1,8,0:0:0:0:
256,192,111612,1,8,0:0:0:0:
256,192,111680,1,0,0:0:0:0:
256,192,111817,1,8,0:0:0:0:
256,192,111953,1,0,0:0:0:0:
256,192,112090,1,8,0:0:0:0:
256,192,112226,1,8,0:0:0:0:
256,192,112362,1,0,0:0:0:0:
256,192,112430,1,0,0:0:0:0:
256,192,112499,1,8,0:0:0:0:
256,192,112635,1,8,0:0:0:0:
256,192,112771,1,8,0:0:0:0:
256,192,112839,1,8,0:0:0:0:
256,192,112908,1,0,0:0:0:0:
256,192,113044,1,8,0:0:0:0:
256,192,113112,1,8,0:0:0:0:
256,192,113180,1,0,0:0:0:0:
256,192,113249,1,0,0:0:0:0:
256,192,113317,1,8,0:0:0:0:
256,192,113453,1,8,0:0:0:0:
256,192,113521,1,8,0:0:0:0:
256,192,113589,1,8,0:0:0:0:
256,192,113658,1,8,0:0:0:0:
256,192,113726,1,0,0:0:0:0:
256,192,113794,1,0,0:0:0:0:
256,192,113862,1,0,0:0:0:0:
256,192,113930,1,0,0:0:0:0:
256,192,113999,1,8,0:0:0:0:
256,192,114067,1,8,0:0:0:0:
256,192,114135,1,0,0:0:0:0:
256,192,114203,1,0,0:0:0:0:
256,192,114271,1,8,0:0:0:0:
256,192,114339,1,0,0:0:0:0:
256,192,114408,1,8,0:0:0:0:
256,192,114476,1,8,0:0:0:0:
256,192,114544,1,0,0:0:0:0:
256,192,116726,1,0,0:0:0:0:
256,192,117271,1,8,0:0:0:0:
256,192,117817,1,0,0:0:0:0:
256,192,117953,1,8,0:0:0:0:
256,192,118089,1,0,0:0:0:0:
256,192,118362,1,8,0:0:0:0:
256,192,118908,1,0,0:0:0:0:
256,192,119453,1,8,0:0:0:0:
256,192,119862,1,0,0:0:0:0:
256,192,119999,1,0,0:0:0:0:
256,192,120135,1,8,0:0:0:0:
256,192,120271,1,0,0:0:0:0:
256,192,120544,1,8,0:0:0:0:
256,192,121089,1,0,0:0:0:0:
256,192,121635,1,8,0:0:0:0:
256,192,122044,1,0,0:0:0:0:
256,192,122181,1,0,0:0:0:0:
256,192,122317,1,8,0:0:0:0:
256,192,122453,1,0,0:0:0:0:
256,192,122726,1,8,0:0:0:0:
256,192,122999,1,8,0:0:0:0:
256,192,123271,1,0,0:0:0:0:
256,192,123817,1,8,0:0:0:0:
256,192,124226,1,8,0:0:0:0:
256,192,124362,1,0,0:0:0:0:
256,192,124499,1,8,0:0:0:0:
256,192,124635,1,0,0:0:0:0:
256,192,124908,1,8,0:0:0:0:
256,192,125180,1,8,0:0:0:0:
256,192,125317,1,8,0:0:0:0:
256,192,125453,1,0,0:0:0:0:
256,192,125726,1,0,0:0:0:0:
256,192,125999,1,8,0:0:0:0:
256,192,126408,1,0,0:0:0:0:
256,192,126545,1,0,0:0:0:0:
256,192,126681,1,8,0:0:0:0:
256,192,126817,1,0,0:0:0:0:
256,192,126953,1,0,0:0:0:0:
256,192,127090,1,8,0:0:0:0:
256,192,127635,1,0,0:0:0:0:
256,192,127908,1,0,0:0:0:0:
256,192,128181,1,8,0:0:0:0:
256,192,128589,1,0,0:0:0:0:
256,192,128726,1,0,0:0:0:0:
256,192,128862,1,8,0:0:0:0:
256,192,128998,1,0,0:0:0:0:
256,192,129134,1,0,0:0:0:0:
256,192,129271,1,8,0:0:0:0:
256,192,129544,1,8,0:0:0:0:
256,192,129817,1,0,0:0:0:0:
256,192,130090,1,0,0:0:0:0:
256,192,130363,1,8,0:0:0:0:
256,192,130771,1,8,0:0:0:0:
256,192,130908,1,0,0:0:0:0:
256,192,131044,1,8,0:0:0:0:
256,192,131180,1,0,0:0:0:0:
256,192,131317,1,0,0:0:0:0:
256,192,131453,1,8,0:0:0:0:
256,192,131726,1,8,0:0:0:0:
256,192,131862,1,8,0:0:0:0:
256,192,131999,1,0,0:0:0:0:
256,192,132408,1,0,0:0:0:0:
256,192,132544,1,8,0:0:0:0:
256,192,132817,1,0,0:0:0:0:
256,192,133089,1,8,0:0:0:0:
256,192,133226,1,0,0:0:0:0:
256,192,133294,1,0,0:0:0:0:
256,192,133362,1,8,0:0:0:0:
256,192,133499,1,8,0:0:0:0:
256,192,133567,1,8,0:0:0:0:
256,192,133635,1,0,0:0:0:0:
256,192,133771,1,0,0:0:0:0:
256,192,133908,1,8,0:0:0:0:
256,192,134044,1,8,0:0:0:0:
256,192,134180,1,0,0:0:0:0:
256,192,134317,1,0,0:0:0:0:
256,192,134453,1,8,0:0:0:0:
256,192,134589,1,0,0:0:0:0:
256,192,134658,1,0,0:0:0:0:
256,192,134726,1,0,0:0:0:0:
256,192,134794,1,0,0:0:0:0:
256,192,134862,1,0,0:0:0:0:
256,192,134999,1,0,0:0:0:0:
256,192,135135,1,8,0:0:0:0:
256,192,135271,1,0,0:0:0:0:
256,192,135408,1,0,0:0:0:0:
256,192,135544,1,8,0:0:0:0:
256,192,135680,1,0,0:0:0:0:
256,192,135749,1,0,0:0:0:0:
256,192,135817,1,0,0:0:0:0:
256,192,135885,1,8,0:0:0:0:
256,192,135953,1,0,0:0:0:0:
256,192,136089,1,8,0:0:0:0:
256,192,136226,1,8,0:0:0:0:
256,192,136362,1,0,0:0:0:0:
256,192,136499,1,0,0:0:0:0:
256,192,136635,1,8,0:0:0:0:
256,192,136771,1,8,0:0:0:0:
256,192,136839,1,8,0:0:0:0:
256,192,136908,1,0,0:0:0:0:
256,192,136976,1,8,0:0:0:0:
256,192,137044,1,0,0:0:0:0:
256,192,137180,1,0,0:0:0:0:
256,192,137317,1,8,0:0:0:0:
256,192,137453,1,8,0:0:0:0:
256,192,137589,1,0,0:0:0:0:
256,192,137658,1,0,0:0:0:0:
256,192,137726,1,8,0:0:0:0:
256,192,137862,1,8,0:0:0:0:
256,192,137930,1,8,0:0:0:0:
256,192,137999,1,0,0:0:0:0:
256,192,138135,1,0,0:0:0:0:
256,192,138203,1,0,0:0:0:0:
256,192,138271,1,8,0:0:0:0:
256,192,138339,1,8,0:0:0:0:
256,192,138408,1,8,0:0:0:0:
256,192,138476,1,8,0:0:0:0:
256,192,138544,1,0,0:0:0:0:
256,192,138680,1,0,0:0:0:0:
256,192,138817,1,8,0:0:0:0:
256,192,138953,1,8,0:0:0:0:
256,192,139021,1,0,0:0:0:0:
256,192,139089,1,0,0:0:0:0:
256,192,139158,1,8,0:0:0:0:
256,192,139226,1,0,0:0:0:0:
256,192,139362,1,0,0:0:0:0:
256,192,139499,1,8,0:0:0:0:
256,192,139635,1,0,0:0:0:0:
256,192,139771,1,0,0:0:0:0:
256,192,139908,1,8,0:0:0:0:
256,192,140044,1,8,0:0:0:0:
256,192,140112,1,8,0:0:0:0:
256,192,140180,1,0,0:0:0:0:
256,192,140249,1,8,0:0:0:0:
256,192,140317,1,0,0:0:0:0:
256,192,140453,1,0,0:0:0:0:
256,192,140589,1,8,0:0:0:0:
256,192,140726,1,0,0:0:0:0:
256,192,140862,1,0,0:0:0:0:
256,192,140999,1,8,0:0:0:0:
256,192,141135,1,0,0:0:0:0:
256,192,141203,1,0,0:0:0:0:
256,192,141271,1,0,0:0:0:0:
256,192,141339,1,8,0:0:0:0:
256,192,141408,1,0,0:0:0:0:
256,192,141544,1,0,0:0:0:0:
256,192,141680,1,8,0:0:0:0:
256,192,141817,1,8,0:0:0:0:
256,192,141953,1,0,0:0:0:0:
256,192,142021,1,0,0:0:0:0:
256,192,142089,1,8,0:0:0:0:
256,192,142226,1,8,0:0:0:0:
256,192,142362,1,0,0:0:0:0:
256,192,142430,1,0,0:0:0:0:
256,192,142499,1,0,0:0:0:0:
256,192,142635,1,12,0:0:0:0:
256,192,142908,1,0,0:0:0:0:
256,192,143044,1,0,0:0:0:0:
256,192,143112,1,0,0:0:0:0:
256,192,143180,1,8,0:0:0:0:
256,192,143317,1,0,0:0:0:0:
256,192,143385,1,0,0:0:0:0:
256,192,143453,1,0,0:0:0:0:
256,192,143521,1,0,0:0:0:0:
256,192,143589,1,0,0:0:0:0:
256,192,143726,1,0,0:0:0:0:
256,192,143862,1,8,0:0:0:0:
256,192,143999,1,0,0:0:0:0:
256,192,144135,1,0,0:0:0:0:
256,192,144203,1,0,0:0:0:0:
256,192,144271,1,8,0:0:0:0:
256,192,144408,1,0,0:0:0:0:
256,192,144476,1,0,0:0:0:0:
256,192,144544,1,0,0:0:0:0:
256,192,144612,1,8,0:0:0:0:
256,192,144680,1,0,0:0:0:0:
256,192,144817,1,8,0:0:0:0:
256,192,144953,1,8,0:0:0:0:
256,192,145089,1,0,0:0:0:0:
256,192,145226,1,0,0:0:0:0:
256,192,145294,1,0,0:0:0:0:
256,192,145362,1,8,0:0:0:0:
256,192,145498,1,8,0:0:0:0:
256,192,145566,1,8,0:0:0:0:
256,192,145635,1,0,0:0:0:0:
256,192,145703,1,8,0:0:0:0:
256,192,145771,1,0,0:0:0:0:
256,192,145907,1,0,0:0:0:0:
256,192,146044,1,8,0:0:0:0:
256,192,146180,1,8,0:0:0:0:
256,192,146316,1,0,0:0:0:0:
256,192,146385,1,0,0:0:0:0:
256,192,146453,1,8,0:0:0:0:
256,192,146589,1,8,0:0:0:0:
256,192,146657,1,8,0:0:0:0:
256,192,146726,1,0,0:0:0:0:
256,192,146862,1,0,0:0:0:0:
256,192,146930,1,0,0:0:0:0:
256,192,146998,1,8,0:0:0:0:
256,192,147066,1,8,0:0:0:0:
256,192,147135,1,8,0:0:0:0:
256,192,147203,1,8,0:0:0:0:
256,192,147271,1,0,0:0:0:0:
256,192,147408,1,0,0:0:0:0:
256,192,147476,1,0,0:0:0:0:
256,192,147544,1,8,0:0:0:0:
256,192,147680,1,8,0:0:0:0:
256,192,147749,1,0,0:0:0:0:
256,192,147817,1,0,0:0:0:0:
256,192,147885,1,8,0:0:0:0:
256,192,147953,1,0,0:0:0:0:
256,192,148089,1,0,0:0:0:0:
256,192,148226,1,8,0:0:0:0:
256,192,148362,1,8,0:0:0:0:
256,192,148499,1,0,0:0:0:0:
256,192,148567,1,0,0:0:0:0:
256,192,148635,1,8,0:0:0:0:
256,192,148771,1,8,0:0:0:0:
256,192,148839,1,8,0:0:0:0:
256,192,148908,1,0,0:0:0:0:
256,192,148976,1,8,0:0:0:0:
256,192,149044,1,0,0:0:0:0:
256,192,149180,1,8,0:0:0:0:
256,192,149317,1,8,0:0:0:0:
256,192,149453,8,0,150408,0:0:0:0:
256,192,150544,5,8,0:0:0:0:
256,192,150817,1,0,0:0:0:0:
256,192,151089,1,8,0:0:0:0:
256,192,151226,1,0,0:0:0:0:
256,192,151362,1,8,0:0:0:0:
256,192,151499,1,8,0:0:0:0:
256,192,151635,1,4,0:0:0:0:
256,192,152180,1,8,0:0:0:0:
256,192,152726,1,0,0:0:0:0:
256,192,152999,1,0,0:0:0:0:
256,192,153135,1,0,0:0:0:0:
256,192,153271,1,8,0:0:0:0:
256,192,153817,1,0,0:0:0:0:
256,192,154362,1,8,0:0:0:0:
256,192,154635,1,0,0:0:0:0:
256,192,154908,1,8,0:0:0:0:
256,192,155180,1,0,0:0:0:0:
256,192,155317,1,0,0:0:0:0:
256,192,155453,1,8,0:0:0:0:
256,192,155726,1,0,0:0:0:0:
256,192,155862,1,0,0:0:0:0:
256,192,155930,1,0,0:0:0:0:
256,192,155999,1,8,0:0:0:0:
256,192,156271,1,0,0:0:0:0:
256,192,156544,1,8,0:0:0:0:
256,192,156680,1,0,0:0:0:0:
256,192,156817,1,0,0:0:0:0:
256,192,157089,1,8,0:0:0:0:
256,192,157362,1,0,0:0:0:0:
256,192,157499,1,0,0:0:0:0:
256,192,157635,1,8,0:0:0:0:
256,192,157771,1,0,0:0:0:0:
256,192,157908,1,0,0:0:0:0:
256,192,158180,1,8,0:0:0:0:
256,192,158453,1,0,0:0:0:0:
256,192,158589,1,0,0:0:0:0:
256,192,158726,1,8,0:0:0:0:
256,192,158862,1,0,0:0:0:0:
256,192,158999,1,8,0:0:0:0:
256,192,159271,1,8,0:0:0:0:
256,192,159408,1,8,0:0:0:0:
256,192,159544,1,0,0:0:0:0:
256,192,159680,1,0,0:0:0:0:
256,192,159817,1,8,0:0:0:0:
256,192,160021,1,8,0:0:0:0:
256,192,160089,1,0,0:0:0:0:
256,192,160226,1,8,0:0:0:0:
256,192,160362,1,4,0:0:0:0:
256,192,160635,1,0,0:0:0:0:
256,192,160771,1,0,0:0:0:0:
256,192,160908,1,8,0:0:0:0:
256,192,161180,1,0,0:0:0:0:
256,192,161317,1,8,0:0:0:0:
256,192,161453,1,0,0:0:0:0:
256,192,161726,1,0,0:0:0:0:
256,192,161862,1,0,0:0:0:0:
256,192,161999,1,8,0:0:0:0:
256,192,162271,1,0,0:0:0:0:
256,192,162408,1,8,0:0:0:0:
256,192,162544,1,8,0:0:0:0:
256,192,162680,1,0,0:0:0:0:
256,192,162817,1,0,0:0:0:0:
256,192,163089,1,8,0:0:0:0:
256,192,163226,1,0,0:0:0:0:
256,192,163362,1,8,0:0:0:0:
256,192,163499,1,8,0:0:0:0:
256,192,163635,1,0,0:0:0:0:
256,192,163908,1,0,0:0:0:0:
256,192,164044,1,0,0:0:0:0:
256,192,164180,1,8,0:0:0:0:
256,192,164453,1,8,0:0:0:0:
256,192,164589,1,8,0:0:0:0:
256,192,164726,1,0,0:0:0:0:
256,192,164999,1,0,0:0:0:0:
256,192,165135,1,0,0:0:0:0:
256,192,165271,1,8,0:0:0:0:
256,192,165408,1,0,0:0:0:0:
256,192,165544,1,8,0:0:0:0:
256,192,165680,1,8,0:0:0:0:
256,192,165817,1,0,0:0:0:0:
256,192,166089,1,0,0:0:0:0:
256,192,166225,1,0,0:0:0:0:
256,192,166361,1,8,0:0:0:0:
256,192,166498,1,0,0:0:0:0:
256,192,166634,1,8,0:0:0:0:
256,192,166770,1,8,0:0:0:0:
256,192,166907,1,0,0:0:0:0:
256,192,167044,1,0,0:0:0:0:
256,192,167180,1,8,0:0:0:0:
256,192,167453,1,8,0:0:0:0:
256,192,167589,1,8,0:0:0:0:
256,192,167726,1,0,0:0:0:0:
256,192,167862,1,0,0:0:0:0:
256,192,167999,1,8,0:0:0:0:
256,192,168271,1,8,0:0:0:0:
256,192,168544,1,0,0:0:0:0:
256,192,168680,1,0,0:0:0:0:
256,192,168817,1,8,0:0:0:0:
256,192,168953,1,8,0:0:0:0:
256,192,169089,1,4,0:0:0:0:
256,192,169226,1,0,0:0:0:0:
256,192,169362,1,8,0:0:0:0:
256,192,169499,1,0,0:0:0:0:
256,192,169567,1,0,0:0:0:0:
256,192,169635,1,0,0:0:0:0:
256,192,169771,1,0,0:0:0:0:
256,192,169908,1,8,0:0:0:0:
256,192,170180,1,0,0:0:0:0:
256,192,170317,1,0,0:0:0:0:
256,192,170453,1,8,0:0:0:0:
256,192,170589,1,0,0:0:0:0:
256,192,170658,1,0,0:0:0:0:
256,192,170726,1,0,0:0:0:0:
256,192,170794,1,8,0:0:0:0:
256,192,170862,1,0,0:0:0:0:
256,192,170999,1,8,0:0:0:0:
256,192,171271,1,0,0:0:0:0:
256,192,171408,1,0,0:0:0:0:
256,192,171544,1,8,0:0:0:0:
256,192,171680,1,8,0:0:0:0:
256,192,171749,1,8,0:0:0:0:
256,192,171817,1,0,0:0:0:0:
256,192,171953,1,0,0:0:0:0:
256,192,172089,1,8,0:0:0:0:
256,192,172226,1,0,0:0:0:0:
256,192,172362,1,8,0:0:0:0:
256,192,172499,1,8,0:0:0:0:
256,192,172635,1,0,0:0:0:0:
256,192,172771,1,0,0:0:0:0:
256,192,172839,1,0,0:0:0:0:
256,192,172908,1,8,0:0:0:0:
256,192,173112,1,8,0:0:0:0:
256,192,173317,1,0,0:0:0:0:
256,192,173453,1,0,0:0:0:0:
256,192,173589,1,0,0:0:0:0:
256,192,173726,1,8,0:0:0:0:
256,192,173862,1,0,0:0:0:0:
256,192,173930,1,0,0:0:0:0:
256,192,173999,1,0,0:0:0:0:
256,192,174135,1,0,0:0:0:0:
256,192,174271,1,8,0:0:0:0:
256,192,174544,1,0,0:0:0:0:
256,192,174680,1,0,0:0:0:0:
256,192,174817,1,8,0:0:0:0:
256,192,174953,1,0,0:0:0:0:
256,192,175021,1,0,0:0:0:0:
256,192,175089,1,0,0:0:0:0:
256,192,175158,1,8,0:0:0:0:
256,192,175226,1,0,0:0:0:0:
256,192,175362,1,8,0:0:0:0:
256,192,175635,1,0,0:0:0:0:
256,192,175771,1,0,0:0:0:0:
256,192,175908,1,8,0:0:0:0:
256,192,176044,1,8,0:0:0:0:
256,192,176112,1,8,0:0:0:0:
256,192,176180,1,0,0:0:0:0:
256,192,176249,1,8,0:0:0:0:
256,192,176317,1,0,0:0:0:0:
256,192,176453,1,8,0:0:0:0:
256,192,176589,1,8,0:0:0:0:
256,192,176726,1,0,0:0:0:0:
256,192,176862,1,0,0:0:0:0:
256,192,176999,1,8,0:0:0:0:
256,192,177271,1,0,0:0:0:0:
256,192,177476,1,8,0:0:0:0:
256,192,177680,1,8,0:0:0:0:
256,192,177817,1,4,0:0:0:0:
256,192,177953,1,0,0:0:0:0:
256,192,178089,1,8,0:0:0:0:
256,192,178226,1,0,0:0:0:0:
256,192,178294,1,0,0:0:0:0:
256,192,178362,1,0,0:0:0:0:
256,192,178499,1,0,0:0:0:0:
256,192,178567,1,0,0:0:0:0:
256,192,178635,1,8,0:0:0:0:
256,192,178771,1,0,0:0:0:0:
256,192,178908,1,0,0:0:0:0:
256,192,179044,1,0,0:0:0:0:
256,192,179112,1,0,0:0:0:0:
256,192,179180,1,8,0:0:0:0:
256,192,179317,1,0,0:0:0:0:
256,192,179453,1,8,0:0:0:0:
256,192,179521,1,8,0:0:0:0:
256,192,179589,1,0,0:0:0:0:
256,192,179726,1,4,0:0:0:0:
256,192,179999,1,4,0:0:0:0:
256,192,180135,1,0,0:0:0:0:
256,192,180271,1,8,0:0:0:0:
256,192,180408,1,0,0:0:0:0:
256,192,180476,1,0,0:0:0:0:
256,192,180544,1,8,0:0:0:0:
256,192,180680,1,8,0:0:0:0:
256,192,180749,1,8,0:0:0:0:
256,192,180817,1,0,0:0:0:0:
256,192,180953,1,8,0:0:0:0:
256,192,181089,1,0,0:0:0:0:
256,192,181226,1,0,0:0:0:0:
256,192,181294,1,0,0:0:0:0:
256,192,181362,1,8,0:0:0:0:
256,192,181499,1,8,0:0:0:0:
256,192,181567,1,8,0:0:0:0:
256,192,181635,1,0,0:0:0:0:
256,192,181703,1,0,0:0:0:0:
256,192,181771,1,8,0:0:0:0:
256,192,181908,1,4,0:0:0:0:
256,192,182180,1,4,0:0:0:0:
256,192,182317,1,0,0:0:0:0:
256,192,182385,1,0,0:0:0:0:
256,192,182453,1,8,0:0:0:0:
256,192,182589,1,8,0:0:0:0:
256,192,182726,1,4,0:0:0:0:
256,192,182862,1,8,0:0:0:0:
256,192,182930,1,8,0:0:0:0:
256,192,182999,1,0,0:0:0:0:
256,192,183135,1,8,0:0:0:0:
256,192,183271,1,4,0:0:0:0:
256,192,183408,1,8,0:0:0:0:
256,192,183476,1,8,0:0:0:0:
256,192,183544,1,8,0:0:0:0:
256,192,183680,1,8,0:0:0:0:
256,192,183817,1,4,0:0:0:0:
256,192,183953,1,8,0:0:0:0:
256,192,184021,1,8,0:0:0:0:
256,192,184089,1,0,0:0:0:0:
256,192,184226,1,8,0:0:0:0:
256,192,184362,1,4,0:0:0:0:
256,192,184499,1,8,0:0:0:0:
256,192,184567,1,8,0:0:0:0:
256,192,184635,1,0,0:0:0:0:
256,192,184771,1,0,0:0:0:0:
256,192,184908,1,8,0:0:0:0:
256,192,184976,1,8,0:0:0:0:
256,192,185044,1,0,0:0:0:0:
256,192,185180,1,0,0:0:0:0:
256,192,185317,1,8,0:0:0:0:
256,192,185453,1,0,0:0:0:0:
256,192,185589,1,8,0:0:0:0:
256,192,185658,1,8,0:0:0:0:
256,192,185726,1,0,0:0:0:0:
256,192,185862,1,0,0:0:0:0:
256,192,185930,1,0,0:0:0:0:
256,192,185999,1,8,0:0:0:0:
256,192,186135,1,8,0:0:0:0:
256,192,186203,1,8,0:0:0:0:
256,192,186271,1,0,0:0:0:0:
256,192,186408,1,8,0:0:0:0:
144,80,186544,2,0,B|144:224|144:224|144:112|144:112|144:288,1,420
256,192,187635,1,4,0:0:0:0:
256,192,188726,1,0,0:0:0:0:
256,192,189272,1,0,0:0:0:0:
256,192,189408,1,0,0:0:0:0:
256,192,189544,1,8,0:0:0:0:
256,192,189817,1,4,0:0:0:0:
256,192,190908,1,8,0:0:0:0:
256,192,191181,1,8,0:0:0:0:
256,192,191454,1,0,0:0:0:0:
256,192,191590,1,0,0:0:0:0:
256,192,191726,1,12,0:0:0:0:
256,192,191999,1,4,0:0:0:0:
256,192,193090,1,8,0:0:0:0:
256,192,193226,1,8,0:0:0:0:
256,192,193363,1,0,0:0:0:0:
256,192,193635,1,0,0:0:0:0:
256,192,193772,1,0,0:0:0:0:
256,192,193908,1,8,0:0:0:0:
256,192,194181,1,4,0:0:0:0:
256,192,194726,1,0,0:0:0:0:
256,192,195272,1,8,0:0:0:0:
256,192,195544,1,8,0:0:0:0:
256,192,195817,1,0,0:0:0:0:
256,192,195954,1,0,0:0:0:0:
256,192,196090,1,8,0:0:0:0:
256,192,196226,1,8,0:0:0:0:
256,192,196363,1,4,0:0:0:0:
256,192,196635,1,8,0:0:0:0:
256,192,196908,1,8,0:0:0:0:
256,192,197181,1,8,0:0:0:0:
256,192,197454,1,0,0:0:0:0:
256,192,197727,1,8,0:0:0:0:
256,192,198000,1,0,0:0:0:0:
256,192,198136,1,0,0:0:0:0:
256,192,198272,1,8,0:0:0:0:
256,192,198408,1,8,0:0:0:0:
256,192,198545,1,4,0:0:0:0:
256,192,198817,1,8,0:0:0:0:
256,192,199090,1,8,0:0:0:0:
256,192,199363,1,8,0:0:0:0:
256,192,199636,1,0,0:0:0:0:
256,192,199772,1,8,0:0:0:0:
256,192,199909,1,0,0:0:0:0:
256,192,200045,1,0,0:0:0:0:
256,192,200182,1,8,0:0:0:0:
256,192,200318,1,0,0:0:0:0:
256,192,200454,1,12,0:0:0:0:
256,192,200727,1,4,0:0:0:0:
256,192,200999,1,8,0:0:0:0:
256,192,201272,1,8,0:0:0:0:
256,192,201544,1,8,0:0:0:0:
256,192,201817,1,0,0:0:0:0:
256,192,201954,1,0,0:0:0:0:
256,192,202090,1,8,0:0:0:0:
256,192,202226,1,0,0:0:0:0:
256,192,202363,1,8,0:0:0:0:
256,192,202499,1,0,0:0:0:0:
256,192,202635,1,8,0:0:0:0:
256,192,202772,1,8,0:0:0:0:
256,192,202908,1,4,0:0:0:0:
256,192,203181,1,8,0:0:0:0:
256,192,203454,1,8,0:0:0:0:
256,192,203726,1,8,0:0:0:0:
256,192,203999,1,0,0:0:0:0:
256,192,204135,1,0,0:0:0:0:
256,192,204272,1,8,0:0:0:0:
256,192,204408,1,0,0:0:0:0:
256,192,204544,1,8,0:0:0:0:
256,192,204681,1,8,0:0:0:0:
256,192,204817,1,0,0:0:0:0:
256,192,204954,1,8,0:0:0:0:
256,192,205089,1,0,0:0:0:0:
256,192,205226,1,8,0:0:0:0:
256,192,205294,1,8,0:0:0:0:
256,192,205362,1,8,0:0:0:0:
256,192,205430,1,8,0:0:0:0:
256,192,205499,1,8,0:0:0:0:
256,192,205567,1,8,0:0:0:0:
256,192,205635,1,0,0:0:0:0:
256,192,205771,1,8,0:0:0:0:
256,192,205839,1,8,0:0:0:0:
256,192,205908,1,8,0:0:0:0:
256,192,205976,1,8,0:0:0:0:
256,192,206044,1,8,0:0:0:0:
256,192,206112,1,8,0:0:0:0:
256,192,206180,1,0,0:0:0:0:
256,192,206249,1,0,0:0:0:0:
256,192,206317,1,0,0:0:0:0:
256,192,206453,1,8,0:0:0:0:
256,192,206589,1,8,0:0:0:0:
256,192,206725,1,0,0:0:0:0:
256,192,206794,1,0,0:0:0:0:
256,192,206862,1,0,0:0:0:0:
256,192,206998,1,8,0:0:0:0:
256,192,207134,1,0,0:0:0:0:
256,192,207271,1,8,0:0:0:0:
256,192,207407,1,8,0:0:0:0:
256,192,207543,1,0,0:0:0:0:
256,192,207680,1,0,0:0:0:0:
256,192,207748,1,0,0:0:0:0:
256,192,207816,1,8,0:0:0:0:
256,192,207953,1,0,0:0:0:0:
256,192,208089,1,8,0:0:0:0:
256,192,208225,1,8,0:0:0:0:
256,192,208293,1,8,0:0:0:0:
256,192,208362,1,0,0:0:0:0:
256,192,208430,1,0,0:0:0:0:
256,192,208498,1,0,0:0:0:0:
256,192,208634,1,8,0:0:0:0:
256,192,208771,1,8,0:0:0:0:
256,192,208907,1,0,0:0:0:0:
256,192,208976,1,0,0:0:0:0:
256,192,209043,1,0,0:0:0:0:
256,192,209180,1,8,0:0:0:0:
256,192,209316,1,0,0:0:0:0:
256,192,209453,1,8,0:0:0:0:
256,192,209521,1,8,0:0:0:0:
256,192,209589,1,0,0:0:0:0:
256,192,209726,1,8,0:0:0:0:
256,192,209794,1,8,0:0:0:0:
256,192,209862,1,0,0:0:0:0:
256,192,209998,1,0,0:0:0:0:
256,192,210066,1,0,0:0:0:0:
256,192,210135,1,8,0:0:0:0:
256,192,210271,1,4,0:0:0:0:
256,192,210544,1,0,0:0:0:0:
256,192,210612,1,0,0:0:0:0:
256,192,210680,1,0,0:0:0:0:
256,192,210816,1,8,0:0:0:0:
256,192,210953,1,8,0:0:0:0:
256,192,211089,1,0,0:0:0:0:
256,192,211157,1,0,0:0:0:0:
256,192,211226,1,0,0:0:0:0:
256,192,211362,1,8,0:0:0:0:
256,192,211498,1,0,0:0:0:0:
256,192,211635,1,8,0:0:0:0:
256,192,211771,1,8,0:0:0:0:
256,192,211907,1,0,0:0:0:0:
256,192,212044,1,0,0:0:0:0:
256,192,212112,1,0,0:0:0:0:
256,192,212180,1,8,0:0:0:0:
256,192,212317,1,0,0:0:0:0:
256,192,212453,1,8,0:0:0:0:
256,192,212589,1,8,0:0:0:0:
256,192,212657,1,8,0:0:0:0:
256,192,212726,1,0,0:0:0:0:
256,192,212794,1,0,0:0:0:0:
256,192,212862,1,0,0:0:0:0:
256,192,212998,1,8,0:0:0:0:
256,192,213135,1,8,0:0:0:0:
256,192,213271,1,0,0:0:0:0:
256,192,213340,1,0,0:0:0:0:
256,192,213407,1,0,0:0:0:0:
256,192,213544,1,8,0:0:0:0:
256,192,213680,1,0,0:0:0:0:
256,192,213816,1,8,0:0:0:0:
256,192,213953,1,0,0:0:0:0:
256,192,214021,1,0,0:0:0:0:
256,192,214089,1,8,0:0:0:0:
256,192,214226,1,8,0:0:0:0:
256,192,214294,1,8,0:0:0:0:
256,192,214362,1,0,0:0:0:0:
256,192,214498,1,0,0:0:0:0:
256,192,214635,1,8,0:0:0:0:
256,192,214771,1,8,0:0:0:0:
256,192,214908,1,0,0:0:0:0:
256,192,214977,1,0,0:0:0:0:
256,192,215045,1,0,0:0:0:0:
256,192,215112,1,0,0:0:0:0:
256,192,215181,1,8,0:0:0:0:
256,192,215317,1,8,0:0:0:0:
256,192,215453,1,0,0:0:0:0:
256,192,215522,1,0,0:0:0:0:
256,192,215590,1,0,0:0:0:0:
256,192,215658,1,0,0:0:0:0:
256,192,215726,1,8,0:0:0:0:
256,192,215862,1,0,0:0:0:0:
256,192,215999,1,0,0:0:0:0:
256,192,216135,1,0,0:0:0:0:
256,192,216203,1,0,0:0:0:0:
256,192,216271,1,8,0:0:0:0:
256,192,216408,1,0,0:0:0:0:
256,192,216544,1,8,0:0:0:0:
256,192,216612,1,8,0:0:0:0:
256,192,216681,1,0,0:0:0:0:
256,192,216817,1,8,0:0:0:0:
256,192,216953,1,8,0:0:0:0:
256,192,217021,1,8,0:0:0:0:
256,192,217090,1,0,0:0:0:0:
256,192,217158,1,0,0:0:0:0:
256,192,217226,1,0,0:0:0:0:
256,192,217294,1,0,0:0:0:0:
256,192,217362,1,8,0:0:0:0:
256,192,217499,1,8,0:0:0:0:
256,192,217635,1,0,0:0:0:0:
256,192,217704,1,0,0:0:0:0:
256,192,217771,1,0,0:0:0:0:
256,192,217839,1,0,0:0:0:0:
256,192,217908,1,8,0:0:0:0:
256,192,218044,1,0,0:0:0:0:
256,192,218180,1,0,0:0:0:0:
256,192,218249,1,0,0:0:0:0:
256,192,218317,1,8,0:0:0:0:
256,192,218385,1,8,0:0:0:0:
256,192,218453,1,0,0:0:0:0:
256,192,218521,1,0,0:0:0:0:
256,192,218589,1,8,0:0:0:0:
256,192,218726,1,0,0:0:0:0:
256,192,218862,1,8,0:0:0:0:
256,192,218930,1,8,0:0:0:0:
256,192,218999,1,0,0:0:0:0:
256,192,219271,1,0,0:0:0:0:
256,192,219339,1,0,0:0:0:0:
256,192,219408,1,0,0:0:0:0:
256,192,219476,1,0,0:0:0:0:
256,192,219544,1,8,0:0:0:0:
256,192,219680,1,8,0:0:0:0:
256,192,219816,1,0,0:0:0:0:
256,192,219885,1,0,0:0:0:0:
256,192,219953,1,0,0:0:0:0:
256,192,220021,1,0,0:0:0:0:
256,192,220089,1,8,0:0:0:0:
256,192,220225,1,0,0:0:0:0:
256,192,220362,1,0,0:0:0:0:
256,192,220498,1,0,0:0:0:0:
256,192,220566,1,0,0:0:0:0:
256,192,220634,1,8,0:0:0:0:
256,192,220703,1,8,0:0:0:0:
256,192,220771,1,0,0:0:0:0:
256,192,220907,1,8,0:0:0:0:
256,192,221044,1,0,0:0:0:0:
256,192,221180,1,8,0:0:0:0:
256,192,221316,1,8,0:0:0:0:
256,192,221384,1,8,0:0:0:0:
256,192,221453,1,0,0:0:0:0:
256,192,221521,1,0,0:0:0:0:
256,192,221589,1,0,0:0:0:0:
256,192,221657,1,0,0:0:0:0:
256,192,221725,1,8,0:0:0:0:
256,192,221862,1,8,0:0:0:0:
256,192,221998,1,0,0:0:0:0:
256,192,222067,1,0,0:0:0:0:
256,192,222134,1,0,0:0:0:0:
256,192,222202,1,0,0:0:0:0:
256,192,222271,1,8,0:0:0:0:
256,192,222339,1,8,0:0:0:0:
256,192,222407,1,0,0:0:0:0:
256,192,222544,8,0,223499,0:0:0:0:
256,192,223635,5,4,0:0:0:0:
256,192,223908,1,8,0:0:0:0:
256,192,224044,1,8,0:0:0:0:
256,192,224180,1,4,0:0:0:0:
256,192,224453,1,8,0:0:0:0:
256,192,224589,1,8,0:0:0:0:
256,192,224726,1,4,0:0:0:0:
256,192,224999,1,4,0:0:0:0:
256,192,225271,1,4,0:0:0:0:
256,192,225544,1,0,0:0:0:0:
256,192,225680,1,8,0:0:0:0:
256,192,225817,1,4,0:0:0:0:
256,192,226089,1,8,0:0:0:0:
256,192,226226,1,8,0:0:0:0:
256,192,226362,1,4,0:0:0:0:
256,192,226635,1,8,0:0:0:0:
256,192,226771,1,8,0:0:0:0:
256,192,226908,1,4,0:0:0:0:
256,192,227180,1,4,0:0:0:0:
256,192,227316,1,4,0:0:0:0:
256,192,227452,1,4,0:0:0:0:
256,192,227999,1,4,0:0:0:0:
256,192,228271,1,8,0:0:0:0:
256,192,228408,1,8,0:0:0:0:
256,192,228544,1,4,0:0:0:0:
256,192,228817,1,8,0:0:0:0:
256,192,229090,1,4,0:0:0:0:
256,192,229362,1,4,0:0:0:0:
256,192,229635,1,4,0:0:0:0:
256,192,229908,1,0,0:0:0:0:
256,192,230044,1,8,0:0:0:0:
256,192,230181,1,4,0:0:0:0:
256,192,230453,1,8,0:0:0:0:
256,192,230589,1,8,0:0:0:0:
256,192,230726,1,4,0:0:0:0:
256,192,230999,1,8,0:0:0:0:
256,192,231135,1,8,0:0:0:0:
256,192,231271,1,4,0:0:0:0:
256,192,231544,1,4,0:0:0:0:
256,192,231817,1,4,0:0:0:0:
256,192,231953,1,8,0:0:0:0:
256,192,232021,1,8,0:0:0:0:
256,192,232089,1,0,0:0:0:0:
256,192,232226,1,8,0:0:0:0:
256,192,232362,1,0,0:0:0:0:
256,192,232430,1,0,0:0:0:0:
256,192,232498,1,0,0:0:0:0:
256,192,232567,1,0,0:0:0:0:
256,192,232634,1,8,0:0:0:0:
256,192,232770,1,8,0:0:0:0:
256,192,232906,1,0,0:0:0:0:
256,192,232975,1,0,0:0:0:0:
256,192,233043,1,0,0:0:0:0:
256,192,233112,1,0,0:0:0:0:
256,192,233179,1,8,0:0:0:0:
256,192,233315,1,0,0:0:0:0:
256,192,233453,1,8,0:0:0:0:
256,192,233588,1,8,0:0:0:0:
256,192,233724,1,0,0:0:0:0:
256,192,233861,1,0,0:0:0:0:
256,192,233929,1,0,0:0:0:0:
256,192,233997,1,8,0:0:0:0:
256,192,234134,1,0,0:0:0:0:
256,192,234270,1,8,0:0:0:0:
256,192,234406,1,8,0:0:0:0:
256,192,234474,1,8,0:0:0:0:
256,192,234544,1,0,0:0:0:0:
256,192,234611,1,0,0:0:0:0:
256,192,234679,1,0,0:0:0:0:
256,192,234749,1,0,0:0:0:0:
256,192,234815,1,8,0:0:0:0:
256,192,234952,1,8,0:0:0:0:
256,192,235088,1,0,0:0:0:0:
256,192,235157,1,0,0:0:0:0:
256,192,235224,1,0,0:0:0:0:
256,192,235294,1,0,0:0:0:0:
256,192,235361,1,8,0:0:0:0:
256,192,235497,1,0,0:0:0:0:
256,192,235634,1,8,0:0:0:0:
256,192,235702,1,8,0:0:0:0:
256,192,235770,1,0,0:0:0:0:
256,192,235839,1,0,0:0:0:0:
256,192,235907,1,8,0:0:0:0:
256,192,235975,1,8,0:0:0:0:
256,192,236043,1,0,0:0:0:0:
256,192,236179,1,0,0:0:0:0:
256,192,236247,1,0,0:0:0:0:
256,192,236316,1,8,0:0:0:0:
256,192,236452,1,4,0:0:0:0:
256,192,236726,1,0,0:0:0:0:
256,192,236794,1,0,0:0:0:0:
256,192,236862,1,0,0:0:0:0:
256,192,236930,1,0,0:0:0:0:
256,192,236999,1,8,0:0:0:0:
256,192,237067,1,0,0:0:0:0:
256,192,237135,1,0,0:0:0:0:
256,192,237203,1,0,0:0:0:0:
256,192,237271,1,8,0:0:0:0:
256,192,237339,1,0,0:0:0:0:
256,192,237408,1,0,0:0:0:0:
256,192,237476,1,0,0:0:0:0:
256,192,237544,1,8,0:0:0:0:
256,192,237680,1,0,0:0:0:0:
256,192,237817,1,8,0:0:0:0:
256,192,237953,1,8,0:0:0:0:
256,192,238089,1,0,0:0:0:0:
256,192,238226,1,0,0:0:0:0:
256,192,238294,1,0,0:0:0:0:
256,192,238362,1,8,0:0:0:0:
256,192,238430,1,8,0:0:0:0:
256,192,238499,1,0,0:0:0:0:
256,192,238635,1,8,0:0:0:0:
256,192,238771,1,8,0:0:0:0:
256,192,238908,1,0,0:0:0:0:
256,192,238976,1,0,0:0:0:0:
256,192,239044,1,0,0:0:0:0:
256,192,239112,1,0,0:0:0:0:
256,192,239180,1,8,0:0:0:0:
256,192,239249,1,0,0:0:0:0:
256,192,239317,1,0,0:0:0:0:
256,192,239385,1,0,0:0:0:0:
256,192,239453,1,8,0:0:0:0:
256,192,239521,1,0,0:0:0:0:
256,192,239589,1,0,0:0:0:0:
256,192,239658,1,0,0:0:0:0:
256,192,239726,1,8,0:0:0:0:
256,192,239794,1,0,0:0:0:0:
256,192,239862,1,0,0:0:0:0:
256,192,239930,1,0,0:0:0:0:
256,192,239999,1,8,0:0:0:0:
256,192,240067,1,8,0:0:0:0:
256,192,240135,1,0,0:0:0:0:
256,192,240203,1,0,0:0:0:0:
256,192,240271,1,8,0:0:0:0:
256,192,240339,1,8,0:0:0:0:
256,192,240408,1,0,0:0:0:0:
256,192,240476,1,0,0:0:0:0:
256,192,240544,1,8,0:0:0:0:
256,192,240612,1,8,0:0:0:0:
256,192,240680,1,8,0:0:0:0:
256,192,240749,1,8,0:0:0:0:
256,192,240817,1,0,0:0:0:0:
256,192,240885,1,0,0:0:0:0:
256,192,240953,1,8,0:0:0:0:
