osu file format v12

[General]
AudioFilename: mo-ko-mo-core.ogg
AudioLeadIn: 2007
PreviewTime: 191011
Countdown: 0
SampleSet: Soft
StackLeniency: 0.7
Mode: 2
LetterboxInBreaks: 1

[Editor]
Bookmarks: 9822,19422,38472,48072,57597,76871,81963,96071,105746,115248,124870,144070,153647,160997,172697,184869,187697,190944,192069,201721,211246,211396,220846,230469
DistanceSpacing: 1.2
BeatDivisor: 4
GridSize: 4

[Metadata]
Title:mo-ko-mo-core
TitleUnicode:mo-ko-mo-core
Artist:t+pazolite
ArtistUnicode:t+pazolite
Creator:[ J o j o ]
Version:Happy CTB
Source:
Tags:touhou
BeatmapID:218336
BeatmapSetID:77936

[Difficulty]
HPDrainRate:5
CircleSize:4
OverallDifficulty:6
ApproachRate:9
SliderMultiplier:2
SliderTickRate:1

[Events]
//Background and Video events
0,0,"Konachan.com - 154157 sample.jpg",0,0
//Break Periods
2,106012,114813
//Storyboard Layer 0 (Background)
//Storyboard Layer 1 (Fail)
//Storyboard Layer 2 (Pass)
//Storyboard Layer 3 (Foreground)
//Storyboard Sound Samples
//Background Colour Transformations
3,100,225,222,213

[TimingPoints]
9815,299.995000749963,4,2,1,49,1,0
19339,-100,4,2,1,19,0,0
38689,-100,4,2,1,45,0,0
61339,-142.857142857143,4,2,1,45,0,0
62614,-100,4,2,1,45,0,0
76849,-100,4,2,1,60,0,1
96146,-100,4,2,1,60,0,0
96363,-100,4,2,1,24,0,0
105049,-100,4,1,1,60,0,0
105813,-100,4,1,1,60,0,0
115248,-100,4,2,1,60,0,0
143447,-200,4,2,1,60,0,0
153647,-100,4,2,1,60,0,0
192069,-100,4,2,1,60,0,1
211246,-100,4,2,1,60,0,0

[Colours]
Combo1 : 233,24,98
Combo2 : 151,233,29
Combo3 : 21,97,223

[HitObjects]
488,192,215,1,0,0:0:0:0:
112,192,1415,1,0,0:0:0:0:
428,188,1640,2,0,L|472:152,1,50
112,108,1865,1,0,0:0:0:0:
24,192,2615,1,0,0:0:0:0:
400,192,3815,1,0,0:0:0:0:
84,188,4040,2,0,L|40:152,1,50
400,92,4265,1,0,0:0:0:0:
488,192,5015,5,0,0:0:0:0:
112,192,6215,1,0,0:0:0:0:
428,188,6440,2,0,L|472:152,1,50
108,88,6665,1,0,0:0:0:0:
256,192,7415,12,0,9515,0:0:0:0:
136,192,9815,5,0,0:0:0:0:
244,140,9964,1,0,0:0:0:0:
140,84,10114,1,0,0:0:0:0:
256,60,10264,1,0,0:0:0:0:
376,64,10414,1,0,0:0:0:0:
256,60,10564,1,0,0:0:0:0:
352,132,10714,1,0,0:0:0:0:
252,200,10864,2,0,L|360:200,1,100
36,188,11239,1,0,0:0:0:0:
136,188,11464,1,0,0:0:0:0:
40,116,11614,1,0,0:0:0:0:
160,104,11764,2,0,L|264:104,1,100
376,192,12214,5,0,0:0:0:0:
268,140,12363,1,0,0:0:0:0:
372,84,12513,1,0,0:0:0:0:
256,60,12663,1,0,0:0:0:0:
136,64,12813,1,0,0:0:0:0:
256,60,12963,1,0,0:0:0:0:
160,132,13113,1,0,0:0:0:0:
260,200,13263,2,0,L|152:200,1,100
476,188,13638,1,0,0:0:0:0:
376,188,13863,1,0,0:0:0:0:
468,108,14014,1,0,0:0:0:0:
348,108,14164,2,0,L|228:112,1,100
120,192,14614,5,0,0:0:0:0:
304,196,14764,1,0,0:0:0:0:
120,192,14914,1,0,0:0:0:0:
212,112,15064,1,0,0:0:0:0:
260,76,15139,1,0,0:0:0:0:
308,40,15214,1,0,0:0:0:0:
472,40,15364,2,0,L|364:40,1,100
252,40,15664,2,0,L|136:40,1,100
460,148,16039,2,0,L|396:152,1,50
108,144,16264,2,0,L|216:144,1,100
456,220,16714,5,0,0:0:0:0:
216,220,17014,1,0,0:0:0:0:
96,216,17164,1,0,0:0:0:0:
216,220,17314,1,0,0:0:0:0:
336,216,17464,1,0,0:0:0:0:
232,156,17614,1,0,0:0:0:0:
192,112,17689,1,0,0:0:0:0:
236,68,17764,1,0,0:0:0:0:
292,48,17839,1,0,0:0:0:0:
364,44,17914,1,0,0:0:0:0:
32,192,18214,5,0,0:0:0:0:
480,192,18514,5,0,0:0:0:0:
32,192,18814,5,0,0:0:0:0:
480,192,19114,5,0,0:0:0:0:
240,196,19414,5,0,0:0:0:0:
292,224,19489,5,0,0:0:0:0:
348,244,19564,1,0,0:0:0:0:
404,264,19639,1,0,0:0:0:0:
464,276,19714,1,0,0:0:0:0:
272,196,20014,5,0,0:0:0:0:
220,224,20089,5,0,0:0:0:0:
164,244,20164,1,0,0:0:0:0:
108,264,20239,1,0,0:0:0:0:
48,276,20314,1,0,0:0:0:0:
388,84,20614,1,0,0:0:0:0:
328,80,20689,1,0,0:0:0:0:
268,76,20764,1,0,0:0:0:0:
208,72,20839,1,0,0:0:0:0:
148,72,20914,1,0,0:0:0:0:
92,96,20989,1,0,0:0:0:0:
92,156,21064,5,0,0:0:0:0:
148,176,21139,1,0,0:0:0:0:
208,172,21214,1,0,0:0:0:0:
268,168,21289,1,0,0:0:0:0:
328,168,21364,1,0,0:0:0:0:
388,168,21439,1,0,0:0:0:0:
448,172,21514,1,0,0:0:0:0:
40,320,21814,5,0,0:0:0:0:
100,320,21889,1,0,0:0:0:0:
160,320,21964,1,0,0:0:0:0:
220,324,22039,1,0,0:0:0:0:
280,324,22114,1,0,0:0:0:0:
472,320,22414,5,0,0:0:0:0:
412,320,22489,1,0,0:0:0:0:
352,320,22564,1,0,0:0:0:0:
292,324,22639,1,0,0:0:0:0:
232,324,22714,1,0,0:0:0:0:
204,84,23014,5,0,0:0:0:0:
264,80,23089,1,0,0:0:0:0:
216,116,23164,1,0,0:0:0:0:
268,144,23239,1,0,0:0:0:0:
216,172,23314,1,0,0:0:0:0:
272,196,23389,1,0,0:0:0:0:
328,220,23464,1,0,0:0:0:0:
388,236,23539,1,0,0:0:0:0:
448,236,23614,1,0,0:0:0:0:
496,204,23689,1,0,0:0:0:0:
484,144,23764,1,0,0:0:0:0:
432,112,23839,1,0,0:0:0:0:
384,76,23914,1,0,0:0:0:0:
256,304,24214,5,0,0:0:0:0:
316,300,24289,1,0,0:0:0:0:
376,300,24364,1,0,0:0:0:0:
436,296,24439,1,0,0:0:0:0:
496,292,24514,1,0,0:0:0:0:
20,196,24814,1,0,0:0:0:0:
80,196,24889,1,0,0:0:0:0:
140,200,24964,1,0,0:0:0:0:
200,200,25039,1,0,0:0:0:0:
260,196,25114,1,0,0:0:0:0:
16,80,25414,5,0,0:0:0:0:
76,76,25489,1,0,0:0:0:0:
136,80,25564,1,0,0:0:0:0:
196,84,25639,1,0,0:0:0:0:
256,80,25714,1,0,0:0:0:0:
316,84,25789,1,0,0:0:0:0:
376,68,25864,1,0,0:0:0:0:
436,76,25939,1,0,0:0:0:0:
492,52,26014,1,0,0:0:0:0:
436,36,26089,5,0,0:0:0:0:
376,28,26164,1,0,0:0:0:0:
316,28,26239,1,0,0:0:0:0:
256,28,26314,1,0,0:0:0:0:
44,200,26614,5,0,0:0:0:0:
104,204,26689,1,0,0:0:0:0:
44,200,26764,1,0,0:0:0:0:
104,204,26839,1,0,0:0:0:0:
44,196,26914,1,0,0:0:0:0:
104,204,26989,1,0,0:0:0:0:
44,196,27064,1,0,0:0:0:0:
104,200,27139,1,0,0:0:0:0:
164,204,27214,5,0,0:0:0:0:
224,204,27289,1,0,0:0:0:0:
164,204,27364,1,0,0:0:0:0:
224,204,27439,1,0,0:0:0:0:
164,196,27514,1,0,0:0:0:0:
224,204,27589,1,0,0:0:0:0:
164,204,27664,1,0,0:0:0:0:
224,204,27739,1,0,0:0:0:0:
328,200,27814,5,0,0:0:0:0:
356,200,27889,1,0,0:0:0:0:
328,200,27964,1,0,0:0:0:0:
356,200,28039,1,0,0:0:0:0:
328,200,28114,1,0,0:0:0:0:
356,200,28189,1,0,0:0:0:0:
328,200,28264,1,0,0:0:0:0:
356,200,28339,1,0,0:0:0:0:
328,200,28414,21,0,0:0:0:0:
356,200,28489,1,0,0:0:0:0:
328,200,28564,1,0,0:0:0:0:
356,200,28639,1,0,0:0:0:0:
328,200,28714,1,0,0:0:0:0:
360,200,28789,1,0,0:0:0:0:
328,200,28864,1,0,0:0:0:0:
356,200,28939,1,0,0:0:0:0:
480,56,29014,5,0,0:0:0:0:
480,56,29089,1,0,0:0:0:0:
480,56,29164,1,0,0:0:0:0:
480,56,29239,1,0,0:0:0:0:
480,56,29314,1,0,0:0:0:0:
480,56,29389,1,0,0:0:0:0:
480,56,29464,1,0,0:0:0:0:
480,56,29539,1,0,0:0:0:0:
168,56,29614,5,0,0:0:0:0:
168,56,29689,1,0,0:0:0:0:
168,56,29764,1,0,0:0:0:0:
168,56,29839,1,0,0:0:0:0:
168,56,29914,1,0,0:0:0:0:
168,56,29989,1,0,0:0:0:0:
168,56,30064,1,0,0:0:0:0:
168,56,30139,1,0,0:0:0:0:
168,56,30214,1,0,0:0:0:0:
480,196,30289,5,0,0:0:0:0:
480,196,30364,1,0,0:0:0:0:
480,196,30439,1,0,0:0:0:0:
480,196,30514,1,0,0:0:0:0:
480,196,30589,1,0,0:0:0:0:
480,196,30664,1,0,0:0:0:0:
480,196,30739,1,0,0:0:0:0:
480,196,30814,1,0,0:0:0:0:
420,192,30889,1,0,0:0:0:0:
360,196,30964,5,0,0:0:0:0:
300,188,31039,1,0,0:0:0:0:
240,192,31114,1,0,0:0:0:0:
180,192,31189,1,0,0:0:0:0:
120,188,31264,1,0,0:0:0:0:
60,184,31339,1,0,0:0:0:0:
68,100,31414,5,0,0:0:0:0:
128,100,31489,1,0,0:0:0:0:
188,100,31564,1,0,0:0:0:0:
248,100,31639,1,0,0:0:0:0:
308,104,31714,1,0,0:0:0:0:
368,108,31789,1,0,0:0:0:0:
428,108,31864,1,0,0:0:0:0:
488,104,31939,1,0,0:0:0:0:
444,284,32014,5,0,0:0:0:0:
384,284,32089,1,0,0:0:0:0:
324,284,32164,1,0,0:0:0:0:
264,284,32239,1,0,0:0:0:0:
204,280,32314,1,0,0:0:0:0:
144,276,32389,1,0,0:0:0:0:
84,276,32464,1,0,0:0:0:0:
24,280,32539,1,0,0:0:0:0:
68,100,32614,5,0,0:0:0:0:
128,100,32689,1,0,0:0:0:0:
188,100,32764,1,0,0:0:0:0:
248,100,32839,1,0,0:0:0:0:
308,104,32914,1,0,0:0:0:0:
368,108,32989,1,0,0:0:0:0:
428,108,33064,1,0,0:0:0:0:
488,104,33139,1,0,0:0:0:0:
440,68,33214,1,0,0:0:0:0:
484,52,33289,1,0,0:0:0:0:
440,68,33364,5,0,0:0:0:0:
484,52,33439,1,0,0:0:0:0:
440,68,33514,1,0,0:0:0:0:
484,52,33589,1,0,0:0:0:0:
440,68,33664,1,0,0:0:0:0:
484,52,33739,1,0,0:0:0:0:
304,44,33814,6,0,L|248:44,7,50
208,44,34414,6,0,L|264:44,7,50
304,44,35014,6,0,L|248:44,7,50
204,76,35614,2,0,L|156:96,7,50
256,192,36214,12,0,38614,0:0:0:0:
80,192,38764,5,0,0:0:0:0:
200,192,38914,1,0,0:0:0:0:
320,192,39064,1,0,0:0:0:0:
80,192,39214,1,0,0:0:0:0:
80,192,39364,5,0,0:0:0:0:
200,192,39514,1,0,0:0:0:0:
320,192,39664,1,0,0:0:0:0:
80,192,39814,1,0,0:0:0:0:
320,192,39964,1,0,0:0:0:0:
440,192,40114,1,0,0:0:0:0:
320,192,40264,1,0,0:0:0:0:
144,112,40414,1,0,0:0:0:0:
444,76,40564,2,0,B|332:76|332:76|332:80,2,100
432,192,41014,5,0,0:0:0:0:
312,192,41164,1,0,0:0:0:0:
192,192,41314,1,0,0:0:0:0:
432,192,41464,1,0,0:0:0:0:
432,192,41614,5,0,0:0:0:0:
312,192,41764,1,0,0:0:0:0:
192,192,41914,1,0,0:0:0:0:
432,192,42064,1,0,0:0:0:0:
192,192,42214,1,0,0:0:0:0:
72,192,42364,1,0,0:0:0:0:
192,192,42514,1,0,0:0:0:0:
368,112,42664,1,0,0:0:0:0:
68,76,42814,2,0,B|180:76|180:76|180:80,3,100
432,192,43414,5,0,0:0:0:0:
312,192,43564,1,0,0:0:0:0:
192,192,43714,1,0,0:0:0:0:
432,192,43864,1,0,0:0:0:0:
432,192,44014,5,0,0:0:0:0:
312,192,44164,1,0,0:0:0:0:
192,192,44314,1,0,0:0:0:0:
432,192,44464,1,0,0:0:0:0:
192,192,44614,1,0,0:0:0:0:
72,192,44764,1,0,0:0:0:0:
192,192,44914,1,0,0:0:0:0:
368,112,45064,1,0,0:0:0:0:
68,76,45214,2,0,B|180:76|180:76|180:80,2,100
80,192,45664,5,0,0:0:0:0:
200,192,45814,1,0,0:0:0:0:
320,192,45964,1,0,0:0:0:0:
80,192,46114,1,0,0:0:0:0:
80,192,46264,5,0,0:0:0:0:
200,192,46414,1,0,0:0:0:0:
320,192,46564,1,0,0:0:0:0:
80,192,46714,1,0,0:0:0:0:
320,192,46864,1,0,0:0:0:0:
440,192,47014,1,0,0:0:0:0:
320,192,47164,1,0,0:0:0:0:
144,112,47314,1,0,0:0:0:0:
444,76,47464,2,0,B|332:76|332:76|332:80,4,100
44,272,48214,5,0,0:0:0:0:
164,272,48364,6,0,L|280:272,2,100
468,272,48814,5,0,0:0:0:0:
348,272,48964,6,0,L|232:272,2,100
440,192,49414,1,0,0:0:0:0:
240,188,49564,1,0,0:0:0:0:
72,192,49714,1,0,0:0:0:0:
240,188,49864,1,0,0:0:0:0:
440,192,50014,1,0,0:0:0:0:
240,100,50164,1,0,0:0:0:0:
436,88,50314,1,0,0:0:0:0:
240,100,50464,6,0,L|136:100,1,100
480,280,50764,6,0,B|384:216|384:216|308:284,1,200
256,36,51214,1,0,0:0:0:0:
32,280,51364,6,0,B|128:216|128:216|204:284,1,200
256,36,51814,1,0,0:0:0:0:
28,44,51964,2,0,L|136:48,2,100
300,144,52414,2,0,L|448:128,4,100
480,192,53164,5,0,0:0:0:0:
16,188,53314,1,0,0:0:0:0:
252,188,53464,1,0,0:0:0:0:
16,188,53614,1,0,0:0:0:0:
32,192,53764,5,0,0:0:0:0:
496,188,53914,1,0,0:0:0:0:
260,188,54064,1,0,0:0:0:0:
496,188,54214,1,0,0:0:0:0:
256,60,54364,1,0,0:0:0:0:
84,60,54514,1,0,0:0:0:0:
256,60,54664,1,0,0:0:0:0:
84,60,54814,1,0,0:0:0:0:
256,60,54964,2,0,L|368:60,1,100
260,132,55264,2,0,L|160:132,1,100
200,192,55489,1,0,0:0:0:0:
372,136,55564,5,0,0:0:0:0:
492,136,55714,1,0,0:0:0:0:
372,136,55864,1,0,0:0:0:0:
252,132,56014,2,0,L|124:124,1,100
140,244,56314,2,0,L|348:248,1,200
16,192,56764,5,0,0:0:0:0:
496,192,57064,5,0,0:0:0:0:
224,192,57214,1,0,0:0:0:0:
16,192,57364,1,0,0:0:0:0:
224,192,57514,1,0,0:0:0:0:
344,196,57664,2,4,L|224:192,1,100
468,108,58114,5,0,0:0:0:0:
228,108,58414,2,0,L|96:104|96:104,2,100
456,188,59014,2,0,L|56:184,1,400
268,296,59914,2,0,L|372:296,2,100
48,200,60514,5,0,0:0:0:0:
288,192,60814,1,0,0:0:0:0:
56,124,61114,1,0,0:0:0:0:
488,180,61414,2,0,B|308:68|300:64|400:260|356:284|352:288|76:296|76:296|80:280,1,559.999982910157
32,192,63214,5,0,0:0:0:0:
256,192,63364,1,0,0:0:0:0:
452,192,63514,2,0,L|244:192,1,200
120,188,64414,2,0,B|256:28|256:28|376:200,1,400
484,184,65164,1,0,0:0:0:0:
388,112,65314,1,0,0:0:0:0:
276,76,65464,1,0,0:0:0:0:
156,64,65614,1,0,0:0:0:0:
36,60,65764,1,0,0:0:0:0:
156,64,65914,1,0,0:0:0:0:
240,148,66064,2,0,L|340:148,1,100
144,264,66364,6,0,L|40:264,1,100
368,264,66664,6,0,L|472:264,1,100
24,192,67414,5,0,0:0:0:0:
264,192,67714,1,0,0:0:0:0:
384,192,67864,1,0,0:0:0:0:
264,192,68014,2,0,L|132:192,2,100
504,196,68614,2,0,L|384:200,1,100
256,256,68839,1,0,0:0:0:0:
8,196,68914,2,0,L|128:200,1,100
360,192,69514,5,0,0:0:0:0:
464,192,69664,1,0,0:0:0:0:
360,192,69814,1,0,0:0:0:0:
156,188,70113,1,0,0:0:0:0:
320,192,70413,1,0,0:0:0:0:
40,192,70713,1,0,0:0:0:0:
400,192,71013,1,0,0:0:0:0:
104,188,71238,1,0,0:0:0:0:
484,192,71463,1,0,0:0:0:0:
156,188,71613,1,0,0:0:0:0:
36,132,71763,1,0,0:0:0:0:
160,56,71913,1,0,0:0:0:0:
448,64,72213,6,0,B|360:140|360:140|184:80|184:80|96:144,1,400
264,192,72963,1,0,0:0:0:0:
32,200,73113,2,0,L|236:200,1,200
476,192,73638,1,0,0:0:0:0:
332,196,73863,1,0,0:0:0:0:
148,192,74013,6,0,B|240:128|328:116|328:116|116:84|116:84|220:48,1,500
472,52,74913,1,0,0:0:0:0:
276,56,75063,1,0,0:0:0:0:
472,52,75213,1,0,0:0:0:0:
276,56,75363,1,0,0:0:0:0:
116,56,75513,1,0,0:0:0:0:
276,56,75663,1,0,0:0:0:0:
116,56,75813,1,0,0:0:0:0:
468,200,76113,5,0,0:0:0:0:
40,192,76413,2,0,L|436:72,1,400
228,64,77163,1,0,0:0:0:0:
416,68,77313,1,0,0:0:0:0:
228,64,77463,2,0,L|104:64,1,100
284,64,77763,1,0,0:0:0:0:
96,68,77913,1,0,0:0:0:0:
284,64,78063,2,0,L|408:64,1,100
256,196,78363,5,0,0:0:0:0:
100,196,78513,1,0,0:0:0:0:
256,196,78663,1,0,0:0:0:0:
100,196,78813,1,0,0:0:0:0:
256,196,78963,1,0,0:0:0:0:
424,196,79113,1,0,0:0:0:0:
256,104,79263,2,0,L|356:56,1,100
96,44,79563,5,0,0:0:0:0:
256,40,79713,1,0,0:0:0:0:
96,44,79863,1,0,0:0:0:0:
424,40,80013,1,0,0:0:0:0:
256,40,80163,1,0,0:0:0:0:
424,40,80313,1,0,0:0:0:0:
256,40,80463,2,0,L|136:40,1,100
348,120,80763,1,0,0:0:0:0:
164,120,80913,5,0,0:0:0:0:
348,120,81063,1,0,0:0:0:0:
40,128,81213,2,0,L|136:80,3,100
444,128,81813,1,0,0:0:0:0:
284,64,81963,5,0,0:0:0:0:
96,68,82113,1,0,0:0:0:0:
284,64,82263,2,0,L|408:64,1,100
228,64,82563,1,0,0:0:0:0:
416,68,82713,1,0,0:0:0:0:
228,64,82863,2,0,L|104:64,1,100
256,196,83163,5,0,0:0:0:0:
412,196,83313,1,0,0:0:0:0:
256,196,83463,1,0,0:0:0:0:
412,196,83613,1,0,0:0:0:0:
256,196,83763,1,0,0:0:0:0:
88,196,83913,1,0,0:0:0:0:
256,104,84063,2,0,L|156:56,1,100
416,44,84363,5,0,0:0:0:0:
256,40,84513,1,0,0:0:0:0:
416,44,84663,1,0,0:0:0:0:
88,40,84813,1,0,0:0:0:0:
256,40,84963,1,0,0:0:0:0:
88,40,85113,1,0,0:0:0:0:
256,40,85263,2,0,L|376:40,1,100
164,120,85563,5,0,0:0:0:0:
348,120,85713,1,0,0:0:0:0:
164,120,85863,1,0,0:0:0:0:
472,128,86013,2,0,L|376:80,3,100
68,128,86613,1,0,0:0:0:0:
424,268,86763,5,0,0:0:0:0:
256,192,86913,1,0,0:0:0:0:
88,268,87063,1,0,0:0:0:0:
316,192,87213,5,0,0:0:0:0:
172,120,87363,1,0,0:0:0:0:
316,64,87513,1,0,0:0:0:0:
172,120,87663,2,0,L|84:64,1,100
256,124,87963,1,0,0:0:0:0:
68,128,88113,1,0,0:0:0:0:
256,124,88263,1,0,0:0:0:0:
428,116,88413,2,0,L|332:72,4,100
416,44,89163,5,0,0:0:0:0:
256,40,89313,1,0,0:0:0:0:
416,44,89463,1,0,0:0:0:0:
88,40,89613,1,0,0:0:0:0:
256,40,89763,1,0,0:0:0:0:
88,40,89913,1,0,0:0:0:0:
256,40,90063,2,0,L|376:40,1,100
164,120,90363,5,0,0:0:0:0:
348,120,90513,1,0,0:0:0:0:
164,120,90663,1,0,0:0:0:0:
472,128,90813,2,0,L|376:80,3,100
68,128,91413,1,0,0:0:0:0:
424,268,91563,5,0,0:0:0:0:
256,192,91713,1,0,0:0:0:0:
88,268,91863,1,0,0:0:0:0:
316,192,92013,5,0,0:0:0:0:
172,120,92163,1,0,0:0:0:0:
316,64,92313,1,0,0:0:0:0:
172,120,92463,2,0,L|84:64,1,100
256,124,92763,1,0,0:0:0:0:
68,128,92913,1,0,0:0:0:0:
256,124,93063,1,0,0:0:0:0:
428,116,93213,2,0,L|332:72,4,100
196,64,93963,5,0,0:0:0:0:
52,68,94113,1,0,0:0:0:0:
196,64,94263,1,0,0:0:0:0:
384,68,94413,2,0,L|264:64,1,100
52,68,94713,1,0,0:0:0:0:
320,172,94863,2,0,L|344:52,1,100
116,188,95163,1,0,0:0:0:0:
320,172,95313,1,0,0:0:0:0:
116,188,95463,1,0,0:0:0:0:
424,188,95613,6,0,L|292:152,4,100
224,192,96363,5,0,0:0:0:0:
224,152,96438,1,0,0:0:0:0:
224,112,96513,1,0,0:0:0:0:
232,76,96588,1,0,0:0:0:0:
256,44,96663,1,0,0:0:0:0:
304,40,96738,1,0,0:0:0:0:
344,44,96813,1,0,0:0:0:0:
384,52,96888,1,0,0:0:0:0:
424,64,96963,1,0,0:0:0:0:
428,112,97038,1,0,0:0:0:0:
400,136,97113,1,0,0:0:0:0:
372,152,97188,1,0,0:0:0:0:
336,152,97263,1,0,0:0:0:0:
304,152,97338,1,0,0:0:0:0:
264,156,97413,1,0,0:0:0:0:
48,188,97563,5,0,0:0:0:0:
48,148,97638,1,0,0:0:0:0:
48,108,97713,1,0,0:0:0:0:
56,72,97788,1,0,0:0:0:0:
80,40,97863,1,0,0:0:0:0:
128,36,97938,1,0,0:0:0:0:
168,40,98013,1,0,0:0:0:0:
208,48,98088,1,0,0:0:0:0:
248,60,98163,1,0,0:0:0:0:
252,108,98238,1,0,0:0:0:0:
224,132,98313,1,0,0:0:0:0:
196,148,98388,1,0,0:0:0:0:
160,148,98463,1,0,0:0:0:0:
128,148,98538,1,0,0:0:0:0:
88,152,98613,1,0,0:0:0:0:
464,188,98763,5,0,0:0:0:0:
464,148,98838,1,0,0:0:0:0:
464,108,98913,1,0,0:0:0:0:
456,72,98988,1,0,0:0:0:0:
432,40,99063,1,0,0:0:0:0:
384,36,99138,1,0,0:0:0:0:
344,40,99213,1,0,0:0:0:0:
304,48,99288,1,0,0:0:0:0:
264,60,99363,1,0,0:0:0:0:
260,108,99438,1,0,0:0:0:0:
288,132,99513,1,0,0:0:0:0:
316,148,99588,1,0,0:0:0:0:
352,148,99663,1,0,0:0:0:0:
384,148,99738,1,0,0:0:0:0:
424,152,99813,1,0,0:0:0:0:
48,188,99963,5,0,0:0:0:0:
48,148,100038,1,0,0:0:0:0:
48,108,100113,1,0,0:0:0:0:
56,72,100188,1,0,0:0:0:0:
80,40,100263,1,0,0:0:0:0:
128,36,100338,1,0,0:0:0:0:
168,40,100413,1,0,0:0:0:0:
208,48,100488,1,0,0:0:0:0:
248,60,100563,1,0,0:0:0:0:
252,108,100638,1,0,0:0:0:0:
224,132,100713,1,0,0:0:0:0:
196,148,100788,1,0,0:0:0:0:
160,148,100863,1,0,0:0:0:0:
128,148,100938,1,0,0:0:0:0:
88,152,101013,1,0,0:0:0:0:
416,192,101163,5,0,0:0:0:0:
416,192,101238,1,0,0:0:0:0:
416,192,101313,1,0,0:0:0:0:
416,192,101388,1,0,0:0:0:0:
416,192,101463,1,0,0:0:0:0:
416,192,101538,1,0,0:0:0:0:
416,192,101613,1,0,0:0:0:0:
128,192,101763,5,0,0:0:0:0:
128,192,101838,1,0,0:0:0:0:
128,192,101913,1,0,0:0:0:0:
128,192,101988,1,0,0:0:0:0:
128,192,102063,1,0,0:0:0:0:
128,192,102138,1,0,0:0:0:0:
128,192,102213,1,0,0:0:0:0:
384,192,102363,5,0,0:0:0:0:
384,192,102438,1,0,0:0:0:0:
384,192,102513,1,0,0:0:0:0:
384,192,102588,1,0,0:0:0:0:
384,192,102663,1,0,0:0:0:0:
384,192,102738,1,0,0:0:0:0:
384,192,102813,1,0,0:0:0:0:
40,196,102963,5,0,0:0:0:0:
40,196,103038,1,0,0:0:0:0:
40,196,103113,1,0,0:0:0:0:
40,196,103188,1,0,0:0:0:0:
40,196,103263,1,0,0:0:0:0:
40,196,103338,1,0,0:0:0:0:
40,196,103413,1,0,0:0:0:0:
388,108,103488,5,0,0:0:0:0:
388,108,103563,1,0,0:0:0:0:
388,108,103638,1,0,0:0:0:0:
388,108,103713,1,0,0:0:0:0:
40,92,103788,5,0,0:0:0:0:
40,92,103863,5,0,0:0:0:0:
40,92,103938,5,0,0:0:0:0:
40,92,104013,5,0,0:0:0:0:
256,92,104088,5,0,0:0:0:0:
256,92,104163,5,0,0:0:0:0:
256,92,104238,5,0,0:0:0:0:
256,92,104313,5,0,0:0:0:0:
476,88,104388,5,0,0:0:0:0:
476,88,104463,5,0,0:0:0:0:
476,88,104538,5,0,0:0:0:0:
476,88,104613,5,0,0:0:0:0:
256,92,104763,1,0,0:0:0:0:
40,92,104913,1,0,0:0:0:0:
256,92,105063,1,0,0:0:0:0:
40,92,105213,2,0,L|52:144,8,50
252,200,115413,5,0,0:0:0:0:
