osu file format v14

[General]
AudioFilename: t+pazolite - contrapasso paradiso.mp3
AudioLeadIn: 0
PreviewTime: -1
Countdown: 1
SampleSet: Soft
StackLeniency: 0.7
Mode: 0
LetterboxInBreaks: 1
WidescreenStoryboard: 0

[Editor]
DistanceSpacing: 0.9
BeatDivisor: 4
GridSize: 16
TimelineZoom: 1

[Metadata]
Title:contrapasso paradiso
TitleUnicode:contrapasso paradiso
Artist:t+pazolite
ArtistUnicode:t+pazolite
Creator:Flabby-chan
Version:Master
Source:maimai PiNK PLUS
Tags:contrapasso paradiso t+pazolite shitmap maimai cancer hell slider
BeatmapID:1572945
BeatmapSetID:746287

[Difficulty]
HPDrainRate:3
CircleSize:3.5
OverallDifficulty:8
ApproachRate:9
SliderMultiplier:3
SliderTickRate:1

[Events]
//Background and Video events
0,0,"contrapasso.jpg",0,0
//Break Periods
//Storyboard Layer 0 (Background)
//Storyboard Layer 1 (Fail)
//Storyboard Layer 2 (Pass)
//Storyboard Layer 3 (Foreground)
//Storyboard Sound Samples

[TimingPoints]
0,246.913580246914,4,1,0,100,1,0
0,-100,4,2,0,30,0,0
1975,246.913580246914,4,2,0,30,1,0
5925,-133.333333333333,4,1,0,60,0,0
10370,-117.647058823529,4,1,0,60,0,0
14320,-100,4,1,0,60,0,0
17777,-125,4,1,0,60,0,0
19999,-100,4,1,0,60,0,0
23703,-90.9090909090909,4,1,0,60,0,0
27654,-50,4,1,0,100,0,0
43456,-66.6666666666667,4,1,0,100,0,0
51357,-100,4,1,0,60,0,0
55308,-83.3333333333333,4,1,0,60,0,0
59258,-133.333333333333,4,1,0,60,0,0
67160,-66.6666666666667,4,1,0,60,0,0
90863,-50,4,1,0,100,0,0

[HitObjects]
121,74,1975,5,8,0:0:0:0:
448,181,2962,5,8,0:0:0:0:
118,304,3950,5,8,0:0:0:0:
220,61,4938,5,8,0:0:0:0:
415,245,5925,6,0,P|307:319|112:272,1,337.500012874604
67,230,6419,2,0,L|287:142,2,225.000008583069
368,80,7407,1,0,0:0:0:0:
454,201,7654,1,0,0:0:0:0:
400,288,7901,6,0,P|234:328|160:272,1,225.000008583069
112,64,8395,2,0,P|248:53|352:128,1,225.000008583069
227,327,8888,2,0,B|158:256|144:144|208:96,1,225.000008583069
413,170,9382,2,0,P|349:260|48:176,1,450.000017166138
248,62,10370,6,0,P|121:76|55:195,2,255.000004863739
102,171,11358,1,0,0:0:0:0:
227,287,11604,1,0,0:0:0:0:
464,208,11851,6,0,P|420:122|224:48,1,255.000004863739
453,210,12345,2,0,P|265:101|192:112,1,255.000004863739
453,210,12839,2,0,P|256:156|160:192,1,255.000004863739
458,222,13333,2,0,P|331:96|99:310,1,510.000009727478
140,283,14320,6,0,P|218:306|409:190,2,300
387,109,15308,1,0,0:0:0:0:
187,61,15555,1,0,0:0:0:0:
204,131,15802,6,0,P|137:168|246:167,1,300
289,196,16295,2,0,P|368:233|302:136,1,300
328,130,16789,2,0,P|422:122|315:74,1,300
195,213,17283,2,0,P|103:231|213:266,1,300
422,324,17777,6,0,P|304:41|120:363,1,840
200,328,18765,2,0,P|376:292|405:23,2,480
330,93,19999,5,0,0:0:0:0:
150,120,20123,1,0,0:0:0:0:
96,282,20246,1,0,0:0:0:0:
432,256,20493,1,0,0:0:0:0:
204,310,20740,5,0,0:0:0:0:
91,211,20863,1,0,0:0:0:0:
168,60,20987,1,0,0:0:0:0:
344,56,21110,1,0,0:0:0:0:
429,188,21234,2,0,L|137:276,1,300
231,77,21728,5,0,0:0:0:0:
461,241,21975,1,0,0:0:0:0:
320,309,22098,1,0,0:0:0:0:
150,290,22221,1,0,0:0:0:0:
83,136,22468,1,0,0:0:0:0:
441,145,22715,5,0,0:0:0:0:
318,70,22839,1,0,0:0:0:0:
162,87,22962,1,0,0:0:0:0:
77,248,23086,1,0,0:0:0:0:
391,303,23209,2,0,P|411:211|275:61,1,300
94,58,23703,5,0,0:0:0:0:
182,299,23950,1,0,0:0:0:0:
323,276,24073,1,0,0:0:0:0:
432,168,24197,1,0,0:0:0:0:
453,34,24444,1,0,0:0:0:0:
187,74,24691,5,0,0:0:0:0:
420,268,24937,1,0,0:0:0:0:
403,129,25061,1,0,0:0:0:0:
275,43,25184,2,0,L|47:294,1,330.000010070801
262,305,25678,5,0,0:0:0:0:
368,105,25925,1,0,0:0:0:0:
273,130,26049,1,0,0:0:0:0:
174,185,26172,1,0,0:0:0:0:
156,217,26234,1,0,0:0:0:0:
151,251,26295,1,0,0:0:0:0:
164,337,26419,1,0,0:0:0:0:
436,196,26666,5,0,0:0:0:0:
437,154,26728,1,0,0:0:0:0:
435,110,26789,1,0,0:0:0:0:
240,70,26913,5,0,0:0:0:0:
202,91,26975,1,0,0:0:0:0:
182,125,27036,1,0,0:0:0:0:
196,308,27160,5,0,0:0:0:0:
231,305,27221,1,0,0:0:0:0:
264,295,27283,1,0,0:0:0:0:
374,168,27407,5,0,0:0:0:0:
321,139,27468,1,0,0:0:0:0:
266,126,27530,1,0,0:0:0:0:
204,137,27592,1,0,0:0:0:0:
162,157,27654,6,0,P|323:277|422:261,1,300
371,319,27900,2,0,P|293:190|130:140,1,300
171,257,28147,2,0,P|331:219|390:85,1,300
260,68,28394,2,0,P|275:228|373:332,1,300
455,174,28641,6,0,P|275:254|147:248,1,300
188,63,28888,2,0,P|262:265|351:338,1,300
357,86,29135,2,0,P|289:242|169:330,1,300
91,310,29382,1,0,0:0:0:0:
118,174,29505,1,0,0:0:0:0:
316,75,29629,6,0,P|429:226|388:359,1,300
475,263,29876,2,0,P|302:278|173:232,1,300
178,145,30123,2,0,P|249:296|398:337,1,300
243,339,30370,2,0,P|305:179|393:70,1,300
491,194,30616,6,0,P|335:151|160:128,1,300
205,273,30863,2,0,P|358:173|429:80,1,300
405,51,31110,1,0,0:0:0:0:
281,83,31234,1,0,0:0:0:0:
255,105,31295,1,0,0:0:0:0:
241,134,31357,1,0,0:0:0:0:
273,265,31481,1,0,0:0:0:0:
308,308,31604,6,0,P|415:193|345:65,1,300
453,99,31851,2,0,P|293:181|155:142,1,300
233,69,32098,2,0,P|266:283|109:322,1,300
296,281,32345,2,0,P|127:246|65:117,1,300
56,262,32592,6,0,P|193:149|352:93,1,300
140,82,32839,2,0,P|336:216|444:208,1,300
421,153,33086,2,0,P|278:252|118:310,1,300
70,292,33333,1,0,0:0:0:0:
172,141,33456,1,0,0:0:0:0:
349,85,33579,5,0,0:0:0:0:
371,301,33703,1,0,0:0:0:0:
73,223,33826,1,0,0:0:0:0:
97,94,33950,1,0,0:0:0:0:
194,322,34073,1,0,0:0:0:0:
415,199,34197,1,0,0:0:0:0:
188,44,34320,1,0,0:0:0:0:
277,319,34444,1,0,0:0:0:0:
395,102,34567,5,0,0:0:0:0:
141,259,34691,1,0,0:0:0:0:
376,251,34814,1,0,0:0:0:0:
122,64,34937,1,0,0:0:0:0:
226,233,35061,1,0,0:0:0:0:
226,233,35184,1,0,0:0:0:0:
226,233,35308,1,0,0:0:0:0:
226,233,35431,1,0,0:0:0:0:
226,233,35555,6,0,P|397:199|387:63,1,300
460,111,35802,2,0,P|287:174|162:72,1,300
304,109,36049,2,0,P|163:168|61:284,1,300
60,175,36295,2,0,P|151:324|315:320,1,300
329,320,36542,6,0,P|249:129|358:44,1,300
398,148,36789,2,0,P|193:178|66:70,1,300
178,70,37036,2,0,P|216:262|352:316,1,300
429,296,37283,1,0,0:0:0:0:
390,105,37407,1,0,0:0:0:0:
273,65,37530,6,0,P|151:182|162:354,1,300
84,308,37777,2,0,P|233:253|457:256,1,300
363,333,38024,2,0,P|323:171|380:34,1,300
445,120,38271,2,0,P|271:152|59:90,1,300
160,47,38518,6,0,P|182:221|118:320,1,300
69,256,38765,2,0,P|257:311|399:262,1,300
409,260,39012,1,0,0:0:0:0:
433,234,39073,1,0,0:0:0:0:
442,200,39135,1,0,0:0:0:0:
437,165,39197,1,0,0:0:0:0:
418,141,39258,1,0,0:0:0:0:
274,113,39382,1,0,0:0:0:0:
167,212,39505,6,0,P|314:327|451:303,1,300
444,342,39752,2,0,P|347:188|347:56,1,300
392,85,39999,2,0,P|244:143|111:283,1,300
104,199,40246,2,0,P|268:243|205:61,1,300
326,84,40493,6,0,P|329:254|217:344,1,300
302,357,40740,2,0,P|144:251|115:100,1,300
61,176,40987,2,0,P|200:79|347:56,1,300
238,27,41234,2,0,P|330:192|439:264,1,300
464,318,41481,5,0,0:0:0:0:
194,294,41604,1,0,0:0:0:0:
177,265,41666,1,0,0:0:0:0:
169,234,41728,1,0,0:0:0:0:
204,143,41851,5,0,0:0:0:0:
311,101,41975,1,0,0:0:0:0:
340,103,42036,1,0,0:0:0:0:
368,119,42098,1,0,0:0:0:0:
440,185,42221,1,0,0:0:0:0:
406,276,42345,1,0,0:0:0:0:
283,332,42468,6,0,P|127:266|43:146,1,300
290,292,42715,2,0,P|131:128|127:43,1,300
315,261,42962,2,0,P|224:121|275:12,1,300
353,251,43209,2,0,P|322:99|432:0,1,300
264,68,43456,6,0,P|117:125|60:245,1,225.000008583069
69,96,43703,2,0,P|121:208|236:295,1,225.000008583069
109,333,43950,2,0,P|244:199|195:108,1,225.000008583069
171,202,44197,2,0,P|300:277|414:177,1,225.000008583069
393,334,44444,6,0,P|313:237|341:123,1,225.000008583069
409,186,44691,2,0,P|280:176|244:61,1,225.000008583069
131,125,44937,2,0,P|312:150|398:85,1,225.000008583069
456,115,45184,1,0,0:0:0:0:
348,267,45308,1,0,0:0:0:0:
225,315,45431,6,0,P|169:203|76:106,1,225.000008583069
58,189,45678,2,0,P|195:177|209:66,1,225.000008583069
296,175,45925,2,0,P|130:121|47:118,1,225.000008583069
137,52,46172,2,0,P|224:244|308:285,1,225.000008583069
144,265,46419,6,0,P|267:205|438:223,1,225.000008583069
322,121,46666,2,0,P|302:272|351:341,1,225.000008583069
445,335,46913,1,0,0:0:0:0:
444,141,47036,1,0,0:0:0:0:
418,105,47098,1,0,0:0:0:0:
385,73,47160,1,0,0:0:0:0:
275,43,47283,1,0,0:0:0:0:
127,92,47407,6,0,P|227:192|247:295,1,225.000008583069
146,227,47654,2,0,P|267:271|380:253,1,225.000008583069
358,192,47900,2,0,P|244:305|158:325,1,225.000008583069
301,331,48147,2,0,P|221:207|120:163,1,225.000008583069
227,109,48394,6,0,P|188:228|93:290,1,225.000008583069
106,179,48641,2,0,P|222:274|349:232,1,225.000008583069
190,351,48888,2,0,P|311:196|436:192,1,225.000008583069
293,139,49135,2,0,P|361:240|442:191,1,225.000008583069
464,121,49382,6,0,B|327:118|249:26|249:26|194:128|216:239|216:239|104:161|103:52,1,675.000025749207
51,153,49876,2,0,B|123:283|73:337|73:337|234:310|383:340|382:340|298:239|298:239|407:223,1,675.000025749207
443,196,50370,5,0,0:0:0:0:
288,69,50493,1,0,0:0:0:0:
420,282,50616,5,0,0:0:0:0:
193,107,50740,1,0,0:0:0:0:
323,315,50863,5,0,0:0:0:0:
388,77,50987,1,0,0:0:0:0:
197,265,51110,5,0,0:0:0:0:
455,122,51234,1,0,0:0:0:0:
360,260,51357,5,0,0:0:0:0:
310,250,51604,1,0,0:0:0:0:
317,199,51851,1,0,0:0:0:0:
377,208,52098,1,0,0:0:0:0:
423,251,52345,2,0,P|329:345|116:70,1,600
270,65,53086,1,0,0:0:0:0:
415,120,53209,1,0,0:0:0:0:
319,269,53333,5,0,0:0:0:0:
263,241,53579,1,0,0:0:0:0:
243,297,53826,1,0,0:0:0:0:
301,321,54073,1,0,0:0:0:0:
362,312,54320,2,0,P|449:279|226:83,1,600
207,119,55061,1,0,0:0:0:0:
142,210,55184,1,0,0:0:0:0:
238,330,55308,5,0,0:0:0:0:
347,277,55431,1,0,0:0:0:0:
427,210,55555,2,0,P|393:104|328:35,1,179.999994506836
168,57,55802,5,0,0:0:0:0:
98,160,55925,1,0,0:0:0:0:
72,270,56049,2,0,P|165:328|310:334,1,179.999994506836
410,328,56295,5,0,0:0:0:0:
391,198,56419,1,0,0:0:0:0:
321,85,56542,2,0,P|235:46|142:38,1,179.999994506836
115,176,56789,5,0,0:0:0:0:
209,296,56913,1,0,0:0:0:0:
368,321,57036,2,0,P|461:244|468:164,1,179.999994506836
393,92,57283,5,0,0:0:0:0:
268,48,57407,1,0,0:0:0:0:
157,82,57530,1,0,0:0:0:0:
96,185,57654,1,0,0:0:0:0:
118,312,57777,1,0,0:0:0:0:
251,344,57900,1,0,0:0:0:0:
373,299,58024,1,0,0:0:0:0:
427,200,58147,1,0,0:0:0:0:
345,95,58271,5,0,0:0:0:0:
177,63,58394,1,0,0:0:0:0:
390,136,58518,5,0,0:0:0:0:
156,190,58641,1,0,0:0:0:0:
441,163,58765,5,0,0:0:0:0:
194,288,58888,1,0,0:0:0:0:
488,183,59012,5,0,0:0:0:0:
311,340,59135,1,0,0:0:0:0:
469,241,59258,6,0,B|393:136|444:44|444:44|314:74|87:42|87:42|79:155|79:155|186:134|186:134|236:234|236:234|91:238|91:238|183:319|435:332|435:332|370:261|370:261|346:181,1,1575.00006008148
275,61,61234,2,0,B|388:93|451:63|451:63|421:184|445:328|445:328|300:293|57:328|57:328|175:211|343:181|343:181|180:143|51:66|51:66|164:38,1,1575.00006008148
247,60,63209,2,0,B|336:110|444:138|444:138|394:247|432:338|432:338|292:245|292:245|242:323|242:323|164:279|76:286|76:286|122:228|138:129|62:53|62:53|129:72|111:60,1,1125.00004291535
179,109,64691,1,0,0:0:0:0:
284,167,64937,1,0,0:0:0:0:
422,187,65184,2,0,B|392:295|410:349|410:349|268:314|68:333|68:333|106:270|70:159,1,675.000025749207
409,288,66172,5,0,0:0:0:0:
178,285,66419,1,0,0:0:0:0:
117,217,66542,1,0,0:0:0:0:
149,133,66666,1,0,0:0:0:0:
231,98,66789,1,0,0:0:0:0:
318,139,66913,1,0,0:0:0:0:
336,230,67036,1,0,0:0:0:0:
271,296,67160,5,0,0:0:0:0:
444,108,67283,1,0,0:0:0:0:
313,51,67530,1,0,0:0:0:0:
118,63,67777,1,0,0:0:0:0:
59,258,67900,1,0,0:0:0:0:
226,323,68147,5,0,0:0:0:0:
91,139,68271,1,0,0:0:0:0:
340,308,68518,1,0,0:0:0:0:
333,94,68641,1,0,0:0:0:0:
453,218,68888,1,0,0:0:0:0:
411,66,69135,5,0,0:0:0:0:
191,204,69258,1,0,0:0:0:0:
360,265,69505,1,0,0:0:0:0:
182,321,69752,1,0,0:0:0:0:
68,188,69999,1,0,0:0:0:0:
101,50,70246,5,0,0:0:0:0:
300,129,70370,1,0,0:0:0:0:
247,254,70616,1,0,0:0:0:0:
420,210,70740,1,0,0:0:0:0:
404,318,70863,1,0,0:0:0:0:
363,325,70925,1,0,0:0:0:0:
322,318,70987,1,0,0:0:0:0:
287,288,71049,1,0,0:0:0:0:
266,251,71110,5,0,0:0:0:0:
438,90,71234,1,0,0:0:0:0:
211,119,71481,1,0,0:0:0:0:
102,79,71728,1,0,0:0:0:0:
134,290,71851,1,0,0:0:0:0:
364,308,71975,1,0,0:0:0:0:
443,163,72221,5,0,0:0:0:0:
329,72,72345,1,0,0:0:0:0:
140,140,72592,1,0,0:0:0:0:
95,240,72839,1,0,0:0:0:0:
338,246,72962,1,0,0:0:0:0:
256,192,73086,12,0,74073,0:0:0:0:
191,139,74197,5,0,0:0:0:0:
315,79,74320,1,0,0:0:0:0:
389,250,74444,1,0,0:0:0:0:
98,99,74567,1,0,0:0:0:0:
443,88,74691,1,0,0:0:0:0:
173,300,74814,1,0,0:0:0:0:
231,62,74937,1,0,0:0:0:0:
380,99,75061,5,0,0:0:0:0:
256,329,75184,1,0,0:0:0:0:
113,216,75431,1,0,0:0:0:0:
440,212,75555,1,0,0:0:0:0:
323,315,75802,1,0,0:0:0:0:
189,165,75925,1,0,0:0:0:0:
369,63,76172,5,0,0:0:0:0:
382,230,76419,1,0,0:0:0:0:
123,156,76542,1,0,0:0:0:0:
246,65,76789,1,0,0:0:0:0:
223,300,76913,1,0,0:0:0:0:
444,205,77160,5,0,0:0:0:0:
366,114,77283,1,0,0:0:0:0:
249,55,77407,1,0,0:0:0:0:
138,216,77654,1,0,0:0:0:0:
323,308,77900,1,0,0:0:0:0:
188,133,78147,5,0,0:0:0:0:
100,299,78271,1,0,0:0:0:0:
385,281,78518,1,0,0:0:0:0:
323,123,78765,1,0,0:0:0:0:
138,67,79012,5,0,0:0:0:0:
381,217,79135,1,0,0:0:0:0:
218,295,79382,1,0,0:0:0:0:
260,65,79629,1,0,0:0:0:0:
434,113,79752,1,0,0:0:0:0:
154,268,79876,1,0,0:0:0:0:
79,132,80123,5,0,0:0:0:0:
350,88,80493,1,0,0:0:0:0:
440,247,80678,1,0,0:0:0:0:
225,232,80863,1,0,0:0:0:0:
256,192,80987,12,0,81975,0:0:0:0:
289,88,82098,5,0,0:0:0:0:
373,289,82221,1,0,0:0:0:0:
119,216,82345,1,0,0:0:0:0:
384,76,82468,1,0,0:0:0:0:
227,313,82592,1,0,0:0:0:0:
142,70,82715,1,0,0:0:0:0:
447,243,82839,1,0,0:0:0:0:
133,293,82962,5,0,0:0:0:0:
152,280,83209,1,0,0:0:0:0:
166,308,83456,1,0,0:0:0:0:
141,315,83703,1,0,0:0:0:0:
120,309,83950,1,0,0:0:0:0:
121,189,84197,5,0,0:0:0:0:
194,79,84444,1,0,0:0:0:0:
295,98,84567,1,0,0:0:0:0:
375,145,84691,1,0,0:0:0:0:
431,228,84814,1,0,0:0:0:0:
416,319,84937,5,0,0:0:0:0:
384,292,85184,1,0,0:0:0:0:
426,272,85431,1,0,0:0:0:0:
445,312,85678,1,0,0:0:0:0:
388,335,85925,1,0,0:0:0:0:
247,317,86172,5,0,0:0:0:0:
92,191,86419,1,0,0:0:0:0:
167,96,86542,1,0,0:0:0:0:
268,161,86666,1,0,0:0:0:0:
217,259,86789,1,0,0:0:0:0:
126,286,86913,5,0,0:0:0:0:
307,258,87036,1,0,0:0:0:0:
112,240,87160,5,0,0:0:0:0:
306,205,87283,1,0,0:0:0:0:
100,195,87407,5,0,0:0:0:0:
306,161,87530,1,0,0:0:0:0:
87,152,87654,5,0,0:0:0:0:
309,108,87777,1,0,0:0:0:0:
254,59,87900,5,0,0:0:0:0:
196,237,88024,1,0,0:0:0:0:
307,72,88147,5,0,0:0:0:0:
239,253,88271,1,0,0:0:0:0:
364,88,88394,5,0,0:0:0:0:
285,269,88518,1,0,0:0:0:0:
423,107,88641,5,0,0:0:0:0:
336,285,88765,1,0,0:0:0:0:
175,330,88888,5,8,0:0:0:0:
143,312,88950,1,0,0:0:0:0:
124,276,89012,1,0,0:0:0:0:
129,232,89073,1,0,0:0:0:0:
158,199,89135,5,8,0:0:0:0:
188,223,89197,1,0,0:0:0:0:
222,235,89258,1,0,0:0:0:0:
265,225,89320,1,0,0:0:0:0:
295,195,89382,5,8,0:0:0:0:
265,170,89444,1,0,0:0:0:0:
244,138,89505,1,0,0:0:0:0:
245,98,89567,1,0,0:0:0:0:
272,63,89629,5,0,0:0:0:0:
295,90,89691,1,0,0:0:0:0:
326,115,89752,1,0,0:0:0:0:
358,128,89814,1,0,0:0:0:0:
400,133,89876,5,8,0:0:0:0:
378,175,89937,1,0,0:0:0:0:
369,211,89999,1,0,0:0:0:0:
378,254,90061,1,0,0:0:0:0:
412,282,90123,5,8,0:0:0:0:
387,313,90184,1,0,0:0:0:0:
349,326,90246,1,0,0:0:0:0:
307,330,90308,1,0,0:0:0:0:
255,326,90370,5,8,0:0:0:0:
273,281,90431,1,0,0:0:0:0:
268,236,90493,1,0,0:0:0:0:
236,195,90555,1,0,0:0:0:0:
195,163,90616,5,12,0:0:0:0:
450,224,90863,6,0,P|311:292|138:294,1,300
195,355,91110,2,0,P|232:194|141:48,1,300
94,117,91357,2,0,P|267:150|389:75,1,300
309,25,91604,2,0,P|402:176|409:350,1,300
468,270,91851,6,0,P|292:307|111:372,1,300
271,347,92098,2,0,P|162:228|41:120,1,300
77,232,92345,2,0,P|225:159|296:19,1,300
429,54,92592,1,0,0:0:0:0:
364,199,92715,1,0,0:0:0:0:
230,312,92839,6,0,P|114:202|90:56,1,300
128,47,93086,2,0,P|218:170|424:160,1,300
423,181,93333,2,0,P|328:315|143:319,1,300
134,340,93579,2,0,P|211:203|173:48,1,300
133,39,93826,6,0,P|301:103|435:63,1,300
445,111,94073,2,0,P|215:215|91:192,1,300
104,210,94320,1,0,0:0:0:0:
72,189,94382,1,0,0:0:0:0:
69,156,94444,1,0,0:0:0:0:
84,123,94505,1,0,0:0:0:0:
110,99,94567,1,0,0:0:0:0:
267,158,94691,1,0,0:0:0:0:
391,272,94814,6,0,P|211:303|55:224,1,300
49,243,95061,2,0,P|227:214|355:147,1,300
384,139,95308,2,0,P|306:296|160:334,1,300
147,319,95555,2,0,P|218:143|193:29,1,300
142,39,95802,6,0,P|326:78|438:41,1,300
459,51,96049,2,0,P|405:235|271:330,1,300
276,331,96295,2,0,P|163:208|34:138,1,300
44,81,96542,1,0,0:0:0:0:
265,56,96666,1,0,0:0:0:0:
429,161,96789,5,0,0:0:0:0:
119,263,96913,1,0,0:0:0:0:
421,267,97036,5,0,0:0:0:0:
133,150,97160,1,0,0:0:0:0:
329,331,97283,5,0,0:0:0:0:
206,70,97407,1,0,0:0:0:0:
200,339,97530,5,0,0:0:0:0:
339,83,97654,1,0,0:0:0:0:
469,174,97777,6,0,P|295:243|107:215,1,300
76,240,98024,2,0,P|245:174|362:48,1,300
443,89,98271,1,0,0:0:0:0:
431,120,98333,1,0,0:0:0:0:
406,146,98394,1,0,0:0:0:0:
285,165,98518,1,12,0:0:0:0:
397,315,98765,6,0,L|98:157,1,300
128,322,99012,2,0,L|361:71,1,300
124,134,99258,2,0,L|443:257,1,300
297,45,99505,2,0,L|191:346,1,300
410,221,99752,6,0,L|109:92,1,300
273,330,99999,2,0,L|233:28,1,300
115,284,100246,2,0,L|399:120,1,300
479,183,100493,1,0,0:0:0:0:
362,303,100616,1,0,0:0:0:0:
226,326,100740,6,0,L|404:61,1,300
439,304,100987,2,0,L|149:120,1,300
449,92,101234,2,0,L|108:279,1,300
271,46,101481,2,0,L|133:321,1,300
78,101,101728,6,0,L|394:207,1,300
80,286,101975,2,0,L|374:128,1,300
392,117,102221,1,0,0:0:0:0:
454,224,102468,1,0,0:0:0:0:
435,256,102530,1,0,0:0:0:0:
400,281,102592,1,0,0:0:0:0:
364,294,102654,1,0,0:0:0:0:
322,301,102715,6,0,L|117:64,1,300
89,176,102962,2,0,L|458:125,1,300
310,56,103209,2,0,L|146:319,1,300
112,69,103456,2,0,L|433:303,1,300
209,319,103703,6,0,L|384:50,1,300
403,324,103950,2,0,L|179:74,1,300
86,39,104197,1,0,0:0:0:0:
104,201,104320,1,0,0:0:0:0:
259,288,104444,2,0,L|304:221,7,75
326,191,104691,5,0,0:0:0:0:
262,93,104814,1,0,0:0:0:0:
160,139,104937,1,0,0:0:0:0:
176,252,105061,1,0,0:0:0:0:
298,284,105184,1,0,0:0:0:0:
419,250,105308,1,0,0:0:0:0:
457,151,105431,1,0,0:0:0:0:
353,47,105555,1,0,0:0:0:0:
161,59,105678,6,0,P|207:229|358:301,1,300
429,112,105925,2,0,P|297:238|132:263,1,300
52,215,106172,2,0,P|222:199|322:94,1,300
410,306,106419,2,0,P|272:236|251:94,1,300
371,97,106666,6,0,B|56:177|58:176,1,300
331,272,106913,2,0,L|140:23,1,300
116,299,107160,2,0,L|316:56,1,300
55,91,107407,2,0,L|319:287,1,300
224,52,107654,6,0,L|179:358,1,300
438,148,107900,2,0,L|73:199,1,300
375,305,108147,2,0,L|104:55,1,300
179,332,108394,2,0,L|320:41,1,300
101,168,108641,6,0,L|418:235,1,300
300,39,108888,2,0,L|145:341,1,300
415,263,109135,2,0,L|114:65,1,300
278,323,109382,2,0,L|210:28,1,300
118,248,109629,6,0,L|429:101,1,300
260,50,109876,2,0,L|195:356,1,300
400,310,110123,2,0,L|141:96,1,300
193,319,110370,2,0,L|389:54,1,300
424,247,110616,6,0,L|102:67,1,300
284,325,110863,2,0,L|289:19,1,300
60,179,111110,2,0,L|438:84,1,300
122,79,111357,2,0,L|382:338,1,300
111,293,111604,6,0,L|394:55,1,300
280,36,111851,2,0,L|171:361,1,300
413,230,112098,2,0,L|80:126,1,300
307,331,112345,2,0,L|189:43,1,300
400,67,112592,5,0,0:0:0:0:
363,203,112715,1,0,0:0:0:0:
320,233,112777,1,0,0:0:0:0:
273,247,112839,1,0,0:0:0:0:
356,76,112962,5,0,0:0:0:0:
251,185,113086,1,0,0:0:0:0:
208,185,113147,1,0,0:0:0:0:
161,168,113209,1,0,0:0:0:0:
311,73,113333,5,0,0:0:0:0:
98,79,113456,1,0,0:0:0:0:
55,196,113579,6,0,P|191:285|349:261,1,300
69,165,113826,2,0,P|248:193|379:159,1,300
80,130,114073,2,0,P|247:128|364:59,1,300
89,99,114320,2,0,P|256:73|365:0,1,300
427,111,114567,6,0,L|269:156,1,150
439,164,114691,2,0,L|275:186,1,150
440,213,114814,2,0,L|270:218,1,150
442,263,114937,2,0,L|273:261,1,150
410,303,115061,6,0,L|324:139,1,150
360,319,115184,2,0,L|316:142,1,150
309,328,115308,2,0,L|315:142,1,150
262,323,115431,2,0,L|311:150,1,150
311,161,115555,5,0,0:0:0:0:
320,134,115616,1,0,0:0:0:0:
333,107,115678,1,0,0:0:0:0:
354,75,115802,1,0,0:0:0:0:
129,95,115925,1,0,0:0:0:0:
89,234,116049,5,0,0:0:0:0:
118,244,116110,1,0,0:0:0:0:
150,257,116172,1,0,0:0:0:0:
199,275,116295,1,0,0:0:0:0:
250,116,116419,1,0,0:0:0:0:
199,101,116542,6,0,L|387:116,1,150
200,155,116666,2,0,L|368:115,1,150
224,201,116789,2,0,L|363:117,1,150
257,230,116913,2,0,L|367:126,1,150
307,245,117036,6,0,L|155:280,1,150
360,244,117160,2,0,L|195:277,1,150
407,212,117283,2,0,L|252:272,1,150
427,159,117407,2,0,L|264:252,1,150
432,101,117530,5,0,0:0:0:0:
263,154,117654,1,0,0:0:0:0:
355,64,117777,5,0,0:0:0:0:
184,170,117900,1,0,0:0:0:0:
129,112,118024,5,0,0:0:0:0:
54,256,118147,1,0,0:0:0:0:
213,318,118271,1,0,0:0:0:0:
278,170,118394,1,0,0:0:0:0:
216,94,118518,6,0,L|87:213,1,150
254,114,118641,2,0,L|164:259,1,150
290,129,118765,2,0,L|251:278,1,150
328,132,118888,2,0,L|325:283,1,150
378,165,119012,6,0,L|271:42,1,150
362,200,119135,2,0,L|205:136,1,150
362,243,119258,2,0,L|182:243,1,150
367,279,119382,2,0,L|198:316,1,150
149,320,119505,5,0,0:0:0:0:
100,179,119629,1,0,0:0:0:0:
243,319,119752,5,0,0:0:0:0:
240,131,119876,1,0,0:0:0:0:
336,319,119999,5,0,0:0:0:0:
350,125,120123,1,0,0:0:0:0:
432,328,120246,5,0,0:0:0:0:
465,156,120370,1,0,0:0:0:0:
427,80,120493,6,0,L|252:27,1,150
384,103,120616,2,0,L|199:49,1,150
340,122,120740,2,0,L|149:65,1,150
305,143,120863,2,0,L|130:95,1,150
259,165,120987,6,0,L|421:203,1,150
220,190,121110,2,0,L|393:233,1,150
175,214,121234,2,0,L|360:270,1,150
127,239,121357,2,0,L|301:287,1,150
74,259,121481,5,0,0:0:0:0:
189,61,121604,1,0,0:0:0:0:
141,307,121728,5,0,0:0:0:0:
320,72,121851,1,0,0:0:0:0:
216,336,121975,5,0,0:0:0:0:
410,102,122098,1,0,0:0:0:0:
333,347,122221,5,0,0:0:0:0:
473,135,122345,1,0,0:0:0:0:
256,192,122468,12,0,125925,0:0:0:0:
