osu file format v9

[General]
AudioFilename: chipscape.mp3
AudioLeadIn: 1500
PreviewTime: 196582
Countdown: 0
SampleSet: Normal
StackLeniency: 0.7
Mode: 1
LetterboxInBreaks: 1
SkinPreference:taiko

[Editor]
Bookmarks: 35984,44711,88893,96802
DistanceSpacing: 0.8
BeatDivisor: 8
GridSize: 32

[Metadata]
Title:chipscape
Artist:t+pazolite
Creator:Shiirn
Version:Taikosaki
Source:
Tags:onosakihito Gotta Maze

[Difficulty]
HPDrainRate:2
CircleSize:5
OverallDifficulty:6
ApproachRate:5
SliderMultiplier:1.4
SliderTickRate:1

[Events]
//Background and Video events
0,0,"Taiko_BG.jpg"
//Break Periods
//Storyboard Layer 0 (Background)
//Storyboard Layer 1 (Fail)
//Storyboard Layer 2 (Pass)
//Storyboard Layer 3 (Foreground)
//Storyboard Sound Samples
//Background Colour Transformations
3,100,163,162,255

[TimingPoints]
1100,272.727272727273,4,1,0,80,1,0
79646,-100,4,1,0,80,0,1
88374,-100,4,1,0,80,0,0
97101,-100,4,1,0,80,0,1
105828,-100,4,1,0,80,0,0

[HitObjects]
256,96,1100,1,0
256,96,2190,1,0
256,96,2736,5,8
256,96,3179,5,0
256,96,3384,5,8
256,96,4372,5,0
256,96,4918,1,0
256,96,5463,1,0
256,96,6554,1,0
256,96,7645,1,0
256,96,7918,1,0
256,96,8190,1,0
256,96,8463,1,0
256,96,8736,1,0
256,96,8804,1,0
256,96,8872,5,8
256,96,9009,5,0
256,96,9077,1,0
256,96,9145,5,8
256,96,9281,5,0
256,96,9349,1,0
256,96,9418,5,8
256,96,9486,5,0
256,96,9554,1,0
256,96,9622,5,8
256,96,9690,5,0
256,96,9759,5,8
256,96,9827,5,0
256,96,9963,1,0
256,96,10099,5,8
256,96,10236,1,8
256,96,10372,5,0
256,96,10509,1,0
256,96,10645,5,8
256,96,10781,5,0
256,96,11054,1,0
256,96,11190,5,8
256,96,11327,5,0
256,96,11463,1,0
256,96,11531,5,8
256,96,11599,5,0
256,96,11736,5,8
256,96,11872,1,8
256,96,12009,5,0
256,96,12145,1,0
256,96,12281,5,8
256,96,12349,5,0
256,96,12418,5,8
256,96,12554,1,8
256,96,12690,1,8
256,96,12827,5,0
256,96,12963,1,0
256,96,13236,1,0
256,96,13372,5,8
256,96,13509,5,0
256,96,13645,1,0
256,96,13713,5,8
256,96,13781,5,0
256,96,13849,1,0
256,96,13918,5,8
256,96,14054,1,8
256,96,14190,5,0
256,96,14327,1,0
256,96,14463,5,8
256,96,14599,1,8
256,96,14736,5,0
256,96,14804,1,0
256,96,14872,1,0
256,96,15009,5,8
256,96,15145,5,0
256,96,15213,1,0
256,96,15281,5,8
256,96,15418,1,8
256,96,15554,5,0
256,96,15690,1,0
256,96,15827,5,8
256,96,15963,5,0
256,96,16031,1,0
256,96,16099,5,8
256,96,16168,5,0
256,96,16236,5,8
256,96,16372,5,0
256,96,16509,1,0
256,96,16577,1,0
256,96,16645,5,8
256,96,16781,5,0
256,96,16918,5,8
256,96,17054,5,0
256,96,17190,5,8
256,96,17327,5,0
256,96,17463,1,0
256,96,17531,1,0
256,96,17599,5,8
256,96,17736,5,0
256,96,17804,1,0
256,96,17872,5,8
256,96,18009,5,0
256,96,18077,5,8
256,96,18145,5,0
256,96,18213,5,8
256,96,18281,5,0
256,96,18350,1,0
256,96,18418,1,0
256,96,18486,1,0
256,96,18554,1,0
256,96,18690,5,8
256,96,18758,1,8
256,96,18826,5,0
256,96,18894,1,0
256,96,18963,5,8
256,96,19100,1,8
256,96,19168,5,0
256,96,19236,5,8
256,96,19372,5,0
256,96,19440,1,0
256,96,19508,5,8
256,96,19576,5,0
256,96,19644,1,0
256,96,19713,1,0
256,96,19781,5,8
256,96,19917,5,0
256,96,20054,5,8
256,96,20190,5,0
256,96,20258,1,0
256,96,20326,5,8
256,96,20394,5,0
256,96,20463,5,8
256,96,20531,5,0
256,96,20599,5,8
256,96,20735,5,0
256,96,20872,5,8
256,96,20940,1,8
256,96,21008,5,0
256,96,21144,5,8
256,96,21281,1,8
256,96,21349,5,0
256,96,21417,5,8
256,96,21485,1,8
256,96,21554,5,0
256,96,21622,5,8
256,96,21690,1,8
256,96,21758,5,0
256,96,21826,1,0
256,96,21894,1,0
256,96,21963,5,8
256,96,22099,5,0
256,96,22235,5,8
256,96,22372,5,0
256,96,22440,1,0
256,96,22508,5,8
256,96,22576,5,0
256,96,22644,5,8
256,96,22713,1,0
256,96,22781,1,0
256,96,22849,1,8
256,96,22917,5,0
256,96,23054,5,8
256,96,23122,1,8
256,96,23190,5,0
256,96,23326,5,8
256,96,23463,5,0
256,96,23531,5,8
256,96,23599,5,0
256,96,23667,5,8
256,96,23735,5,0
256,96,23872,1,0
256,96,23940,5,8
256,96,24008,5,0
256,96,24076,1,0
256,96,24144,5,8
256,96,24281,5,0
256,96,24417,5,8
256,96,24554,5,0
256,96,24690,5,8
256,96,24758,5,0
256,96,24826,5,8
256,96,24894,5,0
256,96,24963,5,8
256,96,25099,5,0
256,96,25167,1,0
256,96,25235,5,8
256,96,25304,5,0
256,96,25372,1,0
256,96,25508,5,8
256,96,25576,5,0
256,96,25644,5,8
256,96,25781,1,8
256,96,25917,5,0
256,96,26054,5,8
256,96,26122,1,8
256,96,26190,5,0
256,96,26258,1,0
256,96,26326,5,8
256,96,26394,1,8
256,96,26463,5,0
256,96,26531,1,0
256,96,26599,5,8
256,96,26667,5,0
256,96,26735,1,0
256,96,26804,5,8
256,96,26872,5,0
256,96,27008,1,0
256,96,27076,5,8
256,96,27144,1,8
256,96,27213,5,0
256,96,27281,5,8
256,96,27417,1,8
256,96,27485,5,0
256,96,27554,5,8
256,96,27622,1,8
256,96,27690,5,0
256,96,27758,5,8
256,96,27826,5,0
256,96,27963,5,8
256,96,28099,5,0
256,96,28235,1,0
256,96,28304,1,0
256,96,28372,1,0
256,96,28508,1,0
256,96,28644,5,8
256,96,28781,1,8
256,96,28917,5,0
256,96,29054,5,8
256,96,29122,5,0
256,96,29190,5,8
256,96,29258,1,8
256,96,29326,5,0
256,96,29463,1,0
256,96,29599,5,8
256,96,29667,1,8
256,96,29735,5,0
256,96,29872,1,0
256,96,30008,5,8
256,96,30144,5,0
256,96,30281,1,0
256,96,30349,5,8
256,96,30417,5,0
256,96,30485,1,0
256,96,30554,1,0
256,96,30690,1,0
256,96,30826,5,8
256,96,30963,1,8
256,96,31099,5,0
256,96,31235,5,8
256,96,31304,5,0
256,96,31372,5,8
256,96,31440,5,0
256,96,31508,5,8
256,96,31576,1,8
256,96,31644,5,0
256,96,31781,5,8
256,96,31849,1,8
256,96,31917,5,0
256,96,32054,5,8
256,96,32190,1,8
256,96,32258,1,8
256,96,32326,5,0
256,96,32463,1,0
256,96,32599,1,0
256,96,32667,1,0
256,96,32735,1,0
256,96,32804,1,0
256,96,32872,5,8
256,96,32940,5,0
256,96,33008,5,8
256,96,33144,1,8
256,96,33281,5,0
256,96,33417,1,0
256,96,33485,5,8
256,96,33554,5,0
256,96,33622,5,8
256,96,33690,5,0
256,96,33758,5,8
256,96,33826,5,0
256,96,33963,5,8
256,96,34031,1,8
256,96,34099,5,0
256,96,34167,1,0
256,96,34235,5,8
256,96,34304,5,0
256,96,34372,5,8
256,96,34508,5,0
256,96,34644,5,8
256,96,34781,1,8
256,96,34849,5,0
256,96,34917,5,8
256,96,34985,1,8
256,96,35054,5,0
256,96,35190,1,0
256,96,35258,5,8
256,96,35326,1,8
256,96,35463,1,8
256,96,35531,1,8
256,96,35599,1,8
256,96,35667,1,8
256,96,35735,1,8
256,96,35804,1,8
256,96,35872,1,8
256,96,35940,1,8
256,96,36008,5,0
256,96,36554,1,0
256,96,36690,1,0
256,96,36826,5,8
256,96,36963,5,0
256,96,37235,1,0
256,96,37508,5,8
256,96,37781,5,0
256,96,38054,5,8
256,96,38190,5,0
256,96,38736,1,0
256,96,38873,5,8
256,96,39009,5,0
256,96,39145,5,8
256,96,39418,1,8
256,96,39691,5,0
256,96,39963,5,8
256,96,40235,1,8
256,96,40372,5,0
256,96,40918,1,0
256,96,41055,1,0
256,96,41191,1,0
256,96,41327,5,8
256,96,41600,5,0
256,96,41873,5,8
256,96,42145,5,0
256,96,42418,5,8
256,96,42555,5,0
256,96,43100,1,0
256,96,43236,1,0
256,96,43373,1,0
256,96,43509,1,0
256,96,43782,1,0
256,96,44055,5,8
256,96,44191,5,0
256,96,44327,5,8
256,96,44464,1,8
256,96,44600,1,8
256,96,44736,5,0
256,96,44873,1,0
256,96,45009,5,8
256,96,45077,5,0
256,96,45145,5,8
256,96,45282,5,0
256,96,45418,1,0
256,96,45554,5,8
256,96,45691,5,0
256,96,45827,5,8
256,96,45964,1,8
256,96,46100,5,0
256,96,46236,5,8
256,96,46509,1,8
256,96,46782,1,8
256,96,46918,5,0
256,96,47054,1,0
256,96,47191,5,8
256,96,47259,1,8
256,96,47327,5,0
256,96,47464,1,0
256,96,47600,5,8
256,96,47736,5,0
256,96,47873,5,8
256,96,47941,1,8
256,96,48009,1,8
256,96,48145,5,0
256,96,48418,1,0
256,96,48554,5,8
256,96,48623,1,8
256,96,48691,5,0
256,96,48827,5,8
256,96,48895,5,0
256,96,48964,5,8
256,96,49100,5,0
256,96,49236,5,8
256,96,49304,1,8
256,96,49373,5,0
256,96,49509,1,0
256,96,49577,5,8
256,96,49645,5,0
256,96,49782,1,0
256,96,49918,1,0
256,96,50054,5,8
256,96,50191,1,8
256,96,50259,1,8
256,96,50327,5,0
256,96,50600,1,0
256,96,50736,5,8
256,96,50804,1,8
256,96,50873,5,0
256,96,51009,5,8
256,96,51145,1,8
256,96,51282,5,0
256,96,51554,5,8
256,96,51623,1,8
256,96,51691,5,0
256,96,51827,1,0
256,96,51964,1,0
256,96,52100,5,8
256,96,52236,5,0
256,96,52304,1,0
256,96,52373,1,0
256,96,52509,1,0
256,96,52782,5,8
256,96,52918,5,0
256,96,53054,5,8
256,96,53191,1,8
256,96,53259,5,0
256,96,53327,5,8
256,96,53464,5,0
256,96,53600,5,8
256,96,53668,5,0
256,96,53736,5,8
256,96,53873,1,8
256,96,53941,1,8
256,96,54009,1,8
256,96,54077,5,0
256,96,54145,5,8
256,96,54214,5,0
256,96,54282,5,8
256,96,54418,1,8
256,96,54486,5,0
256,96,54554,5,8
256,96,54691,5,0
256,96,54827,5,8
256,96,54964,1,8
256,96,55032,5,0
256,96,55100,1,0
256,96,55168,1,0
256,96,55236,5,8
256,96,55304,5,0
256,96,55373,1,0
256,96,55441,1,0
256,96,55509,5,8
256,96,55577,5,0
256,96,55645,1,0
256,96,55782,5,8
256,96,55850,5,0
256,96,55918,5,8
256,96,55986,1,8
256,96,56054,1,8
256,96,56123,5,0
256,96,56191,1,0
256,96,56327,5,8
256,96,56395,5,0
256,96,56464,5,8
256,96,56532,5,0
256,96,56600,1,0
256,96,56736,5,8
256,96,56804,1,8
256,96,56873,5,0
256,96,56941,5,8
256,96,57009,1,8
256,96,57077,1,8
256,96,57145,5,0
256,96,57282,1,0
256,96,57418,5,8
256,96,57486,5,0
256,96,57554,5,8
256,96,57623,1,8
256,96,57691,1,8
256,96,57827,5,0
256,96,57964,5,8
256,96,58032,1,8
256,96,58100,5,0
256,96,58236,5,8
256,96,58373,5,0
256,96,58509,5,8
256,96,58577,1,8
256,96,58645,5,0
256,96,58782,5,8
256,96,58918,1,8
256,96,58986,5,0
256,96,59054,5,8
256,96,59123,5,0
256,96,59191,5,8
256,96,59259,1,8
256,96,59327,5,0
256,96,59395,5,8
256,96,59464,5,0
256,96,59600,1,0
256,96,59668,5,8
256,96,59736,5,0
256,96,59873,5,8
256,96,60009,5,0
256,96,60145,5,8
256,96,60214,1,8
256,96,60282,5,0
256,96,60418,5,8
256,96,60486,5,0
256,96,60554,1,0
256,96,60623,1,0
256,96,60691,5,8
256,96,60827,1,8
256,96,60895,5,0
256,96,60964,5,8
256,96,61032,5,0
256,96,61100,5,8
256,96,61236,1,8
256,96,61373,5,0
256,96,61441,5,8
256,96,61509,5,0
256,96,61577,1,0
256,96,61645,5,8
256,96,61782,5,0
256,96,61850,1,0
256,96,61918,5,8
256,96,61986,1,8
256,96,62054,5,0
256,96,62191,5,8
256,96,62327,5,0
256,96,62464,5,8
256,96,62600,5,0
256,96,62736,5,8
256,96,62873,5,0
256,96,63009,5,8
256,96,63077,1,8
256,96,63145,5,0
256,96,63282,5,8
256,96,63418,5,0
256,96,63554,5,8
256,96,63691,5,0
256,96,63827,1,0
256,96,63895,1,0
256,96,63964,1,0
256,96,64100,5,8
256,96,64168,1,8
256,96,64236,5,0
256,96,64373,5,8
256,96,64441,1,8
256,96,64509,5,0
256,96,64645,5,8
256,96,64782,5,0
256,96,64918,5,8
256,96,65054,5,0
256,96,65191,5,8
256,96,65327,5,0
256,96,65464,5,8
256,96,65532,1,8
256,96,65600,5,0
256,96,65668,1,0
256,96,65736,5,8
256,96,65804,5,0
256,96,65873,1,0
256,96,66009,5,8
256,96,66145,1,8
256,96,66282,1,8
256,96,66350,1,8
256,96,66418,1,8
256,96,66554,1,8
256,96,66691,5,0
256,96,66827,5,8
256,96,66964,5,0
256,96,67100,5,8
256,96,67168,1,8
256,96,67236,5,0
256,96,67373,5,8
256,96,67509,5,0
256,96,67645,5,8
256,96,67714,1,8
256,96,67782,5,0
256,96,67918,5,8
256,96,68054,5,0
256,96,68191,5,8
256,96,68259,5,0
256,96,68327,1,0
256,96,68395,5,8
256,96,68464,1,8
256,96,68532,5,0
256,96,68600,5,8
256,96,68668,1,8
256,96,68736,1,8
256,96,68873,5,0
256,96,68941,1,0
256,96,69009,5,8
256,96,69145,5,0
256,96,69282,5,8
256,96,69350,1,8
256,96,69418,5,0
256,96,69554,5,8
256,96,69691,5,0
256,96,69964,5,8
256,96,70100,5,0
256,96,70236,5,8
256,96,70373,5,0
256,96,70441,5,8
256,96,70509,5,0
256,96,70577,5,8
256,96,70645,1,8
256,96,70714,5,0
256,96,70782,5,8
256,96,70850,5,0
256,96,70918,1,0
256,96,71054,5,8
256,96,71123,1,8
256,96,71191,5,0
256,96,71259,1,0
256,96,71327,5,8
256,96,71395,5,0
256,96,71464,5,8
256,96,71600,1,8
256,96,71736,1,8
256,96,71804,1,8
256,96,71873,5,0
256,96,71941,1,0
256,96,72009,1,0
256,96,72145,1,0
256,96,72282,5,8
256,96,72418,1,8
256,96,72554,5,0
256,96,72623,1,0
256,96,72691,1,0
256,96,72759,5,8
256,96,72827,1,8
256,96,72895,5,0
256,96,72964,5,8
256,96,73032,1,8
256,96,73100,5,0
256,96,73236,5,8
256,96,73304,1,8
256,96,73373,5,0
256,96,73509,5,8
256,96,73577,5,0
256,96,73645,5,8
256,96,73714,5,0
256,96,73782,1,0
256,96,73850,5,8
256,96,73918,5,0
256,96,73986,5,8
256,96,74055,5,0
256,96,74123,1,0
256,96,74191,1,0
256,96,74259,1,0
256,96,74327,5,8
256,96,74464,1,8
256,96,74600,1,8
256,96,74736,5,0
256,96,74873,1,0
256,96,74941,5,8
256,96,75009,1,8
256,96,75077,5,0
256,96,75145,5,8
256,96,75214,1,8
256,96,75282,5,0
256,96,75350,1,0
256,96,75418,5,8
256,96,75486,5,0
256,96,75555,5,8
256,96,75623,5,0
256,96,75691,5,8
256,96,75759,5,0
256,96,75827,5,8
256,96,75895,1,8
256,96,75964,5,0
256,96,76032,1,0
256,96,76100,5,8
256,96,76236,5,0
256,96,76305,1,0
256,96,76373,1,0
256,96,76441,1,0
256,96,76509,5,8
256,96,76577,5,0
256,96,76645,5,8
256,96,76714,5,0
256,96,76782,5,8
256,96,76850,5,0
256,96,76918,1,0
256,96,76986,1,0
256,96,77055,5,8
256,96,77123,5,0
256,96,77191,5,8
256,96,77259,1,8
256,96,77327,1,8
256,96,77464,5,0
256,96,77532,5,8
256,96,77600,5,0
256,96,77668,5,8
256,96,77736,1,8
256,96,77805,5,0
256,96,77873,5,8
256,96,77941,1,8
256,96,78009,1,8
256,96,78077,1,8
256,96,78145,5,0
256,96,78214,5,8
256,96,78282,5,0
256,96,78350,5,8
256,96,78418,5,0
256,96,78555,1,0
256,96,78623,1,0
256,96,78691,5,8
256,96,78827,5,0
256,96,78895,1,0
256,96,78964,5,8
256,96,79100,5,0
256,96,79168,1,0
256,96,79236,5,8
256,96,79305,1,8
256,96,79373,5,0
256,96,79441,5,8
256,96,79509,5,0
256,96,79577,1,0
256,96,79645,1,0
256,96,79782,5,8
256,96,79850,1,8
256,96,79918,5,0
256,96,80055,1,0
256,96,80191,5,8
256,96,80327,5,0
256,96,80464,5,8
256,96,80600,5,0
256,96,80668,1,0
256,96,80736,1,0
256,96,80805,1,0
256,96,80873,5,8
256,96,80941,5,0
256,96,81009,5,8
256,96,81077,1,8
256,96,81145,5,0
256,96,81214,5,8
256,96,81282,5,0
256,96,81418,1,0
256,96,81486,5,8
256,96,81555,5,0
256,96,81691,1,0
256,96,81827,1,0
256,96,81895,1,0
256,96,81964,5,8
256,96,82032,5,0
256,96,82100,5,8
256,96,82168,1,8
256,96,82236,5,0
256,96,82373,5,8
256,96,82509,5,0
256,96,82645,1,0
256,96,82782,1,0
256,96,82850,1,0
256,96,82918,1,0
256,96,82986,1,0
256,96,83055,5,8
256,96,83191,5,0
256,96,83327,5,8
256,96,83464,5,0
256,96,83600,5,8
256,96,83668,5,0
256,96,83736,1,0
256,96,83805,5,8
256,96,83873,1,8
256,96,83941,1,8
256,96,84009,5,0
256,96,84145,1,0
256,96,84214,1,0
256,96,84282,5,8
256,96,84418,5,0
256,96,84555,5,8
256,96,84623,1,8
256,96,84691,5,0
256,96,84827,1,0
256,96,84964,1,0
256,96,85032,1,0
256,96,85100,1,0
256,96,85168,1,0
256,96,85236,5,8
256,96,85305,5,0
256,96,85373,1,0
256,96,85441,1,0
256,96,85509,5,8
256,96,85577,5,0
256,96,85645,5,8
256,96,85714,1,8
256,96,85782,5,0
256,96,85850,5,8
256,96,85918,5,0
256,96,86055,1,0
256,96,86191,1,0
256,96,86327,5,8
256,96,86395,1,8
256,96,86464,5,0
256,96,86600,5,8
256,96,86736,1,8
256,96,86873,5,0
256,96,87009,1,0
256,96,87145,5,8
256,96,87282,5,0
256,96,87350,1,0
256,96,87418,5,8
256,96,87555,5,0
256,96,87623,1,0
256,96,87691,5,8
256,96,87827,1,8
256,96,87895,1,8
256,96,87964,1,8
256,96,88032,1,8
256,96,88100,1,8
256,96,88168,1,8
256,96,88236,1,8
256,96,88373,1,12
256,96,89327,5,0
256,96,89600,1,0
256,96,89736,5,8
256,96,89873,1,8
256,96,90009,5,0
256,96,90145,1,0
256,96,90214,1,0
256,96,90282,5,8
256,96,90418,5,0
256,96,90555,1,0
256,96,90691,1,0
256,96,90759,1,0
256,96,90827,5,8
256,96,90964,1,8
256,96,91100,1,8
256,96,91168,5,0
256,96,91236,5,8
256,96,91373,5,0
256,96,91509,1,0
256,96,91782,1,0
256,96,91918,1,0
256,96,92055,5,8
256,96,92191,5,0
256,96,92327,5,8
256,96,92395,5,0
256,96,92464,5,8
256,96,92736,5,0
256,96,92873,1,0
256,96,92941,1,0
256,96,93009,5,8
256,96,93145,1,8
256,96,93282,1,8
256,96,93350,1,8
256,96,93418,5,0
256,96,93555,5,8
256,96,93691,5,0
256,96,93964,1,0
256,96,94100,1,0
256,96,94236,5,8
256,96,94373,5,0
256,96,94509,1,0
256,96,94577,1,0
256,96,94645,5,8
256,96,94918,5,0
256,96,95055,5,8
256,96,95123,1,8
256,96,95191,5,0
256,96,95327,5,8
256,96,95464,5,0
256,96,95600,5,8
256,96,95736,5,0
256,96,95873,5,8
256,96,96555,5,4
256,96,97100,1,0
256,96,97168,1,0
256,96,97236,5,8
256,96,97305,5,0
256,96,97373,5,8
256,96,97441,1,8
256,96,97509,5,0
256,96,97577,5,8
256,96,97645,5,0
256,96,97714,1,0
256,96,97782,5,8
256,96,97850,5,0
256,96,97918,5,8
256,96,97986,1,8
256,96,98055,5,0
256,96,98123,1,0
256,96,98191,1,0
256,96,98259,1,0
256,96,98327,5,8
256,96,98395,5,0
256,96,98464,5,8
256,96,98532,5,0
256,96,98600,5,8
256,96,98668,1,8
256,96,98736,5,0
256,96,98873,5,8
256,96,98941,1,8
256,96,99009,5,0
256,96,99077,5,8
256,96,99145,5,0
256,96,99282,1,0
256,96,99350,1,0
256,96,99418,5,8
256,96,99486,5,0
256,96,99555,5,8
256,96,99623,1,8
256,96,99691,5,0
256,96,99759,1,0
256,96,99827,5,8
256,96,99895,5,0
256,96,99964,5,8
256,96,100032,5,0
256,96,100100,1,0
256,96,100168,5,8
256,96,100236,5,0
256,96,100305,1,0
256,96,100373,1,0
256,96,100441,1,0
256,96,100509,5,8
256,96,100577,5,0
256,96,100645,5,8
256,96,100714,5,0
256,96,100782,5,8
256,96,100850,5,0
256,96,100918,1,0
256,96,100986,5,8
256,96,101055,5,0
256,96,101123,5,8
256,96,101191,1,8
256,96,101259,5,0
256,96,101327,5,8
256,96,101395,1,8
256,96,101464,5,0
256,96,101600,5,8
256,96,101668,1,8
256,96,101736,5,0
256,96,101805,1,0
256,96,101873,5,8
256,96,101941,1,8
256,96,102009,1,8
256,96,102077,1,8
256,96,102145,5,0
256,96,102214,5,8
256,96,102282,5,0
256,96,102350,5,8
256,96,102418,5,0
256,96,102486,1,0
256,96,102555,1,0
256,96,102623,1,0
256,96,102691,1,0
256,96,102759,1,0
256,96,102827,5,8
256,96,102964,5,0
256,96,103100,5,8
256,96,103236,5,0
256,96,103305,1,0
256,96,103373,5,8
256,96,103441,5,0
256,96,103509,5,8
256,96,103577,1,8
256,96,103645,5,0
256,96,103714,1,0
256,96,103782,5,8
256,96,103850,5,0
256,96,103918,5,8
256,96,103986,5,0
256,96,104055,5,8
256,96,104123,5,0
256,96,104191,5,8
256,96,104259,5,0
256,96,104327,5,8
256,96,104395,5,0
256,96,104464,5,8
256,96,104532,5,0
256,96,104600,5,8
256,96,104668,1,8
256,96,104736,5,0
256,96,104805,1,0
256,96,104873,5,8
256,96,104941,1,8
256,96,105009,5,0
256,96,105077,1,0
256,96,105145,5,8
256,96,105214,1,8
256,96,105282,1,8
256,96,105350,1,8
256,96,105418,1,8
256,96,105486,1,8
256,96,105555,1,8
256,96,105623,1,8
256,96,105691,1,8
256,96,105759,1,8
256,96,105827,5,0
256,96,106918,1,0
256,96,107464,1,0
256,96,108009,1,0
256,96,108145,1,0
256,96,108282,1,0
256,96,108555,1,0
256,96,108691,1,0
256,96,108827,5,8
256,96,108964,5,0
256,96,109100,1,0
256,96,109236,1,0
256,96,109373,1,0
256,96,109644,1,0
256,96,109781,1,0
256,96,109917,1,0
256,96,110190,1,0
256,96,110463,1,0
256,96,110599,5,8
256,96,110735,5,0
256,96,111008,5,8
256,96,111145,5,0
256,96,111282,1,0
256,96,111418,1,0
256,96,111555,5,8
256,96,111691,5,0
256,96,111759,1,0
256,96,111827,1,0
256,96,111964,1,0
256,96,112100,5,8
256,96,112236,5,0
256,96,112373,5,8
256,96,112441,5,0
256,96,112509,1,0
256,96,112645,5,8
256,96,112782,5,0
256,96,112850,1,0
256,96,112918,5,8
256,96,113055,5,0
256,96,113190,5,8
256,96,113326,5,0
256,96,113463,5,8
256,96,113531,5,0
256,96,113599,5,8
256,96,113667,5,0
256,96,113735,5,8
256,96,113872,1,8
256,96,114008,5,0
256,96,114076,5,8
256,96,114144,1,8
256,96,114213,1,8
256,96,114281,1,8
256,96,114349,1,8
256,96,114417,1,8
256,96,114554,5,4
