osu file format v14

[General]
AudioFilename: Streaming Heart.mp3
AudioLeadIn: 0
PreviewTime: 57340
Countdown: 1
SampleSet: None
StackLeniency: 0.7
Mode: 3
LetterboxInBreaks: 1
SpecialStyle: 0
WidescreenStoryboard: 1

[Editor]
DistanceSpacing: 1.3
BeatDivisor: 4
GridSize: 4
TimelineZoom: 1.8

[Metadata]
Title:Xcaliboor pack
TitleUnicode:Xcaliboor pack
Artist:t+pazolite
ArtistUnicode:t+pazolite
Creator:Xcaliboor
Version:Streaming Heart
Source:
Tags:
BeatmapID:817752
BeatmapSetID:373282

[Difficulty]
HPDrainRate:7
CircleSize:4
OverallDifficulty:7
ApproachRate:5
SliderMultiplier:1.4
SliderTickRate:1

[Events]
//Background and Video events
0,0,"524092.jpg",0,0
//Break Periods
//Storyboard Layer 0 (Background)
//Storyboard Layer 1 (Fail)
//Storyboard Layer 2 (Pass)
//Storyboard Layer 3 (Foreground)
//Storyboard Sound Samples

[TimingPoints]
-159.52517870626,285.714285714286,4,1,0,100,1,0

[HitObjects]
64,192,1340,5,0,0:0:0:0:
192,192,1340,1,0,0:0:0:0:
192,192,1626,1,0,0:0:0:0:
448,192,1626,1,0,0:0:0:0:
320,192,1911,1,0,0:0:0:0:
192,192,1911,1,0,0:0:0:0:
64,192,2197,1,0,0:0:0:0:
192,192,2197,1,0,0:0:0:0:
320,192,2483,1,0,0:0:0:0:
448,192,2483,1,0,0:0:0:0:
64,192,2769,1,0,0:0:0:0:
448,192,2769,1,0,0:0:0:0:
192,192,3054,1,0,0:0:0:0:
320,192,3054,1,0,0:0:0:0:
320,192,3340,1,0,0:0:0:0:
64,192,3340,1,0,0:0:0:0:
448,192,3626,1,0,0:0:0:0:
192,192,3626,1,0,0:0:0:0:
192,192,3911,1,0,0:0:0:0:
320,192,3911,1,0,0:0:0:0:
320,192,4197,1,0,0:0:0:0:
448,192,4197,1,0,0:0:0:0:
64,192,4483,1,0,0:0:0:0:
192,192,4483,1,0,0:0:0:0:
320,192,4769,1,0,0:0:0:0:
64,192,4769,1,0,0:0:0:0:
192,192,5054,1,0,0:0:0:0:
448,192,5054,1,0,0:0:0:0:
320,192,5340,1,0,0:0:0:0:
64,192,5340,1,0,0:0:0:0:
64,192,5626,1,0,0:0:0:0:
448,192,5626,1,0,0:0:0:0:
320,192,5911,1,0,0:0:0:0:
448,192,5911,1,0,0:0:0:0:
192,192,6197,1,0,0:0:0:0:
64,192,6197,1,0,0:0:0:0:
320,192,6483,1,0,0:0:0:0:
192,192,6483,1,0,0:0:0:0:
64,192,6769,1,0,0:0:0:0:
448,192,6769,1,0,0:0:0:0:
448,192,7054,1,0,0:0:0:0:
320,192,7054,1,0,0:0:0:0:
192,192,7340,1,0,0:0:0:0:
320,192,7340,1,0,0:0:0:0:
320,192,7626,1,0,0:0:0:0:
64,192,7626,1,0,0:0:0:0:
192,192,7911,1,0,0:0:0:0:
448,192,7911,1,0,0:0:0:0:
64,192,8197,5,0,0:0:0:0:
448,192,8197,1,0,0:0:0:0:
64,192,9340,5,0,0:0:0:0:
448,192,9340,1,0,0:0:0:0:
192,192,9411,1,0,0:0:0:0:
320,192,9411,1,0,0:0:0:0:
64,192,9483,1,0,0:0:0:0:
448,192,9483,1,0,0:0:0:0:
320,192,9554,1,0,0:0:0:0:
192,192,9554,1,0,0:0:0:0:
192,192,9911,1,0,0:0:0:0:
448,192,9911,1,0,0:0:0:0:
320,192,9983,1,0,0:0:0:0:
64,192,9983,1,0,0:0:0:0:
192,192,10054,1,0,0:0:0:0:
448,192,10054,1,0,0:0:0:0:
320,192,10126,1,0,0:0:0:0:
64,192,10126,1,0,0:0:0:0:
64,192,10269,1,0,0:0:0:0:
192,192,10269,1,0,0:0:0:0:
448,192,10269,1,0,0:0:0:0:
320,192,10411,1,0,0:0:0:0:
192,192,10411,1,0,0:0:0:0:
64,192,10411,1,0,0:0:0:0:
448,192,10483,1,0,0:0:0:0:
320,192,10554,1,0,0:0:0:0:
192,192,10554,1,0,0:0:0:0:
64,192,10626,1,0,0:0:0:0:
448,192,10626,1,0,0:0:0:0:
192,192,10697,1,0,0:0:0:0:
320,192,10697,1,0,0:0:0:0:
64,192,10769,1,0,0:0:0:0:
448,192,10769,1,0,0:0:0:0:
192,192,10840,1,0,0:0:0:0:
320,192,10840,1,0,0:0:0:0:
448,192,10911,1,0,0:0:0:0:
64,192,10911,1,0,0:0:0:0:
320,192,10983,1,0,0:0:0:0:
192,192,11054,1,0,0:0:0:0:
448,192,11126,1,0,0:0:0:0:
64,192,11197,1,0,0:0:0:0:
320,192,11197,1,0,0:0:0:0:
192,192,11269,1,0,0:0:0:0:
320,192,11340,1,0,0:0:0:0:
448,192,11411,1,0,0:0:0:0:
192,192,11411,1,0,0:0:0:0:
64,192,11483,1,0,0:0:0:0:
320,192,11554,1,0,0:0:0:0:
192,192,11626,1,0,0:0:0:0:
64,192,11626,1,0,0:0:0:0:
448,192,11697,1,0,0:0:0:0:
192,192,11769,1,0,0:0:0:0:
64,192,11769,1,0,0:0:0:0:
320,192,11840,1,0,0:0:0:0:
64,192,11911,1,0,0:0:0:0:
448,192,11911,1,0,0:0:0:0:
192,192,11983,1,0,0:0:0:0:
64,192,12054,1,0,0:0:0:0:
448,192,12054,1,0,0:0:0:0:
320,192,12126,1,0,0:0:0:0:
192,192,12197,1,0,0:0:0:0:
448,192,12197,1,0,0:0:0:0:
64,192,12269,1,0,0:0:0:0:
320,192,12340,1,0,0:0:0:0:
448,192,12340,1,0,0:0:0:0:
64,192,12411,1,0,0:0:0:0:
320,192,12483,1,0,0:0:0:0:
192,192,12483,1,0,0:0:0:0:
448,192,12554,1,0,0:0:0:0:
64,192,12626,1,0,0:0:0:0:
320,192,12626,1,0,0:0:0:0:
192,192,12697,1,0,0:0:0:0:
448,192,12769,1,0,0:0:0:0:
64,192,12840,1,0,0:0:0:0:
320,192,12840,1,0,0:0:0:0:
192,192,12911,1,0,0:0:0:0:
448,192,12911,1,0,0:0:0:0:
320,192,12983,1,0,0:0:0:0:
64,192,12983,1,0,0:0:0:0:
192,192,13054,1,0,0:0:0:0:
448,192,13054,1,0,0:0:0:0:
320,192,13126,1,0,0:0:0:0:
64,192,13126,1,0,0:0:0:0:
192,192,13197,1,0,0:0:0:0:
448,192,13197,1,0,0:0:0:0:
320,192,13269,1,0,0:0:0:0:
64,192,13269,1,0,0:0:0:0:
192,192,13340,1,0,0:0:0:0:
448,192,13411,1,0,0:0:0:0:
320,192,13483,1,0,0:0:0:0:
64,192,13483,1,0,0:0:0:0:
448,192,13554,1,0,0:0:0:0:
192,192,13626,1,0,0:0:0:0:
64,192,13697,1,0,0:0:0:0:
320,192,13697,1,0,0:0:0:0:
192,192,13769,1,0,0:0:0:0:
448,192,13769,1,0,0:0:0:0:
64,192,13840,1,0,0:0:0:0:
192,192,13911,1,0,0:0:0:0:
320,192,13911,1,0,0:0:0:0:
448,192,13983,1,0,0:0:0:0:
192,192,14054,1,0,0:0:0:0:
320,192,14054,1,0,0:0:0:0:
448,192,14126,1,0,0:0:0:0:
64,192,14126,1,0,0:0:0:0:
320,192,14197,1,0,0:0:0:0:
192,192,14269,1,0,0:0:0:0:
64,192,14269,1,0,0:0:0:0:
320,192,14340,1,0,0:0:0:0:
448,192,14411,1,0,0:0:0:0:
192,192,14411,1,0,0:0:0:0:
64,192,14483,1,0,0:0:0:0:
320,192,14554,1,0,0:0:0:0:
448,192,14626,1,0,0:0:0:0:
64,192,14697,1,0,0:0:0:0:
320,192,14697,1,0,0:0:0:0:
192,192,14769,1,0,0:0:0:0:
448,192,14840,1,0,0:0:0:0:
64,192,14840,1,0,0:0:0:0:
320,192,14911,1,0,0:0:0:0:
448,192,14983,1,0,0:0:0:0:
64,192,15054,1,0,0:0:0:0:
192,192,15126,1,0,0:0:0:0:
64,192,15197,1,0,0:0:0:0:
320,192,15197,1,0,0:0:0:0:
192,192,15269,1,0,0:0:0:0:
64,192,15340,1,0,0:0:0:0:
448,192,15340,1,0,0:0:0:0:
192,192,15411,1,0,0:0:0:0:
64,192,15483,1,0,0:0:0:0:
320,192,15483,1,0,0:0:0:0:
448,192,15554,1,0,0:0:0:0:
320,192,15626,1,0,0:0:0:0:
192,192,15697,1,0,0:0:0:0:
64,192,15697,1,0,0:0:0:0:
448,192,15769,1,0,0:0:0:0:
64,192,15840,1,0,0:0:0:0:
192,192,15911,1,0,0:0:0:0:
448,192,15983,1,0,0:0:0:0:
192,192,16054,1,0,0:0:0:0:
320,192,16126,1,0,0:0:0:0:
448,192,16197,1,0,0:0:0:0:
64,192,16269,1,0,0:0:0:0:
320,192,16269,1,0,0:0:0:0:
448,192,16340,1,0,0:0:0:0:
192,192,16411,1,0,0:0:0:0:
320,192,16483,1,0,0:0:0:0:
64,192,16483,1,0,0:0:0:0:
192,192,16554,1,0,0:0:0:0:
64,192,16626,1,0,0:0:0:0:
192,192,16697,1,0,0:0:0:0:
448,192,16697,1,0,0:0:0:0:
64,192,16769,1,0,0:0:0:0:
320,192,16840,1,0,0:0:0:0:
448,192,16911,1,0,0:0:0:0:
192,192,16983,1,0,0:0:0:0:
64,192,17054,1,0,0:0:0:0:
448,192,17054,1,0,0:0:0:0:
320,192,17126,1,0,0:0:0:0:
192,192,17197,1,0,0:0:0:0:
64,192,17269,1,0,0:0:0:0:
192,192,17340,1,0,0:0:0:0:
448,192,17340,1,0,0:0:0:0:
320,192,17411,1,0,0:0:0:0:
64,192,17411,1,0,0:0:0:0:
192,192,17483,1,0,0:0:0:0:
448,192,17483,1,0,0:0:0:0:
64,192,17554,1,0,0:0:0:0:
320,192,17554,1,0,0:0:0:0:
192,192,17626,1,0,0:0:0:0:
448,192,17626,1,0,0:0:0:0:
320,192,17697,1,0,0:0:0:0:
64,192,17697,1,0,0:0:0:0:
192,192,17769,1,0,0:0:0:0:
448,192,17769,1,0,0:0:0:0:
64,192,17840,1,0,0:0:0:0:
192,192,17911,1,0,0:0:0:0:
448,192,17911,1,0,0:0:0:0:
320,192,17983,1,0,0:0:0:0:
64,192,18054,1,0,0:0:0:0:
192,192,18054,1,0,0:0:0:0:
448,192,18126,1,0,0:0:0:0:
320,192,18197,1,0,0:0:0:0:
64,192,18269,1,0,0:0:0:0:
192,192,18340,1,0,0:0:0:0:
320,192,18411,1,0,0:0:0:0:
448,192,18483,1,0,0:0:0:0:
64,192,18483,1,0,0:0:0:0:
320,192,18554,1,0,0:0:0:0:
64,192,18626,1,0,0:0:0:0:
448,192,18626,1,0,0:0:0:0:
192,192,18697,1,0,0:0:0:0:
320,192,18697,1,0,0:0:0:0:
64,192,18769,1,0,0:0:0:0:
448,192,18840,1,0,0:0:0:0:
192,192,18911,1,0,0:0:0:0:
448,192,18983,1,0,0:0:0:0:
320,192,18983,1,0,0:0:0:0:
64,192,19054,1,0,0:0:0:0:
192,192,19126,1,0,0:0:0:0:
448,192,19126,1,0,0:0:0:0:
320,192,19197,1,0,0:0:0:0:
64,192,19269,1,0,0:0:0:0:
192,192,19340,1,0,0:0:0:0:
448,192,19340,1,0,0:0:0:0:
320,192,19411,1,0,0:0:0:0:
192,192,19483,1,0,0:0:0:0:
64,192,19554,1,0,0:0:0:0:
448,192,19554,1,0,0:0:0:0:
320,192,19626,1,0,0:0:0:0:
448,192,19697,1,0,0:0:0:0:
64,192,19697,1,0,0:0:0:0:
192,192,19769,1,0,0:0:0:0:
320,192,19769,1,0,0:0:0:0:
64,192,19840,1,0,0:0:0:0:
448,192,19840,1,0,0:0:0:0:
192,192,19911,1,0,0:0:0:0:
320,192,19911,1,0,0:0:0:0:
64,192,19983,1,0,0:0:0:0:
448,192,19983,1,0,0:0:0:0:
320,192,20054,1,0,0:0:0:0:
192,192,20054,1,0,0:0:0:0:
64,192,20126,1,0,0:0:0:0:
448,192,20126,1,0,0:0:0:0:
320,192,20197,1,0,0:0:0:0:
192,192,20197,1,0,0:0:0:0:
64,192,20269,1,0,0:0:0:0:
192,192,20340,1,0,0:0:0:0:
448,192,20340,1,0,0:0:0:0:
64,192,20411,1,0,0:0:0:0:
320,192,20411,1,0,0:0:0:0:
192,192,20483,1,0,0:0:0:0:
448,192,20483,1,0,0:0:0:0:
64,192,20554,1,0,0:0:0:0:
320,192,20554,1,0,0:0:0:0:
64,192,20697,1,0,0:0:0:0:
448,192,20697,1,0,0:0:0:0:
192,192,20697,1,0,0:0:0:0:
320,192,20769,1,0,0:0:0:0:
64,192,20840,1,0,0:0:0:0:
192,192,20840,1,0,0:0:0:0:
448,192,20911,1,0,0:0:0:0:
192,192,20983,1,0,0:0:0:0:
320,192,20983,1,0,0:0:0:0:
64,192,21054,1,0,0:0:0:0:
448,192,21054,1,0,0:0:0:0:
192,192,21126,1,0,0:0:0:0:
320,192,21126,1,0,0:0:0:0:
64,192,21197,1,0,0:0:0:0:
448,192,21197,1,0,0:0:0:0:
192,192,21269,1,0,0:0:0:0:
320,192,21269,1,0,0:0:0:0:
64,192,21340,1,0,0:0:0:0:
448,192,21340,1,0,0:0:0:0:
320,192,21411,1,0,0:0:0:0:
192,192,21483,1,0,0:0:0:0:
448,192,21554,1,0,0:0:0:0:
64,192,21626,1,0,0:0:0:0:
320,192,21626,1,0,0:0:0:0:
192,192,21697,1,0,0:0:0:0:
320,192,21769,1,0,0:0:0:0:
448,192,21840,1,0,0:0:0:0:
192,192,21840,1,0,0:0:0:0:
64,192,21911,1,0,0:0:0:0:
320,192,21983,1,0,0:0:0:0:
64,192,22054,1,0,0:0:0:0:
192,192,22054,1,0,0:0:0:0:
448,192,22126,1,0,0:0:0:0:
64,192,22197,1,0,0:0:0:0:
192,192,22197,1,0,0:0:0:0:
320,192,22269,1,0,0:0:0:0:
64,192,22340,1,0,0:0:0:0:
448,192,22340,1,0,0:0:0:0:
192,192,22411,1,0,0:0:0:0:
448,192,22483,1,0,0:0:0:0:
64,192,22483,1,0,0:0:0:0:
320,192,22554,1,0,0:0:0:0:
192,192,22626,1,0,0:0:0:0:
448,192,22626,1,0,0:0:0:0:
64,192,22697,1,0,0:0:0:0:
320,192,22769,1,0,0:0:0:0:
448,192,22769,1,0,0:0:0:0:
64,192,22840,1,0,0:0:0:0:
320,192,22911,1,0,0:0:0:0:
192,192,22911,1,0,0:0:0:0:
448,192,22983,1,0,0:0:0:0:
64,192,23054,1,0,0:0:0:0:
320,192,23054,1,0,0:0:0:0:
192,192,23126,1,0,0:0:0:0:
448,192,23197,1,0,0:0:0:0:
64,192,23269,1,0,0:0:0:0:
320,192,23269,1,0,0:0:0:0:
192,192,23340,1,0,0:0:0:0:
448,192,23340,1,0,0:0:0:0:
64,192,23411,1,0,0:0:0:0:
320,192,23411,1,0,0:0:0:0:
192,192,23483,1,0,0:0:0:0:
448,192,23483,1,0,0:0:0:0:
320,192,23554,1,0,0:0:0:0:
64,192,23554,1,0,0:0:0:0:
448,192,23626,1,0,0:0:0:0:
192,192,23626,1,0,0:0:0:0:
320,192,23697,1,0,0:0:0:0:
64,192,23697,1,0,0:0:0:0:
192,192,23769,1,0,0:0:0:0:
448,192,23840,1,0,0:0:0:0:
64,192,23911,1,0,0:0:0:0:
320,192,23911,1,0,0:0:0:0:
448,192,23983,1,0,0:0:0:0:
192,192,24054,1,0,0:0:0:0:
320,192,24126,1,0,0:0:0:0:
64,192,24126,1,0,0:0:0:0:
192,192,24197,1,0,0:0:0:0:
448,192,24197,1,0,0:0:0:0:
64,192,24269,1,0,0:0:0:0:
192,192,24340,1,0,0:0:0:0:
320,192,24340,1,0,0:0:0:0:
448,192,24411,1,0,0:0:0:0:
320,192,24483,1,0,0:0:0:0:
192,192,24483,1,0,0:0:0:0:
448,192,24554,1,0,0:0:0:0:
64,192,24554,1,0,0:0:0:0:
320,192,24626,1,0,0:0:0:0:
192,192,24697,1,0,0:0:0:0:
64,192,24697,1,0,0:0:0:0:
320,192,24769,1,0,0:0:0:0:
448,192,24840,1,0,0:0:0:0:
192,192,24840,1,0,0:0:0:0:
64,192,24911,1,0,0:0:0:0:
320,192,24983,1,0,0:0:0:0:
448,192,25054,1,0,0:0:0:0:
64,192,25126,1,0,0:0:0:0:
320,192,25126,1,0,0:0:0:0:
192,192,25197,1,0,0:0:0:0:
448,192,25269,1,0,0:0:0:0:
64,192,25269,1,0,0:0:0:0:
320,192,25340,1,0,0:0:0:0:
448,192,25411,1,0,0:0:0:0:
64,192,25483,1,0,0:0:0:0:
192,192,25554,1,0,0:0:0:0:
64,192,25626,1,0,0:0:0:0:
320,192,25626,1,0,0:0:0:0:
192,192,25697,1,0,0:0:0:0:
64,192,25769,1,0,0:0:0:0:
448,192,25769,1,0,0:0:0:0:
192,192,25840,1,0,0:0:0:0:
320,192,25911,1,0,0:0:0:0:
64,192,25911,1,0,0:0:0:0:
448,192,25983,1,0,0:0:0:0:
320,192,26054,1,0,0:0:0:0:
64,192,26126,1,0,0:0:0:0:
192,192,26126,1,0,0:0:0:0:
448,192,26197,1,0,0:0:0:0:
64,192,26269,1,0,0:0:0:0:
192,192,26340,1,0,0:0:0:0:
448,192,26411,1,0,0:0:0:0:
192,192,26483,1,0,0:0:0:0:
320,192,26554,1,0,0:0:0:0:
64,192,26554,1,0,0:0:0:0:
448,192,26626,1,0,0:0:0:0:
192,192,26626,1,0,0:0:0:0:
64,192,26697,1,0,0:0:0:0:
320,192,26697,1,0,0:0:0:0:
448,192,26769,1,0,0:0:0:0:
192,192,26840,1,0,0:0:0:0:
64,192,26911,1,0,0:0:0:0:
320,192,26911,1,0,0:0:0:0:
192,192,26983,1,0,0:0:0:0:
448,192,26983,1,0,0:0:0:0:
64,192,27054,1,0,0:0:0:0:
320,192,27054,1,0,0:0:0:0:
448,192,27126,1,0,0:0:0:0:
192,192,27126,1,0,0:0:0:0:
64,192,27197,1,0,0:0:0:0:
320,192,27269,1,0,0:0:0:0:
448,192,27340,5,0,0:0:0:0:
192,192,27411,1,0,0:0:0:0:
64,192,27483,1,0,0:0:0:0:
448,192,27483,1,0,0:0:0:0:
320,192,27554,1,0,0:0:0:0:
192,192,27626,1,0,0:0:0:0:
64,192,27697,1,0,0:0:0:0:
192,192,27769,1,0,0:0:0:0:
320,192,27769,1,0,0:0:0:0:
448,192,27840,1,0,0:0:0:0:
64,192,27911,1,0,0:0:0:0:
192,192,27911,1,0,0:0:0:0:
320,192,27983,1,0,0:0:0:0:
448,192,28054,1,0,0:0:0:0:
192,192,28054,1,0,0:0:0:0:
320,192,28126,1,0,0:0:0:0:
64,192,28126,1,0,0:0:0:0:
192,192,28197,1,0,0:0:0:0:
448,192,28197,1,0,0:0:0:0:
320,192,28269,1,0,0:0:0:0:
64,192,28269,1,0,0:0:0:0:
192,192,28340,1,0,0:0:0:0:
448,192,28340,1,0,0:0:0:0:
64,192,28483,5,0,0:0:0:0:
192,192,28483,1,0,0:0:0:0:
320,192,28483,1,0,0:0:0:0:
448,192,28483,1,0,0:0:0:0:
192,192,28840,128,0,29054:0:0:0:0:
320,192,28840,1,0,0:0:0:0:
448,192,28840,1,0,0:0:0:0:
64,192,28840,1,0,0:0:0:0:
320,192,29054,128,0,29340:0:0:0:0:
64,192,29054,1,0,0:0:0:0:
448,192,29054,1,0,0:0:0:0:
448,192,29340,1,0,0:0:0:0:
64,192,29340,1,0,0:0:0:0:
192,192,29340,128,0,29483:0:0:0:0:
64,192,29483,128,0,29626:0:0:0:0:
320,192,29483,1,0,0:0:0:0:
448,192,29483,1,0,0:0:0:0:
192,192,29626,1,0,0:0:0:0:
448,192,29626,1,0,0:0:0:0:
320,192,29626,1,0,0:0:0:0:
64,192,29911,1,0,0:0:0:0:
192,192,29911,1,0,0:0:0:0:
320,192,29911,1,0,0:0:0:0:
448,192,29911,1,0,0:0:0:0:
448,192,30054,1,0,0:0:0:0:
192,192,30054,1,0,0:0:0:0:
64,192,30197,1,0,0:0:0:0:
320,192,30340,1,0,0:0:0:0:
192,192,30340,1,0,0:0:0:0:
448,192,30483,1,0,0:0:0:0:
192,192,30626,1,0,0:0:0:0:
64,192,30769,1,0,0:0:0:0:
192,192,30911,1,0,0:0:0:0:
448,192,30911,1,0,0:0:0:0:
64,192,31054,1,0,0:0:0:0:
320,192,31197,1,0,0:0:0:0:
192,192,31197,1,0,0:0:0:0:
448,192,31340,1,0,0:0:0:0:
64,192,31340,1,0,0:0:0:0:
192,192,31554,1,0,0:0:0:0:
448,192,31697,1,0,0:0:0:0:
64,192,31697,1,0,0:0:0:0:
320,192,31840,1,0,0:0:0:0:
192,192,31840,1,0,0:0:0:0:
64,192,31840,1,0,0:0:0:0:
448,192,31983,1,0,0:0:0:0:
192,192,31983,1,0,0:0:0:0:
64,192,32126,1,0,0:0:0:0:
192,192,32126,1,0,0:0:0:0:
448,192,32269,1,0,0:0:0:0:
64,192,32269,1,0,0:0:0:0:
192,192,32411,1,0,0:0:0:0:
320,192,32411,1,0,0:0:0:0:
448,192,32554,1,0,0:0:0:0:
320,192,32554,1,0,0:0:0:0:
64,192,32554,1,0,0:0:0:0:
192,192,32697,1,0,0:0:0:0:
448,192,32697,1,0,0:0:0:0:
64,192,32840,1,0,0:0:0:0:
192,192,32983,1,0,0:0:0:0:
320,192,32983,1,0,0:0:0:0:
64,192,33126,1,0,0:0:0:0:
448,192,33126,1,0,0:0:0:0:
320,192,33269,1,0,0:0:0:0:
64,192,33411,1,0,0:0:0:0:
320,192,33554,1,0,0:0:0:0:
192,192,33697,1,0,0:0:0:0:
448,192,33697,1,0,0:0:0:0:
64,192,33840,1,0,0:0:0:0:
192,192,33983,1,0,0:0:0:0:
320,192,33983,1,0,0:0:0:0:
64,192,34126,1,0,0:0:0:0:
448,192,34269,1,0,0:0:0:0:
192,192,34269,1,0,0:0:0:0:
320,192,34411,1,0,0:0:0:0:
192,192,34554,1,0,0:0:0:0:
448,192,34697,1,0,0:0:0:0:
64,192,34697,1,0,0:0:0:0:
192,192,34840,1,0,0:0:0:0:
320,192,34840,1,0,0:0:0:0:
448,192,34983,1,0,0:0:0:0:
320,192,34983,1,0,0:0:0:0:
64,192,34983,1,0,0:0:0:0:
192,192,35126,1,0,0:0:0:0:
64,192,35269,1,0,0:0:0:0:
320,192,35269,1,0,0:0:0:0:
448,192,35411,1,0,0:0:0:0:
320,192,35554,1,0,0:0:0:0:
192,192,35554,1,0,0:0:0:0:
64,192,35554,1,0,0:0:0:0:
448,192,35697,1,0,0:0:0:0:
192,192,35697,1,0,0:0:0:0:
64,192,35840,1,0,0:0:0:0:
320,192,35840,1,0,0:0:0:0:
448,192,35983,1,0,0:0:0:0:
320,192,35983,1,0,0:0:0:0:
192,192,35983,1,0,0:0:0:0:
64,192,36126,1,0,0:0:0:0:
448,192,36126,1,0,0:0:0:0:
192,192,36269,1,0,0:0:0:0:
448,192,36411,1,0,0:0:0:0:
64,192,36554,1,0,0:0:0:0:
192,192,36554,1,0,0:0:0:0:
448,192,36697,1,0,0:0:0:0:
192,192,36840,1,0,0:0:0:0:
320,192,36840,1,0,0:0:0:0:
64,192,36983,5,0,0:0:0:0:
448,192,37126,1,0,0:0:0:0:
192,192,37126,1,0,0:0:0:0:
320,192,37269,1,0,0:0:0:0:
448,192,37411,1,0,0:0:0:0:
192,192,37411,1,0,0:0:0:0:
64,192,37554,1,0,0:0:0:0:
192,192,37554,1,0,0:0:0:0:
320,192,37554,1,0,0:0:0:0:
448,192,37697,1,0,0:0:0:0:
64,192,37697,1,0,0:0:0:0:
192,192,37840,1,0,0:0:0:0:
320,192,37840,1,0,0:0:0:0:
64,192,37983,1,0,0:0:0:0:
320,192,38054,5,0,0:0:0:0:
448,192,38054,1,0,0:0:0:0:
192,192,38126,1,0,0:0:0:0:
64,192,38126,1,0,0:0:0:0:
320,192,38197,1,0,0:0:0:0:
448,192,38197,1,0,0:0:0:0:
64,192,38340,1,0,0:0:0:0:
320,192,38340,1,0,0:0:0:0:
448,192,38340,1,0,0:0:0:0:
192,192,38483,1,0,0:0:0:0:
64,192,38483,1,0,0:0:0:0:
320,192,38483,1,0,0:0:0:0:
448,192,38626,1,0,0:0:0:0:
192,192,38626,1,0,0:0:0:0:
64,192,38626,1,0,0:0:0:0:
192,192,38769,1,0,0:0:0:0:
64,192,38769,1,0,0:0:0:0:
320,192,38840,1,0,0:0:0:0:
448,192,38840,1,0,0:0:0:0:
192,192,38911,1,0,0:0:0:0:
64,192,38911,1,0,0:0:0:0:
448,192,38983,1,0,0:0:0:0:
320,192,39054,1,0,0:0:0:0:
64,192,39054,1,0,0:0:0:0:
192,192,39126,1,0,0:0:0:0:
64,192,39197,1,0,0:0:0:0:
320,192,39197,1,0,0:0:0:0:
448,192,39269,1,0,0:0:0:0:
192,192,39340,1,0,0:0:0:0:
64,192,39411,1,0,0:0:0:0:
320,192,39411,1,0,0:0:0:0:
192,192,39483,1,0,0:0:0:0:
448,192,39554,1,0,0:0:0:0:
320,192,39626,1,0,0:0:0:0:
192,192,39697,1,0,0:0:0:0:
64,192,39697,1,0,0:0:0:0:
320,192,39769,1,0,0:0:0:0:
448,192,39840,1,0,0:0:0:0:
64,192,39911,1,0,0:0:0:0:
192,192,39911,1,0,0:0:0:0:
320,192,39983,1,0,0:0:0:0:
448,192,40054,1,0,0:0:0:0:
320,192,40126,1,0,0:0:0:0:
64,192,40126,1,0,0:0:0:0:
192,192,40197,1,0,0:0:0:0:
320,192,40269,1,0,0:0:0:0:
448,192,40340,1,0,0:0:0:0:
192,192,40340,1,0,0:0:0:0:
320,192,40411,1,0,0:0:0:0:
64,192,40483,1,0,0:0:0:0:
448,192,40483,1,0,0:0:0:0:
192,192,40554,1,0,0:0:0:0:
64,192,40626,1,0,0:0:0:0:
448,192,40626,1,0,0:0:0:0:
320,192,40697,1,0,0:0:0:0:
192,192,40769,1,0,0:0:0:0:
448,192,40840,1,0,0:0:0:0:
320,192,40840,1,0,0:0:0:0:
64,192,40911,1,0,0:0:0:0:
192,192,40983,1,0,0:0:0:0:
448,192,40983,1,0,0:0:0:0:
320,192,41054,1,0,0:0:0:0:
192,192,41126,1,0,0:0:0:0:
64,192,41197,1,0,0:0:0:0:
320,192,41197,1,0,0:0:0:0:
448,192,41269,1,0,0:0:0:0:
320,192,41340,1,0,0:0:0:0:
64,192,41411,1,0,0:0:0:0:
192,192,41411,1,0,0:0:0:0:
320,192,41483,1,0,0:0:0:0:
448,192,41554,1,0,0:0:0:0:
64,192,41554,1,0,0:0:0:0:
192,192,41626,1,0,0:0:0:0:
320,192,41697,1,0,0:0:0:0:
448,192,41697,1,0,0:0:0:0:
64,192,41769,1,0,0:0:0:0:
192,192,41840,1,0,0:0:0:0:
448,192,41840,1,0,0:0:0:0:
320,192,41911,1,0,0:0:0:0:
192,192,41983,1,0,0:0:0:0:
64,192,41983,1,0,0:0:0:0:
448,192,42054,1,0,0:0:0:0:
320,192,42126,1,0,0:0:0:0:
64,192,42126,1,0,0:0:0:0:
192,192,42197,1,0,0:0:0:0:
64,192,42269,1,0,0:0:0:0:
320,192,42269,1,0,0:0:0:0:
448,192,42340,1,0,0:0:0:0:
192,192,42411,1,0,0:0:0:0:
320,192,42411,1,0,0:0:0:0:
64,192,42483,1,0,0:0:0:0:
320,192,42554,1,0,0:0:0:0:
448,192,42554,1,0,0:0:0:0:
192,192,42626,1,0,0:0:0:0:
448,192,42697,1,0,0:0:0:0:
320,192,42769,1,0,0:0:0:0:
64,192,42769,1,0,0:0:0:0:
192,192,42840,1,0,0:0:0:0:
64,192,42911,1,0,0:0:0:0:
320,192,42983,1,0,0:0:0:0:
448,192,42983,1,0,0:0:0:0:
192,192,43054,1,0,0:0:0:0:
64,192,43126,1,0,0:0:0:0:
448,192,43126,1,0,0:0:0:0:
192,192,43197,1,0,0:0:0:0:
320,192,43269,1,0,0:0:0:0:
448,192,43340,1,0,0:0:0:0:
64,192,43340,1,0,0:0:0:0:
192,192,43411,1,0,0:0:0:0:
64,192,43483,1,0,0:0:0:0:
448,192,43483,1,0,0:0:0:0:
192,192,43554,1,0,0:0:0:0:
448,192,43626,1,0,0:0:0:0:
320,192,43697,1,0,0:0:0:0:
64,192,43697,1,0,0:0:0:0:
192,192,43769,1,0,0:0:0:0:
64,192,43840,1,0,0:0:0:0:
320,192,43911,1,0,0:0:0:0:
448,192,43911,1,0,0:0:0:0:
192,192,43983,1,0,0:0:0:0:
64,192,44054,1,0,0:0:0:0:
320,192,44054,1,0,0:0:0:0:
448,192,44126,1,0,0:0:0:0:
64,192,44197,1,0,0:0:0:0:
192,192,44197,1,0,0:0:0:0:
320,192,44269,1,0,0:0:0:0:
448,192,44340,1,0,0:0:0:0:
192,192,44340,1,0,0:0:0:0:
64,192,44411,1,0,0:0:0:0:
448,192,44483,1,0,0:0:0:0:
320,192,44483,1,0,0:0:0:0:
192,192,44554,1,0,0:0:0:0:
64,192,44626,1,0,0:0:0:0:
448,192,44626,1,0,0:0:0:0:
320,192,44697,1,0,0:0:0:0:
192,192,44769,1,0,0:0:0:0:
64,192,44769,1,0,0:0:0:0:
320,192,44840,1,0,0:0:0:0:
448,192,44911,1,0,0:0:0:0:
64,192,44983,1,0,0:0:0:0:
192,192,45054,1,0,0:0:0:0:
320,192,45054,1,0,0:0:0:0:
448,192,45126,1,0,0:0:0:0:
64,192,45197,1,0,0:0:0:0:
320,192,45197,1,0,0:0:0:0:
192,192,45269,1,0,0:0:0:0:
448,192,45340,1,0,0:0:0:0:
320,192,45411,1,0,0:0:0:0:
192,192,45483,1,0,0:0:0:0:
64,192,45483,1,0,0:0:0:0:
320,192,45554,1,0,0:0:0:0:
64,192,45626,1,0,0:0:0:0:
192,192,45697,1,0,0:0:0:0:
448,192,45697,1,0,0:0:0:0:
320,192,45769,1,0,0:0:0:0:
192,192,45840,1,0,0:0:0:0:
64,192,45840,1,0,0:0:0:0:
448,192,45911,1,0,0:0:0:0:
320,192,45983,1,0,0:0:0:0:
64,192,45983,1,0,0:0:0:0:
192,192,46054,1,0,0:0:0:0:
64,192,46126,1,0,0:0:0:0:
320,192,46197,1,0,0:0:0:0:
192,192,46269,1,0,0:0:0:0:
320,192,46340,1,0,0:0:0:0:
64,192,46340,1,0,0:0:0:0:
448,192,46411,1,0,0:0:0:0:
192,192,46483,1,0,0:0:0:0:
64,192,46554,1,0,0:0:0:0:
320,192,46626,1,0,0:0:0:0:
448,192,46626,1,0,0:0:0:0:
192,192,46697,1,0,0:0:0:0:
448,192,46769,1,0,0:0:0:0:
64,192,46840,1,0,0:0:0:0:
192,192,46911,1,0,0:0:0:0:
320,192,46983,1,0,0:0:0:0:
448,192,47054,1,0,0:0:0:0:
192,192,47054,1,0,0:0:0:0:
64,192,47126,1,0,0:0:0:0:
320,192,47197,1,0,0:0:0:0:
448,192,47197,1,0,0:0:0:0:
192,192,47269,1,0,0:0:0:0:
448,192,47340,1,0,0:0:0:0:
64,192,47411,1,0,0:0:0:0:
320,192,47411,1,0,0:0:0:0:
448,192,47483,1,0,0:0:0:0:
192,192,47554,1,0,0:0:0:0:
64,192,47626,1,0,0:0:0:0:
320,192,47626,1,0,0:0:0:0:
192,192,47697,1,0,0:0:0:0:
448,192,47769,1,0,0:0:0:0:
64,192,47769,1,0,0:0:0:0:
320,192,47840,1,0,0:0:0:0:
192,192,47911,1,0,0:0:0:0:
448,192,47983,1,0,0:0:0:0:
320,192,47983,1,0,0:0:0:0:
192,192,48054,1,0,0:0:0:0:
64,192,48126,1,0,0:0:0:0:
448,192,48126,1,0,0:0:0:0:
192,192,48197,1,0,0:0:0:0:
320,192,48197,1,0,0:0:0:0:
64,192,48340,5,0,0:0:0:0:
192,192,48340,1,0,0:0:0:0:
320,192,48340,1,0,0:0:0:0:
448,192,48340,1,0,0:0:0:0:
64,192,48626,1,0,0:0:0:0:
320,192,48626,1,0,0:0:0:0:
192,192,48626,128,0,49340:0:0:0:0:
448,192,49054,1,0,0:0:0:0:
320,192,49054,1,0,0:0:0:0:
320,192,49340,1,0,0:0:0:0:
448,192,49340,1,0,0:0:0:0:
64,192,49340,128,0,49769:0:0:0:0:
192,192,49769,1,0,0:0:0:0:
448,192,49769,1,0,0:0:0:0:
320,192,49769,128,0,50483:0:0:0:0:
192,192,50197,1,0,0:0:0:0:
64,192,50197,1,0,0:0:0:0:
448,192,50483,1,0,0:0:0:0:
192,192,50483,1,0,0:0:0:0:
64,192,50483,128,0,52769:0:0:0:0:
192,192,50911,1,0,0:0:0:0:
320,192,50911,1,0,0:0:0:0:
192,192,51340,1,0,0:0:0:0:
448,192,51340,1,0,0:0:0:0:
192,192,51626,1,0,0:0:0:0:
320,192,51626,1,0,0:0:0:0:
192,192,52054,1,0,0:0:0:0:
448,192,52054,1,0,0:0:0:0:
320,192,52054,1,0,0:0:0:0:
192,192,52483,1,0,0:0:0:0:
448,192,52483,1,0,0:0:0:0:
192,192,52769,1,0,0:0:0:0:
320,192,52769,1,0,0:0:0:0:
448,192,52769,128,0,54769:0:0:0:0:
320,192,53197,1,0,0:0:0:0:
64,192,53197,1,0,0:0:0:0:
320,192,53626,1,0,0:0:0:0:
192,192,53626,1,0,0:0:0:0:
64,192,53911,1,0,0:0:0:0:
192,192,53911,1,0,0:0:0:0:
320,192,54340,1,0,0:0:0:0:
64,192,54340,1,0,0:0:0:0:
320,192,54769,1,0,0:0:0:0:
192,192,54769,1,0,0:0:0:0:
64,192,54769,1,0,0:0:0:0:
64,192,55054,5,0,0:0:0:0:
448,192,55054,1,0,0:0:0:0:
320,192,55340,1,0,0:0:0:0:
448,192,55340,1,0,0:0:0:0:
64,192,55626,5,0,0:0:0:0:
192,192,55626,1,0,0:0:0:0:
448,192,55911,5,0,0:0:0:0:
192,192,55911,1,0,0:0:0:0:
192,192,56197,5,0,0:0:0:0:
64,192,56197,1,0,0:0:0:0:
320,192,56269,1,0,0:0:0:0:
448,192,56269,1,0,0:0:0:0:
192,192,56340,1,0,0:0:0:0:
64,192,56340,1,0,0:0:0:0:
320,192,56411,1,0,0:0:0:0:
448,192,56411,1,0,0:0:0:0:
192,192,56483,1,0,0:0:0:0:
64,192,56483,1,0,0:0:0:0:
448,192,56554,1,0,0:0:0:0:
320,192,56554,1,0,0:0:0:0:
192,192,56626,1,0,0:0:0:0:
64,192,56626,1,0,0:0:0:0:
320,192,56697,1,0,0:0:0:0:
448,192,56697,1,0,0:0:0:0:
192,192,56769,128,0,57340:0:0:0:0:
64,192,56769,128,0,57340:0:0:0:0:
448,192,57340,1,0,0:0:0:0:
320,192,57411,1,0,0:0:0:0:
64,192,57483,1,0,0:0:0:0:
192,192,57483,1,0,0:0:0:0:
320,192,57554,1,0,0:0:0:0:
448,192,57626,1,0,0:0:0:0:
64,192,57626,1,0,0:0:0:0:
192,192,57697,1,0,0:0:0:0:
320,192,57769,1,0,0:0:0:0:
448,192,57769,1,0,0:0:0:0:
192,192,57840,1,0,0:0:0:0:
64,192,57911,1,0,0:0:0:0:
192,192,57983,1,0,0:0:0:0:
320,192,57983,1,0,0:0:0:0:
448,192,58054,1,0,0:0:0:0:
64,192,58126,1,0,0:0:0:0:
192,192,58126,1,0,0:0:0:0:
320,192,58197,1,0,0:0:0:0:
448,192,58269,1,0,0:0:0:0:
64,192,58269,1,0,0:0:0:0:
192,192,58340,1,0,0:0:0:0:
320,192,58411,1,0,0:0:0:0:
448,192,58411,1,0,0:0:0:0:
64,192,58483,1,0,0:0:0:0:
192,192,58554,1,0,0:0:0:0:
448,192,58554,1,0,0:0:0:0:
320,192,58626,1,0,0:0:0:0:
448,192,58697,1,0,0:0:0:0:
192,192,58697,1,0,0:0:0:0:
64,192,58769,1,0,0:0:0:0:
448,192,58840,1,0,0:0:0:0:
320,192,58840,1,0,0:0:0:0:
192,192,58911,1,0,0:0:0:0:
64,192,58983,1,0,0:0:0:0:
448,192,58983,1,0,0:0:0:0:
320,192,59054,1,0,0:0:0:0:
192,192,59126,1,0,0:0:0:0:
64,192,59126,1,0,0:0:0:0:
448,192,59197,1,0,0:0:0:0:
320,192,59269,1,0,0:0:0:0:
192,192,59269,1,0,0:0:0:0:
64,192,59340,1,0,0:0:0:0:
448,192,59411,1,0,0:0:0:0:
320,192,59411,1,0,0:0:0:0:
192,192,59483,1,0,0:0:0:0:
64,192,59554,1,0,0:0:0:0:
448,192,59554,1,0,0:0:0:0:
192,192,59626,1,0,0:0:0:0:
320,192,59697,1,0,0:0:0:0:
448,192,59697,1,0,0:0:0:0:
192,192,59769,1,0,0:0:0:0:
64,192,59840,1,0,0:0:0:0:
448,192,59840,1,0,0:0:0:0:
320,192,59911,1,0,0:0:0:0:
192,192,59983,1,0,0:0:0:0:
64,192,59983,1,0,0:0:0:0:
320,192,60054,1,0,0:0:0:0:
448,192,60126,1,0,0:0:0:0:
64,192,60126,1,0,0:0:0:0:
192,192,60197,1,0,0:0:0:0:
64,192,60269,1,0,0:0:0:0:
320,192,60269,1,0,0:0:0:0:
448,192,60340,1,0,0:0:0:0:
64,192,60411,1,0,0:0:0:0:
192,192,60411,1,0,0:0:0:0:
320,192,60483,1,0,0:0:0:0:
448,192,60554,1,0,0:0:0:0:
64,192,60554,1,0,0:0:0:0:
192,192,60626,1,0,0:0:0:0:
320,192,60697,1,0,0:0:0:0:
448,192,60697,1,0,0:0:0:0:
64,192,60769,1,0,0:0:0:0:
192,192,60840,1,0,0:0:0:0:
448,192,60840,1,0,0:0:0:0:
320,192,60911,1,0,0:0:0:0:
448,192,60983,1,0,0:0:0:0:
192,192,60983,1,0,0:0:0:0:
64,192,61054,1,0,0:0:0:0:
320,192,61126,1,0,0:0:0:0:
448,192,61126,1,0,0:0:0:0:
192,192,61197,1,0,0:0:0:0:
64,192,61269,1,0,0:0:0:0:
320,192,61269,1,0,0:0:0:0:
448,192,61340,1,0,0:0:0:0:
192,192,61411,1,0,0:0:0:0:
64,192,61411,1,0,0:0:0:0:
320,192,61483,1,0,0:0:0:0:
448,192,61554,1,0,0:0:0:0:
192,192,61554,1,0,0:0:0:0:
64,192,61626,1,0,0:0:0:0:
320,192,61697,1,0,0:0:0:0:
448,192,61697,1,0,0:0:0:0:
192,192,61769,1,0,0:0:0:0:
64,192,61840,1,0,0:0:0:0:
448,192,61840,1,0,0:0:0:0:
320,192,61911,1,0,0:0:0:0:
448,192,61983,1,0,0:0:0:0:
192,192,61983,1,0,0:0:0:0:
64,192,62054,1,0,0:0:0:0:
192,192,62126,1,0,0:0:0:0:
320,192,62126,1,0,0:0:0:0:
448,192,62197,1,0,0:0:0:0:
64,192,62269,1,0,0:0:0:0:
192,192,62269,1,0,0:0:0:0:
320,192,62340,1,0,0:0:0:0:
448,192,62411,1,0,0:0:0:0:
192,192,62411,1,0,0:0:0:0:
64,192,62483,1,0,0:0:0:0:
320,192,62554,1,0,0:0:0:0:
448,192,62554,1,0,0:0:0:0:
192,192,62626,1,0,0:0:0:0:
448,192,62697,1,0,0:0:0:0:
64,192,62697,1,0,0:0:0:0:
320,192,62769,1,0,0:0:0:0:
448,192,62840,1,0,0:0:0:0:
64,192,62840,1,0,0:0:0:0:
192,192,62911,1,0,0:0:0:0:
320,192,62983,1,0,0:0:0:0:
64,192,62983,1,0,0:0:0:0:
448,192,63054,1,0,0:0:0:0:
64,192,63126,1,0,0:0:0:0:
192,192,63126,1,0,0:0:0:0:
320,192,63197,1,0,0:0:0:0:
448,192,63269,1,0,0:0:0:0:
64,192,63269,1,0,0:0:0:0:
192,192,63340,1,0,0:0:0:0:
320,192,63411,1,0,0:0:0:0:
448,192,63411,1,0,0:0:0:0:
64,192,63483,1,0,0:0:0:0:
192,192,63554,1,0,0:0:0:0:
448,192,63554,1,0,0:0:0:0:
320,192,63626,1,0,0:0:0:0:
192,192,63697,1,0,0:0:0:0:
64,192,63697,1,0,0:0:0:0:
448,192,63769,1,0,0:0:0:0:
320,192,63840,1,0,0:0:0:0:
64,192,63840,1,0,0:0:0:0:
192,192,63911,1,0,0:0:0:0:
448,192,63983,1,0,0:0:0:0:
320,192,63983,1,0,0:0:0:0:
64,192,64054,1,0,0:0:0:0:
192,192,64126,1,0,0:0:0:0:
448,192,64126,1,0,0:0:0:0:
320,192,64197,1,0,0:0:0:0:
64,192,64269,1,0,0:0:0:0:
192,192,64269,1,0,0:0:0:0:
448,192,64340,1,0,0:0:0:0:
320,192,64411,1,0,0:0:0:0:
64,192,64411,1,0,0:0:0:0:
192,192,64483,1,0,0:0:0:0:
64,192,64554,1,0,0:0:0:0:
448,192,64554,1,0,0:0:0:0:
320,192,64626,1,0,0:0:0:0:
192,192,64697,1,0,0:0:0:0:
64,192,64697,1,0,0:0:0:0:
320,192,64769,1,0,0:0:0:0:
448,192,64840,1,0,0:0:0:0:
64,192,64840,1,0,0:0:0:0:
192,192,64911,1,0,0:0:0:0:
320,192,64983,1,0,0:0:0:0:
448,192,64983,1,0,0:0:0:0:
192,192,65054,1,0,0:0:0:0:
64,192,65126,1,0,0:0:0:0:
448,192,65126,1,0,0:0:0:0:
320,192,65197,1,0,0:0:0:0:
448,192,65269,1,0,0:0:0:0:
192,192,65269,1,0,0:0:0:0:
64,192,65340,1,0,0:0:0:0:
320,192,65411,1,0,0:0:0:0:
448,192,65411,1,0,0:0:0:0:
64,192,65483,1,0,0:0:0:0:
192,192,65554,128,0,65911:0:0:0:0:
320,192,65554,1,0,0:0:0:0:
320,192,65911,5,0,0:0:0:0:
448,192,65911,1,0,0:0:0:0:
192,192,65983,1,0,0:0:0:0:
64,192,65983,1,0,0:0:0:0:
320,192,66054,1,0,0:0:0:0:
448,192,66054,1,0,0:0:0:0:
192,192,66126,1,0,0:0:0:0:
64,192,66126,1,0,0:0:0:0:
320,192,66197,1,0,0:0:0:0:
448,192,66197,1,0,0:0:0:0:
192,192,66269,1,0,0:0:0:0:
64,192,66269,1,0,0:0:0:0:
320,192,66340,1,0,0:0:0:0:
448,192,66340,1,0,0:0:0:0:
64,192,66411,1,0,0:0:0:0:
192,192,66411,1,0,0:0:0:0:
320,192,66483,1,0,0:0:0:0:
64,192,66554,1,0,0:0:0:0:
192,192,66554,1,0,0:0:0:0:
448,192,66554,1,0,0:0:0:0:
320,192,66626,1,0,0:0:0:0:
448,192,66697,1,0,0:0:0:0:
64,192,66697,1,0,0:0:0:0:
192,192,66769,1,0,0:0:0:0:
320,192,66840,1,0,0:0:0:0:
448,192,66840,1,0,0:0:0:0:
192,192,66911,1,0,0:0:0:0:
64,192,66983,1,0,0:0:0:0:
448,192,66983,1,0,0:0:0:0:
192,192,67054,1,0,0:0:0:0:
320,192,67054,1,0,0:0:0:0:
448,192,67126,1,0,0:0:0:0:
64,192,67197,1,0,0:0:0:0:
192,192,67197,1,0,0:0:0:0:
320,192,67269,1,0,0:0:0:0:
448,192,67340,1,0,0:0:0:0:
64,192,67340,1,0,0:0:0:0:
192,192,67411,1,0,0:0:0:0:
320,192,67483,1,0,0:0:0:0:
448,192,67483,1,0,0:0:0:0:
64,192,67554,1,0,0:0:0:0:
448,192,67626,1,0,0:0:0:0:
192,192,67626,1,0,0:0:0:0:
320,192,67697,1,0,0:0:0:0:
64,192,67697,1,0,0:0:0:0:
192,192,67769,1,0,0:0:0:0:
448,192,67769,1,0,0:0:0:0:
64,192,67840,1,0,0:0:0:0:
320,192,67911,1,0,0:0:0:0:
448,192,67911,1,0,0:0:0:0:
192,192,67983,1,0,0:0:0:0:
448,192,68054,1,0,0:0:0:0:
64,192,68054,1,0,0:0:0:0:
320,192,68126,1,0,0:0:0:0:
64,192,68197,1,0,0:0:0:0:
192,192,68197,1,0,0:0:0:0:
448,192,68269,1,0,0:0:0:0:
320,192,68340,1,0,0:0:0:0:
192,192,68340,1,0,0:0:0:0:
64,192,68411,1,0,0:0:0:0:
320,192,68483,1,0,0:0:0:0:
448,192,68483,1,0,0:0:0:0:
192,192,68554,1,0,0:0:0:0:
64,192,68626,1,0,0:0:0:0:
448,192,68626,1,0,0:0:0:0:
320,192,68626,1,0,0:0:0:0:
192,192,68697,1,0,0:0:0:0:
320,192,68769,1,0,0:0:0:0:
448,192,68769,1,0,0:0:0:0:
64,192,68769,1,0,0:0:0:0:
192,192,68840,1,0,0:0:0:0:
64,192,68911,1,0,0:0:0:0:
448,192,68911,1,0,0:0:0:0:
320,192,68983,1,0,0:0:0:0:
192,192,69054,1,0,0:0:0:0:
64,192,69054,1,0,0:0:0:0:
320,192,69126,1,0,0:0:0:0:
448,192,69197,1,0,0:0:0:0:
64,192,69197,1,0,0:0:0:0:
192,192,69269,1,0,0:0:0:0:
320,192,69340,1,0,0:0:0:0:
64,192,69340,1,0,0:0:0:0:
448,192,69411,1,0,0:0:0:0:
192,192,69483,1,0,0:0:0:0:
64,192,69483,1,0,0:0:0:0:
320,192,69554,1,0,0:0:0:0:
448,192,69626,1,0,0:0:0:0:
64,192,69626,1,0,0:0:0:0:
192,192,69697,1,0,0:0:0:0:
448,192,69769,1,0,0:0:0:0:
320,192,69769,1,0,0:0:0:0:
64,192,69840,1,0,0:0:0:0:
448,192,69911,1,0,0:0:0:0:
192,192,69911,1,0,0:0:0:0:
320,192,69983,1,0,0:0:0:0:
64,192,69983,1,0,0:0:0:0:
192,192,70054,1,0,0:0:0:0:
448,192,70054,1,0,0:0:0:0:
64,192,70126,1,0,0:0:0:0:
448,192,70197,1,0,0:0:0:0:
320,192,70197,1,0,0:0:0:0:
192,192,70269,1,0,0:0:0:0:
64,192,70340,1,0,0:0:0:0:
320,192,70340,1,0,0:0:0:0:
448,192,70411,1,0,0:0:0:0:
192,192,70483,1,0,0:0:0:0:
64,192,70483,1,0,0:0:0:0:
320,192,70554,1,0,0:0:0:0:
448,192,70626,1,0,0:0:0:0:
192,192,70626,1,0,0:0:0:0:
64,192,70697,1,0,0:0:0:0:
448,192,70769,1,0,0:0:0:0:
320,192,70769,1,0,0:0:0:0:
192,192,70840,1,0,0:0:0:0:
448,192,70911,1,0,0:0:0:0:
64,192,70911,1,0,0:0:0:0:
320,192,70983,1,0,0:0:0:0:
448,192,71054,1,0,0:0:0:0:
192,192,71054,1,0,0:0:0:0:
64,192,71126,1,0,0:0:0:0:
192,192,71197,1,0,0:0:0:0:
320,192,71197,1,0,0:0:0:0:
448,192,71269,1,0,0:0:0:0:
192,192,71340,1,0,0:0:0:0:
64,192,71340,1,0,0:0:0:0:
320,192,71411,1,0,0:0:0:0:
192,192,71483,1,0,0:0:0:0:
448,192,71483,1,0,0:0:0:0:
64,192,71554,1,0,0:0:0:0:
320,192,71626,1,0,0:0:0:0:
448,192,71626,1,0,0:0:0:0:
192,192,71697,1,0,0:0:0:0:
448,192,71769,1,0,0:0:0:0:
64,192,71769,1,0,0:0:0:0:
320,192,71840,1,0,0:0:0:0:
64,192,71911,1,0,0:0:0:0:
448,192,71911,1,0,0:0:0:0:
192,192,71983,1,0,0:0:0:0:
320,192,72054,1,0,0:0:0:0:
64,192,72054,1,0,0:0:0:0:
448,192,72126,1,0,0:0:0:0:
64,192,72197,1,0,0:0:0:0:
192,192,72197,1,0,0:0:0:0:
320,192,72269,1,0,0:0:0:0:
448,192,72340,1,0,0:0:0:0:
64,192,72340,1,0,0:0:0:0:
192,192,72411,1,0,0:0:0:0:
320,192,72483,1,0,0:0:0:0:
448,192,72483,1,0,0:0:0:0:
64,192,72554,1,0,0:0:0:0:
448,192,72626,1,0,0:0:0:0:
192,192,72626,1,0,0:0:0:0:
320,192,72697,1,0,0:0:0:0:
192,192,72769,1,0,0:0:0:0:
64,192,72769,1,0,0:0:0:0:
448,192,72840,1,0,0:0:0:0:
64,192,72911,1,0,0:0:0:0:
320,192,72911,1,0,0:0:0:0:
192,192,72983,1,0,0:0:0:0:
320,192,73054,1,0,0:0:0:0:
448,192,73054,1,0,0:0:0:0:
64,192,73126,1,0,0:0:0:0:
192,192,73197,1,0,0:0:0:0:
448,192,73197,1,0,0:0:0:0:
320,192,73269,1,0,0:0:0:0:
64,192,73340,1,0,0:0:0:0:
192,192,73340,1,0,0:0:0:0:
448,192,73411,1,0,0:0:0:0:
320,192,73483,1,0,0:0:0:0:
64,192,73483,1,0,0:0:0:0:
192,192,73554,1,0,0:0:0:0:
64,192,73626,1,0,0:0:0:0:
448,192,73626,1,0,0:0:0:0:
320,192,73697,1,0,0:0:0:0:
64,192,73769,5,0,0:0:0:0:
192,192,73769,1,0,0:0:0:0:
448,192,73769,1,0,0:0:0:0:
320,192,73840,1,0,0:0:0:0:
64,192,73911,1,0,0:0:0:0:
448,192,73911,1,0,0:0:0:0:
192,192,73983,1,0,0:0:0:0:
320,192,74054,1,0,0:0:0:0:
448,192,74054,1,0,0:0:0:0:
64,192,74054,1,0,0:0:0:0:
192,192,74126,1,0,0:0:0:0:
64,192,74197,1,0,0:0:0:0:
448,192,74197,1,0,0:0:0:0:
320,192,74269,1,0,0:0:0:0:
192,192,74340,1,0,0:0:0:0:
64,192,74340,1,0,0:0:0:0:
448,192,74340,1,0,0:0:0:0:
320,192,74411,1,0,0:0:0:0:
192,192,74483,1,0,0:0:0:0:
64,192,74483,1,0,0:0:0:0:
320,192,74554,1,0,0:0:0:0:
448,192,74626,1,0,0:0:0:0:
192,192,74626,1,0,0:0:0:0:
64,192,74626,1,0,0:0:0:0:
320,192,74697,1,0,0:0:0:0:
448,192,74769,1,0,0:0:0:0:
64,192,74769,1,0,0:0:0:0:
320,192,74840,1,0,0:0:0:0:
64,192,74911,5,0,0:0:0:0:
192,192,74911,1,0,0:0:0:0:
320,192,74983,1,0,0:0:0:0:
448,192,74983,1,0,0:0:0:0:
192,192,75054,1,0,0:0:0:0:
64,192,75054,1,0,0:0:0:0:
448,192,75197,1,0,0:0:0:0:
320,192,75197,1,0,0:0:0:0:
64,192,75197,1,0,0:0:0:0:
64,192,75340,1,0,0:0:0:0:
192,192,75340,1,0,0:0:0:0:
320,192,75340,1,0,0:0:0:0:
448,192,75483,1,0,0:0:0:0:
320,192,75483,1,0,0:0:0:0:
192,192,75483,1,0,0:0:0:0:
192,192,75626,1,0,0:0:0:0:
448,192,75626,1,0,0:0:0:0:
320,192,75626,1,0,0:0:0:0:
64,192,75626,128,0,76054:0:0:0:0:
192,192,76054,128,0,76269:0:0:0:0:
448,192,76054,1,0,0:0:0:0:
448,192,76483,128,0,76769:0:0:0:0:
320,192,76769,128,0,77197:0:0:0:0:
64,192,77197,128,0,77340:0:0:0:0:
448,192,77197,1,0,0:0:0:0:
320,192,77626,128,0,77911:0:0:0:0:
192,192,77626,1,0,0:0:0:0:
448,192,77911,128,0,78340:0:0:0:0:
192,192,78340,128,0,78483:0:0:0:0:
64,192,78340,1,0,0:0:0:0:
320,192,78769,128,0,79054:0:0:0:0:
448,192,78769,1,0,0:0:0:0:
192,192,79054,128,0,79483:0:0:0:0:
448,192,79054,1,0,0:0:0:0:
64,192,79483,128,0,79626:0:0:0:0:
448,192,79911,128,0,80197:0:0:0:0:
320,192,80197,128,0,80626:0:0:0:0:
64,192,80197,1,0,0:0:0:0:
64,192,80626,128,0,80769:0:0:0:0:
192,192,80626,1,0,0:0:0:0:
320,192,81054,128,0,81340:0:0:0:0:
64,192,81054,1,0,0:0:0:0:
448,192,81340,128,0,81769:0:0:0:0:
192,192,81769,128,0,81911:0:0:0:0:
320,192,81769,1,0,0:0:0:0:
320,192,82197,128,0,82483:0:0:0:0:
64,192,82197,1,0,0:0:0:0:
192,192,82483,128,0,82911:0:0:0:0:
448,192,82483,1,0,0:0:0:0:
64,192,82911,128,0,83054:0:0:0:0:
448,192,82911,1,0,0:0:0:0:
320,192,83340,128,0,83626:0:0:0:0:
64,192,83340,1,0,0:0:0:0:
448,192,83626,128,0,84054:0:0:0:0:
192,192,84054,128,0,84197:0:0:0:0:
64,192,84054,1,0,0:0:0:0:
64,192,84483,1,0,0:0:0:0:
192,192,84483,1,0,0:0:0:0:
448,192,84483,1,0,0:0:0:0:
64,192,84769,5,0,0:0:0:0:
192,192,84769,1,0,0:0:0:0:
320,192,84769,1,0,0:0:0:0:
448,192,84769,1,0,0:0:0:0:
320,192,85197,1,0,0:0:0:0:
448,192,85197,1,0,0:0:0:0:
64,192,85197,1,0,0:0:0:0:
192,192,85197,128,0,85911:0:0:0:0:
448,192,85911,1,0,0:0:0:0:
320,192,85911,1,0,0:0:0:0:
64,192,85911,1,0,0:0:0:0:
320,192,86340,1,0,0:0:0:0:
448,192,86340,1,0,0:0:0:0:
192,192,86340,1,0,0:0:0:0:
64,192,86340,128,0,87054:0:0:0:0:
448,192,87054,1,0,0:0:0:0:
192,192,87054,1,0,0:0:0:0:
320,192,87054,1,0,0:0:0:0:
64,192,87483,1,0,0:0:0:0:
192,192,87483,1,0,0:0:0:0:
448,192,87483,1,0,0:0:0:0:
320,192,87483,128,0,88197:0:0:0:0:
192,192,88197,1,0,0:0:0:0:
64,192,88197,1,0,0:0:0:0:
448,192,88197,1,0,0:0:0:0:
192,192,88626,1,0,0:0:0:0:
64,192,88626,1,0,0:0:0:0:
448,192,88626,1,0,0:0:0:0:
320,192,88626,128,0,89340:0:0:0:0:
448,192,89340,1,0,0:0:0:0:
192,192,89340,1,0,0:0:0:0:
64,192,89769,1,0,0:0:0:0:
320,192,89769,1,0,0:0:0:0:
448,192,89769,128,0,90483:0:0:0:0:
192,192,90483,1,0,0:0:0:0:
320,192,90483,1,0,0:0:0:0:
64,192,90911,1,0,0:0:0:0:
448,192,90911,1,0,0:0:0:0:
192,192,90911,128,0,91626:0:0:0:0:
64,192,91626,1,0,0:0:0:0:
320,192,91626,1,0,0:0:0:0:
448,192,91626,1,0,0:0:0:0:
192,192,92054,5,0,0:0:0:0:
320,192,92054,1,0,0:0:0:0:
448,192,92054,1,0,0:0:0:0:
64,192,92054,128,0,92769:0:0:0:0:
192,192,92769,1,0,0:0:0:0:
320,192,92769,1,0,0:0:0:0:
448,192,92769,1,0,0:0:0:0:
320,192,93054,5,0,0:0:0:0:
448,192,93054,1,0,0:0:0:0:
192,192,93126,1,0,0:0:0:0:
64,192,93126,1,0,0:0:0:0:
320,192,93197,1,0,0:0:0:0:
448,192,93197,1,0,0:0:0:0:
192,192,93269,1,0,0:0:0:0:
64,192,93269,1,0,0:0:0:0:
320,192,93340,1,0,0:0:0:0:
448,192,93340,1,0,0:0:0:0:
192,192,93411,1,0,0:0:0:0:
64,192,93411,1,0,0:0:0:0:
320,192,93483,1,0,0:0:0:0:
448,192,93483,1,0,0:0:0:0:
192,192,93911,1,0,0:0:0:0:
320,192,93911,1,0,0:0:0:0:
448,192,93911,1,0,0:0:0:0:
64,192,93983,1,0,0:0:0:0:
192,192,94054,1,0,0:0:0:0:
448,192,94054,1,0,0:0:0:0:
320,192,94126,1,0,0:0:0:0:
448,192,94197,1,0,0:0:0:0:
192,192,94197,1,0,0:0:0:0:
64,192,94269,1,0,0:0:0:0:
320,192,94340,1,0,0:0:0:0:
448,192,94411,1,0,0:0:0:0:
192,192,94411,1,0,0:0:0:0:
320,192,94483,1,0,0:0:0:0:
64,192,94554,1,0,0:0:0:0:
192,192,94626,1,0,0:0:0:0:
448,192,94697,1,0,0:0:0:0:
320,192,94697,1,0,0:0:0:0:
192,192,94769,1,0,0:0:0:0:
64,192,94840,1,0,0:0:0:0:
448,192,94911,1,0,0:0:0:0:
320,192,94911,1,0,0:0:0:0:
192,192,94983,1,0,0:0:0:0:
64,192,95054,1,0,0:0:0:0:
448,192,95126,1,0,0:0:0:0:
192,192,95126,1,0,0:0:0:0:
320,192,95197,1,0,0:0:0:0:
192,192,95269,1,0,0:0:0:0:
64,192,95340,1,0,0:0:0:0:
320,192,95340,1,0,0:0:0:0:
192,192,95411,1,0,0:0:0:0:
448,192,95483,1,0,0:0:0:0:
64,192,95483,1,0,0:0:0:0:
320,192,95554,1,0,0:0:0:0:
64,192,95626,1,0,0:0:0:0:
448,192,95626,1,0,0:0:0:0:
192,192,95697,1,0,0:0:0:0:
320,192,95769,1,0,0:0:0:0:
192,192,95840,1,0,0:0:0:0:
64,192,95840,1,0,0:0:0:0:
448,192,95911,1,0,0:0:0:0:
320,192,95983,1,0,0:0:0:0:
64,192,95983,1,0,0:0:0:0:
192,192,96054,1,0,0:0:0:0:
320,192,96126,1,0,0:0:0:0:
448,192,96197,1,0,0:0:0:0:
192,192,96197,1,0,0:0:0:0:
64,192,96269,1,0,0:0:0:0:
192,192,96340,1,0,0:0:0:0:
448,192,96411,1,0,0:0:0:0:
320,192,96411,1,0,0:0:0:0:
192,192,96483,1,0,0:0:0:0:
448,192,96554,1,0,0:0:0:0:
64,192,96554,1,0,0:0:0:0:
320,192,96626,1,0,0:0:0:0:
192,192,96697,1,0,0:0:0:0:
64,192,96697,1,0,0:0:0:0:
448,192,96769,1,0,0:0:0:0:
320,192,96840,1,0,0:0:0:0:
64,192,96840,1,0,0:0:0:0:
192,192,96911,1,0,0:0:0:0:
448,192,96983,1,0,0:0:0:0:
320,192,96983,1,0,0:0:0:0:
64,192,97054,1,0,0:0:0:0:
448,192,97126,1,0,0:0:0:0:
192,192,97126,1,0,0:0:0:0:
320,192,97197,1,0,0:0:0:0:
192,192,97269,1,0,0:0:0:0:
448,192,97269,1,0,0:0:0:0:
64,192,97340,1,0,0:0:0:0:
320,192,97411,1,0,0:0:0:0:
192,192,97411,1,0,0:0:0:0:
448,192,97483,1,0,0:0:0:0:
64,192,97554,1,0,0:0:0:0:
192,192,97554,1,0,0:0:0:0:
320,192,97626,1,0,0:0:0:0:
64,192,97697,1,0,0:0:0:0:
448,192,97769,1,0,0:0:0:0:
192,192,97769,1,0,0:0:0:0:
320,192,97840,1,0,0:0:0:0:
448,192,97911,1,0,0:0:0:0:
64,192,97983,1,0,0:0:0:0:
192,192,97983,1,0,0:0:0:0:
320,192,98054,1,0,0:0:0:0:
448,192,98126,1,0,0:0:0:0:
64,192,98126,1,0,0:0:0:0:
320,192,98197,1,0,0:0:0:0:
192,192,98269,1,0,0:0:0:0:
448,192,98340,1,0,0:0:0:0:
64,192,98340,1,0,0:0:0:0:
320,192,98411,1,0,0:0:0:0:
448,192,98483,1,0,0:0:0:0:
64,192,98483,1,0,0:0:0:0:
320,192,98554,1,0,0:0:0:0:
64,192,98626,1,0,0:0:0:0:
448,192,98697,1,0,0:0:0:0:
192,192,98697,1,0,0:0:0:0:
320,192,98769,1,0,0:0:0:0:
448,192,98840,1,0,0:0:0:0:
64,192,98911,1,0,0:0:0:0:
192,192,98911,1,0,0:0:0:0:
320,192,98983,1,0,0:0:0:0:
192,192,99054,1,0,0:0:0:0:
448,192,99054,1,0,0:0:0:0:
64,192,99126,1,0,0:0:0:0:
448,192,99197,1,0,0:0:0:0:
320,192,99197,1,0,0:0:0:0:
192,192,99269,1,0,0:0:0:0:
320,192,99340,1,0,0:0:0:0:
64,192,99340,1,0,0:0:0:0:
448,192,99411,1,0,0:0:0:0:
192,192,99483,1,0,0:0:0:0:
64,192,99483,1,0,0:0:0:0:
320,192,99554,1,0,0:0:0:0:
448,192,99626,1,0,0:0:0:0:
64,192,99626,1,0,0:0:0:0:
192,192,99697,1,0,0:0:0:0:
448,192,99769,1,0,0:0:0:0:
320,192,99769,1,0,0:0:0:0:
192,192,99840,1,0,0:0:0:0:
64,192,99911,1,0,0:0:0:0:
448,192,99983,1,0,0:0:0:0:
192,192,100054,1,0,0:0:0:0:
320,192,100054,1,0,0:0:0:0:
64,192,100126,1,0,0:0:0:0:
448,192,100197,1,0,0:0:0:0:
192,192,100197,1,0,0:0:0:0:
320,192,100269,1,0,0:0:0:0:
64,192,100340,1,0,0:0:0:0:
192,192,100411,1,0,0:0:0:0:
448,192,100483,1,0,0:0:0:0:
320,192,100483,1,0,0:0:0:0:
192,192,100554,1,0,0:0:0:0:
448,192,100626,1,0,0:0:0:0:
320,192,100697,1,0,0:0:0:0:
64,192,100697,1,0,0:0:0:0:
192,192,100769,1,0,0:0:0:0:
320,192,100840,1,0,0:0:0:0:
448,192,100840,1,0,0:0:0:0:
64,192,100911,1,0,0:0:0:0:
192,192,100983,1,0,0:0:0:0:
448,192,100983,1,0,0:0:0:0:
320,192,101054,1,0,0:0:0:0:
448,192,101126,1,0,0:0:0:0:
192,192,101197,1,0,0:0:0:0:
320,192,101269,1,0,0:0:0:0:
192,192,101340,1,0,0:0:0:0:
448,192,101340,1,0,0:0:0:0:
64,192,101411,1,0,0:0:0:0:
320,192,101483,1,0,0:0:0:0:
448,192,101554,1,0,0:0:0:0:
192,192,101626,1,0,0:0:0:0:
64,192,101626,1,0,0:0:0:0:
320,192,101697,1,0,0:0:0:0:
64,192,101769,1,0,0:0:0:0:
448,192,101840,5,0,0:0:0:0:
320,192,101911,1,0,0:0:0:0:
192,192,101983,1,0,0:0:0:0:
64,192,101983,1,0,0:0:0:0:
320,192,102054,1,0,0:0:0:0:
448,192,102126,1,0,0:0:0:0:
64,192,102197,1,0,0:0:0:0:
192,192,102269,1,0,0:0:0:0:
448,192,102269,1,0,0:0:0:0:
320,192,102340,1,0,0:0:0:0:
64,192,102411,1,0,0:0:0:0:
448,192,102483,1,0,0:0:0:0:
320,192,102554,1,0,0:0:0:0:
192,192,102626,1,0,0:0:0:0:
64,192,102697,1,0,0:0:0:0:
320,192,102697,1,0,0:0:0:0:
448,192,102769,1,0,0:0:0:0:
192,192,102840,1,0,0:0:0:0:
320,192,102840,1,0,0:0:0:0:
64,192,102911,5,0,0:0:0:0:
192,192,102983,1,0,0:0:0:0:
320,192,102983,1,0,0:0:0:0:
448,192,102983,1,0,0:0:0:0:
448,192,103340,1,0,0:0:0:0:
448,192,103626,1,0,0:0:0:0:
448,192,103911,1,0,0:0:0:0:
448,192,104197,1,0,0:0:0:0:
448,192,104483,1,0,0:0:0:0:
448,192,104769,1,0,0:0:0:0:
448,192,105054,1,0,0:0:0:0:
448,192,105340,1,0,0:0:0:0:
448,192,105626,1,0,0:0:0:0:
448,192,105911,1,0,0:0:0:0:
448,192,106197,1,0,0:0:0:0:
448,192,106483,1,0,0:0:0:0:
448,192,106769,1,0,0:0:0:0:
448,192,107054,1,0,0:0:0:0:
448,192,107340,1,0,0:0:0:0:
448,192,107626,1,0,0:0:0:0:
64,192,107911,1,0,0:0:0:0:
320,192,107911,128,0,111626:0:0:0:0:
64,192,108197,1,0,0:0:0:0:
64,192,108483,1,0,0:0:0:0:
64,192,108769,1,0,0:0:0:0:
64,192,109054,1,0,0:0:0:0:
64,192,109340,1,0,0:0:0:0:
64,192,109626,1,0,0:0:0:0:
64,192,109911,1,0,0:0:0:0:
64,192,110197,1,0,0:0:0:0:
64,192,110483,1,0,0:0:0:0:
64,192,110769,1,0,0:0:0:0:
64,192,111054,5,0,0:0:0:0:
64,192,111340,1,0,0:0:0:0:
192,192,111340,1,0,0:0:0:0:
448,192,111340,1,0,0:0:0:0:
64,192,111626,1,0,0:0:0:0:
192,192,111626,1,0,0:0:0:0:
448,192,111626,1,0,0:0:0:0:
64,192,111911,1,0,0:0:0:0:
320,192,111911,1,0,0:0:0:0:
448,192,111911,1,0,0:0:0:0:
448,192,112054,1,0,0:0:0:0:
320,192,112054,1,0,0:0:0:0:
192,192,112054,1,0,0:0:0:0:
192,192,112197,1,0,0:0:0:0:
320,192,112197,1,0,0:0:0:0:
448,192,112197,1,0,0:0:0:0:
64,192,112269,5,0,0:0:0:0:
448,192,112340,1,0,0:0:0:0:
320,192,112411,1,0,0:0:0:0:
64,192,112411,1,0,0:0:0:0:
192,192,112483,1,0,0:0:0:0:
320,192,112554,1,0,0:0:0:0:
448,192,112626,1,0,0:0:0:0:
64,192,112626,1,0,0:0:0:0:
320,192,112697,1,0,0:0:0:0:
192,192,112769,1,0,0:0:0:0:
448,192,112769,1,0,0:0:0:0:
64,192,112840,1,0,0:0:0:0:
192,192,112911,1,0,0:0:0:0:
448,192,112911,1,0,0:0:0:0:
64,192,112983,1,0,0:0:0:0:
320,192,113054,1,0,0:0:0:0:
192,192,113054,1,0,0:0:0:0:
448,192,113126,1,0,0:0:0:0:
320,192,113197,1,0,0:0:0:0:
64,192,113197,1,0,0:0:0:0:
192,192,113269,1,0,0:0:0:0:
64,192,113340,1,0,0:0:0:0:
448,192,113340,1,0,0:0:0:0:
320,192,113411,1,0,0:0:0:0:
192,192,113483,1,0,0:0:0:0:
448,192,113483,1,0,0:0:0:0:
64,192,113483,1,0,0:0:0:0:
320,192,113554,1,0,0:0:0:0:
448,192,113626,1,0,0:0:0:0:
192,192,113626,1,0,0:0:0:0:
64,192,113697,1,0,0:0:0:0:
320,192,113769,1,0,0:0:0:0:
192,192,113840,1,0,0:0:0:0:
64,192,113840,1,0,0:0:0:0:
320,192,113911,1,0,0:0:0:0:
448,192,113983,1,0,0:0:0:0:
192,192,113983,1,0,0:0:0:0:
64,192,113983,1,0,0:0:0:0:
320,192,114054,1,0,0:0:0:0:
448,192,114126,1,0,0:0:0:0:
64,192,114126,1,0,0:0:0:0:
192,192,114197,1,0,0:0:0:0:
64,192,114269,1,0,0:0:0:0:
320,192,114269,1,0,0:0:0:0:
448,192,114340,1,0,0:0:0:0:
64,192,114411,1,0,0:0:0:0:
192,192,114411,1,0,0:0:0:0:
320,192,114483,1,0,0:0:0:0:
448,192,114554,1,0,0:0:0:0:
64,192,114554,1,0,0:0:0:0:
192,192,114626,1,0,0:0:0:0:
320,192,114697,1,0,0:0:0:0:
448,192,114697,1,0,0:0:0:0:
64,192,114697,1,0,0:0:0:0:
192,192,114769,1,0,0:0:0:0:
64,192,114840,1,0,0:0:0:0:
448,192,114840,1,0,0:0:0:0:
320,192,114911,1,0,0:0:0:0:
192,192,114983,1,0,0:0:0:0:
64,192,114983,1,0,0:0:0:0:
448,192,114983,1,0,0:0:0:0:
320,192,115054,1,0,0:0:0:0:
448,192,115126,1,0,0:0:0:0:
64,192,115126,1,0,0:0:0:0:
192,192,115197,1,0,0:0:0:0:
64,192,115269,1,0,0:0:0:0:
320,192,115269,1,0,0:0:0:0:
448,192,115340,1,0,0:0:0:0:
320,192,115411,1,0,0:0:0:0:
192,192,115411,1,0,0:0:0:0:
64,192,115411,1,0,0:0:0:0:
448,192,115483,1,0,0:0:0:0:
192,192,115554,1,0,0:0:0:0:
320,192,115554,1,0,0:0:0:0:
64,192,115626,1,0,0:0:0:0:
192,192,115697,1,0,0:0:0:0:
320,192,115697,1,0,0:0:0:0:
448,192,115697,1,0,0:0:0:0:
64,192,115769,1,0,0:0:0:0:
192,192,115840,1,0,0:0:0:0:
320,192,115840,1,0,0:0:0:0:
448,192,115840,1,0,0:0:0:0:
64,192,115911,1,0,0:0:0:0:
192,192,115983,1,0,0:0:0:0:
320,192,115983,1,0,0:0:0:0:
448,192,116054,1,0,0:0:0:0:
64,192,116126,1,0,0:0:0:0:
192,192,116126,1,0,0:0:0:0:
320,192,116197,1,0,0:0:0:0:
448,192,116269,1,0,0:0:0:0:
64,192,116269,1,0,0:0:0:0:
192,192,116340,1,0,0:0:0:0:
64,192,116411,1,0,0:0:0:0:
320,192,116411,1,0,0:0:0:0:
448,192,116483,1,0,0:0:0:0:
192,192,116554,1,0,0:0:0:0:
64,192,116554,1,0,0:0:0:0:
320,192,116626,1,0,0:0:0:0:
448,192,116697,1,0,0:0:0:0:
64,192,116697,1,0,0:0:0:0:
192,192,116697,1,0,0:0:0:0:
320,192,116769,1,0,0:0:0:0:
192,192,116840,1,0,0:0:0:0:
64,192,116840,1,0,0:0:0:0:
448,192,116911,1,0,0:0:0:0:
320,192,116983,1,0,0:0:0:0:
64,192,116983,1,0,0:0:0:0:
192,192,117054,1,0,0:0:0:0:
320,192,117126,1,0,0:0:0:0:
448,192,117126,1,0,0:0:0:0:
64,192,117197,1,0,0:0:0:0:
192,192,117269,1,0,0:0:0:0:
448,192,117269,1,0,0:0:0:0:
320,192,117340,1,0,0:0:0:0:
192,192,117411,1,0,0:0:0:0:
64,192,117411,1,0,0:0:0:0:
448,192,117483,1,0,0:0:0:0:
320,192,117554,1,0,0:0:0:0:
64,192,117554,1,0,0:0:0:0:
192,192,117626,1,0,0:0:0:0:
64,192,117697,1,0,0:0:0:0:
448,192,117697,1,0,0:0:0:0:
320,192,117769,1,0,0:0:0:0:
448,192,117840,1,0,0:0:0:0:
192,192,117840,1,0,0:0:0:0:
64,192,117911,1,0,0:0:0:0:
448,192,117983,1,0,0:0:0:0:
320,192,118054,1,0,0:0:0:0:
192,192,118054,1,0,0:0:0:0:
448,192,118126,1,0,0:0:0:0:
64,192,118197,1,0,0:0:0:0:
192,192,118197,1,0,0:0:0:0:
320,192,118269,1,0,0:0:0:0:
448,192,118340,1,0,0:0:0:0:
64,192,118340,1,0,0:0:0:0:
192,192,118411,1,0,0:0:0:0:
320,192,118483,1,0,0:0:0:0:
448,192,118483,1,0,0:0:0:0:
192,192,118554,1,0,0:0:0:0:
64,192,118626,1,0,0:0:0:0:
448,192,118626,1,0,0:0:0:0:
320,192,118697,1,0,0:0:0:0:
192,192,118769,1,0,0:0:0:0:
64,192,118769,1,0,0:0:0:0:
448,192,118769,1,0,0:0:0:0:
320,192,118840,1,0,0:0:0:0:
448,192,118911,1,0,0:0:0:0:
64,192,118911,1,0,0:0:0:0:
320,192,118983,1,0,0:0:0:0:
64,192,119054,1,0,0:0:0:0:
192,192,119054,1,0,0:0:0:0:
320,192,119126,1,0,0:0:0:0:
448,192,119197,1,0,0:0:0:0:
320,192,119269,1,0,0:0:0:0:
192,192,119269,1,0,0:0:0:0:
64,192,119269,1,0,0:0:0:0:
448,192,119340,1,0,0:0:0:0:
64,192,119411,1,0,0:0:0:0:
320,192,119411,1,0,0:0:0:0:
192,192,119483,1,0,0:0:0:0:
64,192,119554,1,0,0:0:0:0:
320,192,119554,1,0,0:0:0:0:
448,192,119626,1,0,0:0:0:0:
192,192,119697,1,0,0:0:0:0:
64,192,119697,1,0,0:0:0:0:
320,192,119769,1,0,0:0:0:0:
192,192,119840,1,0,0:0:0:0:
64,192,119911,1,0,0:0:0:0:
448,192,119911,1,0,0:0:0:0:
320,192,119983,1,0,0:0:0:0:
448,192,120054,1,0,0:0:0:0:
192,192,120054,1,0,0:0:0:0:
64,192,120126,1,0,0:0:0:0:
192,192,120197,1,0,0:0:0:0:
320,192,120197,1,0,0:0:0:0:
448,192,120197,1,0,0:0:0:0:
64,192,120269,1,0,0:0:0:0:
192,192,120340,1,0,0:0:0:0:
320,192,120340,1,0,0:0:0:0:
448,192,120411,1,0,0:0:0:0:
320,192,120483,1,0,0:0:0:0:
192,192,120483,1,0,0:0:0:0:
64,192,120483,1,0,0:0:0:0:
448,192,120554,1,0,0:0:0:0:
192,192,120626,1,0,0:0:0:0:
320,192,120626,1,0,0:0:0:0:
64,192,120626,1,0,0:0:0:0:
64,192,120769,5,0,0:0:0:0:
192,192,120769,1,0,0:0:0:0:
320,192,120769,1,0,0:0:0:0:
448,192,120769,128,0,121269:0:0:0:0:
192,192,121269,1,0,0:0:0:0:
64,192,121269,128,0,121769:0:0:0:0:
192,192,121769,1,0,0:0:0:0:
320,192,121769,1,0,0:0:0:0:
448,192,121769,128,0,123626:0:0:0:0:
192,192,122197,1,0,0:0:0:0:
320,192,122197,1,0,0:0:0:0:
64,192,122483,1,0,0:0:0:0:
320,192,122483,1,0,0:0:0:0:
192,192,122911,1,0,0:0:0:0:
320,192,122911,1,0,0:0:0:0:
64,192,122911,1,0,0:0:0:0:
64,192,123340,1,0,0:0:0:0:
320,192,123340,1,0,0:0:0:0:
192,192,123626,1,0,0:0:0:0:
320,192,123626,1,0,0:0:0:0:
64,192,123626,128,0,124054:0:0:0:0:
192,192,124054,1,0,0:0:0:0:
320,192,124054,1,0,0:0:0:0:
448,192,124054,1,0,0:0:0:0:
192,192,124483,1,0,0:0:0:0:
64,192,124483,1,0,0:0:0:0:
320,192,124483,128,0,124769:0:0:0:0:
192,192,124769,1,0,0:0:0:0:
448,192,124769,1,0,0:0:0:0:
64,192,124769,128,0,125054:0:0:0:0:
320,192,125054,1,0,0:0:0:0:
192,192,125054,1,0,0:0:0:0:
448,192,125054,128,0,125340:0:0:0:0:
64,192,125340,1,0,0:0:0:0:
320,192,125340,1,0,0:0:0:0:
192,192,125340,128,0,125626:0:0:0:0:
64,192,125626,1,0,0:0:0:0:
320,192,125626,1,0,0:0:0:0:
448,192,125626,128,0,125911:0:0:0:0:
320,192,125911,1,0,0:0:0:0:
64,192,125911,1,0,0:0:0:0:
192,192,125911,128,0,126126:0:0:0:0:
192,192,126340,1,0,0:0:0:0:
320,192,126340,1,0,0:0:0:0:
320,192,126769,1,0,0:0:0:0:
192,192,126769,1,0,0:0:0:0:
64,192,127054,5,0,0:0:0:0:
320,192,127054,1,0,0:0:0:0:
192,192,127054,128,0,127483:0:0:0:0:
448,192,127483,1,0,0:0:0:0:
320,192,127483,1,0,0:0:0:0:
192,192,127911,1,0,0:0:0:0:
320,192,127911,1,0,0:0:0:0:
320,192,128197,5,0,0:0:0:0:
448,192,128197,1,0,0:0:0:0:
64,192,128197,1,0,0:0:0:0:
192,192,128197,128,0,128769:0:0:0:0:
64,192,128483,1,0,0:0:0:0:
320,192,128483,1,0,0:0:0:0:
448,192,128769,1,0,0:0:0:0:
64,192,128769,1,0,0:0:0:0:
192,192,129054,1,0,0:0:0:0:
320,192,129054,1,0,0:0:0:0:
448,192,129054,1,0,0:0:0:0:
320,192,129340,5,0,0:0:0:0:
448,192,129340,1,0,0:0:0:0:
192,192,129411,1,0,0:0:0:0:
64,192,129411,1,0,0:0:0:0:
320,192,129483,1,0,0:0:0:0:
448,192,129483,1,0,0:0:0:0:
64,192,129554,1,0,0:0:0:0:
192,192,129554,1,0,0:0:0:0:
320,192,129626,1,0,0:0:0:0:
448,192,129626,1,0,0:0:0:0:
192,192,129697,1,0,0:0:0:0:
64,192,129697,1,0,0:0:0:0:
320,192,129769,1,0,0:0:0:0:
448,192,129769,1,0,0:0:0:0:
192,192,129840,1,0,0:0:0:0:
64,192,129840,1,0,0:0:0:0:
64,192,131340,1,0,0:0:0:0:
192,192,131340,1,0,0:0:0:0:
320,192,131340,1,0,0:0:0:0:
448,192,131340,1,0,0:0:0:0:
448,192,131626,1,0,0:0:0:0:
64,192,131626,1,0,0:0:0:0:
192,192,131626,1,0,0:0:0:0:
320,192,131697,1,0,0:0:0:0:
64,192,131769,1,0,0:0:0:0:
192,192,131769,1,0,0:0:0:0:
448,192,131769,1,0,0:0:0:0:
320,192,131840,1,0,0:0:0:0:
448,192,131911,1,0,0:0:0:0:
64,192,131911,1,0,0:0:0:0:
192,192,131983,1,0,0:0:0:0:
448,192,132054,1,0,0:0:0:0:
320,192,132054,1,0,0:0:0:0:
192,192,132126,1,0,0:0:0:0:
64,192,132197,1,0,0:0:0:0:
192,192,132269,1,0,0:0:0:0:
320,192,132269,1,0,0:0:0:0:
448,192,132340,1,0,0:0:0:0:
192,192,132411,1,0,0:0:0:0:
64,192,132411,1,0,0:0:0:0:
320,192,132483,1,0,0:0:0:0:
448,192,132554,1,0,0:0:0:0:
64,192,132554,1,0,0:0:0:0:
192,192,132626,1,0,0:0:0:0:
448,192,132697,1,0,0:0:0:0:
320,192,132697,1,0,0:0:0:0:
64,192,132769,1,0,0:0:0:0:
448,192,132840,1,0,0:0:0:0:
192,192,132840,1,0,0:0:0:0:
320,192,132911,1,0,0:0:0:0:
64,192,132911,1,0,0:0:0:0:
192,192,132983,1,0,0:0:0:0:
448,192,132983,1,0,0:0:0:0:
64,192,133054,1,0,0:0:0:0:
448,192,133126,1,0,0:0:0:0:
320,192,133126,1,0,0:0:0:0:
192,192,133197,1,0,0:0:0:0:
448,192,133269,1,0,0:0:0:0:
64,192,133269,1,0,0:0:0:0:
320,192,133340,1,0,0:0:0:0:
64,192,133411,1,0,0:0:0:0:
192,192,133411,1,0,0:0:0:0:
448,192,133483,1,0,0:0:0:0:
320,192,133554,1,0,0:0:0:0:
192,192,133554,1,0,0:0:0:0:
64,192,133626,1,0,0:0:0:0:
448,192,133697,1,0,0:0:0:0:
320,192,133697,1,0,0:0:0:0:
192,192,133769,1,0,0:0:0:0:
448,192,133840,1,0,0:0:0:0:
64,192,133840,1,0,0:0:0:0:
192,192,133911,1,0,0:0:0:0:
448,192,133983,1,0,0:0:0:0:
320,192,133983,1,0,0:0:0:0:
64,192,133983,1,0,0:0:0:0:
192,192,134054,1,0,0:0:0:0:
64,192,134126,1,0,0:0:0:0:
448,192,134126,1,0,0:0:0:0:
320,192,134197,1,0,0:0:0:0:
192,192,134269,1,0,0:0:0:0:
64,192,134269,1,0,0:0:0:0:
448,192,134269,1,0,0:0:0:0:
320,192,134340,1,0,0:0:0:0:
64,192,134411,1,0,0:0:0:0:
448,192,134411,1,0,0:0:0:0:
192,192,134483,1,0,0:0:0:0:
64,192,134554,1,0,0:0:0:0:
320,192,134554,1,0,0:0:0:0:
448,192,134626,1,0,0:0:0:0:
64,192,134697,1,0,0:0:0:0:
192,192,134697,1,0,0:0:0:0:
320,192,134769,1,0,0:0:0:0:
448,192,134840,1,0,0:0:0:0:
64,192,134840,1,0,0:0:0:0:
192,192,134911,1,0,0:0:0:0:
448,192,134983,1,0,0:0:0:0:
320,192,134983,1,0,0:0:0:0:
64,192,135054,1,0,0:0:0:0:
448,192,135126,1,0,0:0:0:0:
192,192,135126,1,0,0:0:0:0:
320,192,135197,1,0,0:0:0:0:
192,192,135269,1,0,0:0:0:0:
448,192,135269,1,0,0:0:0:0:
64,192,135340,1,0,0:0:0:0:
320,192,135411,1,0,0:0:0:0:
448,192,135411,1,0,0:0:0:0:
192,192,135483,1,0,0:0:0:0:
64,192,135554,1,0,0:0:0:0:
320,192,135554,1,0,0:0:0:0:
448,192,135626,1,0,0:0:0:0:
64,192,135697,1,0,0:0:0:0:
192,192,135697,1,0,0:0:0:0:
320,192,135769,1,0,0:0:0:0:
192,192,135840,1,0,0:0:0:0:
448,192,135840,1,0,0:0:0:0:
64,192,135911,1,0,0:0:0:0:
320,192,135983,1,0,0:0:0:0:
448,192,135983,1,0,0:0:0:0:
192,192,136054,1,0,0:0:0:0:
448,192,136126,1,0,0:0:0:0:
64,192,136126,1,0,0:0:0:0:
320,192,136197,1,0,0:0:0:0:
192,192,136269,1,0,0:0:0:0:
448,192,136269,1,0,0:0:0:0:
64,192,136340,1,0,0:0:0:0:
192,192,136411,1,0,0:0:0:0:
320,192,136411,1,0,0:0:0:0:
448,192,136483,1,0,0:0:0:0:
192,192,136554,1,0,0:0:0:0:
64,192,136554,1,0,0:0:0:0:
320,192,136626,1,0,0:0:0:0:
448,192,136697,1,0,0:0:0:0:
192,192,136697,1,0,0:0:0:0:
64,192,136769,1,0,0:0:0:0:
320,192,136840,1,0,0:0:0:0:
448,192,136840,1,0,0:0:0:0:
192,192,136911,1,0,0:0:0:0:
64,192,136983,1,0,0:0:0:0:
448,192,136983,1,0,0:0:0:0:
320,192,137054,1,0,0:0:0:0:
64,192,137126,1,0,0:0:0:0:
448,192,137126,1,0,0:0:0:0:
192,192,137197,1,0,0:0:0:0:
320,192,137269,1,0,0:0:0:0:
64,192,137269,1,0,0:0:0:0:
448,192,137340,1,0,0:0:0:0:
64,192,137411,1,0,0:0:0:0:
192,192,137411,1,0,0:0:0:0:
320,192,137483,1,0,0:0:0:0:
448,192,137554,1,0,0:0:0:0:
64,192,137554,1,0,0:0:0:0:
192,192,137626,1,0,0:0:0:0:
320,192,137697,1,0,0:0:0:0:
448,192,137697,1,0,0:0:0:0:
64,192,137769,1,0,0:0:0:0:
448,192,137840,1,0,0:0:0:0:
192,192,137840,1,0,0:0:0:0:
320,192,137911,1,0,0:0:0:0:
192,192,137983,1,0,0:0:0:0:
64,192,137983,1,0,0:0:0:0:
448,192,138054,1,0,0:0:0:0:
64,192,138126,1,0,0:0:0:0:
320,192,138126,1,0,0:0:0:0:
192,192,138197,1,0,0:0:0:0:
448,192,138269,1,0,0:0:0:0:
320,192,138269,1,0,0:0:0:0:
64,192,138340,1,0,0:0:0:0:
192,192,138411,5,0,0:0:0:0:
448,192,138411,1,0,0:0:0:0:
320,192,138483,1,0,0:0:0:0:
192,192,138554,1,0,0:0:0:0:
64,192,138554,1,0,0:0:0:0:
448,192,138626,1,0,0:0:0:0:
64,192,138697,1,0,0:0:0:0:
320,192,138697,1,0,0:0:0:0:
192,192,138769,1,0,0:0:0:0:
448,192,138840,1,0,0:0:0:0:
64,192,138840,1,0,0:0:0:0:
320,192,138911,1,0,0:0:0:0:
192,192,138983,1,0,0:0:0:0:
64,192,138983,1,0,0:0:0:0:
320,192,139054,1,0,0:0:0:0:
448,192,139126,1,0,0:0:0:0:
64,192,139126,1,0,0:0:0:0:
192,192,139197,1,0,0:0:0:0:
320,192,139269,1,0,0:0:0:0:
448,192,139269,1,0,0:0:0:0:
64,192,139340,1,0,0:0:0:0:
192,192,139411,1,0,0:0:0:0:
448,192,139411,1,0,0:0:0:0:
320,192,139411,1,0,0:0:0:0:
64,192,139554,5,0,0:0:0:0:
192,192,139554,1,0,0:0:0:0:
320,192,139554,1,0,0:0:0:0:
448,192,139554,1,0,0:0:0:0:
64,192,139769,1,0,0:0:0:0:
320,192,139769,1,0,0:0:0:0:
192,192,139911,1,0,0:0:0:0:
448,192,139911,1,0,0:0:0:0:
320,192,140054,1,0,0:0:0:0:
192,192,140054,1,0,0:0:0:0:
64,192,140197,1,0,0:0:0:0:
192,192,140197,1,0,0:0:0:0:
448,192,140197,1,0,0:0:0:0:
64,192,140483,1,0,0:0:0:0:
192,192,140483,1,0,0:0:0:0:
320,192,140483,1,0,0:0:0:0:
64,192,140769,1,0,0:0:0:0:
192,192,140769,1,0,0:0:0:0:
448,192,140769,1,0,0:0:0:0:
320,192,140840,1,0,0:0:0:0:
192,192,140911,1,0,0:0:0:0:
64,192,140983,1,0,0:0:0:0:
448,192,140983,1,0,0:0:0:0:
320,192,141054,1,0,0:0:0:0:
192,192,141126,1,0,0:0:0:0:
64,192,141126,1,0,0:0:0:0:
320,192,141197,1,0,0:0:0:0:
448,192,141269,1,0,0:0:0:0:
192,192,141269,1,0,0:0:0:0:
64,192,141340,1,0,0:0:0:0:
320,192,141340,1,0,0:0:0:0:
448,192,141411,1,0,0:0:0:0:
320,192,141483,1,0,0:0:0:0:
192,192,141483,1,0,0:0:0:0:
64,192,141483,1,0,0:0:0:0:
448,192,141554,1,0,0:0:0:0:
320,192,141626,1,0,0:0:0:0:
64,192,141626,1,0,0:0:0:0:
192,192,141697,1,0,0:0:0:0:
64,192,141769,1,0,0:0:0:0:
320,192,141769,1,0,0:0:0:0:
448,192,141840,1,0,0:0:0:0:
192,192,141911,1,0,0:0:0:0:
64,192,141911,1,0,0:0:0:0:
320,192,141983,1,0,0:0:0:0:
448,192,142054,1,0,0:0:0:0:
64,192,142054,1,0,0:0:0:0:
192,192,142126,1,0,0:0:0:0:
320,192,142197,1,0,0:0:0:0:
448,192,142197,1,0,0:0:0:0:
192,192,142269,1,0,0:0:0:0:
64,192,142340,1,0,0:0:0:0:
448,192,142340,1,0,0:0:0:0:
320,192,142411,1,0,0:0:0:0:
192,192,142483,1,0,0:0:0:0:
64,192,142483,1,0,0:0:0:0:
448,192,142554,1,0,0:0:0:0:
320,192,142626,1,0,0:0:0:0:
64,192,142626,1,0,0:0:0:0:
192,192,142697,1,0,0:0:0:0:
320,192,142769,1,0,0:0:0:0:
448,192,142769,1,0,0:0:0:0:
64,192,142840,1,0,0:0:0:0:
192,192,142911,1,0,0:0:0:0:
448,192,142911,1,0,0:0:0:0:
320,192,142983,1,0,0:0:0:0:
192,192,143054,1,0,0:0:0:0:
64,192,143054,1,0,0:0:0:0:
448,192,143054,1,0,0:0:0:0:
320,192,143126,1,0,0:0:0:0:
192,192,143197,1,0,0:0:0:0:
448,192,143197,1,0,0:0:0:0:
64,192,143269,1,0,0:0:0:0:
320,192,143340,1,0,0:0:0:0:
448,192,143340,1,0,0:0:0:0:
192,192,143411,1,0,0:0:0:0:
64,192,143483,1,0,0:0:0:0:
320,192,143483,1,0,0:0:0:0:
448,192,143554,1,0,0:0:0:0:
192,192,143626,1,0,0:0:0:0:
64,192,143626,1,0,0:0:0:0:
320,192,143697,1,0,0:0:0:0:
64,192,143769,1,0,0:0:0:0:
192,192,143769,1,0,0:0:0:0:
448,192,143840,1,0,0:0:0:0:
64,192,143911,1,0,0:0:0:0:
192,192,143911,1,0,0:0:0:0:
320,192,143911,1,0,0:0:0:0:
448,192,143983,1,0,0:0:0:0:
320,192,144054,1,0,0:0:0:0:
64,192,144054,1,0,0:0:0:0:
192,192,144126,1,0,0:0:0:0:
448,192,144197,1,0,0:0:0:0:
320,192,144197,1,0,0:0:0:0:
64,192,144197,1,0,0:0:0:0:
192,192,144269,1,0,0:0:0:0:
448,192,144340,1,0,0:0:0:0:
320,192,144411,1,0,0:0:0:0:
64,192,144411,1,0,0:0:0:0:
192,192,144483,1,0,0:0:0:0:
64,192,144554,1,0,0:0:0:0:
448,192,144554,1,0,0:0:0:0:
320,192,144626,1,0,0:0:0:0:
192,192,144626,1,0,0:0:0:0:
64,192,144697,1,0,0:0:0:0:
448,192,144769,1,0,0:0:0:0:
192,192,144769,1,0,0:0:0:0:
320,192,144840,1,0,0:0:0:0:
448,192,144911,1,0,0:0:0:0:
64,192,144911,1,0,0:0:0:0:
192,192,144911,1,0,0:0:0:0:
320,192,144983,1,0,0:0:0:0:
192,192,145054,1,0,0:0:0:0:
448,192,145054,1,0,0:0:0:0:
64,192,145126,1,0,0:0:0:0:
320,192,145126,1,0,0:0:0:0:
448,192,145197,1,0,0:0:0:0:
192,192,145269,1,0,0:0:0:0:
64,192,145269,1,0,0:0:0:0:
320,192,145269,1,0,0:0:0:0:
448,192,145340,1,0,0:0:0:0:
320,192,145411,1,0,0:0:0:0:
64,192,145411,1,0,0:0:0:0:
192,192,145483,1,0,0:0:0:0:
64,192,145554,1,0,0:0:0:0:
448,192,145554,1,0,0:0:0:0:
320,192,145626,1,0,0:0:0:0:
192,192,145697,1,0,0:0:0:0:
64,192,145697,1,0,0:0:0:0:
320,192,145769,1,0,0:0:0:0:
448,192,145840,1,0,0:0:0:0:
64,192,145840,1,0,0:0:0:0:
192,192,145911,1,0,0:0:0:0:
320,192,145983,1,0,0:0:0:0:
448,192,145983,1,0,0:0:0:0:
64,192,145983,1,0,0:0:0:0:
192,192,146054,1,0,0:0:0:0:
64,192,146126,1,0,0:0:0:0:
320,192,146126,1,0,0:0:0:0:
448,192,146197,1,0,0:0:0:0:
320,192,146269,1,0,0:0:0:0:
192,192,146269,1,0,0:0:0:0:
64,192,146340,1,0,0:0:0:0:
448,192,146411,1,0,0:0:0:0:
320,192,146411,1,0,0:0:0:0:
192,192,146483,1,0,0:0:0:0:
64,192,146554,1,0,0:0:0:0:
448,192,146554,1,0,0:0:0:0:
320,192,146626,1,0,0:0:0:0:
192,192,146697,1,0,0:0:0:0:
64,192,146697,1,0,0:0:0:0:
448,192,146769,1,0,0:0:0:0:
320,192,146840,1,0,0:0:0:0:
64,192,146840,1,0,0:0:0:0:
192,192,146911,1,0,0:0:0:0:
64,192,146983,1,0,0:0:0:0:
320,192,146983,1,0,0:0:0:0:
448,192,147054,1,0,0:0:0:0:
64,192,147126,1,0,0:0:0:0:
192,192,147126,1,0,0:0:0:0:
320,192,147197,1,0,0:0:0:0:
448,192,147269,1,0,0:0:0:0:
64,192,147269,1,0,0:0:0:0:
192,192,147340,1,0,0:0:0:0:
320,192,147411,1,0,0:0:0:0:
448,192,147411,1,0,0:0:0:0:
64,192,147483,1,0,0:0:0:0:
192,192,147554,1,0,0:0:0:0:
448,192,147554,1,0,0:0:0:0:
320,192,147626,1,0,0:0:0:0:
192,192,147697,1,0,0:0:0:0:
64,192,147697,1,0,0:0:0:0:
448,192,147769,1,0,0:0:0:0:
320,192,147840,1,0,0:0:0:0:
64,192,147840,1,0,0:0:0:0:
192,192,147911,1,0,0:0:0:0:
320,192,147983,1,0,0:0:0:0:
448,192,147983,1,0,0:0:0:0:
64,192,148054,1,0,0:0:0:0:
192,192,148126,1,0,0:0:0:0:
448,192,148126,1,0,0:0:0:0:
320,192,148197,1,0,0:0:0:0:
448,192,148269,1,0,0:0:0:0:
64,192,148269,1,0,0:0:0:0:
192,192,148269,1,0,0:0:0:0:
320,192,148340,1,0,0:0:0:0:
192,192,148411,1,0,0:0:0:0:
448,192,148411,1,0,0:0:0:0:
64,192,148483,1,0,0:0:0:0:
320,192,148554,1,0,0:0:0:0:
448,192,148554,1,0,0:0:0:0:
192,192,148626,1,0,0:0:0:0:
64,192,148697,1,0,0:0:0:0:
448,192,148697,1,0,0:0:0:0:
320,192,148697,1,0,0:0:0:0:
192,192,148769,5,0,0:0:0:0:
320,192,148840,1,0,0:0:0:0:
448,192,148840,1,0,0:0:0:0:
64,192,148840,1,0,0:0:0:0:
192,192,148911,1,0,0:0:0:0:
320,192,148983,1,0,0:0:0:0:
448,192,148983,1,0,0:0:0:0:
64,192,149054,1,0,0:0:0:0:
192,192,149126,1,0,0:0:0:0:
320,192,149126,1,0,0:0:0:0:
448,192,149126,1,0,0:0:0:0:
64,192,149197,1,0,0:0:0:0:
192,192,149269,1,0,0:0:0:0:
320,192,149269,1,0,0:0:0:0:
448,192,149340,1,0,0:0:0:0:
320,192,149411,1,0,0:0:0:0:
192,192,149411,1,0,0:0:0:0:
64,192,149411,1,0,0:0:0:0:
448,192,149483,1,0,0:0:0:0:
320,192,149554,1,0,0:0:0:0:
192,192,149554,1,0,0:0:0:0:
64,192,149554,1,0,0:0:0:0:
448,192,149626,1,0,0:0:0:0:
320,192,149697,1,0,0:0:0:0:
192,192,149697,1,0,0:0:0:0:
64,192,149769,1,0,0:0:0:0:
64,192,149911,5,0,0:0:0:0:
192,192,149911,1,0,0:0:0:0:
320,192,149911,1,0,0:0:0:0:
448,192,149911,1,0,0:0:0:0:
64,192,150197,1,0,0:0:0:0:
192,192,150197,1,0,0:0:0:0:
448,192,150197,1,0,0:0:0:0:
320,192,150269,1,0,0:0:0:0:
448,192,150340,1,0,0:0:0:0:
64,192,150340,1,0,0:0:0:0:
192,192,150340,1,0,0:0:0:0:
320,192,150411,1,0,0:0:0:0:
448,192,150483,1,0,0:0:0:0:
64,192,150483,1,0,0:0:0:0:
192,192,150554,1,0,0:0:0:0:
320,192,150626,1,0,0:0:0:0:
448,192,150626,1,0,0:0:0:0:
192,192,150697,1,0,0:0:0:0:
64,192,150769,1,0,0:0:0:0:
448,192,150769,1,0,0:0:0:0:
192,192,150840,1,0,0:0:0:0:
320,192,150840,1,0,0:0:0:0:
448,192,150911,1,0,0:0:0:0:
192,192,150983,1,0,0:0:0:0:
64,192,150983,1,0,0:0:0:0:
320,192,151054,1,0,0:0:0:0:
448,192,151126,1,0,0:0:0:0:
64,192,151126,1,0,0:0:0:0:
192,192,151197,1,0,0:0:0:0:
320,192,151269,1,0,0:0:0:0:
448,192,151269,1,0,0:0:0:0:
64,192,151340,1,0,0:0:0:0:
448,192,151411,1,0,0:0:0:0:
192,192,151411,1,0,0:0:0:0:
320,192,151483,1,0,0:0:0:0:
64,192,151483,1,0,0:0:0:0:
192,192,151554,1,0,0:0:0:0:
448,192,151554,1,0,0:0:0:0:
64,192,151626,1,0,0:0:0:0:
448,192,151697,1,0,0:0:0:0:
320,192,151697,1,0,0:0:0:0:
192,192,151769,1,0,0:0:0:0:
64,192,151840,1,0,0:0:0:0:
448,192,151840,1,0,0:0:0:0:
320,192,151911,1,0,0:0:0:0:
64,192,151983,1,0,0:0:0:0:
192,192,151983,1,0,0:0:0:0:
448,192,152054,1,0,0:0:0:0:
192,192,152126,1,0,0:0:0:0:
320,192,152126,1,0,0:0:0:0:
64,192,152197,1,0,0:0:0:0:
448,192,152269,1,0,0:0:0:0:
320,192,152269,1,0,0:0:0:0:
192,192,152340,1,0,0:0:0:0:
64,192,152411,1,0,0:0:0:0:
448,192,152411,1,0,0:0:0:0:
320,192,152411,1,0,0:0:0:0:
192,192,152483,1,0,0:0:0:0:
448,192,152554,1,0,0:0:0:0:
64,192,152554,1,0,0:0:0:0:
320,192,152554,1,0,0:0:0:0:
192,192,152626,1,0,0:0:0:0:
448,192,152697,1,0,0:0:0:0:
64,192,152697,1,0,0:0:0:0:
320,192,152769,1,0,0:0:0:0:
64,192,152840,1,0,0:0:0:0:
192,192,152840,1,0,0:0:0:0:
448,192,152840,1,0,0:0:0:0:
320,192,152911,1,0,0:0:0:0:
64,192,152983,1,0,0:0:0:0:
448,192,152983,1,0,0:0:0:0:
192,192,153054,1,0,0:0:0:0:
320,192,153126,1,0,0:0:0:0:
64,192,153126,1,0,0:0:0:0:
448,192,153197,1,0,0:0:0:0:
192,192,153269,1,0,0:0:0:0:
64,192,153269,1,0,0:0:0:0:
320,192,153340,1,0,0:0:0:0:
64,192,153411,1,0,0:0:0:0:
448,192,153411,1,0,0:0:0:0:
192,192,153483,1,0,0:0:0:0:
320,192,153554,1,0,0:0:0:0:
448,192,153554,1,0,0:0:0:0:
64,192,153626,1,0,0:0:0:0:
192,192,153697,1,0,0:0:0:0:
448,192,153697,1,0,0:0:0:0:
64,192,153769,1,0,0:0:0:0:
320,192,153769,1,0,0:0:0:0:
192,192,153840,1,0,0:0:0:0:
448,192,153840,1,0,0:0:0:0:
64,192,153911,1,0,0:0:0:0:
320,192,153983,1,0,0:0:0:0:
448,192,153983,1,0,0:0:0:0:
192,192,154054,1,0,0:0:0:0:
320,192,154126,1,0,0:0:0:0:
64,192,154126,1,0,0:0:0:0:
448,192,154197,1,0,0:0:0:0:
64,192,154269,1,0,0:0:0:0:
192,192,154269,1,0,0:0:0:0:
320,192,154340,1,0,0:0:0:0:
192,192,154411,1,0,0:0:0:0:
448,192,154411,1,0,0:0:0:0:
64,192,154483,1,0,0:0:0:0:
320,192,154554,1,0,0:0:0:0:
448,192,154554,1,0,0:0:0:0:
192,192,154626,1,0,0:0:0:0:
448,192,154697,1,0,0:0:0:0:
64,192,154697,1,0,0:0:0:0:
320,192,154769,1,0,0:0:0:0:
448,192,154840,1,0,0:0:0:0:
192,192,154840,1,0,0:0:0:0:
64,192,154911,1,0,0:0:0:0:
192,192,154983,1,0,0:0:0:0:
320,192,154983,1,0,0:0:0:0:
448,192,155054,1,0,0:0:0:0:
64,192,155126,1,0,0:0:0:0:
192,192,155126,1,0,0:0:0:0:
320,192,155197,1,0,0:0:0:0:
192,192,155269,1,0,0:0:0:0:
448,192,155269,1,0,0:0:0:0:
64,192,155340,1,0,0:0:0:0:
448,192,155411,1,0,0:0:0:0:
320,192,155411,1,0,0:0:0:0:
192,192,155483,1,0,0:0:0:0:
64,192,155554,1,0,0:0:0:0:
448,192,155554,1,0,0:0:0:0:
320,192,155626,1,0,0:0:0:0:
448,192,155697,1,0,0:0:0:0:
64,192,155697,1,0,0:0:0:0:
192,192,155769,1,0,0:0:0:0:
320,192,155840,1,0,0:0:0:0:
64,192,155840,1,0,0:0:0:0:
448,192,155911,1,0,0:0:0:0:
64,192,155983,1,0,0:0:0:0:
192,192,155983,1,0,0:0:0:0:
320,192,156054,1,0,0:0:0:0:
64,192,156126,1,0,0:0:0:0:
448,192,156126,1,0,0:0:0:0:
192,192,156197,1,0,0:0:0:0:
448,192,156269,1,0,0:0:0:0:
320,192,156269,1,0,0:0:0:0:
64,192,156340,1,0,0:0:0:0:
448,192,156411,1,0,0:0:0:0:
192,192,156411,1,0,0:0:0:0:
320,192,156483,1,0,0:0:0:0:
64,192,156554,1,0,0:0:0:0:
192,192,156554,1,0,0:0:0:0:
448,192,156626,1,0,0:0:0:0:
64,192,156697,1,0,0:0:0:0:
320,192,156697,1,0,0:0:0:0:
192,192,156769,1,0,0:0:0:0:
320,192,156840,1,0,0:0:0:0:
448,192,156840,1,0,0:0:0:0:
64,192,156911,1,0,0:0:0:0:
448,192,156983,1,0,0:0:0:0:
192,192,156983,1,0,0:0:0:0:
320,192,157054,1,0,0:0:0:0:
64,192,157126,1,0,0:0:0:0:
192,192,157126,1,0,0:0:0:0:
448,192,157197,1,0,0:0:0:0:
320,192,157269,1,0,0:0:0:0:
64,192,157269,1,0,0:0:0:0:
192,192,157340,1,0,0:0:0:0:
448,192,157411,1,0,0:0:0:0:
64,192,157411,1,0,0:0:0:0:
320,192,157483,1,0,0:0:0:0:
64,192,157554,5,0,0:0:0:0:
448,192,157554,1,0,0:0:0:0:
192,192,157554,1,0,0:0:0:0:
320,192,157626,1,0,0:0:0:0:
448,192,157697,1,0,0:0:0:0:
64,192,157697,1,0,0:0:0:0:
192,192,157769,1,0,0:0:0:0:
320,192,157840,1,0,0:0:0:0:
64,192,157840,1,0,0:0:0:0:
448,192,157840,1,0,0:0:0:0:
192,192,157911,1,0,0:0:0:0:
448,192,157983,1,0,0:0:0:0:
64,192,157983,1,0,0:0:0:0:
320,192,158054,1,0,0:0:0:0:
448,192,158126,1,0,0:0:0:0:
192,192,158126,1,0,0:0:0:0:
64,192,158126,1,0,0:0:0:0:
320,192,158197,1,0,0:0:0:0:
192,192,158269,1,0,0:0:0:0:
64,192,158269,1,0,0:0:0:0:
320,192,158340,1,0,0:0:0:0:
448,192,158411,1,0,0:0:0:0:
64,192,158411,1,0,0:0:0:0:
192,192,158411,1,0,0:0:0:0:
320,192,158483,1,0,0:0:0:0:
64,192,158554,1,0,0:0:0:0:
448,192,158554,1,0,0:0:0:0:
192,192,158554,1,0,0:0:0:0:
320,192,158626,1,0,0:0:0:0:
64,192,158697,5,0,0:0:0:0:
192,192,158697,1,0,0:0:0:0:
320,192,158769,1,0,0:0:0:0:
448,192,158769,1,0,0:0:0:0:
192,192,158840,1,0,0:0:0:0:
64,192,158840,1,0,0:0:0:0:
448,192,158911,1,0,0:0:0:0:
320,192,158983,1,0,0:0:0:0:
64,192,158983,1,0,0:0:0:0:
192,192,159054,1,0,0:0:0:0:
448,192,159054,1,0,0:0:0:0:
64,192,159126,1,0,0:0:0:0:
320,192,159126,1,0,0:0:0:0:
448,192,159197,1,0,0:0:0:0:
64,192,159269,1,0,0:0:0:0:
192,192,159269,1,0,0:0:0:0:
320,192,159269,1,0,0:0:0:0:
448,192,159340,1,0,0:0:0:0:
320,192,159411,1,0,0:0:0:0:
192,192,159411,1,0,0:0:0:0:
64,192,159411,1,0,0:0:0:0:
448,192,159483,1,0,0:0:0:0:
320,192,159554,1,0,0:0:0:0:
192,192,159554,1,0,0:0:0:0:
64,192,159626,1,0,0:0:0:0:
192,192,159697,1,0,0:0:0:0:
320,192,159697,1,0,0:0:0:0:
448,192,159697,1,0,0:0:0:0:
64,192,159769,1,0,0:0:0:0:
192,192,159840,1,0,0:0:0:0:
320,192,159840,1,0,0:0:0:0:
448,192,159840,1,0,0:0:0:0:
64,192,159911,1,0,0:0:0:0:
448,192,159983,1,0,0:0:0:0:
320,192,159983,1,0,0:0:0:0:
192,192,160054,1,0,0:0:0:0:
64,192,160126,1,0,0:0:0:0:
320,192,160126,1,0,0:0:0:0:
448,192,160197,1,0,0:0:0:0:
192,192,160269,1,0,0:0:0:0:
64,192,160269,1,0,0:0:0:0:
320,192,160340,1,0,0:0:0:0:
448,192,160411,1,0,0:0:0:0:
192,192,160411,1,0,0:0:0:0:
64,192,160411,1,0,0:0:0:0:
320,192,160483,1,0,0:0:0:0:
448,192,160554,1,0,0:0:0:0:
64,192,160554,1,0,0:0:0:0:
192,192,160626,1,0,0:0:0:0:
320,192,160697,1,0,0:0:0:0:
64,192,160697,1,0,0:0:0:0:
448,192,160769,1,0,0:0:0:0:
192,192,160769,1,0,0:0:0:0:
320,192,160840,1,0,0:0:0:0:
448,192,160911,1,0,0:0:0:0:
192,192,160911,1,0,0:0:0:0:
64,192,160911,1,0,0:0:0:0:
320,192,160983,1,0,0:0:0:0:
448,192,161054,1,0,0:0:0:0:
64,192,161054,1,0,0:0:0:0:
320,192,161126,1,0,0:0:0:0:
192,192,161126,1,0,0:0:0:0:
448,192,161197,1,0,0:0:0:0:
64,192,161197,1,0,0:0:0:0:
320,192,161269,1,0,0:0:0:0:
64,192,161340,1,0,0:0:0:0:
192,192,161340,1,0,0:0:0:0:
448,192,161411,1,0,0:0:0:0:
320,192,161483,1,0,0:0:0:0:
192,192,161483,1,0,0:0:0:0:
64,192,161483,1,0,0:0:0:0:
448,192,161554,1,0,0:0:0:0:
320,192,161626,1,0,0:0:0:0:
192,192,161626,1,0,0:0:0:0:
64,192,161697,1,0,0:0:0:0:
448,192,161697,1,0,0:0:0:0:
320,192,161769,1,0,0:0:0:0:
192,192,161840,1,0,0:0:0:0:
64,192,161840,1,0,0:0:0:0:
448,192,161840,1,0,0:0:0:0:
320,192,161911,1,0,0:0:0:0:
448,192,161983,1,0,0:0:0:0:
64,192,161983,1,0,0:0:0:0:
192,192,162054,1,0,0:0:0:0:
320,192,162126,1,0,0:0:0:0:
448,192,162126,1,0,0:0:0:0:
64,192,162126,1,0,0:0:0:0:
192,192,162197,1,0,0:0:0:0:
64,192,162269,1,0,0:0:0:0:
448,192,162269,1,0,0:0:0:0:
320,192,162340,1,0,0:0:0:0:
192,192,162411,1,0,0:0:0:0:
64,192,162411,1,0,0:0:0:0:
320,192,162483,1,0,0:0:0:0:
448,192,162554,1,0,0:0:0:0:
64,192,162554,1,0,0:0:0:0:
192,192,162626,1,0,0:0:0:0:
320,192,162697,1,0,0:0:0:0:
448,192,162697,1,0,0:0:0:0:
64,192,162769,1,0,0:0:0:0:
192,192,162840,1,0,0:0:0:0:
448,192,162840,1,0,0:0:0:0:
320,192,162911,1,0,0:0:0:0:
192,192,162983,1,0,0:0:0:0:
64,192,162983,1,0,0:0:0:0:
448,192,162983,1,0,0:0:0:0:
320,192,163054,1,0,0:0:0:0:
192,192,163126,1,0,0:0:0:0:
448,192,163126,1,0,0:0:0:0:
64,192,163197,1,0,0:0:0:0:
320,192,163197,1,0,0:0:0:0:
448,192,163269,1,0,0:0:0:0:
320,192,163340,1,0,0:0:0:0:
192,192,163340,1,0,0:0:0:0:
64,192,163340,1,0,0:0:0:0:
448,192,163411,1,0,0:0:0:0:
192,192,163483,1,0,0:0:0:0:
320,192,163483,1,0,0:0:0:0:
64,192,163554,1,0,0:0:0:0:
320,192,163626,1,0,0:0:0:0:
192,192,163626,1,0,0:0:0:0:
448,192,163626,1,0,0:0:0:0:
64,192,163697,1,0,0:0:0:0:
448,192,163769,1,0,0:0:0:0:
192,192,163769,1,0,0:0:0:0:
320,192,163840,1,0,0:0:0:0:
192,192,163911,1,0,0:0:0:0:
64,192,163911,1,0,0:0:0:0:
448,192,163911,1,0,0:0:0:0:
320,192,163983,1,0,0:0:0:0:
448,192,164054,1,0,0:0:0:0:
192,192,164054,1,0,0:0:0:0:
64,192,164126,1,0,0:0:0:0:
448,192,164197,1,0,0:0:0:0:
320,192,164197,1,0,0:0:0:0:
192,192,164197,1,0,0:0:0:0:
64,192,164269,1,0,0:0:0:0:
320,192,164340,1,0,0:0:0:0:
192,192,164340,1,0,0:0:0:0:
448,192,164411,1,0,0:0:0:0:
320,192,164483,1,0,0:0:0:0:
64,192,164483,1,0,0:0:0:0:
192,192,164483,1,0,0:0:0:0:
448,192,164554,1,0,0:0:0:0:
64,192,164626,1,0,0:0:0:0:
320,192,164626,1,0,0:0:0:0:
192,192,164697,1,0,0:0:0:0:
448,192,164769,1,0,0:0:0:0:
320,192,164769,1,0,0:0:0:0:
64,192,164769,1,0,0:0:0:0:
192,192,164840,1,0,0:0:0:0:
64,192,164911,1,0,0:0:0:0:
320,192,164911,1,0,0:0:0:0:
448,192,164983,1,0,0:0:0:0:
64,192,165054,1,0,0:0:0:0:
192,192,165054,1,0,0:0:0:0:
320,192,165054,1,0,0:0:0:0:
448,192,165126,1,0,0:0:0:0:
320,192,165197,1,0,0:0:0:0:
64,192,165197,1,0,0:0:0:0:
192,192,165269,1,0,0:0:0:0:
448,192,165340,1,0,0:0:0:0:
320,192,165340,1,0,0:0:0:0:
64,192,165340,1,0,0:0:0:0:
192,192,165411,1,0,0:0:0:0:
320,192,165483,1,0,0:0:0:0:
64,192,165483,1,0,0:0:0:0:
448,192,165554,1,0,0:0:0:0:
64,192,165626,1,0,0:0:0:0:
192,192,165626,1,0,0:0:0:0:
320,192,165626,1,0,0:0:0:0:
448,192,165697,1,0,0:0:0:0:
192,192,165769,1,0,0:0:0:0:
320,192,165769,1,0,0:0:0:0:
64,192,165840,1,0,0:0:0:0:
320,192,165911,1,0,0:0:0:0:
192,192,165911,1,0,0:0:0:0:
448,192,165911,1,0,0:0:0:0:
64,192,165983,1,0,0:0:0:0:
320,192,166054,1,0,0:0:0:0:
448,192,166054,1,0,0:0:0:0:
192,192,166054,1,0,0:0:0:0:
64,192,166126,1,0,0:0:0:0:
192,192,166197,1,0,0:0:0:0:
320,192,166197,1,0,0:0:0:0:
448,192,166197,1,0,0:0:0:0:
64,192,166269,1,0,0:0:0:0:
192,192,166340,1,0,0:0:0:0:
320,192,166340,1,0,0:0:0:0:
448,192,166411,1,0,0:0:0:0:
320,192,166483,1,0,0:0:0:0:
192,192,166483,1,0,0:0:0:0:
64,192,166483,1,0,0:0:0:0:
448,192,166554,1,0,0:0:0:0:
64,192,166626,1,0,0:0:0:0:
192,192,166626,1,0,0:0:0:0:
320,192,166626,1,0,0:0:0:0:
448,192,166697,1,0,0:0:0:0:
320,192,166769,1,0,0:0:0:0:
192,192,166769,1,0,0:0:0:0:
64,192,166769,1,0,0:0:0:0:
448,192,166840,1,0,0:0:0:0:
192,192,166911,1,0,0:0:0:0:
320,192,166911,1,0,0:0:0:0:
64,192,166983,1,0,0:0:0:0:
320,192,167054,5,0,0:0:0:0:
448,192,167054,1,0,0:0:0:0:
192,192,167126,1,0,0:0:0:0:
64,192,167126,1,0,0:0:0:0:
320,192,167197,1,0,0:0:0:0:
448,192,167197,1,0,0:0:0:0:
64,192,167269,1,0,0:0:0:0:
192,192,167269,1,0,0:0:0:0:
320,192,167340,1,0,0:0:0:0:
448,192,167340,1,0,0:0:0:0:
192,192,167411,1,0,0:0:0:0:
64,192,167411,1,0,0:0:0:0:
320,192,167483,1,0,0:0:0:0:
448,192,167483,1,0,0:0:0:0:
192,192,167554,1,0,0:0:0:0:
64,192,167554,1,0,0:0:0:0:
320,192,167626,1,0,0:0:0:0:
448,192,167626,1,0,0:0:0:0:
192,192,167697,1,0,0:0:0:0:
64,192,167697,1,0,0:0:0:0:
320,192,167769,1,0,0:0:0:0:
448,192,167769,1,0,0:0:0:0:
192,192,167840,1,0,0:0:0:0:
64,192,167840,1,0,0:0:0:0:
448,192,167911,1,0,0:0:0:0:
320,192,167911,1,0,0:0:0:0:
64,192,167983,1,0,0:0:0:0:
192,192,167983,1,0,0:0:0:0:
448,192,168054,1,0,0:0:0:0:
320,192,168054,1,0,0:0:0:0:
192,192,168126,1,0,0:0:0:0:
64,192,168126,1,0,0:0:0:0:
