osu file format v14

[General]
AudioFilename: logic agent.mp3
AudioLeadIn: 0
PreviewTime: 76753
Countdown: 0
SampleSet: Normal
StackLeniency: 0.7
Mode: 3
LetterboxInBreaks: 0
SpecialStyle: 0
WidescreenStoryboard: 1

[Editor]
DistanceSpacing: 1.3
BeatDivisor: 4
GridSize: 4
TimelineZoom: 1.5

[Metadata]
Title:Xcaliboor pack
TitleUnicode:Xcaliboor pack
Artist:t+pazolite
ArtistUnicode:t+pazolite
Creator:Xcaliboor
Version:Logic Agent
Source:
Tags:
BeatmapID:818346
BeatmapSetID:373282

[Difficulty]
HPDrainRate:7
CircleSize:4
OverallDifficulty:7
ApproachRate:5
SliderMultiplier:1.4
SliderTickRate:1

[Events]
//Background and Video events
0,0,"BG.png",0,0
//Break Periods
//Storyboard Layer 0 (Background)
//Storyboard Layer 1 (Fail)
//Storyboard Layer 2 (Pass)
//Storyboard Layer 3 (Foreground)
//Storyboard Sound Samples

[TimingPoints]
4455,307.692307692308,4,1,0,25,1,0

[HitObjects]
192,192,6763,5,0,0:0:0:0:
448,192,6763,1,0,0:0:0:0:
320,192,6839,1,0,0:0:0:0:
192,192,6916,1,0,0:0:0:0:
64,192,6916,1,0,0:0:0:0:
448,192,7070,1,0,0:0:0:0:
320,192,7070,1,0,0:0:0:0:
192,192,7455,1,0,0:0:0:0:
64,192,7455,1,0,0:0:0:0:
320,192,7531,1,0,0:0:0:0:
448,192,7608,1,0,0:0:0:0:
64,192,7608,1,0,0:0:0:0:
192,192,7762,1,0,0:0:0:0:
320,192,7762,1,0,0:0:0:0:
448,192,8070,1,0,0:0:0:0:
192,192,8070,1,0,0:0:0:0:
320,192,8147,1,0,0:0:0:0:
448,192,8224,1,0,0:0:0:0:
64,192,8224,1,0,0:0:0:0:
192,192,8378,1,0,0:0:0:0:
64,192,8378,1,0,0:0:0:0:
448,192,8685,1,0,0:0:0:0:
64,192,8685,1,0,0:0:0:0:
192,192,8762,1,0,0:0:0:0:
320,192,8839,1,0,0:0:0:0:
448,192,8839,1,0,0:0:0:0:
192,192,8993,1,0,0:0:0:0:
448,192,8993,1,0,0:0:0:0:
64,192,9301,1,0,0:0:0:0:
448,192,9301,1,0,0:0:0:0:
192,192,9378,1,0,0:0:0:0:
448,192,9455,1,0,0:0:0:0:
64,192,9455,1,0,0:0:0:0:
192,192,9608,1,0,0:0:0:0:
320,192,9608,1,0,0:0:0:0:
448,192,9916,1,0,0:0:0:0:
64,192,9916,1,0,0:0:0:0:
320,192,9993,1,0,0:0:0:0:
192,192,10070,1,0,0:0:0:0:
64,192,10070,1,0,0:0:0:0:
320,192,10224,1,0,0:0:0:0:
448,192,10224,1,0,0:0:0:0:
64,192,10608,1,0,0:0:0:0:
448,192,10608,1,0,0:0:0:0:
320,192,10685,1,0,0:0:0:0:
448,192,10762,1,0,0:0:0:0:
192,192,10762,1,0,0:0:0:0:
64,192,10916,1,0,0:0:0:0:
192,192,10916,1,0,0:0:0:0:
448,192,11224,1,0,0:0:0:0:
64,192,11224,1,0,0:0:0:0:
192,192,11301,1,0,0:0:0:0:
64,192,11378,1,0,0:0:0:0:
320,192,11378,1,0,0:0:0:0:
320,192,11532,1,0,0:0:0:0:
448,192,11532,1,0,0:0:0:0:
192,192,11609,1,0,0:0:0:0:
64,192,11609,1,0,0:0:0:0:
320,192,11686,1,0,0:0:0:0:
448,192,11686,1,0,0:0:0:0:
192,192,11763,1,0,0:0:0:0:
64,192,11763,1,0,0:0:0:0:
320,192,11840,1,0,0:0:0:0:
448,192,11840,1,0,0:0:0:0:
64,192,11993,1,0,0:0:0:0:
192,192,11993,1,0,0:0:0:0:
448,192,12147,1,0,0:0:0:0:
64,192,12147,1,0,0:0:0:0:
192,192,12224,1,0,0:0:0:0:
320,192,12301,1,0,0:0:0:0:
64,192,12301,1,0,0:0:0:0:
448,192,12531,1,0,0:0:0:0:
320,192,12531,1,0,0:0:0:0:
192,192,12608,1,0,0:0:0:0:
64,192,12685,1,0,0:0:0:0:
320,192,12685,1,0,0:0:0:0:
192,192,12839,1,0,0:0:0:0:
64,192,12839,1,0,0:0:0:0:
448,192,13147,1,0,0:0:0:0:
64,192,13147,1,0,0:0:0:0:
192,192,13224,1,0,0:0:0:0:
320,192,13301,1,0,0:0:0:0:
448,192,13301,1,0,0:0:0:0:
64,192,13455,1,0,0:0:0:0:
192,192,13455,1,0,0:0:0:0:
448,192,13762,1,0,0:0:0:0:
192,192,13762,1,0,0:0:0:0:
320,192,13839,1,0,0:0:0:0:
64,192,13916,1,0,0:0:0:0:
448,192,13916,1,0,0:0:0:0:
64,192,14070,1,0,0:0:0:0:
192,192,14070,1,0,0:0:0:0:
448,192,14378,1,0,0:0:0:0:
64,192,14378,1,0,0:0:0:0:
192,192,14455,1,0,0:0:0:0:
320,192,14531,1,0,0:0:0:0:
448,192,14531,1,0,0:0:0:0:
192,192,14685,1,0,0:0:0:0:
448,192,14685,1,0,0:0:0:0:
64,192,14685,128,0,16147:0:0:0:0:
192,192,16147,1,0,0:0:0:0:
320,192,16147,1,0,0:0:0:0:
448,192,16147,1,0,0:0:0:0:
320,192,16302,1,0,0:0:0:0:
448,192,16302,1,0,0:0:0:0:
192,192,16378,1,0,0:0:0:0:
64,192,16378,1,0,0:0:0:0:
320,192,16455,1,0,0:0:0:0:
448,192,16455,1,0,0:0:0:0:
64,192,16609,1,0,0:0:0:0:
192,192,16609,1,0,0:0:0:0:
320,192,16686,1,0,0:0:0:0:
448,192,16686,1,0,0:0:0:0:
64,192,16763,1,0,0:0:0:0:
192,192,16763,1,0,0:0:0:0:
448,192,16993,1,0,0:0:0:0:
192,192,16993,1,0,0:0:0:0:
64,192,17147,1,0,0:0:0:0:
320,192,17301,1,0,0:0:0:0:
192,192,17301,1,0,0:0:0:0:
448,192,17455,1,0,0:0:0:0:
64,192,17608,1,0,0:0:0:0:
192,192,17608,1,0,0:0:0:0:
64,192,17762,1,0,0:0:0:0:
448,192,17762,1,0,0:0:0:0:
192,192,17916,1,0,0:0:0:0:
320,192,18070,1,0,0:0:0:0:
448,192,18070,1,0,0:0:0:0:
64,192,18224,1,0,0:0:0:0:
320,192,18378,1,0,0:0:0:0:
448,192,18378,1,0,0:0:0:0:
64,192,18531,1,0,0:0:0:0:
320,192,18531,1,0,0:0:0:0:
192,192,18685,1,0,0:0:0:0:
448,192,18685,1,0,0:0:0:0:
320,192,18839,1,0,0:0:0:0:
64,192,18993,1,0,0:0:0:0:
192,192,18993,1,0,0:0:0:0:
192,192,19147,1,0,0:0:0:0:
320,192,19147,1,0,0:0:0:0:
448,192,19301,1,0,0:0:0:0:
64,192,19301,1,0,0:0:0:0:
64,192,19455,1,0,0:0:0:0:
320,192,19455,1,0,0:0:0:0:
192,192,19608,1,0,0:0:0:0:
448,192,19762,1,0,0:0:0:0:
64,192,19916,1,0,0:0:0:0:
192,192,19916,1,0,0:0:0:0:
64,192,20070,1,0,0:0:0:0:
320,192,20070,1,0,0:0:0:0:
448,192,20224,1,0,0:0:0:0:
192,192,20224,1,0,0:0:0:0:
64,192,20378,1,0,0:0:0:0:
320,192,20531,1,0,0:0:0:0:
192,192,20685,1,0,0:0:0:0:
64,192,20839,1,0,0:0:0:0:
320,192,20839,1,0,0:0:0:0:
448,192,20993,1,0,0:0:0:0:
320,192,20993,1,0,0:0:0:0:
192,192,21147,1,0,0:0:0:0:
320,192,21147,1,0,0:0:0:0:
64,192,21301,1,0,0:0:0:0:
448,192,21301,1,0,0:0:0:0:
64,192,21455,1,0,0:0:0:0:
192,192,21455,1,0,0:0:0:0:
320,192,21608,1,0,0:0:0:0:
448,192,21762,1,0,0:0:0:0:
192,192,21762,1,0,0:0:0:0:
64,192,21916,1,0,0:0:0:0:
192,192,22070,1,0,0:0:0:0:
320,192,22070,1,0,0:0:0:0:
448,192,22224,1,0,0:0:0:0:
64,192,22378,1,0,0:0:0:0:
192,192,22378,1,0,0:0:0:0:
64,192,22531,1,0,0:0:0:0:
448,192,22531,1,0,0:0:0:0:
192,192,22685,1,0,0:0:0:0:
320,192,22839,1,0,0:0:0:0:
448,192,22839,1,0,0:0:0:0:
64,192,22993,1,0,0:0:0:0:
448,192,23147,1,0,0:0:0:0:
320,192,23147,1,0,0:0:0:0:
320,192,23301,1,0,0:0:0:0:
64,192,23301,1,0,0:0:0:0:
192,192,23455,1,0,0:0:0:0:
448,192,23455,1,0,0:0:0:0:
320,192,23608,1,0,0:0:0:0:
64,192,23762,1,0,0:0:0:0:
192,192,23762,1,0,0:0:0:0:
320,192,23916,1,0,0:0:0:0:
192,192,23916,1,0,0:0:0:0:
64,192,24070,1,0,0:0:0:0:
448,192,24070,1,0,0:0:0:0:
64,192,24224,1,0,0:0:0:0:
320,192,24224,1,0,0:0:0:0:
192,192,24378,1,0,0:0:0:0:
448,192,24531,1,0,0:0:0:0:
192,192,24685,1,0,0:0:0:0:
64,192,24685,1,0,0:0:0:0:
320,192,24839,1,0,0:0:0:0:
64,192,24839,1,0,0:0:0:0:
192,192,24993,1,0,0:0:0:0:
448,192,24993,1,0,0:0:0:0:
64,192,25147,1,0,0:0:0:0:
320,192,25301,1,0,0:0:0:0:
192,192,25455,1,0,0:0:0:0:
320,192,25608,1,0,0:0:0:0:
64,192,25608,1,0,0:0:0:0:
320,192,25762,1,0,0:0:0:0:
448,192,25762,1,0,0:0:0:0:
192,192,25916,5,0,0:0:0:0:
320,192,25916,1,0,0:0:0:0:
64,192,26070,1,0,0:0:0:0:
448,192,26070,1,0,0:0:0:0:
192,192,26224,1,0,0:0:0:0:
64,192,26224,1,0,0:0:0:0:
448,192,26378,1,0,0:0:0:0:
64,192,26378,1,0,0:0:0:0:
320,192,26378,1,0,0:0:0:0:
64,192,26531,1,0,0:0:0:0:
192,192,26531,1,0,0:0:0:0:
320,192,26531,1,0,0:0:0:0:
448,192,26685,1,0,0:0:0:0:
64,192,26685,1,0,0:0:0:0:
192,192,26685,1,0,0:0:0:0:
64,192,26839,1,0,0:0:0:0:
320,192,26839,1,0,0:0:0:0:
64,192,26993,5,0,0:0:0:0:
192,192,26993,1,0,0:0:0:0:
320,192,26993,1,0,0:0:0:0:
448,192,26993,128,0,27993:0:0:0:0:
64,192,27147,1,0,0:0:0:0:
192,192,27147,1,0,0:0:0:0:
64,192,27301,1,0,0:0:0:0:
320,192,27301,1,0,0:0:0:0:
64,192,27685,1,0,0:0:0:0:
320,192,27685,1,0,0:0:0:0:
64,192,27839,1,0,0:0:0:0:
192,192,27839,1,0,0:0:0:0:
192,192,27993,128,0,29224:0:0:0:0:
64,192,27993,1,0,0:0:0:0:
320,192,27993,1,0,0:0:0:0:
64,192,28301,1,0,0:0:0:0:
448,192,28301,1,0,0:0:0:0:
64,192,28455,1,0,0:0:0:0:
320,192,28455,1,0,0:0:0:0:
320,192,28608,1,0,0:0:0:0:
448,192,28608,1,0,0:0:0:0:
64,192,28916,1,0,0:0:0:0:
320,192,28916,1,0,0:0:0:0:
448,192,29070,1,0,0:0:0:0:
64,192,29070,1,0,0:0:0:0:
320,192,29224,1,0,0:0:0:0:
448,192,29224,1,0,0:0:0:0:
64,192,29224,128,0,30455:0:0:0:0:
448,192,29531,1,0,0:0:0:0:
192,192,29531,1,0,0:0:0:0:
320,192,29685,1,0,0:0:0:0:
192,192,29685,1,0,0:0:0:0:
448,192,29839,1,0,0:0:0:0:
320,192,29839,1,0,0:0:0:0:
192,192,30147,1,0,0:0:0:0:
448,192,30147,1,0,0:0:0:0:
448,192,30301,1,0,0:0:0:0:
320,192,30301,1,0,0:0:0:0:
192,192,30455,1,0,0:0:0:0:
320,192,30455,1,0,0:0:0:0:
448,192,30455,128,0,31685:0:0:0:0:
64,192,30762,1,0,0:0:0:0:
320,192,30762,1,0,0:0:0:0:
192,192,30916,1,0,0:0:0:0:
320,192,30916,1,0,0:0:0:0:
64,192,31070,1,0,0:0:0:0:
320,192,31070,1,0,0:0:0:0:
320,192,31378,1,0,0:0:0:0:
192,192,31378,1,0,0:0:0:0:
64,192,31531,1,0,0:0:0:0:
320,192,31531,1,0,0:0:0:0:
192,192,31685,1,0,0:0:0:0:
320,192,31685,1,0,0:0:0:0:
64,192,31685,128,0,32993:0:0:0:0:
192,192,32070,1,0,0:0:0:0:
320,192,32070,1,0,0:0:0:0:
448,192,32224,1,0,0:0:0:0:
192,192,32224,1,0,0:0:0:0:
320,192,32378,1,0,0:0:0:0:
448,192,32378,1,0,0:0:0:0:
192,192,32685,1,0,0:0:0:0:
448,192,32685,1,0,0:0:0:0:
192,192,32839,1,0,0:0:0:0:
320,192,32839,1,0,0:0:0:0:
192,192,32993,1,0,0:0:0:0:
448,192,32993,1,0,0:0:0:0:
320,192,32993,128,0,34224:0:0:0:0:
64,192,33301,1,0,0:0:0:0:
448,192,33301,1,0,0:0:0:0:
192,192,33455,1,0,0:0:0:0:
448,192,33455,1,0,0:0:0:0:
64,192,33608,1,0,0:0:0:0:
192,192,33608,1,0,0:0:0:0:
64,192,33916,1,0,0:0:0:0:
448,192,33916,1,0,0:0:0:0:
64,192,34070,1,0,0:0:0:0:
192,192,34070,1,0,0:0:0:0:
64,192,34224,5,0,0:0:0:0:
192,192,34224,5,0,0:0:0:0:
448,192,34224,128,0,35224:0:0:0:0:
320,192,34608,1,0,0:0:0:0:
64,192,34608,1,0,0:0:0:0:
192,192,34762,1,0,0:0:0:0:
320,192,34762,1,0,0:0:0:0:
64,192,34916,1,0,0:0:0:0:
192,192,34916,1,0,0:0:0:0:
192,192,35224,1,0,0:0:0:0:
320,192,35224,1,0,0:0:0:0:
64,192,35224,1,0,0:0:0:0:
192,192,35378,5,0,0:0:0:0:
64,192,35378,1,0,0:0:0:0:
320,192,35455,1,0,0:0:0:0:
448,192,35455,1,0,0:0:0:0:
192,192,35531,1,0,0:0:0:0:
64,192,35532,1,0,0:0:0:0:
320,192,35609,1,0,0:0:0:0:
448,192,35609,1,0,0:0:0:0:
192,192,35686,1,0,0:0:0:0:
64,192,35686,1,0,0:0:0:0:
320,192,35763,1,0,0:0:0:0:
448,192,35763,1,0,0:0:0:0:
64,192,35839,128,0,36147:0:0:0:0:
192,192,35839,1,0,0:0:0:0:
192,192,36147,128,0,36455:0:0:0:0:
320,192,36147,1,0,0:0:0:0:
448,192,36455,128,0,36762:0:0:0:0:
64,192,36455,1,0,0:0:0:0:
320,192,36455,1,0,0:0:0:0:
320,192,36762,128,0,36993:0:0:0:0:
192,192,36762,1,0,0:0:0:0:
192,192,36993,1,0,0:0:0:0:
448,192,36993,1,0,0:0:0:0:
64,192,37070,1,0,0:0:0:0:
192,192,37147,1,0,0:0:0:0:
320,192,37147,1,0,0:0:0:0:
448,192,37224,1,0,0:0:0:0:
64,192,37301,1,0,0:0:0:0:
192,192,37301,1,0,0:0:0:0:
320,192,37378,1,0,0:0:0:0:
448,192,37455,1,0,0:0:0:0:
64,192,37455,1,0,0:0:0:0:
192,192,37531,1,0,0:0:0:0:
320,192,37608,1,0,0:0:0:0:
448,192,37608,1,0,0:0:0:0:
192,192,37685,1,0,0:0:0:0:
64,192,37762,1,0,0:0:0:0:
448,192,37762,1,0,0:0:0:0:
320,192,37839,1,0,0:0:0:0:
192,192,37916,1,0,0:0:0:0:
64,192,37916,1,0,0:0:0:0:
448,192,37993,1,0,0:0:0:0:
320,192,38070,1,0,0:0:0:0:
192,192,38070,1,0,0:0:0:0:
64,192,38147,1,0,0:0:0:0:
448,192,38224,1,0,0:0:0:0:
320,192,38224,1,0,0:0:0:0:
64,192,38301,1,0,0:0:0:0:
192,192,38378,1,0,0:0:0:0:
320,192,38378,1,0,0:0:0:0:
448,192,38455,1,0,0:0:0:0:
320,192,38531,1,0,0:0:0:0:
64,192,38531,1,0,0:0:0:0:
192,192,38608,1,0,0:0:0:0:
448,192,38685,1,0,0:0:0:0:
64,192,38685,1,0,0:0:0:0:
320,192,38762,1,0,0:0:0:0:
64,192,38839,1,0,0:0:0:0:
192,192,38839,1,0,0:0:0:0:
320,192,38916,1,0,0:0:0:0:
64,192,38993,1,0,0:0:0:0:
448,192,38993,1,0,0:0:0:0:
192,192,39070,1,0,0:0:0:0:
320,192,39070,1,0,0:0:0:0:
64,192,39147,1,0,0:0:0:0:
448,192,39224,1,0,0:0:0:0:
320,192,39224,1,0,0:0:0:0:
192,192,39301,1,0,0:0:0:0:
64,192,39378,1,0,0:0:0:0:
448,192,39378,1,0,0:0:0:0:
320,192,39455,1,0,0:0:0:0:
192,192,39531,1,0,0:0:0:0:
64,192,39531,1,0,0:0:0:0:
448,192,39608,1,0,0:0:0:0:
320,192,39685,1,0,0:0:0:0:
64,192,39685,1,0,0:0:0:0:
192,192,39762,1,0,0:0:0:0:
320,192,39839,1,0,0:0:0:0:
64,192,39839,1,0,0:0:0:0:
448,192,39916,1,0,0:0:0:0:
192,192,39993,1,0,0:0:0:0:
64,192,39993,1,0,0:0:0:0:
448,192,40070,1,0,0:0:0:0:
320,192,40147,1,0,0:0:0:0:
192,192,40147,1,0,0:0:0:0:
448,192,40224,1,0,0:0:0:0:
64,192,40301,1,0,0:0:0:0:
320,192,40301,1,0,0:0:0:0:
192,192,40378,1,0,0:0:0:0:
448,192,40378,1,0,0:0:0:0:
64,192,40455,1,0,0:0:0:0:
320,192,40531,1,0,0:0:0:0:
448,192,40531,1,0,0:0:0:0:
192,192,40608,1,0,0:0:0:0:
64,192,40685,1,0,0:0:0:0:
448,192,40685,1,0,0:0:0:0:
192,192,40762,1,0,0:0:0:0:
320,192,40839,1,0,0:0:0:0:
448,192,40839,1,0,0:0:0:0:
64,192,40916,1,0,0:0:0:0:
192,192,40993,1,0,0:0:0:0:
320,192,40993,1,0,0:0:0:0:
64,192,41070,1,0,0:0:0:0:
448,192,41147,1,0,0:0:0:0:
320,192,41147,1,0,0:0:0:0:
192,192,41224,1,0,0:0:0:0:
320,192,41301,1,0,0:0:0:0:
64,192,41301,1,0,0:0:0:0:
448,192,41378,1,0,0:0:0:0:
64,192,41455,1,0,0:0:0:0:
192,192,41455,1,0,0:0:0:0:
320,192,41531,1,0,0:0:0:0:
448,192,41608,1,0,0:0:0:0:
192,192,41608,1,0,0:0:0:0:
64,192,41685,1,0,0:0:0:0:
320,192,41762,1,0,0:0:0:0:
448,192,41762,1,0,0:0:0:0:
192,192,41839,1,0,0:0:0:0:
64,192,41916,1,0,0:0:0:0:
448,192,41916,1,0,0:0:0:0:
192,192,41993,1,0,0:0:0:0:
320,192,42070,1,0,0:0:0:0:
448,192,42070,1,0,0:0:0:0:
64,192,42147,1,0,0:0:0:0:
192,192,42224,1,0,0:0:0:0:
320,192,42224,1,0,0:0:0:0:
448,192,42301,1,0,0:0:0:0:
64,192,42378,1,0,0:0:0:0:
192,192,42378,1,0,0:0:0:0:
320,192,42455,1,0,0:0:0:0:
448,192,42531,1,0,0:0:0:0:
64,192,42531,1,0,0:0:0:0:
192,192,42608,1,0,0:0:0:0:
320,192,42685,1,0,0:0:0:0:
448,192,42685,1,0,0:0:0:0:
192,192,42762,1,0,0:0:0:0:
64,192,42839,1,0,0:0:0:0:
448,192,42839,1,0,0:0:0:0:
320,192,42916,1,0,0:0:0:0:
192,192,42993,1,0,0:0:0:0:
64,192,42993,1,0,0:0:0:0:
448,192,43070,1,0,0:0:0:0:
320,192,43147,1,0,0:0:0:0:
64,192,43147,1,0,0:0:0:0:
192,192,43224,1,0,0:0:0:0:
320,192,43301,1,0,0:0:0:0:
448,192,43301,1,0,0:0:0:0:
64,192,43378,1,0,0:0:0:0:
192,192,43455,1,0,0:0:0:0:
448,192,43455,1,0,0:0:0:0:
320,192,43531,1,0,0:0:0:0:
192,192,43608,1,0,0:0:0:0:
64,192,43608,1,0,0:0:0:0:
448,192,43685,1,0,0:0:0:0:
320,192,43762,1,0,0:0:0:0:
64,192,43762,1,0,0:0:0:0:
192,192,43839,1,0,0:0:0:0:
64,192,43916,1,0,0:0:0:0:
448,192,43916,1,0,0:0:0:0:
320,192,43993,1,0,0:0:0:0:
192,192,44070,1,0,0:0:0:0:
448,192,44070,1,0,0:0:0:0:
64,192,44147,1,0,0:0:0:0:
192,192,44224,1,0,0:0:0:0:
320,192,44224,1,0,0:0:0:0:
448,192,44301,1,0,0:0:0:0:
64,192,44378,1,0,0:0:0:0:
192,192,44378,1,0,0:0:0:0:
320,192,44455,1,0,0:0:0:0:
448,192,44531,1,0,0:0:0:0:
192,192,44531,1,0,0:0:0:0:
64,192,44608,1,0,0:0:0:0:
320,192,44685,1,0,0:0:0:0:
448,192,44685,1,0,0:0:0:0:
192,192,44762,1,0,0:0:0:0:
64,192,44839,1,0,0:0:0:0:
320,192,44839,1,0,0:0:0:0:
448,192,44916,1,0,0:0:0:0:
64,192,44993,1,0,0:0:0:0:
192,192,44993,1,0,0:0:0:0:
320,192,45070,1,0,0:0:0:0:
448,192,45147,1,0,0:0:0:0:
64,192,45147,1,0,0:0:0:0:
320,192,45224,1,0,0:0:0:0:
192,192,45301,1,0,0:0:0:0:
448,192,45301,1,0,0:0:0:0:
64,192,45378,1,0,0:0:0:0:
320,192,45455,1,0,0:0:0:0:
448,192,45455,1,0,0:0:0:0:
192,192,45531,1,0,0:0:0:0:
64,192,45608,1,0,0:0:0:0:
448,192,45608,1,0,0:0:0:0:
320,192,45685,1,0,0:0:0:0:
192,192,45762,1,0,0:0:0:0:
64,192,45762,1,0,0:0:0:0:
448,192,45839,1,0,0:0:0:0:
320,192,45916,1,0,0:0:0:0:
192,192,45916,1,0,0:0:0:0:
64,192,45993,1,0,0:0:0:0:
448,192,46070,1,0,0:0:0:0:
192,192,46070,1,0,0:0:0:0:
320,192,46147,1,0,0:0:0:0:
64,192,46224,1,0,0:0:0:0:
192,192,46224,1,0,0:0:0:0:
320,192,46301,1,0,0:0:0:0:
448,192,46378,1,0,0:0:0:0:
192,192,46378,1,0,0:0:0:0:
64,192,46455,1,0,0:0:0:0:
320,192,46531,1,0,0:0:0:0:
448,192,46531,1,0,0:0:0:0:
192,192,46608,1,0,0:0:0:0:
64,192,46685,1,0,0:0:0:0:
448,192,46685,1,0,0:0:0:0:
320,192,46762,1,0,0:0:0:0:
192,192,46839,1,0,0:0:0:0:
64,192,46839,1,0,0:0:0:0:
320,192,46916,1,0,0:0:0:0:
448,192,46993,1,0,0:0:0:0:
64,192,47070,128,0,48301:0:0:0:0:
192,192,47071,1,0,0:0:0:0:
320,192,47071,1,0,0:0:0:0:
192,192,47378,1,0,0:0:0:0:
320,192,47378,1,0,0:0:0:0:
448,192,47531,1,0,0:0:0:0:
192,192,47531,1,0,0:0:0:0:
320,192,47685,1,0,0:0:0:0:
448,192,47685,1,0,0:0:0:0:
192,192,47993,1,0,0:0:0:0:
448,192,47993,1,0,0:0:0:0:
192,192,48147,1,0,0:0:0:0:
320,192,48147,1,0,0:0:0:0:
192,192,48301,1,0,0:0:0:0:
448,192,48301,1,0,0:0:0:0:
320,192,48301,128,0,49608:0:0:0:0:
64,192,48685,1,0,0:0:0:0:
192,192,48685,1,0,0:0:0:0:
448,192,48839,1,0,0:0:0:0:
64,192,48839,1,0,0:0:0:0:
192,192,48993,1,0,0:0:0:0:
448,192,48993,1,0,0:0:0:0:
64,192,49301,1,0,0:0:0:0:
192,192,49301,1,0,0:0:0:0:
448,192,49455,1,0,0:0:0:0:
64,192,49455,1,0,0:0:0:0:
192,192,49608,1,0,0:0:0:0:
64,192,49608,1,0,0:0:0:0:
448,192,49608,128,0,50839:0:0:0:0:
320,192,49916,1,0,0:0:0:0:
64,192,49916,1,0,0:0:0:0:
64,192,50070,1,0,0:0:0:0:
192,192,50070,1,0,0:0:0:0:
320,192,50224,1,0,0:0:0:0:
64,192,50224,1,0,0:0:0:0:
320,192,50531,1,0,0:0:0:0:
192,192,50531,1,0,0:0:0:0:
64,192,50685,1,0,0:0:0:0:
320,192,50685,1,0,0:0:0:0:
192,192,50839,1,0,0:0:0:0:
320,192,50839,1,0,0:0:0:0:
64,192,50839,128,0,52070:0:0:0:0:
192,192,51147,1,0,0:0:0:0:
448,192,51147,1,0,0:0:0:0:
192,192,51301,1,0,0:0:0:0:
320,192,51301,1,0,0:0:0:0:
192,192,51455,1,0,0:0:0:0:
320,192,51455,1,0,0:0:0:0:
448,192,51762,1,0,0:0:0:0:
192,192,51762,1,0,0:0:0:0:
320,192,51916,1,0,0:0:0:0:
448,192,51916,1,0,0:0:0:0:
192,192,52070,1,0,0:0:0:0:
448,192,52070,1,0,0:0:0:0:
320,192,52070,128,0,53378:0:0:0:0:
192,192,52455,1,0,0:0:0:0:
64,192,52455,1,0,0:0:0:0:
448,192,52455,1,0,0:0:0:0:
64,192,52608,1,0,0:0:0:0:
448,192,52608,1,0,0:0:0:0:
192,192,52762,1,0,0:0:0:0:
448,192,52762,1,0,0:0:0:0:
192,192,53070,1,0,0:0:0:0:
64,192,53070,1,0,0:0:0:0:
64,192,53224,1,0,0:0:0:0:
448,192,53224,1,0,0:0:0:0:
192,192,53378,1,0,0:0:0:0:
64,192,53378,1,0,0:0:0:0:
448,192,53378,128,0,54608:0:0:0:0:
320,192,53685,1,0,0:0:0:0:
64,192,53685,1,0,0:0:0:0:
192,192,53839,1,0,0:0:0:0:
320,192,53839,1,0,0:0:0:0:
64,192,53993,1,0,0:0:0:0:
192,192,53993,1,0,0:0:0:0:
320,192,54301,1,0,0:0:0:0:
64,192,54301,1,0,0:0:0:0:
192,192,54455,1,0,0:0:0:0:
320,192,54455,1,0,0:0:0:0:
320,192,54608,128,0,55916:0:0:0:0:
64,192,54608,1,0,0:0:0:0:
192,192,54608,1,0,0:0:0:0:
64,192,54916,1,0,0:0:0:0:
448,192,54916,1,0,0:0:0:0:
192,192,55070,1,0,0:0:0:0:
448,192,55070,1,0,0:0:0:0:
64,192,55224,1,0,0:0:0:0:
192,192,55224,1,0,0:0:0:0:
64,192,55608,5,0,0:0:0:0:
192,192,55608,1,0,0:0:0:0:
448,192,55762,1,0,0:0:0:0:
64,192,55762,1,0,0:0:0:0:
192,192,55916,1,0,0:0:0:0:
448,192,55916,128,0,56531:0:0:0:0:
64,192,56224,1,0,0:0:0:0:
192,192,56224,1,0,0:0:0:0:
320,192,56378,1,0,0:0:0:0:
192,192,56378,1,0,0:0:0:0:
64,192,56531,1,0,0:0:0:0:
320,192,56531,1,0,0:0:0:0:
64,192,56686,5,0,0:0:0:0:
192,192,56686,1,0,0:0:0:0:
320,192,56763,1,0,0:0:0:0:
448,192,56763,1,0,0:0:0:0:
192,192,56840,1,0,0:0:0:0:
64,192,56840,1,0,0:0:0:0:
320,192,56917,1,0,0:0:0:0:
448,192,56917,1,0,0:0:0:0:
192,192,56994,1,0,0:0:0:0:
64,192,56994,1,0,0:0:0:0:
448,192,57148,5,0,0:0:0:0:
320,192,57148,1,0,0:0:0:0:
192,192,57148,1,0,0:0:0:0:
64,192,57148,1,0,0:0:0:0:
64,192,57378,1,0,0:0:0:0:
320,192,57378,1,0,0:0:0:0:
448,192,57455,1,0,0:0:0:0:
192,192,57531,1,0,0:0:0:0:
320,192,57531,1,0,0:0:0:0:
64,192,57608,1,0,0:0:0:0:
448,192,57685,1,0,0:0:0:0:
320,192,57762,1,0,0:0:0:0:
192,192,57839,1,0,0:0:0:0:
64,192,57916,1,0,0:0:0:0:
192,192,57993,1,0,0:0:0:0:
448,192,57993,1,0,0:0:0:0:
320,192,58070,1,0,0:0:0:0:
192,192,58147,1,0,0:0:0:0:
64,192,58147,1,0,0:0:0:0:
448,192,58224,1,0,0:0:0:0:
192,192,58301,1,0,0:0:0:0:
320,192,58301,1,0,0:0:0:0:
64,192,58378,1,0,0:0:0:0:
448,192,58455,1,0,0:0:0:0:
320,192,58531,1,0,0:0:0:0:
192,192,58608,1,0,0:0:0:0:
448,192,58685,1,0,0:0:0:0:
64,192,58685,1,0,0:0:0:0:
192,192,58762,1,0,0:0:0:0:
64,192,58839,1,0,0:0:0:0:
448,192,58839,1,0,0:0:0:0:
192,192,58916,1,0,0:0:0:0:
320,192,58993,1,0,0:0:0:0:
448,192,58993,1,0,0:0:0:0:
64,192,59070,1,0,0:0:0:0:
192,192,59147,1,0,0:0:0:0:
320,192,59224,1,0,0:0:0:0:
192,192,59301,1,0,0:0:0:0:
448,192,59301,1,0,0:0:0:0:
320,192,59378,1,0,0:0:0:0:
64,192,59455,1,0,0:0:0:0:
192,192,59455,1,0,0:0:0:0:
448,192,59531,1,0,0:0:0:0:
64,192,59608,1,0,0:0:0:0:
320,192,59608,1,0,0:0:0:0:
192,192,59685,1,0,0:0:0:0:
64,192,59762,1,0,0:0:0:0:
320,192,59839,1,0,0:0:0:0:
64,192,59916,1,0,0:0:0:0:
192,192,59993,1,0,0:0:0:0:
448,192,59993,1,0,0:0:0:0:
320,192,60070,1,0,0:0:0:0:
64,192,60147,1,0,0:0:0:0:
448,192,60147,1,0,0:0:0:0:
192,192,60224,1,0,0:0:0:0:
320,192,60301,1,0,0:0:0:0:
448,192,60301,1,0,0:0:0:0:
192,192,60378,1,0,0:0:0:0:
64,192,60455,1,0,0:0:0:0:
448,192,60531,1,0,0:0:0:0:
64,192,60608,1,0,0:0:0:0:
320,192,60608,1,0,0:0:0:0:
448,192,60685,1,0,0:0:0:0:
192,192,60762,1,0,0:0:0:0:
320,192,60762,1,0,0:0:0:0:
448,192,60839,1,0,0:0:0:0:
64,192,60916,1,0,0:0:0:0:
192,192,60916,1,0,0:0:0:0:
320,192,60993,1,0,0:0:0:0:
448,192,61070,1,0,0:0:0:0:
192,192,61147,1,0,0:0:0:0:
64,192,61224,1,0,0:0:0:0:
320,192,61224,1,0,0:0:0:0:
448,192,61301,1,0,0:0:0:0:
192,192,61378,1,0,0:0:0:0:
64,192,61378,1,0,0:0:0:0:
448,192,61455,1,0,0:0:0:0:
64,192,61531,1,0,0:0:0:0:
320,192,61531,1,0,0:0:0:0:
192,192,61608,1,0,0:0:0:0:
64,192,61685,1,0,0:0:0:0:
320,192,61762,1,0,0:0:0:0:
64,192,61839,1,0,0:0:0:0:
320,192,61916,1,0,0:0:0:0:
192,192,61916,1,0,0:0:0:0:
448,192,61993,1,0,0:0:0:0:
64,192,62070,1,0,0:0:0:0:
320,192,62070,1,0,0:0:0:0:
192,192,62147,1,0,0:0:0:0:
320,192,62224,1,0,0:0:0:0:
448,192,62224,1,0,0:0:0:0:
192,192,62301,1,0,0:0:0:0:
64,192,62378,1,0,0:0:0:0:
448,192,62455,1,0,0:0:0:0:
64,192,62531,1,0,0:0:0:0:
320,192,62531,1,0,0:0:0:0:
448,192,62608,1,0,0:0:0:0:
64,192,62685,1,0,0:0:0:0:
192,192,62685,1,0,0:0:0:0:
320,192,62762,1,0,0:0:0:0:
448,192,62839,1,0,0:0:0:0:
64,192,62839,1,0,0:0:0:0:
192,192,62916,1,0,0:0:0:0:
320,192,62993,1,0,0:0:0:0:
64,192,63070,1,0,0:0:0:0:
320,192,63147,1,0,0:0:0:0:
64,192,63224,1,0,0:0:0:0:
448,192,63224,1,0,0:0:0:0:
320,192,63301,1,0,0:0:0:0:
192,192,63378,1,0,0:0:0:0:
448,192,63378,1,0,0:0:0:0:
320,192,63455,1,0,0:0:0:0:
64,192,63531,1,0,0:0:0:0:
192,192,63531,1,0,0:0:0:0:
448,192,63608,1,0,0:0:0:0:
320,192,63685,1,0,0:0:0:0:
64,192,63762,1,0,0:0:0:0:
448,192,63839,1,0,0:0:0:0:
192,192,63839,1,0,0:0:0:0:
320,192,63916,1,0,0:0:0:0:
64,192,63993,1,0,0:0:0:0:
192,192,63993,1,0,0:0:0:0:
320,192,64070,1,0,0:0:0:0:
448,192,64147,1,0,0:0:0:0:
64,192,64147,1,0,0:0:0:0:
192,192,64224,1,0,0:0:0:0:
320,192,64301,1,0,0:0:0:0:
448,192,64378,1,0,0:0:0:0:
64,192,64455,1,0,0:0:0:0:
192,192,64455,1,0,0:0:0:0:
320,192,64531,1,0,0:0:0:0:
448,192,64608,1,0,0:0:0:0:
192,192,64608,1,0,0:0:0:0:
64,192,64685,1,0,0:0:0:0:
320,192,64762,1,0,0:0:0:0:
448,192,64762,1,0,0:0:0:0:
64,192,64839,1,0,0:0:0:0:
448,192,64916,1,0,0:0:0:0:
320,192,64993,1,0,0:0:0:0:
64,192,65070,1,0,0:0:0:0:
192,192,65070,1,0,0:0:0:0:
320,192,65147,1,0,0:0:0:0:
448,192,65224,1,0,0:0:0:0:
192,192,65224,1,0,0:0:0:0:
64,192,65301,1,0,0:0:0:0:
320,192,65378,1,0,0:0:0:0:
448,192,65378,1,0,0:0:0:0:
192,192,65455,1,0,0:0:0:0:
64,192,65531,1,0,0:0:0:0:
448,192,65608,1,0,0:0:0:0:
64,192,65685,5,0,0:0:0:0:
192,192,65685,1,0,0:0:0:0:
320,192,65762,1,0,0:0:0:0:
448,192,65839,1,0,0:0:0:0:
64,192,65839,1,0,0:0:0:0:
320,192,65916,1,0,0:0:0:0:
192,192,65993,1,0,0:0:0:0:
448,192,65993,1,0,0:0:0:0:
64,192,66070,1,0,0:0:0:0:
448,192,66147,1,0,0:0:0:0:
192,192,66224,1,0,0:0:0:0:
64,192,66301,1,0,0:0:0:0:
320,192,66301,1,0,0:0:0:0:
448,192,66378,1,0,0:0:0:0:
192,192,66455,1,0,0:0:0:0:
64,192,66455,1,0,0:0:0:0:
320,192,66531,1,0,0:0:0:0:
448,192,66608,1,0,0:0:0:0:
64,192,66608,1,0,0:0:0:0:
192,192,66685,1,0,0:0:0:0:
448,192,66762,1,0,0:0:0:0:
192,192,66840,5,0,0:0:0:0:
64,192,66840,1,0,0:0:0:0:
320,192,66917,1,0,0:0:0:0:
448,192,66917,1,0,0:0:0:0:
192,192,66994,1,0,0:0:0:0:
64,192,66994,1,0,0:0:0:0:
320,192,67071,1,0,0:0:0:0:
448,192,67071,1,0,0:0:0:0:
192,192,67148,1,0,0:0:0:0:
64,192,67148,1,0,0:0:0:0:
320,192,67225,1,0,0:0:0:0:
448,192,67225,1,0,0:0:0:0:
64,192,67378,128,0,68301:0:0:0:0:
448,192,67378,1,0,0:0:0:0:
320,192,67378,1,0,0:0:0:0:
192,192,67378,1,0,0:0:0:0:
192,192,67685,1,0,0:0:0:0:
448,192,67685,1,0,0:0:0:0:
448,192,67993,1,0,0:0:0:0:
320,192,67993,1,0,0:0:0:0:
192,192,67993,1,0,0:0:0:0:
320,192,68301,1,0,0:0:0:0:
192,192,68301,1,0,0:0:0:0:
448,192,68301,128,0,69301:0:0:0:0:
192,192,68531,1,0,0:0:0:0:
64,192,68531,1,0,0:0:0:0:
64,192,68685,1,0,0:0:0:0:
320,192,68685,1,0,0:0:0:0:
192,192,68839,1,0,0:0:0:0:
320,192,68993,1,0,0:0:0:0:
64,192,68993,1,0,0:0:0:0:
192,192,69301,128,0,70608:0:0:0:0:
64,192,69301,1,0,0:0:0:0:
320,192,69301,1,0,0:0:0:0:
64,192,69608,1,0,0:0:0:0:
448,192,69608,1,0,0:0:0:0:
64,192,69916,1,0,0:0:0:0:
320,192,69916,1,0,0:0:0:0:
448,192,70301,1,0,0:0:0:0:
320,192,70301,1,0,0:0:0:0:
448,192,70608,1,0,0:0:0:0:
320,192,70608,1,0,0:0:0:0:
64,192,70608,128,0,72070:0:0:0:0:
192,192,70916,1,0,0:0:0:0:
448,192,70916,1,0,0:0:0:0:
192,192,71224,1,0,0:0:0:0:
320,192,71224,1,0,0:0:0:0:
448,192,71224,1,0,0:0:0:0:
192,192,71531,1,0,0:0:0:0:
320,192,71531,1,0,0:0:0:0:
448,192,71839,1,0,0:0:0:0:
192,192,71839,1,0,0:0:0:0:
192,192,72070,1,0,0:0:0:0:
320,192,72070,1,0,0:0:0:0:
448,192,72070,1,0,0:0:0:0:
64,192,72225,1,0,0:0:0:0:
192,192,72225,1,0,0:0:0:0:
320,192,72302,1,0,0:0:0:0:
448,192,72302,1,0,0:0:0:0:
192,192,72378,1,0,0:0:0:0:
64,192,72378,1,0,0:0:0:0:
320,192,72455,1,0,0:0:0:0:
448,192,72455,1,0,0:0:0:0:
64,192,72608,1,0,0:0:0:0:
320,192,72762,1,0,0:0:0:0:
64,192,72916,1,0,0:0:0:0:
192,192,72916,1,0,0:0:0:0:
448,192,73070,1,0,0:0:0:0:
192,192,73224,1,0,0:0:0:0:
320,192,73378,1,0,0:0:0:0:
448,192,73378,1,0,0:0:0:0:
64,192,73531,1,0,0:0:0:0:
192,192,73685,1,0,0:0:0:0:
448,192,73685,1,0,0:0:0:0:
64,192,73839,1,0,0:0:0:0:
192,192,73993,1,0,0:0:0:0:
448,192,74147,1,0,0:0:0:0:
64,192,74147,1,0,0:0:0:0:
320,192,74301,1,0,0:0:0:0:
192,192,74455,1,0,0:0:0:0:
64,192,74455,1,0,0:0:0:0:
448,192,74608,1,0,0:0:0:0:
192,192,74762,1,0,0:0:0:0:
64,192,74762,1,0,0:0:0:0:
448,192,74916,1,0,0:0:0:0:
192,192,74916,1,0,0:0:0:0:
64,192,75070,1,0,0:0:0:0:
320,192,75070,1,0,0:0:0:0:
192,192,75224,1,0,0:0:0:0:
320,192,75224,1,0,0:0:0:0:
64,192,75378,1,0,0:0:0:0:
320,192,75378,1,0,0:0:0:0:
448,192,75378,1,0,0:0:0:0:
448,192,75531,1,0,0:0:0:0:
192,192,75531,1,0,0:0:0:0:
64,192,75685,1,0,0:0:0:0:
192,192,75685,1,0,0:0:0:0:
320,192,75685,1,0,0:0:0:0:
448,192,75839,1,0,0:0:0:0:
64,192,75839,1,0,0:0:0:0:
64,192,75993,1,0,0:0:0:0:
320,192,75993,1,0,0:0:0:0:
192,192,76147,1,0,0:0:0:0:
320,192,76147,1,0,0:0:0:0:
320,192,76378,1,0,0:0:0:0:
448,192,76378,1,0,0:0:0:0:
192,192,76455,1,0,0:0:0:0:
64,192,76455,1,0,0:0:0:0:
320,192,76532,1,0,0:0:0:0:
448,192,76532,1,0,0:0:0:0:
192,192,76686,1,0,0:0:0:0:
64,192,76686,1,0,0:0:0:0:
320,192,76763,1,0,0:0:0:0:
448,192,76763,1,0,0:0:0:0:
192,192,76839,128,0,77224:0:0:0:0:
64,192,76839,128,0,77224:0:0:0:0:
64,192,77378,1,0,0:0:0:0:
320,192,77378,1,0,0:0:0:0:
448,192,77378,1,0,0:0:0:0:
192,192,77455,1,0,0:0:0:0:
64,192,77531,1,0,0:0:0:0:
320,192,77531,1,0,0:0:0:0:
192,192,77608,1,0,0:0:0:0:
448,192,77608,1,0,0:0:0:0:
64,192,77685,1,0,0:0:0:0:
320,192,77685,1,0,0:0:0:0:
448,192,77762,1,0,0:0:0:0:
64,192,77839,1,0,0:0:0:0:
192,192,77839,1,0,0:0:0:0:
320,192,77916,1,0,0:0:0:0:
448,192,77993,1,0,0:0:0:0:
192,192,77993,1,0,0:0:0:0:
320,192,78070,1,0,0:0:0:0:
64,192,78070,1,0,0:0:0:0:
192,192,78147,1,0,0:0:0:0:
448,192,78224,1,0,0:0:0:0:
64,192,78224,1,0,0:0:0:0:
320,192,78301,1,0,0:0:0:0:
192,192,78378,1,0,0:0:0:0:
64,192,78378,1,0,0:0:0:0:
448,192,78378,1,0,0:0:0:0:
320,192,78455,1,0,0:0:0:0:
448,192,78531,1,0,0:0:0:0:
64,192,78531,1,0,0:0:0:0:
192,192,78608,1,0,0:0:0:0:
64,192,78685,1,0,0:0:0:0:
320,192,78685,1,0,0:0:0:0:
448,192,78685,1,0,0:0:0:0:
192,192,78762,1,0,0:0:0:0:
64,192,78839,1,0,0:0:0:0:
448,192,78839,1,0,0:0:0:0:
320,192,78916,1,0,0:0:0:0:
192,192,78916,1,0,0:0:0:0:
448,192,78993,1,0,0:0:0:0:
64,192,78993,1,0,0:0:0:0:
320,192,79070,1,0,0:0:0:0:
64,192,79147,1,0,0:0:0:0:
192,192,79147,1,0,0:0:0:0:
448,192,79224,1,0,0:0:0:0:
64,192,79301,1,0,0:0:0:0:
320,192,79301,1,0,0:0:0:0:
192,192,79301,1,0,0:0:0:0:
448,192,79378,1,0,0:0:0:0:
64,192,79455,1,0,0:0:0:0:
192,192,79455,1,0,0:0:0:0:
448,192,79531,1,0,0:0:0:0:
192,192,79608,1,0,0:0:0:0:
320,192,79608,1,0,0:0:0:0:
64,192,79685,1,0,0:0:0:0:
448,192,79762,1,0,0:0:0:0:
320,192,79762,1,0,0:0:0:0:
64,192,79839,1,0,0:0:0:0:
448,192,79916,1,0,0:0:0:0:
320,192,79916,1,0,0:0:0:0:
192,192,79916,1,0,0:0:0:0:
64,192,79993,1,0,0:0:0:0:
192,192,80070,1,0,0:0:0:0:
448,192,80070,1,0,0:0:0:0:
320,192,80147,1,0,0:0:0:0:
64,192,80147,1,0,0:0:0:0:
192,192,80224,1,0,0:0:0:0:
448,192,80224,1,0,0:0:0:0:
64,192,80301,1,0,0:0:0:0:
320,192,80378,1,0,0:0:0:0:
448,192,80378,1,0,0:0:0:0:
192,192,80455,1,0,0:0:0:0:
64,192,80531,1,0,0:0:0:0:
320,192,80531,1,0,0:0:0:0:
448,192,80531,1,0,0:0:0:0:
192,192,80608,1,0,0:0:0:0:
64,192,80685,1,0,0:0:0:0:
320,192,80762,1,0,0:0:0:0:
448,192,80762,1,0,0:0:0:0:
64,192,80839,1,0,0:0:0:0:
192,192,80916,1,0,0:0:0:0:
64,192,80993,1,0,0:0:0:0:
320,192,80993,1,0,0:0:0:0:
448,192,80993,1,0,0:0:0:0:
192,192,81070,1,0,0:0:0:0:
320,192,81147,1,0,0:0:0:0:
448,192,81147,1,0,0:0:0:0:
64,192,81224,1,0,0:0:0:0:
192,192,81301,1,0,0:0:0:0:
448,192,81301,1,0,0:0:0:0:
320,192,81301,1,0,0:0:0:0:
64,192,81378,1,0,0:0:0:0:
192,192,81455,1,0,0:0:0:0:
448,192,81455,1,0,0:0:0:0:
64,192,81531,1,0,0:0:0:0:
320,192,81531,1,0,0:0:0:0:
448,192,81608,1,0,0:0:0:0:
192,192,81685,1,0,0:0:0:0:
320,192,81685,1,0,0:0:0:0:
64,192,81762,1,0,0:0:0:0:
192,192,81839,1,0,0:0:0:0:
320,192,81839,1,0,0:0:0:0:
448,192,81839,1,0,0:0:0:0:
64,192,81916,1,0,0:0:0:0:
192,192,81993,1,0,0:0:0:0:
448,192,81993,1,0,0:0:0:0:
320,192,82070,1,0,0:0:0:0:
192,192,82147,1,0,0:0:0:0:
64,192,82147,1,0,0:0:0:0:
320,192,82224,1,0,0:0:0:0:
448,192,82301,1,0,0:0:0:0:
64,192,82301,1,0,0:0:0:0:
192,192,82378,1,0,0:0:0:0:
320,192,82378,1,0,0:0:0:0:
64,192,82455,1,0,0:0:0:0:
448,192,82455,1,0,0:0:0:0:
320,192,82531,1,0,0:0:0:0:
192,192,82608,1,0,0:0:0:0:
448,192,82608,1,0,0:0:0:0:
320,192,82685,1,0,0:0:0:0:
64,192,82685,1,0,0:0:0:0:
192,192,82762,1,0,0:0:0:0:
448,192,82762,1,0,0:0:0:0:
320,192,82839,1,0,0:0:0:0:
448,192,82916,1,0,0:0:0:0:
64,192,82916,1,0,0:0:0:0:
192,192,82993,1,0,0:0:0:0:
64,192,83070,1,0,0:0:0:0:
320,192,83070,1,0,0:0:0:0:
448,192,83070,1,0,0:0:0:0:
192,192,83147,1,0,0:0:0:0:
448,192,83224,1,0,0:0:0:0:
320,192,83224,1,0,0:0:0:0:
64,192,83301,1,0,0:0:0:0:
192,192,83378,1,0,0:0:0:0:
448,192,83378,1,0,0:0:0:0:
320,192,83455,1,0,0:0:0:0:
64,192,83531,1,0,0:0:0:0:
448,192,83531,1,0,0:0:0:0:
320,192,83608,1,0,0:0:0:0:
192,192,83608,1,0,0:0:0:0:
64,192,83685,1,0,0:0:0:0:
448,192,83762,1,0,0:0:0:0:
320,192,83762,1,0,0:0:0:0:
192,192,83839,1,0,0:0:0:0:
64,192,83916,1,0,0:0:0:0:
448,192,83916,1,0,0:0:0:0:
320,192,83993,1,0,0:0:0:0:
192,192,84070,1,0,0:0:0:0:
64,192,84070,1,0,0:0:0:0:
320,192,84147,1,0,0:0:0:0:
448,192,84224,1,0,0:0:0:0:
64,192,84224,1,0,0:0:0:0:
192,192,84301,1,0,0:0:0:0:
320,192,84301,1,0,0:0:0:0:
64,192,84378,1,0,0:0:0:0:
448,192,84455,1,0,0:0:0:0:
192,192,84455,1,0,0:0:0:0:
320,192,84531,1,0,0:0:0:0:
64,192,84531,1,0,0:0:0:0:
448,192,84608,1,0,0:0:0:0:
320,192,84685,1,0,0:0:0:0:
192,192,84685,1,0,0:0:0:0:
64,192,84762,1,0,0:0:0:0:
448,192,84839,1,0,0:0:0:0:
320,192,84839,1,0,0:0:0:0:
192,192,84916,1,0,0:0:0:0:
64,192,84993,1,0,0:0:0:0:
448,192,84993,1,0,0:0:0:0:
320,192,85070,1,0,0:0:0:0:
192,192,85147,1,0,0:0:0:0:
64,192,85147,1,0,0:0:0:0:
448,192,85224,1,0,0:0:0:0:
320,192,85301,1,0,0:0:0:0:
64,192,85301,1,0,0:0:0:0:
192,192,85378,1,0,0:0:0:0:
320,192,85455,1,0,0:0:0:0:
448,192,85455,1,0,0:0:0:0:
64,192,85531,1,0,0:0:0:0:
192,192,85608,1,0,0:0:0:0:
448,192,85608,1,0,0:0:0:0:
320,192,85685,1,0,0:0:0:0:
448,192,85762,1,0,0:0:0:0:
64,192,85762,1,0,0:0:0:0:
192,192,85839,1,0,0:0:0:0:
320,192,85916,1,0,0:0:0:0:
448,192,85916,1,0,0:0:0:0:
192,192,85993,1,0,0:0:0:0:
64,192,86070,1,0,0:0:0:0:
448,192,86070,1,0,0:0:0:0:
320,192,86147,1,0,0:0:0:0:
192,192,86224,1,0,0:0:0:0:
64,192,86224,1,0,0:0:0:0:
320,192,86301,1,0,0:0:0:0:
448,192,86378,1,0,0:0:0:0:
64,192,86378,1,0,0:0:0:0:
192,192,86455,1,0,0:0:0:0:
320,192,86531,1,0,0:0:0:0:
448,192,86531,1,0,0:0:0:0:
64,192,86608,1,0,0:0:0:0:
192,192,86685,1,0,0:0:0:0:
448,192,86685,1,0,0:0:0:0:
320,192,86762,1,0,0:0:0:0:
64,192,86762,1,0,0:0:0:0:
448,192,86839,1,0,0:0:0:0:
320,192,86916,1,0,0:0:0:0:
192,192,86916,1,0,0:0:0:0:
64,192,86993,1,0,0:0:0:0:
448,192,87070,1,0,0:0:0:0:
320,192,87070,1,0,0:0:0:0:
192,192,87147,1,0,0:0:0:0:
64,192,87224,1,0,0:0:0:0:
320,192,87224,1,0,0:0:0:0:
448,192,87301,1,0,0:0:0:0:
64,192,87378,1,0,0:0:0:0:
192,192,87378,1,0,0:0:0:0:
448,192,87455,1,0,0:0:0:0:
64,192,87531,1,0,0:0:0:0:
192,192,87531,1,0,0:0:0:0:
320,192,87531,1,0,0:0:0:0:
448,192,87608,1,0,0:0:0:0:
320,192,87685,1,0,0:0:0:0:
192,192,87685,1,0,0:0:0:0:
64,192,87685,1,0,0:0:0:0:
448,192,87762,1,0,0:0:0:0:
64,192,87839,1,0,0:0:0:0:
192,192,87839,1,0,0:0:0:0:
320,192,87839,1,0,0:0:0:0:
448,192,87916,1,0,0:0:0:0:
64,192,87993,1,0,0:0:0:0:
192,192,87993,1,0,0:0:0:0:
320,192,88070,1,0,0:0:0:0:
448,192,88147,1,0,0:0:0:0:
192,192,88147,1,0,0:0:0:0:
64,192,88147,1,0,0:0:0:0:
320,192,88224,1,0,0:0:0:0:
448,192,88301,1,0,0:0:0:0:
192,192,88301,1,0,0:0:0:0:
64,192,88378,1,0,0:0:0:0:
320,192,88378,1,0,0:0:0:0:
192,192,88455,1,0,0:0:0:0:
448,192,88455,1,0,0:0:0:0:
64,192,88531,1,0,0:0:0:0:
320,192,88531,1,0,0:0:0:0:
192,192,88608,1,0,0:0:0:0:
320,192,88685,1,0,0:0:0:0:
448,192,88685,1,0,0:0:0:0:
64,192,88762,1,0,0:0:0:0:
192,192,88762,1,0,0:0:0:0:
320,192,88839,1,0,0:0:0:0:
448,192,88839,1,0,0:0:0:0:
64,192,88916,1,0,0:0:0:0:
192,192,88993,1,0,0:0:0:0:
320,192,88993,1,0,0:0:0:0:
448,192,88993,1,0,0:0:0:0:
64,192,89070,1,0,0:0:0:0:
192,192,89147,1,0,0:0:0:0:
320,192,89147,1,0,0:0:0:0:
448,192,89147,1,0,0:0:0:0:
64,192,89224,1,0,0:0:0:0:
448,192,89301,1,0,0:0:0:0:
320,192,89301,1,0,0:0:0:0:
192,192,89378,1,0,0:0:0:0:
64,192,89455,1,0,0:0:0:0:
320,192,89455,1,0,0:0:0:0:
448,192,89455,1,0,0:0:0:0:
192,192,89531,1,0,0:0:0:0:
448,192,89608,1,0,0:0:0:0:
64,192,89608,1,0,0:0:0:0:
192,192,89685,1,0,0:0:0:0:
320,192,89685,1,0,0:0:0:0:
448,192,89762,1,0,0:0:0:0:
320,192,89839,1,0,0:0:0:0:
64,192,89839,1,0,0:0:0:0:
192,192,89916,1,0,0:0:0:0:
448,192,89916,1,0,0:0:0:0:
320,192,89993,1,0,0:0:0:0:
64,192,90070,1,0,0:0:0:0:
192,192,90070,1,0,0:0:0:0:
448,192,90070,1,0,0:0:0:0:
320,192,90147,1,0,0:0:0:0:
192,192,90224,1,0,0:0:0:0:
64,192,90224,1,0,0:0:0:0:
448,192,90301,1,0,0:0:0:0:
320,192,90378,1,0,0:0:0:0:
64,192,90378,1,0,0:0:0:0:
192,192,90455,1,0,0:0:0:0:
64,192,90531,1,0,0:0:0:0:
320,192,90531,1,0,0:0:0:0:
448,192,90531,1,0,0:0:0:0:
192,192,90608,1,0,0:0:0:0:
320,192,90685,1,0,0:0:0:0:
64,192,90685,1,0,0:0:0:0:
448,192,90762,1,0,0:0:0:0:
320,192,90839,1,0,0:0:0:0:
192,192,90839,1,0,0:0:0:0:
64,192,90839,1,0,0:0:0:0:
448,192,90916,1,0,0:0:0:0:
64,192,90993,1,0,0:0:0:0:
320,192,90993,1,0,0:0:0:0:
448,192,91070,1,0,0:0:0:0:
192,192,91147,1,0,0:0:0:0:
64,192,91147,1,0,0:0:0:0:
320,192,91224,1,0,0:0:0:0:
448,192,91301,1,0,0:0:0:0:
64,192,91301,1,0,0:0:0:0:
192,192,91301,1,0,0:0:0:0:
320,192,91378,1,0,0:0:0:0:
64,192,91455,1,0,0:0:0:0:
448,192,91455,1,0,0:0:0:0:
192,192,91531,1,0,0:0:0:0:
320,192,91608,1,0,0:0:0:0:
448,192,91608,1,0,0:0:0:0:
64,192,91608,1,0,0:0:0:0:
192,192,91685,1,0,0:0:0:0:
64,192,91762,1,0,0:0:0:0:
320,192,91762,1,0,0:0:0:0:
448,192,91839,1,0,0:0:0:0:
192,192,91916,1,0,0:0:0:0:
320,192,91916,1,0,0:0:0:0:
64,192,91916,1,0,0:0:0:0:
448,192,91993,1,0,0:0:0:0:
320,192,92070,1,0,0:0:0:0:
64,192,92070,1,0,0:0:0:0:
448,192,92147,1,0,0:0:0:0:
320,192,92224,1,0,0:0:0:0:
192,192,92224,1,0,0:0:0:0:
64,192,92301,1,0,0:0:0:0:
448,192,92378,1,0,0:0:0:0:
320,192,92378,1,0,0:0:0:0:
192,192,92455,1,0,0:0:0:0:
64,192,92531,1,0,0:0:0:0:
320,192,92531,1,0,0:0:0:0:
448,192,92531,1,0,0:0:0:0:
192,192,92608,1,0,0:0:0:0:
448,192,92685,1,0,0:0:0:0:
64,192,92685,1,0,0:0:0:0:
192,192,92762,1,0,0:0:0:0:
320,192,92762,1,0,0:0:0:0:
448,192,92839,1,0,0:0:0:0:
64,192,92839,1,0,0:0:0:0:
192,192,92916,1,0,0:0:0:0:
64,192,92993,1,0,0:0:0:0:
320,192,92993,1,0,0:0:0:0:
448,192,92993,1,0,0:0:0:0:
192,192,93070,1,0,0:0:0:0:
320,192,93147,1,0,0:0:0:0:
448,192,93147,1,0,0:0:0:0:
192,192,93224,1,0,0:0:0:0:
64,192,93301,1,0,0:0:0:0:
320,192,93301,1,0,0:0:0:0:
448,192,93301,1,0,0:0:0:0:
192,192,93378,1,0,0:0:0:0:
64,192,93455,1,0,0:0:0:0:
448,192,93455,1,0,0:0:0:0:
320,192,93531,1,0,0:0:0:0:
192,192,93608,1,0,0:0:0:0:
64,192,93608,1,0,0:0:0:0:
448,192,93608,1,0,0:0:0:0:
320,192,93685,1,0,0:0:0:0:
448,192,93762,1,0,0:0:0:0:
64,192,93762,1,0,0:0:0:0:
192,192,93839,1,0,0:0:0:0:
320,192,93916,1,0,0:0:0:0:
448,192,93916,1,0,0:0:0:0:
64,192,93916,1,0,0:0:0:0:
192,192,93993,1,0,0:0:0:0:
64,192,94070,1,0,0:0:0:0:
320,192,94070,1,0,0:0:0:0:
448,192,94147,1,0,0:0:0:0:
64,192,94224,1,0,0:0:0:0:
192,192,94224,1,0,0:0:0:0:
320,192,94301,1,0,0:0:0:0:
192,192,94378,1,0,0:0:0:0:
64,192,94378,1,0,0:0:0:0:
448,192,94378,1,0,0:0:0:0:
320,192,94455,1,0,0:0:0:0:
64,192,94531,1,0,0:0:0:0:
192,192,94531,1,0,0:0:0:0:
448,192,94531,1,0,0:0:0:0:
320,192,94608,1,0,0:0:0:0:
192,192,94685,1,0,0:0:0:0:
64,192,94685,1,0,0:0:0:0:
448,192,94762,1,0,0:0:0:0:
320,192,94839,1,0,0:0:0:0:
192,192,94839,1,0,0:0:0:0:
64,192,94916,1,0,0:0:0:0:
448,192,94916,1,0,0:0:0:0:
192,192,94993,1,0,0:0:0:0:
64,192,95070,5,0,0:0:0:0:
320,192,95070,1,0,0:0:0:0:
448,192,95070,1,0,0:0:0:0:
192,192,95147,1,0,0:0:0:0:
320,192,95224,1,0,0:0:0:0:
448,192,95224,1,0,0:0:0:0:
64,192,95301,1,0,0:0:0:0:
192,192,95378,1,0,0:0:0:0:
320,192,95378,1,0,0:0:0:0:
448,192,95455,1,0,0:0:0:0:
64,192,95531,1,0,0:0:0:0:
192,192,95531,1,0,0:0:0:0:
320,192,95608,1,0,0:0:0:0:
448,192,95685,1,0,0:0:0:0:
64,192,95685,1,0,0:0:0:0:
192,192,95762,1,0,0:0:0:0:
320,192,95839,1,0,0:0:0:0:
448,192,95839,1,0,0:0:0:0:
64,192,95916,1,0,0:0:0:0:
192,192,95993,1,0,0:0:0:0:
448,192,95993,1,0,0:0:0:0:
320,192,96070,1,0,0:0:0:0:
448,192,96147,1,0,0:0:0:0:
64,192,96147,1,0,0:0:0:0:
192,192,96224,1,0,0:0:0:0:
320,192,96301,1,0,0:0:0:0:
64,192,96301,1,0,0:0:0:0:
192,192,96378,1,0,0:0:0:0:
64,192,96455,1,0,0:0:0:0:
448,192,96455,1,0,0:0:0:0:
320,192,96531,1,0,0:0:0:0:
192,192,96608,1,0,0:0:0:0:
64,192,96608,1,0,0:0:0:0:
448,192,96685,1,0,0:0:0:0:
320,192,96762,1,0,0:0:0:0:
64,192,96762,1,0,0:0:0:0:
192,192,96839,1,0,0:0:0:0:
320,192,96916,1,0,0:0:0:0:
448,192,96916,1,0,0:0:0:0:
192,192,96993,1,0,0:0:0:0:
64,192,97070,1,0,0:0:0:0:
320,192,97148,5,0,0:0:0:0:
448,192,97148,1,0,0:0:0:0:
64,192,97225,1,0,0:0:0:0:
192,192,97225,1,0,0:0:0:0:
320,192,97302,1,0,0:0:0:0:
448,192,97302,1,0,0:0:0:0:
192,192,97378,1,0,0:0:0:0:
64,192,97378,1,0,0:0:0:0:
320,192,97455,1,0,0:0:0:0:
448,192,97455,1,0,0:0:0:0:
448,192,97609,1,0,0:0:0:0:
320,192,97609,1,0,0:0:0:0:
192,192,97609,1,0,0:0:0:0:
64,192,97609,1,0,0:0:0:0:
320,192,97762,1,0,0:0:0:0:
64,192,97916,1,0,0:0:0:0:
320,192,98070,1,0,0:0:0:0:
192,192,98224,1,0,0:0:0:0:
448,192,98378,1,0,0:0:0:0:
64,192,98531,1,0,0:0:0:0:
320,192,98685,1,0,0:0:0:0:
192,192,98839,1,0,0:0:0:0:
320,192,98993,1,0,0:0:0:0:
64,192,99147,1,0,0:0:0:0:
448,192,99301,1,0,0:0:0:0:
192,192,99455,1,0,0:0:0:0:
64,192,99608,1,0,0:0:0:0:
320,192,99762,1,0,0:0:0:0:
448,192,99916,1,0,0:0:0:0:
192,192,100070,1,0,0:0:0:0:
448,192,100224,1,0,0:0:0:0:
64,192,100378,1,0,0:0:0:0:
448,192,100531,1,0,0:0:0:0:
192,192,100685,1,0,0:0:0:0:
320,192,100839,1,0,0:0:0:0:
192,192,100993,1,0,0:0:0:0:
64,192,101147,1,0,0:0:0:0:
448,192,101301,1,0,0:0:0:0:
192,192,101455,1,0,0:0:0:0:
448,192,101608,1,0,0:0:0:0:
64,192,101762,1,0,0:0:0:0:
320,192,101916,1,0,0:0:0:0:
64,192,102070,1,0,0:0:0:0:
192,192,102224,1,0,0:0:0:0:
448,192,102378,1,0,0:0:0:0:
64,192,102531,1,0,0:0:0:0:
64,192,102685,1,0,0:0:0:0:
192,192,102685,1,0,0:0:0:0:
320,192,102685,1,0,0:0:0:0:
448,192,102685,1,0,0:0:0:0:
448,192,102839,1,0,0:0:0:0:
192,192,102839,1,0,0:0:0:0:
64,192,102993,1,0,0:0:0:0:
320,192,102993,1,0,0:0:0:0:
192,192,103147,1,0,0:0:0:0:
320,192,103147,1,0,0:0:0:0:
448,192,103301,1,0,0:0:0:0:
192,192,103301,1,0,0:0:0:0:
64,192,103301,1,0,0:0:0:0:
64,192,103455,1,0,0:0:0:0:
448,192,103455,1,0,0:0:0:0:
320,192,103455,1,0,0:0:0:0:
192,192,103608,1,0,0:0:0:0:
320,192,103608,1,0,0:0:0:0:
64,192,103762,1,0,0:0:0:0:
320,192,103762,1,0,0:0:0:0:
448,192,103762,1,0,0:0:0:0:
64,192,103916,1,0,0:0:0:0:
192,192,103916,1,0,0:0:0:0:
320,192,103916,1,0,0:0:0:0:
64,192,104070,1,0,0:0:0:0:
320,192,104070,1,0,0:0:0:0:
448,192,104224,1,0,0:0:0:0:
320,192,104224,1,0,0:0:0:0:
192,192,104224,1,0,0:0:0:0:
64,192,104378,1,0,0:0:0:0:
192,192,104378,1,0,0:0:0:0:
448,192,104378,1,0,0:0:0:0:
64,192,104531,1,0,0:0:0:0:
320,192,104531,1,0,0:0:0:0:
448,192,104685,1,0,0:0:0:0:
192,192,104685,1,0,0:0:0:0:
64,192,104839,1,0,0:0:0:0:
192,192,104839,1,0,0:0:0:0:
448,192,104839,1,0,0:0:0:0:
320,192,104993,1,0,0:0:0:0:
192,192,104993,1,0,0:0:0:0:
448,192,104993,1,0,0:0:0:0:
64,192,105147,1,0,0:0:0:0:
192,192,105147,1,0,0:0:0:0:
448,192,105301,1,0,0:0:0:0:
64,192,105301,1,0,0:0:0:0:
192,192,105455,1,0,0:0:0:0:
320,192,105455,1,0,0:0:0:0:
448,192,105455,1,0,0:0:0:0:
64,192,105608,1,0,0:0:0:0:
192,192,105608,1,0,0:0:0:0:
448,192,105608,1,0,0:0:0:0:
192,192,105762,1,0,0:0:0:0:
320,192,105762,1,0,0:0:0:0:
64,192,105916,1,0,0:0:0:0:
448,192,105916,1,0,0:0:0:0:
192,192,106070,1,0,0:0:0:0:
320,192,106070,1,0,0:0:0:0:
64,192,106070,1,0,0:0:0:0:
448,192,106224,1,0,0:0:0:0:
320,192,106224,1,0,0:0:0:0:
64,192,106224,1,0,0:0:0:0:
64,192,106378,1,0,0:0:0:0:
192,192,106378,1,0,0:0:0:0:
320,192,106378,1,0,0:0:0:0:
64,192,106531,1,0,0:0:0:0:
192,192,106531,1,0,0:0:0:0:
448,192,106531,1,0,0:0:0:0:
320,192,106685,1,0,0:0:0:0:
64,192,106685,1,0,0:0:0:0:
448,192,106839,1,0,0:0:0:0:
320,192,106839,1,0,0:0:0:0:
192,192,106839,1,0,0:0:0:0:
64,192,106993,1,0,0:0:0:0:
448,192,106993,1,0,0:0:0:0:
320,192,106993,1,0,0:0:0:0:
192,192,107147,1,0,0:0:0:0:
64,192,107147,1,0,0:0:0:0:
320,192,107225,5,0,0:0:0:0:
448,192,107225,1,0,0:0:0:0:
192,192,107302,1,0,0:0:0:0:
64,192,107302,1,0,0:0:0:0:
320,192,107378,1,0,0:0:0:0:
448,192,107378,1,0,0:0:0:0:
192,192,107455,1,0,0:0:0:0:
64,192,107455,1,0,0:0:0:0:
320,192,107532,1,0,0:0:0:0:
448,192,107532,1,0,0:0:0:0:
64,192,107686,1,0,0:0:0:0:
192,192,107686,1,0,0:0:0:0:
320,192,107686,1,0,0:0:0:0:
448,192,107686,1,0,0:0:0:0:
448,192,107916,1,0,0:0:0:0:
320,192,107916,1,0,0:0:0:0:
64,192,107993,1,0,0:0:0:0:
320,192,108070,1,0,0:0:0:0:
192,192,108070,1,0,0:0:0:0:
448,192,108147,1,0,0:0:0:0:
64,192,108224,1,0,0:0:0:0:
192,192,108301,1,0,0:0:0:0:
320,192,108378,1,0,0:0:0:0:
448,192,108455,1,0,0:0:0:0:
64,192,108531,1,0,0:0:0:0:
320,192,108531,1,0,0:0:0:0:
192,192,108608,1,0,0:0:0:0:
320,192,108685,1,0,0:0:0:0:
448,192,108685,1,0,0:0:0:0:
64,192,108762,1,0,0:0:0:0:
320,192,108839,1,0,0:0:0:0:
192,192,108839,1,0,0:0:0:0:
448,192,108916,1,0,0:0:0:0:
64,192,108993,1,0,0:0:0:0:
192,192,109070,1,0,0:0:0:0:
320,192,109147,1,0,0:0:0:0:
448,192,109224,1,0,0:0:0:0:
64,192,109224,1,0,0:0:0:0:
192,192,109301,1,0,0:0:0:0:
448,192,109378,1,0,0:0:0:0:
64,192,109378,1,0,0:0:0:0:
320,192,109455,1,0,0:0:0:0:
64,192,109531,1,0,0:0:0:0:
192,192,109531,1,0,0:0:0:0:
448,192,109608,1,0,0:0:0:0:
320,192,109685,1,0,0:0:0:0:
192,192,109762,1,0,0:0:0:0:
448,192,109839,1,0,0:0:0:0:
64,192,109839,1,0,0:0:0:0:
192,192,109916,1,0,0:0:0:0:
320,192,109993,1,0,0:0:0:0:
448,192,109993,1,0,0:0:0:0:
64,192,110070,1,0,0:0:0:0:
192,192,110147,1,0,0:0:0:0:
448,192,110147,1,0,0:0:0:0:
320,192,110224,1,0,0:0:0:0:
448,192,110301,1,0,0:0:0:0:
192,192,110378,1,0,0:0:0:0:
448,192,110455,1,0,0:0:0:0:
64,192,110531,1,0,0:0:0:0:
320,192,110531,1,0,0:0:0:0:
192,192,110608,1,0,0:0:0:0:
448,192,110685,1,0,0:0:0:0:
64,192,110685,1,0,0:0:0:0:
320,192,110762,1,0,0:0:0:0:
64,192,110839,1,0,0:0:0:0:
192,192,110839,1,0,0:0:0:0:
320,192,110916,1,0,0:0:0:0:
448,192,110993,1,0,0:0:0:0:
64,192,111070,1,0,0:0:0:0:
448,192,111147,1,0,0:0:0:0:
320,192,111147,1,0,0:0:0:0:
64,192,111224,1,0,0:0:0:0:
448,192,111301,1,0,0:0:0:0:
192,192,111301,1,0,0:0:0:0:
64,192,111378,1,0,0:0:0:0:
320,192,111455,1,0,0:0:0:0:
448,192,111455,1,0,0:0:0:0:
192,192,111531,1,0,0:0:0:0:
64,192,111608,1,0,0:0:0:0:
320,192,111685,1,0,0:0:0:0:
192,192,111762,1,0,0:0:0:0:
448,192,111762,1,0,0:0:0:0:
64,192,111839,1,0,0:0:0:0:
320,192,111916,1,0,0:0:0:0:
448,192,111916,1,0,0:0:0:0:
64,192,111993,1,0,0:0:0:0:
448,192,112070,1,0,0:0:0:0:
192,192,112070,1,0,0:0:0:0:
320,192,112147,1,0,0:0:0:0:
448,192,112224,1,0,0:0:0:0:
64,192,112301,1,0,0:0:0:0:
448,192,112378,1,0,0:0:0:0:
192,192,112455,1,0,0:0:0:0:
320,192,112455,1,0,0:0:0:0:
64,192,112531,1,0,0:0:0:0:
192,192,112608,1,0,0:0:0:0:
448,192,112608,1,0,0:0:0:0:
320,192,112685,1,0,0:0:0:0:
64,192,112762,1,0,0:0:0:0:
192,192,112762,1,0,0:0:0:0:
320,192,112839,1,0,0:0:0:0:
448,192,112916,1,0,0:0:0:0:
64,192,112993,1,0,0:0:0:0:
192,192,113070,1,0,0:0:0:0:
448,192,113070,1,0,0:0:0:0:
64,192,113147,1,0,0:0:0:0:
320,192,113224,1,0,0:0:0:0:
448,192,113224,1,0,0:0:0:0:
192,192,113301,1,0,0:0:0:0:
448,192,113378,1,0,0:0:0:0:
64,192,113378,1,0,0:0:0:0:
320,192,113455,1,0,0:0:0:0:
64,192,113531,1,0,0:0:0:0:
448,192,113608,1,0,0:0:0:0:
192,192,113685,1,0,0:0:0:0:
64,192,113762,1,0,0:0:0:0:
448,192,113762,1,0,0:0:0:0:
192,192,113839,1,0,0:0:0:0:
320,192,113916,1,0,0:0:0:0:
64,192,113916,1,0,0:0:0:0:
192,192,113993,1,0,0:0:0:0:
320,192,114070,1,0,0:0:0:0:
448,192,114070,1,0,0:0:0:0:
64,192,114147,1,0,0:0:0:0:
192,192,114224,1,0,0:0:0:0:
448,192,114301,1,0,0:0:0:0:
320,192,114378,1,0,0:0:0:0:
64,192,114378,1,0,0:0:0:0:
192,192,114455,1,0,0:0:0:0:
448,192,114531,1,0,0:0:0:0:
320,192,114531,1,0,0:0:0:0:
192,192,114608,1,0,0:0:0:0:
448,192,114685,1,0,0:0:0:0:
64,192,114685,1,0,0:0:0:0:
320,192,114762,1,0,0:0:0:0:
192,192,114839,1,0,0:0:0:0:
64,192,114916,1,0,0:0:0:0:
320,192,114993,1,0,0:0:0:0:
448,192,114993,1,0,0:0:0:0:
192,192,115070,1,0,0:0:0:0:
64,192,115147,1,0,0:0:0:0:
320,192,115147,1,0,0:0:0:0:
448,192,115224,1,0,0:0:0:0:
192,192,115301,1,0,0:0:0:0:
64,192,115301,1,0,0:0:0:0:
448,192,115378,1,0,0:0:0:0:
64,192,115455,1,0,0:0:0:0:
192,192,115531,1,0,0:0:0:0:
320,192,115608,1,0,0:0:0:0:
448,192,115608,1,0,0:0:0:0:
192,192,115685,1,0,0:0:0:0:
320,192,115762,1,0,0:0:0:0:
64,192,115762,1,0,0:0:0:0:
448,192,115839,1,0,0:0:0:0:
192,192,115916,1,0,0:0:0:0:
64,192,115916,1,0,0:0:0:0:
320,192,115993,1,0,0:0:0:0:
448,192,116070,1,0,0:0:0:0:
320,192,116147,1,0,0:0:0:0:
448,192,116224,1,0,0:0:0:0:
192,192,116224,1,0,0:0:0:0:
64,192,116301,1,0,0:0:0:0:
448,192,116378,1,0,0:0:0:0:
320,192,116378,1,0,0:0:0:0:
64,192,116455,1,0,0:0:0:0:
448,192,116531,1,0,0:0:0:0:
192,192,116531,1,0,0:0:0:0:
64,192,116608,1,0,0:0:0:0:
320,192,116685,1,0,0:0:0:0:
192,192,116762,1,0,0:0:0:0:
448,192,116839,1,0,0:0:0:0:
320,192,116839,1,0,0:0:0:0:
192,192,116916,1,0,0:0:0:0:
64,192,116993,1,0,0:0:0:0:
448,192,116993,1,0,0:0:0:0:
320,192,117070,1,0,0:0:0:0:
448,192,117147,1,0,0:0:0:0:
192,192,117147,1,0,0:0:0:0:
64,192,117224,1,0,0:0:0:0:
192,192,117301,1,0,0:0:0:0:
64,192,117378,1,0,0:0:0:0:
448,192,117455,5,0,0:0:0:0:
320,192,117455,1,0,0:0:0:0:
192,192,117532,1,0,0:0:0:0:
64,192,117532,1,0,0:0:0:0:
320,192,117609,1,0,0:0:0:0:
448,192,117609,1,0,0:0:0:0:
192,192,117686,1,0,0:0:0:0:
64,192,117686,1,0,0:0:0:0:
320,192,117763,1,0,0:0:0:0:
448,192,117763,1,0,0:0:0:0:
192,192,117840,1,0,0:0:0:0:
64,192,117840,1,0,0:0:0:0:
448,192,117916,128,0,119531:0:0:0:0:
320,192,117916,1,0,0:0:0:0:
64,192,118301,1,0,0:0:0:0:
192,192,118301,1,0,0:0:0:0:
320,192,118301,1,0,0:0:0:0:
64,192,118608,1,0,0:0:0:0:
192,192,118608,1,0,0:0:0:0:
64,192,118916,1,0,0:0:0:0:
320,192,118916,1,0,0:0:0:0:
64,192,119070,1,0,0:0:0:0:
192,192,119070,1,0,0:0:0:0:
192,192,119224,1,0,0:0:0:0:
320,192,119224,1,0,0:0:0:0:
192,192,119531,1,0,0:0:0:0:
320,192,119531,1,0,0:0:0:0:
64,192,119531,128,0,122608:0:0:0:0:
192,192,119839,1,0,0:0:0:0:
448,192,119839,1,0,0:0:0:0:
448,192,120147,1,0,0:0:0:0:
320,192,120147,1,0,0:0:0:0:
192,192,120455,1,0,0:0:0:0:
320,192,120455,1,0,0:0:0:0:
192,192,120762,1,0,0:0:0:0:
320,192,120762,1,0,0:0:0:0:
448,192,120762,1,0,0:0:0:0:
192,192,121070,1,0,0:0:0:0:
448,192,121070,1,0,0:0:0:0:
320,192,121378,1,0,0:0:0:0:
448,192,121378,1,0,0:0:0:0:
320,192,121685,1,0,0:0:0:0:
192,192,121685,1,0,0:0:0:0:
448,192,121685,1,0,0:0:0:0:
448,192,121993,1,0,0:0:0:0:
192,192,121993,1,0,0:0:0:0:
192,192,122301,1,0,0:0:0:0:
320,192,122301,1,0,0:0:0:0:
192,192,122608,1,0,0:0:0:0:
320,192,122686,1,0,0:0:0:0:
448,192,122686,1,0,0:0:0:0:
192,192,122763,1,0,0:0:0:0:
64,192,122763,1,0,0:0:0:0:
320,192,122840,1,0,0:0:0:0:
448,192,122840,1,0,0:0:0:0:
192,192,122917,1,0,0:0:0:0:
64,192,122917,1,0,0:0:0:0:
448,192,123070,1,0,0:0:0:0:
64,192,123224,1,0,0:0:0:0:
320,192,123378,1,0,0:0:0:0:
64,192,123378,1,0,0:0:0:0:
192,192,123531,1,0,0:0:0:0:
448,192,123685,1,0,0:0:0:0:
192,192,123839,1,0,0:0:0:0:
64,192,123839,1,0,0:0:0:0:
320,192,123993,1,0,0:0:0:0:
64,192,124147,1,0,0:0:0:0:
448,192,124301,1,0,0:0:0:0:
320,192,124301,1,0,0:0:0:0:
192,192,124455,1,0,0:0:0:0:
64,192,124608,1,0,0:0:0:0:
448,192,124762,1,0,0:0:0:0:
192,192,124916,1,0,0:0:0:0:
320,192,124916,1,0,0:0:0:0:
64,192,125070,1,0,0:0:0:0:
320,192,125070,1,0,0:0:0:0:
192,192,125224,1,0,0:0:0:0:
448,192,125224,1,0,0:0:0:0:
320,192,125224,1,0,0:0:0:0:
64,192,125378,1,0,0:0:0:0:
192,192,125378,1,0,0:0:0:0:
448,192,125378,1,0,0:0:0:0:
448,192,125531,1,0,0:0:0:0:
192,192,125531,1,0,0:0:0:0:
64,192,125685,1,0,0:0:0:0:
320,192,125685,1,0,0:0:0:0:
192,192,125685,1,0,0:0:0:0:
448,192,125839,1,0,0:0:0:0:
64,192,125839,1,0,0:0:0:0:
192,192,125993,1,0,0:0:0:0:
320,192,125993,1,0,0:0:0:0:
64,192,125993,1,0,0:0:0:0:
448,192,126147,1,0,0:0:0:0:
320,192,126147,1,0,0:0:0:0:
64,192,126147,1,0,0:0:0:0:
64,192,126301,1,0,0:0:0:0:
192,192,126301,1,0,0:0:0:0:
448,192,126301,1,0,0:0:0:0:
192,192,126455,1,0,0:0:0:0:
320,192,126455,1,0,0:0:0:0:
448,192,126455,1,0,0:0:0:0:
64,192,126608,1,0,0:0:0:0:
192,192,126608,1,0,0:0:0:0:
320,192,126608,1,0,0:0:0:0:
192,192,126840,1,0,0:0:0:0:
64,192,126840,1,0,0:0:0:0:
320,192,126917,1,0,0:0:0:0:
448,192,126917,1,0,0:0:0:0:
64,192,126994,1,0,0:0:0:0:
192,192,126994,1,0,0:0:0:0:
448,192,127148,1,0,0:0:0:0:
320,192,127148,1,0,0:0:0:0:
192,192,127225,1,0,0:0:0:0:
64,192,127225,1,0,0:0:0:0:
320,192,127301,128,0,127762:0:0:0:0:
448,192,127301,128,0,127762:0:0:0:0:
448,192,127916,1,0,0:0:0:0:
192,192,127916,1,0,0:0:0:0:
64,192,127916,1,0,0:0:0:0:
320,192,127993,1,0,0:0:0:0:
192,192,128070,1,0,0:0:0:0:
448,192,128070,1,0,0:0:0:0:
320,192,128147,1,0,0:0:0:0:
64,192,128147,1,0,0:0:0:0:
192,192,128224,1,0,0:0:0:0:
448,192,128224,1,0,0:0:0:0:
64,192,128301,1,0,0:0:0:0:
448,192,128378,1,0,0:0:0:0:
320,192,128378,1,0,0:0:0:0:
192,192,128455,1,0,0:0:0:0:
320,192,128531,1,0,0:0:0:0:
64,192,128531,1,0,0:0:0:0:
192,192,128608,1,0,0:0:0:0:
448,192,128608,1,0,0:0:0:0:
320,192,128685,1,0,0:0:0:0:
64,192,128762,1,0,0:0:0:0:
448,192,128762,1,0,0:0:0:0:
192,192,128839,1,0,0:0:0:0:
320,192,128916,1,0,0:0:0:0:
448,192,128916,1,0,0:0:0:0:
64,192,128916,1,0,0:0:0:0:
192,192,128993,1,0,0:0:0:0:
64,192,129070,1,0,0:0:0:0:
448,192,129070,1,0,0:0:0:0:
320,192,129147,1,0,0:0:0:0:
64,192,129224,1,0,0:0:0:0:
448,192,129224,1,0,0:0:0:0:
192,192,129224,1,0,0:0:0:0:
320,192,129301,1,0,0:0:0:0:
64,192,129378,1,0,0:0:0:0:
448,192,129378,1,0,0:0:0:0:
192,192,129455,1,0,0:0:0:0:
320,192,129455,1,0,0:0:0:0:
64,192,129531,1,0,0:0:0:0:
448,192,129531,1,0,0:0:0:0:
192,192,129608,1,0,0:0:0:0:
320,192,129685,1,0,0:0:0:0:
448,192,129685,1,0,0:0:0:0:
64,192,129762,1,0,0:0:0:0:
448,192,129839,1,0,0:0:0:0:
192,192,129839,1,0,0:0:0:0:
320,192,129839,1,0,0:0:0:0:
64,192,129916,1,0,0:0:0:0:
448,192,129993,1,0,0:0:0:0:
320,192,129993,1,0,0:0:0:0:
64,192,130070,1,0,0:0:0:0:
192,192,130147,1,0,0:0:0:0:
320,192,130147,1,0,0:0:0:0:
448,192,130224,1,0,0:0:0:0:
64,192,130301,1,0,0:0:0:0:
192,192,130301,1,0,0:0:0:0:
448,192,130378,1,0,0:0:0:0:
64,192,130455,1,0,0:0:0:0:
192,192,130455,1,0,0:0:0:0:
320,192,130455,1,0,0:0:0:0:
448,192,130531,1,0,0:0:0:0:
64,192,130608,1,0,0:0:0:0:
320,192,130608,1,0,0:0:0:0:
448,192,130685,1,0,0:0:0:0:
192,192,130685,1,0,0:0:0:0:
320,192,130762,1,0,0:0:0:0:
64,192,130762,1,0,0:0:0:0:
448,192,130839,1,0,0:0:0:0:
64,192,130916,1,0,0:0:0:0:
192,192,130916,1,0,0:0:0:0:
320,192,130993,1,0,0:0:0:0:
192,192,131070,1,0,0:0:0:0:
64,192,131070,1,0,0:0:0:0:
448,192,131070,1,0,0:0:0:0:
320,192,131147,1,0,0:0:0:0:
448,192,131224,1,0,0:0:0:0:
64,192,131301,1,0,0:0:0:0:
192,192,131301,1,0,0:0:0:0:
448,192,131378,1,0,0:0:0:0:
320,192,131455,1,0,0:0:0:0:
448,192,131531,1,0,0:0:0:0:
192,192,131531,1,0,0:0:0:0:
64,192,131531,1,0,0:0:0:0:
320,192,131608,1,0,0:0:0:0:
192,192,131685,1,0,0:0:0:0:
64,192,131685,1,0,0:0:0:0:
448,192,131762,1,0,0:0:0:0:
192,192,131839,1,0,0:0:0:0:
64,192,131839,1,0,0:0:0:0:
320,192,131839,1,0,0:0:0:0:
448,192,131916,1,0,0:0:0:0:
320,192,131993,1,0,0:0:0:0:
64,192,131993,1,0,0:0:0:0:
192,192,132070,1,0,0:0:0:0:
448,192,132070,1,0,0:0:0:0:
64,192,132147,1,0,0:0:0:0:
192,192,132224,1,0,0:0:0:0:
320,192,132224,1,0,0:0:0:0:
448,192,132301,1,0,0:0:0:0:
64,192,132378,1,0,0:0:0:0:
320,192,132378,1,0,0:0:0:0:
192,192,132378,1,0,0:0:0:0:
448,192,132455,1,0,0:0:0:0:
320,192,132531,1,0,0:0:0:0:
64,192,132531,1,0,0:0:0:0:
192,192,132608,1,0,0:0:0:0:
320,192,132685,1,0,0:0:0:0:
448,192,132685,1,0,0:0:0:0:
192,192,132762,1,0,0:0:0:0:
448,192,132839,1,0,0:0:0:0:
64,192,132839,1,0,0:0:0:0:
320,192,132916,1,0,0:0:0:0:
192,192,132916,1,0,0:0:0:0:
64,192,132993,1,0,0:0:0:0:
448,192,132993,1,0,0:0:0:0:
192,192,133070,1,0,0:0:0:0:
64,192,133147,1,0,0:0:0:0:
320,192,133147,1,0,0:0:0:0:
192,192,133224,1,0,0:0:0:0:
448,192,133224,1,0,0:0:0:0:
320,192,133301,1,0,0:0:0:0:
64,192,133301,1,0,0:0:0:0:
192,192,133378,1,0,0:0:0:0:
64,192,133455,1,0,0:0:0:0:
448,192,133455,1,0,0:0:0:0:
320,192,133531,1,0,0:0:0:0:
448,192,133608,1,0,0:0:0:0:
64,192,133608,1,0,0:0:0:0:
192,192,133608,1,0,0:0:0:0:
320,192,133685,1,0,0:0:0:0:
64,192,133762,1,0,0:0:0:0:
192,192,133762,1,0,0:0:0:0:
448,192,133839,1,0,0:0:0:0:
64,192,133916,1,0,0:0:0:0:
320,192,133916,1,0,0:0:0:0:
192,192,133993,1,0,0:0:0:0:
64,192,134070,1,0,0:0:0:0:
448,192,134070,1,0,0:0:0:0:
320,192,134147,1,0,0:0:0:0:
192,192,134147,1,0,0:0:0:0:
448,192,134224,1,0,0:0:0:0:
192,192,134301,1,0,0:0:0:0:
64,192,134301,1,0,0:0:0:0:
320,192,134378,1,0,0:0:0:0:
448,192,134455,1,0,0:0:0:0:
64,192,134455,1,0,0:0:0:0:
192,192,134531,1,0,0:0:0:0:
448,192,134608,1,0,0:0:0:0:
320,192,134608,1,0,0:0:0:0:
192,192,134685,1,0,0:0:0:0:
448,192,134762,1,0,0:0:0:0:
64,192,134762,1,0,0:0:0:0:
320,192,134839,1,0,0:0:0:0:
192,192,134839,1,0,0:0:0:0:
448,192,134916,1,0,0:0:0:0:
64,192,134993,1,0,0:0:0:0:
320,192,134993,1,0,0:0:0:0:
192,192,135070,1,0,0:0:0:0:
448,192,135070,1,0,0:0:0:0:
64,192,135147,1,0,0:0:0:0:
320,192,135224,1,0,0:0:0:0:
192,192,135224,1,0,0:0:0:0:
448,192,135301,1,0,0:0:0:0:
64,192,135378,1,0,0:0:0:0:
192,192,135378,1,0,0:0:0:0:
320,192,135455,1,0,0:0:0:0:
64,192,135531,1,0,0:0:0:0:
448,192,135531,1,0,0:0:0:0:
192,192,135608,1,0,0:0:0:0:
320,192,135685,1,0,0:0:0:0:
448,192,135685,1,0,0:0:0:0:
64,192,135762,1,0,0:0:0:0:
192,192,135839,1,0,0:0:0:0:
448,192,135839,1,0,0:0:0:0:
320,192,135916,1,0,0:0:0:0:
192,192,135993,1,0,0:0:0:0:
64,192,135993,1,0,0:0:0:0:
448,192,136070,1,0,0:0:0:0:
64,192,136147,1,0,0:0:0:0:
320,192,136147,1,0,0:0:0:0:
192,192,136224,1,0,0:0:0:0:
448,192,136301,1,0,0:0:0:0:
64,192,136301,1,0,0:0:0:0:
320,192,136378,1,0,0:0:0:0:
64,192,136455,1,0,0:0:0:0:
192,192,136455,1,0,0:0:0:0:
320,192,136531,1,0,0:0:0:0:
448,192,136608,1,0,0:0:0:0:
64,192,136608,1,0,0:0:0:0:
192,192,136685,1,0,0:0:0:0:
320,192,136762,1,0,0:0:0:0:
448,192,136762,1,0,0:0:0:0:
192,192,136839,1,0,0:0:0:0:
448,192,136916,1,0,0:0:0:0:
64,192,136916,1,0,0:0:0:0:
320,192,136993,1,0,0:0:0:0:
192,192,137070,1,0,0:0:0:0:
64,192,137070,1,0,0:0:0:0:
448,192,137147,1,0,0:0:0:0:
320,192,137224,1,0,0:0:0:0:
64,192,137224,1,0,0:0:0:0:
192,192,137301,1,0,0:0:0:0:
448,192,137301,1,0,0:0:0:0:
64,192,137378,1,0,0:0:0:0:
320,192,137455,1,0,0:0:0:0:
192,192,137455,1,0,0:0:0:0:
448,192,137531,1,0,0:0:0:0:
64,192,137608,1,0,0:0:0:0:
192,192,137608,1,0,0:0:0:0:
320,192,137685,1,0,0:0:0:0:
192,192,137762,1,0,0:0:0:0:
448,192,137762,1,0,0:0:0:0:
64,192,137839,1,0,0:0:0:0:
448,192,137916,1,0,0:0:0:0:
320,192,137916,1,0,0:0:0:0:
64,192,137993,1,0,0:0:0:0:
448,192,138070,1,0,0:0:0:0:
192,192,138070,1,0,0:0:0:0:
320,192,138070,1,0,0:0:0:0:
64,192,138147,1,0,0:0:0:0:
320,192,138224,1,0,0:0:0:0:
192,192,138224,1,0,0:0:0:0:
448,192,138224,1,0,0:0:0:0:
64,192,138301,1,0,0:0:0:0:
192,192,138378,1,0,0:0:0:0:
320,192,138378,1,0,0:0:0:0:
448,192,138378,1,0,0:0:0:0:
64,192,138455,1,0,0:0:0:0:
320,192,138531,1,0,0:0:0:0:
448,192,138531,1,0,0:0:0:0:
192,192,138608,1,0,0:0:0:0:
64,192,138685,1,0,0:0:0:0:
448,192,138685,1,0,0:0:0:0:
320,192,138685,1,0,0:0:0:0:
192,192,138762,1,0,0:0:0:0:
320,192,138839,1,0,0:0:0:0:
64,192,138839,1,0,0:0:0:0:
192,192,138916,1,0,0:0:0:0:
448,192,138916,1,0,0:0:0:0:
320,192,138993,1,0,0:0:0:0:
64,192,138993,1,0,0:0:0:0:
192,192,139070,1,0,0:0:0:0:
448,192,139070,1,0,0:0:0:0:
320,192,139147,1,0,0:0:0:0:
192,192,139224,1,0,0:0:0:0:
64,192,139224,1,0,0:0:0:0:
448,192,139301,1,0,0:0:0:0:
320,192,139301,1,0,0:0:0:0:
192,192,139378,1,0,0:0:0:0:
64,192,139378,1,0,0:0:0:0:
448,192,139455,1,0,0:0:0:0:
320,192,139531,1,0,0:0:0:0:
64,192,139531,1,0,0:0:0:0:
192,192,139531,1,0,0:0:0:0:
448,192,139608,1,0,0:0:0:0:
320,192,139685,1,0,0:0:0:0:
64,192,139685,1,0,0:0:0:0:
192,192,139685,1,0,0:0:0:0:
448,192,139762,1,0,0:0:0:0:
64,192,139839,1,0,0:0:0:0:
192,192,139839,1,0,0:0:0:0:
320,192,139916,1,0,0:0:0:0:
448,192,139993,1,0,0:0:0:0:
192,192,139993,1,0,0:0:0:0:
64,192,139993,1,0,0:0:0:0:
320,192,140070,1,0,0:0:0:0:
192,192,140147,1,0,0:0:0:0:
448,192,140147,1,0,0:0:0:0:
64,192,140224,1,0,0:0:0:0:
192,192,140301,1,0,0:0:0:0:
448,192,140301,1,0,0:0:0:0:
320,192,140301,1,0,0:0:0:0:
64,192,140378,1,0,0:0:0:0:
192,192,140455,1,0,0:0:0:0:
448,192,140455,1,0,0:0:0:0:
64,192,140531,1,0,0:0:0:0:
320,192,140608,1,0,0:0:0:0:
192,192,140608,1,0,0:0:0:0:
448,192,140685,1,0,0:0:0:0:
64,192,140762,1,0,0:0:0:0:
192,192,140762,1,0,0:0:0:0:
320,192,140839,1,0,0:0:0:0:
448,192,140916,1,0,0:0:0:0:
192,192,140916,1,0,0:0:0:0:
64,192,140916,1,0,0:0:0:0:
320,192,140993,1,0,0:0:0:0:
64,192,141070,1,0,0:0:0:0:
448,192,141070,1,0,0:0:0:0:
320,192,141147,1,0,0:0:0:0:
192,192,141147,1,0,0:0:0:0:
448,192,141224,1,0,0:0:0:0:
64,192,141224,1,0,0:0:0:0:
320,192,141301,1,0,0:0:0:0:
448,192,141378,1,0,0:0:0:0:
64,192,141378,1,0,0:0:0:0:
192,192,141378,1,0,0:0:0:0:
320,192,141455,1,0,0:0:0:0:
64,192,141531,1,0,0:0:0:0:
192,192,141531,1,0,0:0:0:0:
320,192,141608,1,0,0:0:0:0:
192,192,141685,1,0,0:0:0:0:
64,192,141685,1,0,0:0:0:0:
448,192,141685,1,0,0:0:0:0:
320,192,141762,1,0,0:0:0:0:
64,192,141839,1,0,0:0:0:0:
448,192,141839,1,0,0:0:0:0:
192,192,141916,1,0,0:0:0:0:
448,192,141993,1,0,0:0:0:0:
64,192,141993,1,0,0:0:0:0:
320,192,141993,1,0,0:0:0:0:
192,192,142070,1,0,0:0:0:0:
64,192,142147,1,0,0:0:0:0:
448,192,142147,1,0,0:0:0:0:
320,192,142224,1,0,0:0:0:0:
448,192,142301,1,0,0:0:0:0:
192,192,142301,1,0,0:0:0:0:
64,192,142301,1,0,0:0:0:0:
320,192,142378,1,0,0:0:0:0:
192,192,142455,1,0,0:0:0:0:
64,192,142455,1,0,0:0:0:0:
320,192,142531,1,0,0:0:0:0:
64,192,142608,1,0,0:0:0:0:
448,192,142608,1,0,0:0:0:0:
192,192,142608,1,0,0:0:0:0:
320,192,142685,1,0,0:0:0:0:
64,192,142762,1,0,0:0:0:0:
448,192,142762,1,0,0:0:0:0:
192,192,142839,1,0,0:0:0:0:
320,192,142916,1,0,0:0:0:0:
448,192,142916,1,0,0:0:0:0:
64,192,142916,1,0,0:0:0:0:
192,192,142993,1,0,0:0:0:0:
64,192,143070,1,0,0:0:0:0:
320,192,143070,1,0,0:0:0:0:
448,192,143147,1,0,0:0:0:0:
192,192,143224,1,0,0:0:0:0:
64,192,143224,1,0,0:0:0:0:
320,192,143224,1,0,0:0:0:0:
448,192,143301,1,0,0:0:0:0:
320,192,143378,1,0,0:0:0:0:
64,192,143378,1,0,0:0:0:0:
448,192,143455,1,0,0:0:0:0:
192,192,143531,1,0,0:0:0:0:
320,192,143531,1,0,0:0:0:0:
64,192,143608,1,0,0:0:0:0:
320,192,143685,1,0,0:0:0:0:
448,192,143685,1,0,0:0:0:0:
192,192,143762,1,0,0:0:0:0:
320,192,143839,1,0,0:0:0:0:
64,192,143839,1,0,0:0:0:0:
448,192,143839,1,0,0:0:0:0:
192,192,143916,1,0,0:0:0:0:
448,192,143993,1,0,0:0:0:0:
64,192,143993,1,0,0:0:0:0:
192,192,144070,1,0,0:0:0:0:
320,192,144070,1,0,0:0:0:0:
64,192,144147,1,0,0:0:0:0:
448,192,144147,1,0,0:0:0:0:
192,192,144224,1,0,0:0:0:0:
448,192,144301,1,0,0:0:0:0:
64,192,144301,1,0,0:0:0:0:
320,192,144301,1,0,0:0:0:0:
192,192,144378,1,0,0:0:0:0:
448,192,144455,1,0,0:0:0:0:
320,192,144455,1,0,0:0:0:0:
192,192,144531,1,0,0:0:0:0:
448,192,144608,1,0,0:0:0:0:
64,192,144608,1,0,0:0:0:0:
320,192,144608,1,0,0:0:0:0:
192,192,144685,1,0,0:0:0:0:
448,192,144762,1,0,0:0:0:0:
64,192,144762,1,0,0:0:0:0:
320,192,144839,1,0,0:0:0:0:
448,192,144916,1,0,0:0:0:0:
64,192,144916,1,0,0:0:0:0:
192,192,144916,1,0,0:0:0:0:
320,192,144993,1,0,0:0:0:0:
64,192,145070,1,0,0:0:0:0:
448,192,145070,1,0,0:0:0:0:
192,192,145147,1,0,0:0:0:0:
64,192,145224,1,0,0:0:0:0:
320,192,145224,1,0,0:0:0:0:
448,192,145224,1,0,0:0:0:0:
192,192,145301,1,0,0:0:0:0:
64,192,145378,1,0,0:0:0:0:
320,192,145378,1,0,0:0:0:0:
448,192,145455,1,0,0:0:0:0:
64,192,145531,1,0,0:0:0:0:
192,192,145531,1,0,0:0:0:0:
320,192,145608,1,0,0:0:0:0:
64,192,145685,1,0,0:0:0:0:
192,192,145685,1,0,0:0:0:0:
448,192,145685,1,0,0:0:0:0:
320,192,145762,1,0,0:0:0:0:
448,192,145839,1,0,0:0:0:0:
64,192,145839,1,0,0:0:0:0:
192,192,145839,1,0,0:0:0:0:
320,192,145916,1,0,0:0:0:0:
192,192,145993,1,0,0:0:0:0:
64,192,145993,1,0,0:0:0:0:
448,192,146070,1,0,0:0:0:0:
320,192,146147,5,0,0:0:0:0:
192,192,146147,1,0,0:0:0:0:
448,192,146224,1,0,0:0:0:0:
64,192,146224,1,0,0:0:0:0:
192,192,146301,1,0,0:0:0:0:
64,192,146378,5,0,0:0:0:0:
320,192,146378,1,0,0:0:0:0:
448,192,146378,1,0,0:0:0:0:
192,192,146455,1,0,0:0:0:0:
320,192,146531,1,0,0:0:0:0:
448,192,146531,1,0,0:0:0:0:
64,192,146608,1,0,0:0:0:0:
192,192,146685,1,0,0:0:0:0:
320,192,146685,1,0,0:0:0:0:
448,192,146762,1,0,0:0:0:0:
192,192,146839,1,0,0:0:0:0:
64,192,146839,1,0,0:0:0:0:
320,192,146916,1,0,0:0:0:0:
64,192,146993,1,0,0:0:0:0:
448,192,146993,1,0,0:0:0:0:
192,192,147070,1,0,0:0:0:0:
320,192,147147,1,0,0:0:0:0:
448,192,147147,1,0,0:0:0:0:
64,192,147224,1,0,0:0:0:0:
192,192,147224,1,0,0:0:0:0:
320,192,147301,1,0,0:0:0:0:
448,192,147301,1,0,0:0:0:0:
192,192,147378,1,0,0:0:0:0:
64,192,147378,1,0,0:0:0:0:
320,192,147455,1,0,0:0:0:0:
448,192,147455,1,0,0:0:0:0:
192,192,147532,1,0,0:0:0:0:
64,192,147532,1,0,0:0:0:0:
320,192,147609,1,0,0:0:0:0:
448,192,147609,1,0,0:0:0:0:
192,192,147685,1,0,0:0:0:0:
64,192,147685,1,0,0:0:0:0:
320,192,147762,1,0,0:0:0:0:
448,192,147762,1,0,0:0:0:0:
192,192,147839,1,0,0:0:0:0:
64,192,147839,1,0,0:0:0:0:
320,192,147916,1,0,0:0:0:0:
448,192,147916,1,0,0:0:0:0:
64,192,147994,1,0,0:0:0:0:
192,192,147994,1,0,0:0:0:0:
448,192,148071,1,0,0:0:0:0:
320,192,148071,1,0,0:0:0:0:
192,192,148148,1,0,0:0:0:0:
64,192,148148,1,0,0:0:0:0:
448,192,148224,1,0,0:0:0:0:
320,192,148301,1,0,0:0:0:0:
192,192,148301,1,0,0:0:0:0:
64,192,148378,1,0,0:0:0:0:
320,192,148455,1,0,0:0:0:0:
448,192,148455,1,0,0:0:0:0:
192,192,148531,1,0,0:0:0:0:
64,192,148608,1,0,0:0:0:0:
448,192,148608,1,0,0:0:0:0:
320,192,148685,1,0,0:0:0:0:
192,192,148762,1,0,0:0:0:0:
64,192,148762,1,0,0:0:0:0:
448,192,148762,1,0,0:0:0:0:
320,192,148839,1,0,0:0:0:0:
448,192,148916,1,0,0:0:0:0:
64,192,148916,1,0,0:0:0:0:
192,192,148993,1,0,0:0:0:0:
320,192,149070,1,0,0:0:0:0:
448,192,149070,1,0,0:0:0:0:
64,192,149147,1,0,0:0:0:0:
320,192,149224,1,0,0:0:0:0:
192,192,149224,1,0,0:0:0:0:
448,192,149301,1,0,0:0:0:0:
64,192,149378,1,0,0:0:0:0:
192,192,149378,1,0,0:0:0:0:
448,192,149455,1,0,0:0:0:0:
320,192,149531,1,0,0:0:0:0:
192,192,149531,1,0,0:0:0:0:
64,192,149608,1,0,0:0:0:0:
192,192,149685,1,0,0:0:0:0:
448,192,149685,1,0,0:0:0:0:
320,192,149762,1,0,0:0:0:0:
448,192,149839,1,0,0:0:0:0:
64,192,149839,1,0,0:0:0:0:
192,192,149916,1,0,0:0:0:0:
320,192,149993,1,0,0:0:0:0:
448,192,149993,1,0,0:0:0:0:
64,192,149993,1,0,0:0:0:0:
192,192,150070,1,0,0:0:0:0:
64,192,150147,1,0,0:0:0:0:
448,192,150147,1,0,0:0:0:0:
192,192,150224,1,0,0:0:0:0:
320,192,150224,1,0,0:0:0:0:
448,192,150301,1,0,0:0:0:0:
192,192,150378,1,0,0:0:0:0:
64,192,150378,1,0,0:0:0:0:
320,192,150455,1,0,0:0:0:0:
448,192,150531,1,0,0:0:0:0:
64,192,150531,1,0,0:0:0:0:
192,192,150608,1,0,0:0:0:0:
320,192,150685,1,0,0:0:0:0:
448,192,150685,1,0,0:0:0:0:
64,192,150762,1,0,0:0:0:0:
192,192,150839,1,0,0:0:0:0:
448,192,150839,1,0,0:0:0:0:
320,192,150916,1,0,0:0:0:0:
192,192,150993,1,0,0:0:0:0:
448,192,150993,1,0,0:0:0:0:
64,192,151070,1,0,0:0:0:0:
320,192,151147,1,0,0:0:0:0:
448,192,151147,1,0,0:0:0:0:
192,192,151147,1,0,0:0:0:0:
64,192,151224,1,0,0:0:0:0:
320,192,151301,1,0,0:0:0:0:
192,192,151301,1,0,0:0:0:0:
64,192,151378,1,0,0:0:0:0:
192,192,151455,1,0,0:0:0:0:
448,192,151455,1,0,0:0:0:0:
64,192,151531,1,0,0:0:0:0:
320,192,151531,1,0,0:0:0:0:
448,192,151608,1,0,0:0:0:0:
64,192,151685,1,0,0:0:0:0:
192,192,151685,1,0,0:0:0:0:
320,192,151762,1,0,0:0:0:0:
448,192,151839,1,0,0:0:0:0:
64,192,151839,1,0,0:0:0:0:
320,192,151916,1,0,0:0:0:0:
192,192,151993,1,0,0:0:0:0:
64,192,151993,1,0,0:0:0:0:
448,192,152070,1,0,0:0:0:0:
192,192,152147,1,0,0:0:0:0:
320,192,152147,1,0,0:0:0:0:
64,192,152147,1,0,0:0:0:0:
448,192,152224,1,0,0:0:0:0:
64,192,152301,1,0,0:0:0:0:
192,192,152301,1,0,0:0:0:0:
320,192,152378,1,0,0:0:0:0:
448,192,152455,1,0,0:0:0:0:
192,192,152455,1,0,0:0:0:0:
64,192,152531,1,0,0:0:0:0:
320,192,152608,1,0,0:0:0:0:
448,192,152608,1,0,0:0:0:0:
192,192,152685,1,0,0:0:0:0:
64,192,152762,1,0,0:0:0:0:
320,192,152762,1,0,0:0:0:0:
448,192,152839,1,0,0:0:0:0:
64,192,152916,1,0,0:0:0:0:
192,192,152916,1,0,0:0:0:0:
320,192,152993,1,0,0:0:0:0:
64,192,153070,1,0,0:0:0:0:
448,192,153070,1,0,0:0:0:0:
192,192,153070,1,0,0:0:0:0:
320,192,153147,1,0,0:0:0:0:
64,192,153224,1,0,0:0:0:0:
192,192,153224,1,0,0:0:0:0:
448,192,153301,1,0,0:0:0:0:
320,192,153378,1,0,0:0:0:0:
192,192,153378,1,0,0:0:0:0:
64,192,153455,1,0,0:0:0:0:
320,192,153531,1,0,0:0:0:0:
448,192,153531,1,0,0:0:0:0:
192,192,153608,1,0,0:0:0:0:
448,192,153685,1,0,0:0:0:0:
64,192,153685,1,0,0:0:0:0:
320,192,153762,1,0,0:0:0:0:
192,192,153839,1,0,0:0:0:0:
64,192,153839,1,0,0:0:0:0:
320,192,153916,1,0,0:0:0:0:
448,192,153993,1,0,0:0:0:0:
64,192,153993,1,0,0:0:0:0:
192,192,154070,1,0,0:0:0:0:
448,192,154147,1,0,0:0:0:0:
320,192,154147,1,0,0:0:0:0:
64,192,154224,1,0,0:0:0:0:
192,192,154301,1,0,0:0:0:0:
448,192,154301,1,0,0:0:0:0:
320,192,154378,1,0,0:0:0:0:
64,192,154455,1,0,0:0:0:0:
192,192,154455,1,0,0:0:0:0:
448,192,154531,1,0,0:0:0:0:
64,192,154608,1,0,0:0:0:0:
320,192,154608,1,0,0:0:0:0:
192,192,154685,1,0,0:0:0:0:
320,192,154762,1,0,0:0:0:0:
448,192,154762,1,0,0:0:0:0:
64,192,154839,1,0,0:0:0:0:
192,192,154916,1,0,0:0:0:0:
448,192,154916,1,0,0:0:0:0:
320,192,154993,1,0,0:0:0:0:
64,192,155070,1,0,0:0:0:0:
448,192,155070,1,0,0:0:0:0:
192,192,155147,1,0,0:0:0:0:
320,192,155224,1,0,0:0:0:0:
64,192,155224,1,0,0:0:0:0:
448,192,155301,1,0,0:0:0:0:
320,192,155378,1,0,0:0:0:0:
192,192,155378,1,0,0:0:0:0:
64,192,155455,1,0,0:0:0:0:
448,192,155531,1,0,0:0:0:0:
320,192,155531,1,0,0:0:0:0:
192,192,155608,1,0,0:0:0:0:
320,192,155685,1,0,0:0:0:0:
64,192,155685,1,0,0:0:0:0:
448,192,155762,1,0,0:0:0:0:
64,192,155839,1,0,0:0:0:0:
192,192,155839,1,0,0:0:0:0:
320,192,155916,1,0,0:0:0:0:
448,192,155993,1,0,0:0:0:0:
192,192,155993,1,0,0:0:0:0:
64,192,156070,1,0,0:0:0:0:
448,192,156147,1,0,0:0:0:0:
320,192,156147,1,0,0:0:0:0:
192,192,156224,1,0,0:0:0:0:
64,192,156301,1,0,0:0:0:0:
448,192,156301,1,0,0:0:0:0:
320,192,156378,1,0,0:0:0:0:
192,192,156455,1,0,0:0:0:0:
448,192,156455,1,0,0:0:0:0:
64,192,156531,1,0,0:0:0:0:
320,192,156608,1,0,0:0:0:0:
448,192,156608,1,0,0:0:0:0:
192,192,156685,1,0,0:0:0:0:
448,192,156762,1,0,0:0:0:0:
64,192,156762,1,0,0:0:0:0:
320,192,156839,1,0,0:0:0:0:
192,192,156916,5,0,0:0:0:0:
64,192,156916,1,0,0:0:0:0:
448,192,156993,1,0,0:0:0:0:
320,192,157070,1,0,0:0:0:0:
192,192,157070,1,0,0:0:0:0:
64,192,157147,1,0,0:0:0:0:
448,192,157224,1,0,0:0:0:0:
192,192,157224,1,0,0:0:0:0:
320,192,157301,1,0,0:0:0:0:
192,192,157378,1,0,0:0:0:0:
64,192,157378,1,0,0:0:0:0:
448,192,157378,1,0,0:0:0:0:
320,192,157455,1,0,0:0:0:0:
192,192,157531,1,0,0:0:0:0:
448,192,157531,1,0,0:0:0:0:
64,192,157608,1,0,0:0:0:0:
320,192,157685,1,0,0:0:0:0:
448,192,157685,1,0,0:0:0:0:
192,192,157762,1,0,0:0:0:0:
64,192,157839,1,0,0:0:0:0:
448,192,157839,1,0,0:0:0:0:
320,192,157916,1,0,0:0:0:0:
192,192,157916,1,0,0:0:0:0:
448,192,157993,1,0,0:0:0:0:
64,192,158071,5,0,0:0:0:0:
192,192,158071,1,0,0:0:0:0:
448,192,158148,1,0,0:0:0:0:
320,192,158148,1,0,0:0:0:0:
192,192,158225,1,0,0:0:0:0:
64,192,158225,1,0,0:0:0:0:
320,192,158302,1,0,0:0:0:0:
448,192,158302,1,0,0:0:0:0:
64,192,158455,1,0,0:0:0:0:
192,192,158608,1,0,0:0:0:0:
64,192,158762,1,0,0:0:0:0:
448,192,158916,1,0,0:0:0:0:
192,192,158916,1,0,0:0:0:0:
320,192,159070,1,0,0:0:0:0:
64,192,159224,1,0,0:0:0:0:
192,192,159224,1,0,0:0:0:0:
320,192,159378,1,0,0:0:0:0:
448,192,159531,1,0,0:0:0:0:
192,192,159685,1,0,0:0:0:0:
64,192,159685,1,0,0:0:0:0:
320,192,159839,1,0,0:0:0:0:
64,192,159993,1,0,0:0:0:0:
448,192,159993,1,0,0:0:0:0:
192,192,160147,1,0,0:0:0:0:
320,192,160301,1,0,0:0:0:0:
448,192,160301,1,0,0:0:0:0:
64,192,160301,1,0,0:0:0:0:
448,192,160455,1,0,0:0:0:0:
64,192,160608,1,0,0:0:0:0:
192,192,160608,1,0,0:0:0:0:
64,192,160762,1,0,0:0:0:0:
448,192,160916,1,0,0:0:0:0:
320,192,160916,1,0,0:0:0:0:
64,192,161070,1,0,0:0:0:0:
192,192,161224,1,0,0:0:0:0:
448,192,161224,1,0,0:0:0:0:
64,192,161378,1,0,0:0:0:0:
192,192,161531,1,0,0:0:0:0:
320,192,161531,1,0,0:0:0:0:
448,192,161685,1,0,0:0:0:0:
64,192,161839,1,0,0:0:0:0:
192,192,161839,1,0,0:0:0:0:
64,192,161993,5,0,0:0:0:0:
448,192,161993,1,0,0:0:0:0:
320,192,162147,1,0,0:0:0:0:
192,192,162147,1,0,0:0:0:0:
64,192,162301,1,0,0:0:0:0:
320,192,162301,1,0,0:0:0:0:
448,192,162455,1,0,0:0:0:0:
192,192,162455,1,0,0:0:0:0:
64,192,162455,1,0,0:0:0:0:
192,192,162608,1,0,0:0:0:0:
320,192,162608,1,0,0:0:0:0:
448,192,162608,1,0,0:0:0:0:
64,192,162762,1,0,0:0:0:0:
192,192,162762,1,0,0:0:0:0:
320,192,162762,1,0,0:0:0:0:
448,192,162916,1,0,0:0:0:0:
320,192,162916,1,0,0:0:0:0:
64,192,162916,1,0,0:0:0:0:
64,192,163070,5,0,0:0:0:0:
192,192,163070,1,0,0:0:0:0:
320,192,163147,1,0,0:0:0:0:
448,192,163147,1,0,0:0:0:0:
64,192,163224,1,0,0:0:0:0:
192,192,163224,1,0,0:0:0:0:
320,192,163301,1,0,0:0:0:0:
448,192,163301,1,0,0:0:0:0:
64,192,163455,1,0,0:0:0:0:
192,192,163455,1,0,0:0:0:0:
320,192,163608,1,0,0:0:0:0:
448,192,163608,1,0,0:0:0:0:
64,192,163608,1,0,0:0:0:0:
192,192,163762,1,0,0:0:0:0:
64,192,163916,1,0,0:0:0:0:
320,192,163916,1,0,0:0:0:0:
192,192,164070,1,0,0:0:0:0:
448,192,164070,1,0,0:0:0:0:
64,192,164070,1,0,0:0:0:0:
64,192,164224,1,0,0:0:0:0:
320,192,164224,1,0,0:0:0:0:
192,192,164378,1,0,0:0:0:0:
448,192,164378,1,0,0:0:0:0:
64,192,164531,1,0,0:0:0:0:
192,192,164531,1,0,0:0:0:0:
320,192,164531,1,0,0:0:0:0:
64,192,164685,1,0,0:0:0:0:
448,192,164685,1,0,0:0:0:0:
192,192,164839,1,0,0:0:0:0:
320,192,164839,1,0,0:0:0:0:
64,192,164993,1,0,0:0:0:0:
320,192,164993,1,0,0:0:0:0:
448,192,164993,1,0,0:0:0:0:
192,192,165147,1,0,0:0:0:0:
64,192,165147,1,0,0:0:0:0:
320,192,165147,1,0,0:0:0:0:
448,192,165301,1,0,0:0:0:0:
320,192,165301,1,0,0:0:0:0:
192,192,165301,1,0,0:0:0:0:
64,192,165455,1,0,0:0:0:0:
192,192,165455,1,0,0:0:0:0:
448,192,165455,1,0,0:0:0:0:
192,192,165608,1,0,0:0:0:0:
320,192,165608,1,0,0:0:0:0:
448,192,165608,1,0,0:0:0:0:
64,192,165762,1,0,0:0:0:0:
192,192,165762,1,0,0:0:0:0:
320,192,165762,1,0,0:0:0:0:
448,192,165916,1,0,0:0:0:0:
320,192,165916,1,0,0:0:0:0:
64,192,165916,1,0,0:0:0:0:
64,192,166070,1,0,0:0:0:0:
192,192,166070,1,0,0:0:0:0:
320,192,166070,1,0,0:0:0:0:
448,192,166070,1,0,0:0:0:0:
320,192,166224,1,0,0:0:0:0:
192,192,166224,1,0,0:0:0:0:
448,192,166224,1,0,0:0:0:0:
64,192,166378,1,0,0:0:0:0:
192,192,166378,1,0,0:0:0:0:
448,192,166378,1,0,0:0:0:0:
64,192,166531,1,0,0:0:0:0:
320,192,166531,1,0,0:0:0:0:
192,192,166531,1,0,0:0:0:0:
448,192,166685,1,0,0:0:0:0:
320,192,166685,1,0,0:0:0:0:
192,192,166685,1,0,0:0:0:0:
64,192,166839,1,0,0:0:0:0:
192,192,166839,1,0,0:0:0:0:
320,192,166839,1,0,0:0:0:0:
448,192,166839,1,0,0:0:0:0:
448,192,166993,1,0,0:0:0:0:
64,192,166993,1,0,0:0:0:0:
320,192,166993,1,0,0:0:0:0:
320,192,167147,1,0,0:0:0:0:
448,192,167147,1,0,0:0:0:0:
192,192,167147,1,0,0:0:0:0:
320,192,167302,5,0,0:0:0:0:
448,192,167302,1,0,0:0:0:0:
192,192,167378,1,0,0:0:0:0:
64,192,167378,1,0,0:0:0:0:
320,192,167455,1,0,0:0:0:0:
448,192,167455,1,0,0:0:0:0:
64,192,167609,1,0,0:0:0:0:
192,192,167609,1,0,0:0:0:0:
320,192,167686,1,0,0:0:0:0:
448,192,167686,1,0,0:0:0:0:
192,192,167763,1,0,0:0:0:0:
64,192,167763,1,0,0:0:0:0:
448,192,167916,1,0,0:0:0:0:
64,192,168070,1,0,0:0:0:0:
320,192,168224,1,0,0:0:0:0:
64,192,168378,1,0,0:0:0:0:
192,192,168378,1,0,0:0:0:0:
320,192,168378,1,0,0:0:0:0:
448,192,168378,1,0,0:0:0:0:
64,192,168531,1,0,0:0:0:0:
320,192,168685,1,0,0:0:0:0:
448,192,168685,1,0,0:0:0:0:
192,192,168839,1,0,0:0:0:0:
64,192,168993,1,0,0:0:0:0:
320,192,168993,1,0,0:0:0:0:
448,192,169147,1,0,0:0:0:0:
64,192,169301,1,0,0:0:0:0:
192,192,169301,1,0,0:0:0:0:
320,192,169455,1,0,0:0:0:0:
64,192,169608,1,0,0:0:0:0:
448,192,169608,1,0,0:0:0:0:
192,192,169762,1,0,0:0:0:0:
320,192,169916,1,0,0:0:0:0:
448,192,169916,1,0,0:0:0:0:
64,192,170070,1,0,0:0:0:0:
192,192,170224,1,0,0:0:0:0:
320,192,170224,1,0,0:0:0:0:
448,192,170378,1,0,0:0:0:0:
64,192,170531,1,0,0:0:0:0:
192,192,170685,1,0,0:0:0:0:
448,192,170685,1,0,0:0:0:0:
320,192,170839,1,0,0:0:0:0:
192,192,170993,1,0,0:0:0:0:
64,192,170993,1,0,0:0:0:0:
448,192,171147,1,0,0:0:0:0:
320,192,171301,1,0,0:0:0:0:
64,192,171301,1,0,0:0:0:0:
192,192,171455,1,0,0:0:0:0:
320,192,171608,1,0,0:0:0:0:
448,192,171608,1,0,0:0:0:0:
64,192,171608,1,0,0:0:0:0:
192,192,171762,1,0,0:0:0:0:
320,192,171762,1,0,0:0:0:0:
448,192,171762,1,0,0:0:0:0:
64,192,171916,1,0,0:0:0:0:
192,192,171916,1,0,0:0:0:0:
448,192,171916,1,0,0:0:0:0:
64,192,172148,1,0,0:0:0:0:
320,192,172148,1,0,0:0:0:0:
448,192,172148,1,0,0:0:0:0:
192,192,172224,1,0,0:0:0:0:
64,192,172301,1,0,0:0:0:0:
320,192,172301,1,0,0:0:0:0:
448,192,172301,1,0,0:0:0:0:
192,192,172378,1,0,0:0:0:0:
448,192,172455,1,0,0:0:0:0:
320,192,172455,1,0,0:0:0:0:
64,192,172531,1,0,0:0:0:0:
192,192,172608,1,0,0:0:0:0:
320,192,172608,1,0,0:0:0:0:
448,192,172608,1,0,0:0:0:0:
64,192,172685,1,0,0:0:0:0:
192,192,172762,1,0,0:0:0:0:
320,192,172762,1,0,0:0:0:0:
448,192,172762,1,0,0:0:0:0:
64,192,172839,1,0,0:0:0:0:
448,192,172916,1,0,0:0:0:0:
320,192,172993,1,0,0:0:0:0:
192,192,172993,1,0,0:0:0:0:
64,192,173070,1,0,0:0:0:0:
320,192,173148,1,0,0:0:0:0:
448,192,173148,1,0,0:0:0:0:
192,192,173225,1,0,0:0:0:0:
64,192,173225,1,0,0:0:0:0:
320,192,173302,1,0,0:0:0:0:
448,192,173302,1,0,0:0:0:0:
192,192,173378,1,0,0:0:0:0:
64,192,173378,1,0,0:0:0:0:
448,192,173455,1,0,0:0:0:0:
320,192,173531,1,0,0:0:0:0:
448,192,173608,1,0,0:0:0:0:
192,192,173608,1,0,0:0:0:0:
64,192,173608,1,0,0:0:0:0:
320,192,173685,1,0,0:0:0:0:
448,192,173762,1,0,0:0:0:0:
64,192,173762,1,0,0:0:0:0:
192,192,173839,1,0,0:0:0:0:
64,192,173916,1,0,0:0:0:0:
320,192,173916,1,0,0:0:0:0:
448,192,173916,1,0,0:0:0:0:
192,192,173993,1,0,0:0:0:0:
64,192,174070,1,0,0:0:0:0:
320,192,174070,1,0,0:0:0:0:
448,192,174147,1,0,0:0:0:0:
320,192,174224,1,0,0:0:0:0:
192,192,174224,1,0,0:0:0:0:
64,192,174224,1,0,0:0:0:0:
448,192,174301,1,0,0:0:0:0:
320,192,174378,1,0,0:0:0:0:
192,192,174378,1,0,0:0:0:0:
64,192,174378,1,0,0:0:0:0:
448,192,174455,1,0,0:0:0:0:
64,192,174531,1,0,0:0:0:0:
192,192,174531,1,0,0:0:0:0:
448,192,174608,1,0,0:0:0:0:
320,192,174685,1,0,0:0:0:0:
64,192,174685,1,0,0:0:0:0:
448,192,174762,1,0,0:0:0:0:
192,192,174762,1,0,0:0:0:0:
320,192,174839,1,0,0:0:0:0:
64,192,174839,1,0,0:0:0:0:
192,192,174916,1,0,0:0:0:0:
64,192,174993,1,0,0:0:0:0:
320,192,174993,1,0,0:0:0:0:
448,192,175070,1,0,0:0:0:0:
64,192,175147,1,0,0:0:0:0:
192,192,175147,1,0,0:0:0:0:
320,192,175147,1,0,0:0:0:0:
448,192,175224,1,0,0:0:0:0:
320,192,175301,1,0,0:0:0:0:
64,192,175301,1,0,0:0:0:0:
192,192,175378,1,0,0:0:0:0:
320,192,175455,1,0,0:0:0:0:
448,192,175455,1,0,0:0:0:0:
64,192,175531,1,0,0:0:0:0:
192,192,175608,1,0,0:0:0:0:
320,192,175608,1,0,0:0:0:0:
448,192,175685,1,0,0:0:0:0:
64,192,175762,1,0,0:0:0:0:
192,192,175762,1,0,0:0:0:0:
320,192,175839,1,0,0:0:0:0:
448,192,175916,1,0,0:0:0:0:
64,192,175916,1,0,0:0:0:0:
192,192,175916,1,0,0:0:0:0:
320,192,175993,1,0,0:0:0:0:
448,192,176070,1,0,0:0:0:0:
64,192,176070,1,0,0:0:0:0:
192,192,176070,1,0,0:0:0:0:
320,192,176147,1,0,0:0:0:0:
448,192,176224,1,0,0:0:0:0:
192,192,176224,1,0,0:0:0:0:
64,192,176224,1,0,0:0:0:0:
320,192,176301,1,0,0:0:0:0:
192,192,176378,1,0,0:0:0:0:
64,192,176378,1,0,0:0:0:0:
448,192,176455,1,0,0:0:0:0:
320,192,176531,1,0,0:0:0:0:
64,192,176531,1,0,0:0:0:0:
192,192,176608,1,0,0:0:0:0:
448,192,176685,1,0,0:0:0:0:
320,192,176685,1,0,0:0:0:0:
64,192,176762,1,0,0:0:0:0:
192,192,176839,1,0,0:0:0:0:
448,192,176839,1,0,0:0:0:0:
320,192,176916,1,0,0:0:0:0:
192,192,176993,1,0,0:0:0:0:
64,192,176993,1,0,0:0:0:0:
448,192,176993,1,0,0:0:0:0:
320,192,177070,1,0,0:0:0:0:
192,192,177147,1,0,0:0:0:0:
448,192,177147,1,0,0:0:0:0:
64,192,177224,1,0,0:0:0:0:
320,192,177224,1,0,0:0:0:0:
192,192,177301,1,0,0:0:0:0:
448,192,177301,1,0,0:0:0:0:
320,192,177378,1,0,0:0:0:0:
64,192,177455,1,0,0:0:0:0:
192,192,177455,1,0,0:0:0:0:
448,192,177455,1,0,0:0:0:0:
320,192,177531,1,0,0:0:0:0:
64,192,177608,1,0,0:0:0:0:
448,192,177608,1,0,0:0:0:0:
192,192,177685,1,0,0:0:0:0:
64,192,177762,1,0,0:0:0:0:
320,192,177762,1,0,0:0:0:0:
448,192,177762,1,0,0:0:0:0:
192,192,177839,1,0,0:0:0:0:
320,192,177917,1,0,0:0:0:0:
448,192,177917,1,0,0:0:0:0:
192,192,177994,1,0,0:0:0:0:
64,192,177994,1,0,0:0:0:0:
320,192,178071,1,0,0:0:0:0:
448,192,178071,1,0,0:0:0:0:
192,192,178148,1,0,0:0:0:0:
64,192,178148,1,0,0:0:0:0:
320,192,178225,1,0,0:0:0:0:
448,192,178225,1,0,0:0:0:0:
192,192,178302,1,0,0:0:0:0:
64,192,178302,1,0,0:0:0:0:
448,192,178455,1,0,0:0:0:0:
192,192,178455,1,0,0:0:0:0:
64,192,178455,1,0,0:0:0:0:
320,192,178531,1,0,0:0:0:0:
192,192,178608,1,0,0:0:0:0:
448,192,178608,1,0,0:0:0:0:
320,192,178685,1,0,0:0:0:0:
64,192,178685,1,0,0:0:0:0:
192,192,178762,1,0,0:0:0:0:
448,192,178762,1,0,0:0:0:0:
64,192,178839,1,0,0:0:0:0:
320,192,178916,1,0,0:0:0:0:
448,192,178916,1,0,0:0:0:0:
192,192,178993,1,0,0:0:0:0:
320,192,179070,1,0,0:0:0:0:
64,192,179070,1,0,0:0:0:0:
192,192,179147,1,0,0:0:0:0:
448,192,179147,1,0,0:0:0:0:
320,192,179224,1,0,0:0:0:0:
448,192,179301,1,0,0:0:0:0:
64,192,179301,1,0,0:0:0:0:
192,192,179378,1,0,0:0:0:0:
320,192,179455,1,0,0:0:0:0:
448,192,179455,1,0,0:0:0:0:
64,192,179455,1,0,0:0:0:0:
192,192,179531,1,0,0:0:0:0:
64,192,179608,1,0,0:0:0:0:
448,192,179608,1,0,0:0:0:0:
320,192,179685,1,0,0:0:0:0:
448,192,179762,1,0,0:0:0:0:
192,192,179762,1,0,0:0:0:0:
64,192,179762,1,0,0:0:0:0:
320,192,179839,1,0,0:0:0:0:
64,192,179916,1,0,0:0:0:0:
448,192,179916,1,0,0:0:0:0:
192,192,179993,1,0,0:0:0:0:
320,192,179993,1,0,0:0:0:0:
448,192,180070,1,0,0:0:0:0:
64,192,180070,1,0,0:0:0:0:
192,192,180147,1,0,0:0:0:0:
320,192,180224,1,0,0:0:0:0:
448,192,180224,1,0,0:0:0:0:
64,192,180301,1,0,0:0:0:0:
192,192,180378,1,0,0:0:0:0:
448,192,180378,1,0,0:0:0:0:
320,192,180378,1,0,0:0:0:0:
64,192,180455,1,0,0:0:0:0:
320,192,180531,1,0,0:0:0:0:
448,192,180531,1,0,0:0:0:0:
64,192,180608,1,0,0:0:0:0:
192,192,180685,1,0,0:0:0:0:
320,192,180685,1,0,0:0:0:0:
448,192,180762,1,0,0:0:0:0:
64,192,180839,1,0,0:0:0:0:
192,192,180839,1,0,0:0:0:0:
448,192,180916,1,0,0:0:0:0:
320,192,180993,1,0,0:0:0:0:
192,192,180993,1,0,0:0:0:0:
64,192,180993,1,0,0:0:0:0:
448,192,181070,1,0,0:0:0:0:
64,192,181147,1,0,0:0:0:0:
320,192,181147,1,0,0:0:0:0:
448,192,181224,1,0,0:0:0:0:
192,192,181224,1,0,0:0:0:0:
64,192,181301,1,0,0:0:0:0:
320,192,181301,1,0,0:0:0:0:
448,192,181378,1,0,0:0:0:0:
64,192,181455,1,0,0:0:0:0:
192,192,181455,1,0,0:0:0:0:
320,192,181531,1,0,0:0:0:0:
192,192,181608,1,0,0:0:0:0:
64,192,181608,1,0,0:0:0:0:
448,192,181608,1,0,0:0:0:0:
320,192,181685,1,0,0:0:0:0:
448,192,181762,1,0,0:0:0:0:
192,192,181839,1,0,0:0:0:0:
64,192,181839,1,0,0:0:0:0:
448,192,181916,1,0,0:0:0:0:
320,192,181993,1,0,0:0:0:0:
192,192,182070,1,0,0:0:0:0:
64,192,182070,1,0,0:0:0:0:
448,192,182070,1,0,0:0:0:0:
320,192,182147,1,0,0:0:0:0:
192,192,182224,1,0,0:0:0:0:
448,192,182224,1,0,0:0:0:0:
64,192,182301,1,0,0:0:0:0:
448,192,182378,1,0,0:0:0:0:
192,192,182378,1,0,0:0:0:0:
320,192,182378,1,0,0:0:0:0:
64,192,182455,1,0,0:0:0:0:
448,192,182531,1,0,0:0:0:0:
192,192,182531,1,0,0:0:0:0:
320,192,182608,1,0,0:0:0:0:
64,192,182608,1,0,0:0:0:0:
448,192,182685,1,0,0:0:0:0:
192,192,182762,1,0,0:0:0:0:
320,192,182762,1,0,0:0:0:0:
64,192,182839,1,0,0:0:0:0:
192,192,182916,1,0,0:0:0:0:
320,192,182916,1,0,0:0:0:0:
448,192,182916,1,0,0:0:0:0:
64,192,182993,1,0,0:0:0:0:
448,192,183070,1,0,0:0:0:0:
192,192,183070,1,0,0:0:0:0:
320,192,183147,1,0,0:0:0:0:
64,192,183224,1,0,0:0:0:0:
192,192,183224,1,0,0:0:0:0:
320,192,183301,1,0,0:0:0:0:
64,192,183378,1,0,0:0:0:0:
448,192,183378,1,0,0:0:0:0:
320,192,183455,1,0,0:0:0:0:
192,192,183455,1,0,0:0:0:0:
64,192,183531,1,0,0:0:0:0:
448,192,183531,1,0,0:0:0:0:
320,192,183608,1,0,0:0:0:0:
448,192,183685,1,0,0:0:0:0:
192,192,183685,1,0,0:0:0:0:
64,192,183762,1,0,0:0:0:0:
320,192,183762,1,0,0:0:0:0:
192,192,183839,1,0,0:0:0:0:
448,192,183839,1,0,0:0:0:0:
320,192,183916,1,0,0:0:0:0:
448,192,183993,1,0,0:0:0:0:
64,192,183993,1,0,0:0:0:0:
192,192,184070,1,0,0:0:0:0:
320,192,184147,1,0,0:0:0:0:
448,192,184147,1,0,0:0:0:0:
64,192,184147,1,0,0:0:0:0:
192,192,184224,1,0,0:0:0:0:
448,192,184301,1,0,0:0:0:0:
320,192,184301,1,0,0:0:0:0:
64,192,184378,1,0,0:0:0:0:
448,192,184455,1,0,0:0:0:0:
192,192,184455,1,0,0:0:0:0:
320,192,184531,1,0,0:0:0:0:
64,192,184608,1,0,0:0:0:0:
448,192,184608,1,0,0:0:0:0:
320,192,184685,1,0,0:0:0:0:
192,192,184685,1,0,0:0:0:0:
64,192,184762,1,0,0:0:0:0:
448,192,184839,1,0,0:0:0:0:
320,192,184839,1,0,0:0:0:0:
192,192,184916,1,0,0:0:0:0:
448,192,184993,1,0,0:0:0:0:
64,192,184993,1,0,0:0:0:0:
320,192,185070,1,0,0:0:0:0:
192,192,185147,1,0,0:0:0:0:
64,192,185147,1,0,0:0:0:0:
320,192,185224,1,0,0:0:0:0:
448,192,185301,1,0,0:0:0:0:
64,192,185301,1,0,0:0:0:0:
320,192,185378,1,0,0:0:0:0:
192,192,185378,1,0,0:0:0:0:
64,192,185455,1,0,0:0:0:0:
448,192,185531,1,0,0:0:0:0:
192,192,185531,1,0,0:0:0:0:
320,192,185608,1,0,0:0:0:0:
64,192,185608,1,0,0:0:0:0:
448,192,185685,1,0,0:0:0:0:
192,192,185762,1,0,0:0:0:0:
320,192,185762,1,0,0:0:0:0:
64,192,185839,1,0,0:0:0:0:
448,192,185916,1,0,0:0:0:0:
320,192,185916,1,0,0:0:0:0:
192,192,185993,1,0,0:0:0:0:
448,192,186070,1,0,0:0:0:0:
64,192,186070,1,0,0:0:0:0:
320,192,186147,1,0,0:0:0:0:
64,192,186224,1,0,0:0:0:0:
192,192,186224,1,0,0:0:0:0:
448,192,186301,1,0,0:0:0:0:
64,192,186378,1,0,0:0:0:0:
320,192,186378,1,0,0:0:0:0:
192,192,186455,5,0,0:0:0:0:
64,192,186531,1,0,0:0:0:0:
448,192,186531,1,0,0:0:0:0:
320,192,186608,1,0,0:0:0:0:
192,192,186685,1,0,0:0:0:0:
64,192,186685,1,0,0:0:0:0:
320,192,186762,1,0,0:0:0:0:
448,192,186839,1,0,0:0:0:0:
64,192,186839,1,0,0:0:0:0:
192,192,186916,1,0,0:0:0:0:
320,192,186993,1,0,0:0:0:0:
448,192,186993,1,0,0:0:0:0:
192,192,187070,1,0,0:0:0:0:
64,192,187147,1,0,0:0:0:0:
448,192,187147,1,0,0:0:0:0:
320,192,187224,1,0,0:0:0:0:
448,192,187301,1,0,0:0:0:0:
192,192,187301,1,0,0:0:0:0:
64,192,187378,1,0,0:0:0:0:
320,192,187455,1,0,0:0:0:0:
192,192,187455,1,0,0:0:0:0:
448,192,187531,1,0,0:0:0:0:
192,192,187609,5,0,0:0:0:0:
64,192,187609,1,0,0:0:0:0:
320,192,187686,1,0,0:0:0:0:
448,192,187686,1,0,0:0:0:0:
192,192,187763,1,0,0:0:0:0:
64,192,187763,1,0,0:0:0:0:
320,192,187840,1,0,0:0:0:0:
448,192,187840,1,0,0:0:0:0:
192,192,187917,1,0,0:0:0:0:
64,192,187917,1,0,0:0:0:0:
320,192,187993,1,0,0:0:0:0:
448,192,187993,1,0,0:0:0:0:
192,192,188070,1,0,0:0:0:0:
64,192,188070,1,0,0:0:0:0:
320,192,188147,1,0,0:0:0:0:
448,192,188147,1,0,0:0:0:0:
192,192,188224,1,0,0:0:0:0:
64,192,188224,1,0,0:0:0:0:
320,192,188301,1,0,0:0:0:0:
448,192,188301,1,0,0:0:0:0:
192,192,188378,1,0,0:0:0:0:
64,192,188378,1,0,0:0:0:0:
64,192,188531,1,0,0:0:0:0:
320,192,188531,1,0,0:0:0:0:
448,192,188531,1,0,0:0:0:0:
192,192,188608,1,0,0:0:0:0:
64,192,188685,1,0,0:0:0:0:
320,192,188685,1,0,0:0:0:0:
192,192,188762,1,0,0:0:0:0:
448,192,188762,1,0,0:0:0:0:
64,192,188839,1,0,0:0:0:0:
320,192,188839,1,0,0:0:0:0:
448,192,188916,1,0,0:0:0:0:
192,192,188993,1,0,0:0:0:0:
64,192,188993,1,0,0:0:0:0:
320,192,189070,1,0,0:0:0:0:
448,192,189147,1,0,0:0:0:0:
192,192,189147,1,0,0:0:0:0:
320,192,189224,1,0,0:0:0:0:
64,192,189224,1,0,0:0:0:0:
192,192,189301,1,0,0:0:0:0:
64,192,189378,1,0,0:0:0:0:
448,192,189378,1,0,0:0:0:0:
320,192,189455,1,0,0:0:0:0:
192,192,189531,1,0,0:0:0:0:
64,192,189531,1,0,0:0:0:0:
448,192,189531,1,0,0:0:0:0:
320,192,189608,1,0,0:0:0:0:
448,192,189685,1,0,0:0:0:0:
64,192,189685,1,0,0:0:0:0:
192,192,189762,1,0,0:0:0:0:
320,192,189839,1,0,0:0:0:0:
448,192,189839,1,0,0:0:0:0:
64,192,189839,1,0,0:0:0:0:
192,192,189916,1,0,0:0:0:0:
448,192,189993,1,0,0:0:0:0:
64,192,189993,1,0,0:0:0:0:
320,192,190070,1,0,0:0:0:0:
192,192,190070,1,0,0:0:0:0:
448,192,190147,1,0,0:0:0:0:
64,192,190147,1,0,0:0:0:0:
320,192,190224,1,0,0:0:0:0:
192,192,190301,1,0,0:0:0:0:
64,192,190301,1,0,0:0:0:0:
448,192,190378,1,0,0:0:0:0:
192,192,190455,1,0,0:0:0:0:
64,192,190455,1,0,0:0:0:0:
320,192,190455,1,0,0:0:0:0:
448,192,190531,1,0,0:0:0:0:
64,192,190608,1,0,0:0:0:0:
192,192,190608,1,0,0:0:0:0:
448,192,190685,1,0,0:0:0:0:
320,192,190762,1,0,0:0:0:0:
192,192,190762,1,0,0:0:0:0:
64,192,190839,1,0,0:0:0:0:
448,192,190916,1,0,0:0:0:0:
320,192,190916,1,0,0:0:0:0:
64,192,190993,1,0,0:0:0:0:
448,192,191070,1,0,0:0:0:0:
320,192,191070,1,0,0:0:0:0:
192,192,191070,1,0,0:0:0:0:
64,192,191147,1,0,0:0:0:0:
192,192,191224,1,0,0:0:0:0:
448,192,191224,1,0,0:0:0:0:
64,192,191301,1,0,0:0:0:0:
320,192,191301,1,0,0:0:0:0:
192,192,191378,1,0,0:0:0:0:
448,192,191378,1,0,0:0:0:0:
64,192,191455,1,0,0:0:0:0:
448,192,191531,1,0,0:0:0:0:
320,192,191531,1,0,0:0:0:0:
192,192,191608,1,0,0:0:0:0:
448,192,191685,1,0,0:0:0:0:
64,192,191685,1,0,0:0:0:0:
320,192,191685,1,0,0:0:0:0:
192,192,191762,1,0,0:0:0:0:
64,192,191839,1,0,0:0:0:0:
320,192,191916,1,0,0:0:0:0:
448,192,191916,1,0,0:0:0:0:
64,192,191993,1,0,0:0:0:0:
192,192,192070,1,0,0:0:0:0:
320,192,192147,1,0,0:0:0:0:
448,192,192147,1,0,0:0:0:0:
64,192,192147,1,0,0:0:0:0:
192,192,192224,1,0,0:0:0:0:
448,192,192301,1,0,0:0:0:0:
320,192,192301,1,0,0:0:0:0:
64,192,192378,1,0,0:0:0:0:
448,192,192455,1,0,0:0:0:0:
320,192,192455,1,0,0:0:0:0:
192,192,192455,1,0,0:0:0:0:
64,192,192531,1,0,0:0:0:0:
448,192,192608,1,0,0:0:0:0:
192,192,192608,1,0,0:0:0:0:
320,192,192685,1,0,0:0:0:0:
64,192,192685,1,0,0:0:0:0:
448,192,192762,1,0,0:0:0:0:
320,192,192839,1,0,0:0:0:0:
192,192,192839,1,0,0:0:0:0:
448,192,192916,1,0,0:0:0:0:
320,192,192993,1,0,0:0:0:0:
192,192,192993,1,0,0:0:0:0:
64,192,192993,1,0,0:0:0:0:
448,192,193070,1,0,0:0:0:0:
320,192,193147,1,0,0:0:0:0:
64,192,193147,1,0,0:0:0:0:
192,192,193224,1,0,0:0:0:0:
448,192,193301,1,0,0:0:0:0:
320,192,193301,1,0,0:0:0:0:
192,192,193378,1,0,0:0:0:0:
448,192,193455,1,0,0:0:0:0:
64,192,193455,1,0,0:0:0:0:
192,192,193531,1,0,0:0:0:0:
320,192,193531,1,0,0:0:0:0:
448,192,193608,1,0,0:0:0:0:
64,192,193608,1,0,0:0:0:0:
192,192,193685,1,0,0:0:0:0:
64,192,193762,1,0,0:0:0:0:
320,192,193762,1,0,0:0:0:0:
192,192,193839,1,0,0:0:0:0:
448,192,193839,1,0,0:0:0:0:
64,192,193916,1,0,0:0:0:0:
320,192,193916,1,0,0:0:0:0:
192,192,193993,1,0,0:0:0:0:
448,192,194070,1,0,0:0:0:0:
64,192,194070,1,0,0:0:0:0:
320,192,194147,1,0,0:0:0:0:
448,192,194224,1,0,0:0:0:0:
64,192,194224,1,0,0:0:0:0:
192,192,194224,1,0,0:0:0:0:
320,192,194301,1,0,0:0:0:0:
64,192,194378,1,0,0:0:0:0:
192,192,194378,1,0,0:0:0:0:
448,192,194455,1,0,0:0:0:0:
64,192,194531,1,0,0:0:0:0:
320,192,194531,1,0,0:0:0:0:
192,192,194608,1,0,0:0:0:0:
64,192,194685,1,0,0:0:0:0:
448,192,194685,1,0,0:0:0:0:
320,192,194762,1,0,0:0:0:0:
192,192,194762,1,0,0:0:0:0:
448,192,194839,1,0,0:0:0:0:
192,192,194916,1,0,0:0:0:0:
64,192,194916,1,0,0:0:0:0:
320,192,194993,1,0,0:0:0:0:
448,192,195070,1,0,0:0:0:0:
64,192,195070,1,0,0:0:0:0:
192,192,195147,1,0,0:0:0:0:
448,192,195224,1,0,0:0:0:0:
320,192,195224,1,0,0:0:0:0:
192,192,195301,1,0,0:0:0:0:
64,192,195378,1,0,0:0:0:0:
448,192,195378,1,0,0:0:0:0:
192,192,195455,1,0,0:0:0:0:
320,192,195455,1,0,0:0:0:0:
448,192,195531,1,0,0:0:0:0:
64,192,195608,1,0,0:0:0:0:
320,192,195608,1,0,0:0:0:0:
192,192,195685,1,0,0:0:0:0:
448,192,195685,1,0,0:0:0:0:
64,192,195762,1,0,0:0:0:0:
192,192,195839,1,0,0:0:0:0:
320,192,195839,1,0,0:0:0:0:
448,192,195916,1,0,0:0:0:0:
192,192,195993,1,0,0:0:0:0:
64,192,195993,1,0,0:0:0:0:
320,192,196070,1,0,0:0:0:0:
64,192,196147,1,0,0:0:0:0:
448,192,196147,1,0,0:0:0:0:
192,192,196224,1,0,0:0:0:0:
320,192,196301,1,0,0:0:0:0:
448,192,196301,1,0,0:0:0:0:
64,192,196378,1,0,0:0:0:0:
192,192,196455,1,0,0:0:0:0:
448,192,196455,1,0,0:0:0:0:
320,192,196531,1,0,0:0:0:0:
192,192,196608,1,0,0:0:0:0:
448,192,196608,1,0,0:0:0:0:
64,192,196685,1,0,0:0:0:0:
192,192,196762,1,0,0:0:0:0:
320,192,196762,1,0,0:0:0:0:
448,192,196839,1,0,0:0:0:0:
64,192,196839,1,0,0:0:0:0:
192,192,196916,1,0,0:0:0:0:
320,192,196916,1,0,0:0:0:0:
64,192,196993,1,0,0:0:0:0:
192,192,197070,1,0,0:0:0:0:
448,192,197070,1,0,0:0:0:0:
320,192,197147,1,0,0:0:0:0:
64,192,197224,1,0,0:0:0:0:
192,192,197224,1,0,0:0:0:0:
320,192,197301,1,0,0:0:0:0:
448,192,197378,1,0,0:0:0:0:
64,192,197378,1,0,0:0:0:0:
192,192,197455,1,0,0:0:0:0:
320,192,197531,1,0,0:0:0:0:
448,192,197531,1,0,0:0:0:0:
64,192,197531,1,0,0:0:0:0:
192,192,197608,1,0,0:0:0:0:
64,192,197685,1,0,0:0:0:0:
448,192,197685,1,0,0:0:0:0:
320,192,197762,1,0,0:0:0:0:
192,192,197839,1,0,0:0:0:0:
64,192,197839,1,0,0:0:0:0:
320,192,197916,1,0,0:0:0:0:
448,192,197993,1,0,0:0:0:0:
192,192,197993,1,0,0:0:0:0:
64,192,198070,1,0,0:0:0:0:
192,192,198147,1,0,0:0:0:0:
320,192,198147,1,0,0:0:0:0:
448,192,198224,1,0,0:0:0:0:
64,192,198301,1,0,0:0:0:0:
192,192,198301,1,0,0:0:0:0:
320,192,198378,1,0,0:0:0:0:
448,192,198455,1,0,0:0:0:0:
64,192,198455,1,0,0:0:0:0:
192,192,198531,1,0,0:0:0:0:
320,192,198608,1,0,0:0:0:0:
448,192,198608,1,0,0:0:0:0:
64,192,198608,1,0,0:0:0:0:
320,192,198839,1,0,0:0:0:0:
64,192,198840,5,0,0:0:0:0:
192,192,198840,1,0,0:0:0:0:
448,192,198840,1,0,0:0:0:0:
