osu file format v14

[General]
AudioFilename: Shiny Kung-fu Revival.mp3
AudioLeadIn: 0
PreviewTime: 77850
Countdown: 1
SampleSet: Soft
StackLeniency: 0.7
Mode: 0
LetterboxInBreaks: 1
WidescreenStoryboard: 0

[Editor]
Bookmarks: 26010,34650,43290,69210,84330,103770
DistanceSpacing: 1
BeatDivisor: 4
GridSize: 4
TimelineZoom: 2.6

[Metadata]
Title:Shiny Kung-fu Revival
TitleUnicode:Shiny Kung-fu Revival
Artist:t+pazolite
ArtistUnicode:t+pazolite
Creator:XL i g h t
Version:Shiny
Source:Taiko no Tatsujin
Tags:太鼓の達人 kimidori ver. Ponko2 Girlish
BeatmapID:1251087
BeatmapSetID:591166

[Difficulty]
HPDrainRate:8
CircleSize:4.3
OverallDifficulty:8
ApproachRate:9.4
SliderMultiplier:1.8
SliderTickRate:1

[Events]
//Background and Video events
0,0,"bg.jpg",0,0
//Break Periods
2,69410,72990
//Storyboard Layer 0 (Background)
//Storyboard Layer 1 (Fail)
//Storyboard Layer 2 (Pass)
//Storyboard Layer 3 (Foreground)
//Storyboard Sound Samples

[TimingPoints]
90,270.00027000027,4,2,2,70,1,0
8190,-200,4,2,2,70,0,0
8460,-76.9230769230769,4,2,1,70,0,0
8730,-90.9090909090909,4,2,2,70,0,0
12510,-90.9090909090909,4,1,1,70,0,0
13050,-90.9090909090909,4,2,2,70,0,0
14265,-90.9090909090909,4,1,1,70,0,0
14400,-90.9090909090909,4,2,2,70,0,0
14535,-90.9090909090909,4,1,1,70,0,0
14670,-90.9090909090909,4,2,2,70,0,0
14805,-90.9090909090909,4,1,1,70,0,0
14940,-90.9090909090909,4,2,2,70,0,0
15075,-90.9090909090909,4,1,1,70,0,0
15210,-90.9090909090909,4,2,2,70,0,0
17100,-90.9090909090909,4,2,1,70,0,0
17370,-90.9090909090909,4,2,2,70,0,0
25470,-90.9090909090909,4,1,1,70,0,0
26010,-133.333333333333,4,2,2,70,0,0
27090,-133.333333333333,4,2,2,5,0,0
27900,-133.333333333333,4,2,2,70,0,0
34650,-100,4,2,2,70,0,1
41130,-100,4,2,2,70,0,0
43290,-100,4,2,2,70,0,1
51660,-100,4,2,1,80,0,0
51795,-100,4,2,1,5,0,0
51930,-166.666666666667,4,3,0,30,0,0
59355,-133.333333333333,4,2,1,70,0,0
60570,-133.333333333333,4,2,2,70,0,0
64890,-133.333333333333,4,2,2,70,0,0
65025,-133.333333333333,4,2,1,70,0,0
65160,-133.333333333333,4,2,2,70,0,0
69210,-111.111111111111,4,2,2,70,0,0
76905,-111.111111111111,4,1,1,70,0,0
77310,-76.9230769230769,4,1,1,70,0,0
77580,-90.9090909090909,4,2,1,80,0,0
77850,-90.9090909090909,4,2,2,80,0,0
80685,-90.9090909090909,4,1,1,80,0,0
80955,-90.9090909090909,4,2,2,80,0,0
83655,-90.9090909090909,4,1,1,80,0,0
83790,-90.9090909090909,4,2,2,80,0,0
83925,-90.9090909090909,4,1,1,80,0,0
84060,-90.9090909090909,4,2,2,80,0,0
84600,-90.9090909090909,4,2,2,20,0,0
84735,-90.9090909090909,4,2,2,80,0,0
84870,-90.9090909090909,4,2,2,20,0,0
85005,-90.9090909090909,4,2,2,80,0,0
85140,-90.9090909090909,4,2,2,20,0,0
85275,-90.9090909090909,4,2,2,80,0,0
86220,-90.9090909090909,4,2,1,80,0,0
86490,-90.9090909090909,4,2,2,80,0,0
89325,-90.9090909090909,4,1,1,80,0,0
89730,-90.9090909090909,4,2,2,80,0,0
94860,-90.9090909090909,4,2,1,80,0,0
95130,-125,4,2,2,80,0,0
96075,-100,4,2,2,80,0,0
97290,-90.9090909090909,4,2,2,80,0,0
97965,-90.9090909090909,4,1,1,80,0,0
98100,-90.9090909090909,4,2,2,80,0,0
98235,-90.9090909090909,4,1,1,80,0,0
98370,-90.9090909090909,4,2,2,80,0,0
100530,-90.9090909090909,4,1,1,80,0,0
100665,-90.9090909090909,4,2,2,80,0,0
101340,-90.9090909090909,4,2,1,80,0,0
101610,-90.9090909090909,4,2,2,80,0,0
103770,-90.9090909090909,4,2,2,80,0,1
107550,-90.9090909090909,4,1,1,80,0,0
108090,-90.9090909090909,4,2,2,80,0,1
109305,-90.9090909090909,4,1,1,80,0,1
109440,-90.9090909090909,4,2,1,80,0,1
109575,-90.9090909090909,4,1,1,80,0,1
109710,-90.9090909090909,4,2,1,80,0,1
109845,-90.9090909090909,4,1,1,80,0,1
109980,-90.9090909090909,4,2,1,80,0,1
110115,-90.9090909090909,4,1,1,80,0,1
110250,-90.9090909090909,4,2,2,80,0,1
111195,-90.9090909090909,4,2,2,80,0,1
112140,-90.9090909090909,4,2,1,80,0,0
112410,-90.9090909090909,4,2,2,80,0,1
119835,-90.9090909090909,4,2,2,80,0,1
120915,-90.9090909090909,4,2,2,80,0,0
121320,-90.9090909090909,4,2,1,80,0,0

[HitObjects]
145,63,90,6,0,L|115:151,1,90,4|0,0:0|0:0,0:0:0:0:
40,182,360,1,0,0:0:0:0:
253,158,495,1,0,0:0:0:0:
273,172,765,1,0,0:0:0:0:
45,312,1035,2,0,B|30:338|30:338|180:351,1,180
382,256,1440,2,0,P|390:301|385:357,1,90
400,163,1710,1,0,0:0:0:0:
298,292,1845,1,0,0:0:0:0:
475,234,1980,1,0,0:0:0:0:
222,226,2115,1,0,0:0:0:0:
289,30,2250,6,0,L|307:129,1,90
385,74,2520,1,0,0:0:0:0:
215,144,2655,2,0,B|76:127|76:127|104:99,1,180
104,99,3195,2,0,L|127:278,2,180
27,24,3870,1,0,0:0:0:0:
398,40,4140,5,2,0:0:0:0:
284,349,4410,6,0,B|294:295|294:295|284:243,1,90
287,123,4680,1,0,0:0:0:0:
210,305,4815,2,0,B|78:323|78:323|100:271,1,180
160,26,5355,2,0,B|180:79|180:79|162:147|162:147|182:211,1,180
71,143,5760,1,0,0:0:0:0:
231,61,5895,1,0,0:0:0:0:
245,240,6030,1,0,0:0:0:0:
133,229,6165,1,0,0:0:0:0:
288,138,6300,1,0,0:0:0:0:
127,55,6435,1,0,0:0:0:0:
334,59,6570,6,0,L|435:52,1,90
332,210,6840,1,0,0:0:0:0:
490,128,6975,1,0,0:0:0:0:
382,354,7110,6,0,L|402:261,1,90
501,316,7380,1,0,0:0:0:0:
272,377,7515,1,0,0:0:0:0:
146,205,7650,5,0,0:0:0:0:
345,186,7785,1,0,0:0:0:0:
183,97,7920,1,0,0:0:0:0:
307,295,8055,1,0,0:0:0:0:
146,205,8190,6,0,L|84:154,1,67.5
59,121,8460,2,0,L|11:297,1,175.499991966248,8|0,0:0|0:0,0:0:0:0:
16,344,8730,5,4,0:0:0:0:
229,245,8865,1,0,0:0:0:0:
235,224,8932,1,0,0:0:0:0:
233,201,9000,2,0,L|229:148,1,49.5000015106202
308,40,9135,1,0,0:0:0:0:
314,62,9202,1,0,0:0:0:0:
314,89,9270,2,0,L|324:191,1,99.0000030212403
332,224,9472,1,0,0:0:0:0:
332,224,9540,1,0,0:0:0:0:
472,315,9675,6,0,B|408:300|408:300|338:344|338:344|278:331,1,198.000006042481
120,325,10080,1,0,0:0:0:0:
207,137,10215,1,0,0:0:0:0:
109,172,10350,1,0,0:0:0:0:
207,329,10485,1,0,0:0:0:0:
127,88,10620,1,0,0:0:0:0:
44,361,10755,1,0,0:0:0:0:
34,114,10890,5,0,0:0:0:0:
205,47,11025,1,0,0:0:0:0:
229,45,11092,1,0,0:0:0:0:
252,54,11160,2,0,L|318:74,1,49.5000015106202
323,187,11295,1,0,0:0:0:0:
343,193,11362,1,0,0:0:0:0:
368,191,11430,2,0,L|469:187,1,99.0000030212403
480,184,11632,1,0,0:0:0:0:
492,184,11700,1,0,0:0:0:0:
484,188,11835,6,0,B|514:165|514:165|480:328,1,198.000006042481
212,251,12240,2,0,B|257:247|257:247|315:276,1,99.0000030212403
363,341,12510,1,0,0:0:0:0:
160,363,12645,1,0,0:0:0:0:
129,171,12780,1,0,0:0:0:0:
332,149,12915,1,0,0:0:0:0:
128,264,13050,6,0,B|104:260|104:260|32:280,1,99.0000030212403,4|0,0:0|0:0,0:0:0:0:
160,363,13252,1,0,0:0:0:0:
160,363,13320,2,0,B|184:367|184:367|256:347,1,99.0000030212403
308,268,13522,1,0,0:0:0:0:
308,268,13590,2,0,P|316:232|308:164,1,99.0000030212403
236,200,13860,1,0,0:0:0:0:
456,72,13995,6,0,P|352:52|248:88,1,198.000006042481
152,240,14400,1,0,0:0:0:0:
144,52,14535,1,0,0:0:0:0:
56,304,14670,1,0,0:0:0:0:
308,268,14805,1,0,0:0:0:0:
308,268,14872,1,0,0:0:0:0:
308,268,14940,2,0,P|312:212|308:164,1,99.0000030212403
244,16,15210,5,0,0:0:0:0:
52,176,15345,1,0,0:0:0:0:
48,160,15412,1,0,0:0:0:0:
44,144,15480,1,0,0:0:0:0:
144,52,15615,1,0,0:0:0:0:
144,52,15682,1,0,0:0:0:0:
144,52,15750,2,0,L|156:168,1,99.0000030212403
176,240,15952,1,0,0:0:0:0:
208,260,16020,1,0,0:0:0:0:
492,360,16155,6,0,B|348:384|348:384|392:324,1,198.000006042481
456,216,16560,5,0,0:0:0:0:
420,64,16695,1,0,0:0:0:0:
324,240,16830,6,0,L|296:128,1,99.0000030212403
144,52,17100,2,0,L|104:240,1,173.250005287171,8|0,0:0|0:0,0:0:0:0:
96,272,17370,5,4,0:0:0:0:
324,240,17505,1,0,0:0:0:0:
176,76,17640,1,0,0:0:0:0:
224,328,17775,1,0,0:0:0:0:
76,164,17910,1,0,0:0:0:0:
304,132,18045,1,0,0:0:0:0:
304,132,18112,1,0,0:0:0:0:
304,132,18180,1,0,0:0:0:0:
483,86,18315,6,0,P|395:78|295:142,1,198.000006042481
416,324,18720,1,0,0:0:0:0:
204,200,18855,1,0,0:0:0:0:
224,328,18990,1,0,0:0:0:0:
176,76,19125,1,0,0:0:0:0:
176,76,19192,1,0,0:0:0:0:
176,76,19260,1,0,0:0:0:0:
204,200,19395,1,0,0:0:0:0:
36,84,19530,6,0,B|64:92|64:92|76:124|76:124|116:140,1,99.0000030212403
128,236,19732,1,0,0:0:0:0:
128,236,19800,2,0,P|124:292|132:336,1,99.0000030212403
224,328,20002,1,0,0:0:0:0:
224,328,20070,1,0,0:0:0:0:
272,312,20137,1,0,0:0:0:0:
320,308,20205,1,0,0:0:0:0:
368,308,20272,1,0,0:0:0:0:
416,316,20340,1,0,0:0:0:0:
421,119,20475,6,0,P|429:223|413:323,1,198.000006042481
300,212,20880,1,0,0:0:0:0:
320,32,21015,1,0,0:0:0:0:
60,48,21150,1,0,0:0:0:0:
192,96,21285,2,0,L|164:80,2,24.7500007553101
168,136,21420,2,0,P|120:136|168:208,1,173.250005287171
180,244,21690,5,0,0:0:0:0:
328,360,21825,1,0,0:0:0:0:
336,328,21892,1,0,0:0:0:0:
340,296,21960,2,0,L|344:236,1,49.5000015106202
428,212,22095,1,0,0:0:0:0:
420,180,22162,1,0,0:0:0:0:
412,140,22230,2,0,L|384:44,1,99.0000030212403
368,4,22432,1,0,0:0:0:0:
368,4,22500,1,0,0:0:0:0:
428,212,22635,6,0,B|376:200|376:200|284:224|284:224|228:208,1,198.000006042481
44,156,23040,1,0,0:0:0:0:
280,120,23175,1,0,0:0:0:0:
44,156,23310,1,0,0:0:0:0:
348,188,23445,1,0,0:0:0:0:
348,188,23512,1,0,0:0:0:0:
348,188,23580,1,0,0:0:0:0:
316,32,23715,1,0,0:0:0:0:
132,72,23850,6,0,B|124:100|124:100|128:124,1,49.5000015106202
172,192,23985,2,0,L|148:212,3,24.7500007553101
104,280,24120,6,0,L|160:296,1,49.5000015106202
220,348,24255,2,0,L|232:312,3,24.7500007553101
260,284,24390,5,0,0:0:0:0:
300,280,24457,1,0,0:0:0:0:
340,280,24525,1,0,0:0:0:0:
380,284,24592,1,0,0:0:0:0:
420,296,24660,1,0,0:0:0:0:
176,188,24795,6,0,P|95:185|108:284,1,198.000006042481
416,208,25200,1,0,0:0:0:0:
104,280,25335,1,0,0:0:0:0:
256,28,25470,1,0,0:0:0:0:
176,188,25605,1,0,0:0:0:0:
256,356,25740,1,0,0:0:0:0:
176,188,25875,1,0,0:0:0:0:
492,192,26010,5,4,0:0:0:0:
256,192,26043,12,0,27090,0:0:0:0:
64,320,27900,5,0,0:0:0:0:
64,320,28170,5,0,0:0:0:0:
64,320,29250,6,0,P|116:312|212:324,1,135.000005149842
440,248,29655,2,0,P|388:228|312:188,1,135.000005149842
155,173,30060,2,0,L|175:93,1,67.5000025749208
16,132,30330,5,4,0:0:0:0:
172,108,30600,5,0,0:0:0:0:
328,88,30870,1,0,0:0:0:0:
484,68,31140,1,0,0:0:0:0:
16,132,31410,5,0,0:0:0:0:
172,108,31680,5,0,0:0:0:0:
328,88,31950,1,0,0:0:0:0:
484,68,32220,1,0,0:0:0:0:
172,108,32490,6,0,P|164:156|168:244,1,135.000005149842
408,176,32895,1,0,0:0:0:0:
408,176,33030,2,0,L|280:196,1,101.250003862381
298,217,33300,1,0,0:0:0:0:
298,243,33367,1,0,0:0:0:0:
300,270,33435,1,0,0:0:0:0:
304,296,33502,1,0,0:0:0:0:
312,321,33570,5,0,0:0:0:0:
41,343,33705,1,0,0:0:0:0:
167,241,33840,1,0,0:0:0:0:
41,343,33975,1,0,0:0:0:0:
312,321,34110,2,0,L|391:305,1,67.5000025749208
421,332,34312,1,0,0:0:0:0:
429,281,34380,1,0,0:0:0:0:
437,231,34447,1,0,0:0:0:0:
445,180,34515,1,0,0:0:0:0:
453,130,34582,1,0,0:0:0:0:
463,80,34650,6,0,P|407:79|361:73,1,90,4|0,0:0|0:0,0:0:0:0:
41,135,34920,2,0,P|96:132|133:134,1,90
302,216,35190,1,0,0:0:0:0:
241,46,35325,1,0,0:0:0:0:
195,304,35460,1,0,0:0:0:0:
437,231,35595,1,0,0:0:0:0:
336,317,35730,5,0,0:0:0:0:
271,134,35865,1,0,0:0:0:0:
195,304,36000,1,0,0:0:0:0:
436,231,36135,1,0,0:0:0:0:
241,46,36270,1,0,0:0:0:0:
336,317,36405,1,0,0:0:0:0:
134,130,36540,1,0,0:0:0:0:
380,57,36675,1,0,0:0:0:0:
126,249,36810,6,0,P|110:296|114:337,1,90
348,167,37080,2,0,P|350:122|335:80,1,90
189,177,37350,1,0,0:0:0:0:
271,134,37485,1,0,0:0:0:0:
286,272,37620,1,0,0:0:0:0:
193,37,37755,1,0,0:0:0:0:
512,129,37890,6,0,B|457:120|457:120|419:131,1,90
369,303,38160,1,0,0:0:0:0:
189,177,38295,1,0,0:0:0:0:
436,231,38430,1,0,0:0:0:0:
126,249,38565,1,0,0:0:0:0:
82,246,38632,1,0,0:0:0:0:
36,256,38700,2,0,L|3:358,1,90
108,132,38970,5,0,0:0:0:0:
286,272,39105,1,0,0:0:0:0:
320,44,39240,1,0,0:0:0:0:
108,132,39375,1,0,0:0:0:0:
392,104,39510,1,0,0:0:0:0:
200,304,39645,2,0,P|196:360|200:400,1,90
208,208,39915,1,0,0:0:0:0:
148,40,40050,6,0,P|84:36|44:48,1,90
200,304,40320,2,0,P|264:308|304:296,1,90
480,184,40590,1,0,0:0:0:0:
288,200,40725,1,0,0:0:0:0:
320,384,40860,1,0,0:0:0:0:
512,368,40995,1,0,0:0:0:0:
392,104,41130,6,0,P|388:44|388:8,1,90
288,200,41400,1,0,0:0:0:0:
112,68,41535,2,0,B|184:32|256:64|256:64|304:40,1,180
192,232,41940,2,0,P|188:172|192:132,1,90
432,288,42210,6,0,P|434:332|430:377,1,90
192,232,42480,2,0,P|188:172|192:132,1,90
393,14,42750,2,0,P|395:58|391:103,1,90
344,120,42952,1,0,0:0:0:0:
336,168,43020,1,0,0:0:0:0:
328,216,43087,1,0,0:0:0:0:
320,264,43155,1,0,0:0:0:0:
312,312,43222,1,0,0:0:0:0:
304,356,43290,6,0,P|252:364|204:364,1,90
24,136,43560,2,0,P|68:128|113:127,1,90
44,360,43830,5,0,0:0:0:0:
248,228,43965,1,0,0:0:0:0:
276,324,44100,1,0,0:0:0:0:
16,264,44235,1,0,0:0:0:0:
148,68,44370,5,0,0:0:0:0:
71,190,44505,1,0,0:0:0:0:
34,92,44640,1,0,0:0:0:0:
185,166,44775,1,0,0:0:0:0:
148,68,44910,5,0,0:0:0:0:
16,264,45045,1,0,0:0:0:0:
34,92,45180,1,0,0:0:0:0:
248,228,45315,1,0,0:0:0:0:
160,368,45450,6,0,P|156:312|160:260,1,90
508,232,45720,2,0,P|504:164|496:124,1,90
376,12,45990,1,0,0:0:0:0:
248,228,46125,1,0,0:0:0:0:
272,92,46260,1,0,0:0:0:0:
356,140,46395,1,0,0:0:0:0:
32,152,46530,5,0,0:0:0:0:
192,128,46665,1,0,0:0:0:0:
80,300,46800,1,0,0:0:0:0:
240,276,46935,1,0,0:0:0:0:
32,152,47070,1,0,0:0:0:0:
240,276,47205,1,0,0:0:0:0:
240,276,47272,1,0,0:0:0:0:
240,276,47340,2,0,P|244:228|240:176,1,90
152,80,47610,6,0,B|140:52|140:52|292:68,1,180
428,360,48015,6,0,L|332:356,1,90
36,284,48285,2,0,L|125:287,1,90
464,232,48555,2,0,L|368:228,1,90
12,156,48825,2,0,L|101:159,2,90
351,146,49230,6,0,P|415:154|355:222,1,180
248,76,49770,5,0,0:0:0:0:
56,104,49905,1,0,0:0:0:0:
104,292,50040,1,0,0:0:0:0:
296,264,50175,1,0,0:0:0:0:
351,146,50310,5,0,0:0:0:0:
159,174,50445,1,0,0:0:0:0:
207,362,50580,1,0,0:0:0:0:
399,334,50715,1,0,0:0:0:0:
296,264,50850,5,0,0:0:0:0:
252,284,50917,1,0,0:0:0:0:
204,276,50985,1,0,0:0:0:0:
168,244,51052,1,0,0:0:0:0:
156,196,51120,1,0,0:0:0:0:
172,148,51187,1,0,0:0:0:0:
220,128,51255,1,0,0:0:0:0:
268,136,51322,1,0,0:0:0:0:
308,164,51390,2,0,L|320:196,7,22.5
332,208,51660,2,0,L|420:224,1,90,8|0,0:0|0:0,0:0:0:0:
488,112,51930,6,0,L|500:-4,2,107.999996704102
328,28,52740,1,0,0:0:0:0:
328,28,52875,2,0,P|284:20|212:32,1,107.999996704102
154,84,53280,1,0,0:0:0:0:
188,162,53415,1,0,0:0:0:0:
149,240,53550,2,0,P|147:290|152:359,1,107.999996704102
403,281,54090,6,0,L|289:270,2,107.999996704102
150,347,54900,1,0,0:0:0:0:
150,347,55035,2,0,P|94:344|20:351,1,107.999996704102
116,192,55440,1,0,0:0:0:0:
116,192,55575,2,0,L|184:186,1,53.9999983520508
431,190,55980,2,0,L|425:126,1,53.9999983520508
284,15,56250,6,0,L|296:129,2,107.999996704102
155,89,57060,1,0,0:0:0:0:
155,89,57195,2,0,P|116:89|44:112,1,107.999996704102
124,216,57600,2,0,P|122:237|127:289,1,53.9999983520508
252,188,57870,2,0,P|286:194|365:180,1,107.999996704102
480,36,58410,5,0,0:0:0:0:
475,116,58545,1,0,0:0:0:0:
395,102,58680,1,0,0:0:0:0:
402,21,58815,2,0,P|336:16|272:24,1,107.999996704102
128,160,59355,6,0,P|68:148|128:248,1,270.000010299683,12|0,0:0|0:0,0:0:0:0:
192,212,60030,5,2,0:0:0:0:
192,212,60300,5,2,0:0:0:0:
312,72,60570,6,0,B|392:68,1,67.5000025749208,4|0,0:0|0:0,0:0:0:0:
472,144,60840,2,0,B|476:192|476:192|472:232,1,67.5000025749208,2|0,0:0|0:0,0:0:0:0:
340,304,61110,2,0,B|338:284|338:284|342:236,2,67.5000025749208,0|0|2,0:0|0:0|0:0,0:0:0:0:
400,176,61515,6,0,P|356:160|268:204,1,135.000005149842
204,232,61920,1,2,0:0:0:0:
192,104,62055,1,0,0:0:0:0:
277,191,62190,1,0,0:0:0:0:
204,232,62325,1,0,0:0:0:0:
192,104,62460,2,0,L|268:80,1,67.5000025749208,2|0,0:0|0:0,0:0:0:0:
136,172,62730,6,0,B|94:164|94:164|50:184|50:184|6:176,2,135.000005149842,0|2|0,0:0|0:0|0:0,0:0:0:0:
112,332,63405,2,0,P|108:288|108:252,1,67.5000025749208,0|2,0:0|0:0,0:0:0:0:
308,360,63675,6,0,P|356:352|464:356,1,135.000005149842
280,268,64080,1,2,0:0:0:0:
244,80,64215,1,0,0:0:0:0:
264,172,64350,2,0,L|336:160,1,67.5000025749208
511,16,64620,2,0,L|444:27,1,67.5000025749208,2|0,0:0|0:0,0:0:0:0:
348,56,64890,5,4,0:0:0:0:
244,80,65025,1,0,0:0:0:0:
140,104,65160,2,0,P|132:60|128:32,1,67.5000025749208,2|0,0:0|0:0,0:0:0:0:
0,176,65430,2,0,B|32:164|32:164|56:212|136:208,1,135.000005149842,4|2,0:0|0:0,0:0:0:0:
274,298,65835,2,0,B|254:266|254:266|278:218|262:166,1,135.000005149842,4|0,0:0|0:0,0:0:0:0:
244,80,66240,1,2,0:0:0:0:
272,300,66375,1,0,0:0:0:0:
356,244,66510,1,0,0:0:0:0:
448,272,66645,2,0,L|520:284,2,67.5000025749208,0|2|0,0:0|0:0|0:0,0:0:0:0:
368,328,67050,6,0,P|344:356|312:372,2,67.5000025749208
356,244,67455,1,0,0:0:0:0:
288,180,67590,1,0,0:0:0:0:
260,192,67657,1,0,0:0:0:0:
232,204,67725,1,0,0:0:0:0:
204,216,67792,1,0,0:0:0:0:
176,228,67860,1,0,0:0:0:0:
148,240,67927,1,0,0:0:0:0:
120,256,67995,6,0,P|108:300|244:276,1,270.000010299683,4|0,0:0|0:0,0:0:0:0:
120,256,68670,5,0,0:0:0:0:
288,180,68940,5,0,0:0:0:0:
456,104,69210,5,4,0:0:0:0:
172,104,73530,5,4,0:0:0:0:
68,132,73665,1,0,0:0:0:0:
92,28,73800,1,0,0:0:0:0:
156,232,73935,5,4,0:0:0:0:
24,260,74070,1,0,0:0:0:0:
68,132,74205,1,0,0:0:0:0:
248,316,74340,5,4,0:0:0:0:
120,352,74475,1,0,0:0:0:0:
156,232,74610,1,0,0:0:0:0:
400,272,74745,5,4,0:0:0:0:
248,316,74880,1,0,0:0:0:0:
280,164,75015,1,0,0:0:0:0:
400,272,75150,2,0,P|404:228|400:168,1,80.9999975280763,4|0,0:0|0:0,0:0:0:0:
384,144,75352,1,0,0:0:0:0:
380,96,75420,2,0,P|379:55|387:15,1,80.9999975280763,4|0,0:0|0:0,0:0:0:0:
384,144,75690,5,0,0:0:0:0:
224,56,75825,1,0,0:0:0:0:
340,172,75960,5,0,0:0:0:0:
132,132,76095,1,0,0:0:0:0:
328,220,76230,5,0,0:0:0:0:
68,244,76365,1,0,0:0:0:0:
340,268,76500,5,0,0:0:0:0:
56,372,76635,1,0,0:0:0:0:
488,368,76905,5,0,0:0:0:0:
484,352,77040,1,0,0:0:0:0:
480,336,77175,1,0,0:0:0:0:
476,320,77310,2,0,B|464:276|464:248|520:260|532:208|520:168|468:148|416:168|404:212|496:248,1,233.999989288331,0|12,0:0|0:0,0:0:0:0:
120,124,77850,6,0,B|64:120|64:120|16:132,1,99.0000030212403,4|0,0:0|0:0,0:0:0:0:
188,352,78120,2,0,B|244:356|244:356|285:345,1,99.0000030212403
96,224,78390,1,0,0:0:0:0:
24,352,78525,1,0,0:0:0:0:
24,352,78592,1,0,0:0:0:0:
24,352,78660,2,0,P|16:296|16:240,1,99.0000030212403
120,124,78930,5,0,0:0:0:0:
276,76,79065,1,0,0:0:0:0:
176,264,79200,1,0,0:0:0:0:
332,216,79335,1,0,0:0:0:0:
188,64,79470,1,2,0:0:0:0:
176,264,79605,1,0,0:0:0:0:
332,216,79740,1,2,0:0:0:0:
188,64,79875,1,0,0:0:0:0:
96,224,80010,6,0,L|-8:256,1,99.0000030212403
312,352,80280,2,0,L|406:322,1,99.0000030212403
412,168,80550,2,0,P|416:116|408:64,1,99.0000030212403
384,20,80752,1,0,0:0:0:0:
384,20,80820,1,0,0:0:0:0:
332,215,80955,6,0,P|261:174|264:256,1,198.000006042481
488,240,81360,1,0,0:0:0:0:
468,380,81495,1,0,0:0:0:0:
312,352,81630,1,0,0:0:0:0:
140,160,81765,1,0,0:0:0:0:
132,180,81832,1,0,0:0:0:0:
124,200,81900,1,0,0:0:0:0:
116,220,81967,1,0,0:0:0:0:
108,240,82035,1,0,0:0:0:0:
100,260,82102,1,0,0:0:0:0:
92,284,82170,6,0,P|88:320|96:384,1,99.0000030212403,4|0,0:0|0:0,0:0:0:0:
384,232,82440,2,0,P|440:244|484:236,1,99.0000030212403
272,0,82710,2,0,P|260:72|260:108,1,99.0000030212403
252,148,82912,1,0,0:0:0:0:
252,148,82980,1,0,0:0:0:0:
392,92,83115,1,0,0:0:0:0:
160,44,83250,5,0,0:0:0:0:
112,32,83317,1,0,0:0:0:0:
64,32,83385,1,0,0:0:0:0:
24,60,83452,1,0,0:0:0:0:
8,108,83520,2,0,P|12:160|8:224,1,99.0000030212403
104,336,83790,1,0,0:0:0:0:
96,112,83925,1,0,0:0:0:0:
141,134,83992,1,0,0:0:0:0:
192,157,84060,1,0,0:0:0:0:
296,47,84195,1,0,0:0:0:0:
341,69,84262,1,0,0:0:0:0:
392,92,84330,6,0,B|400:160|400:160|392:204,1,99.0000030212403
224,272,84600,2,0,L|212:164,1,99.0000030212403,0|4,0:0|0:0,0:0:0:0:
64,32,84870,2,0,L|74:130,1,99.0000030212403,0|4,0:0|0:0,0:0:0:0:
28,384,85140,2,0,L|16:276,1,99.0000030212403,0|4,0:0|0:0,0:0:0:0:
321,160,85410,5,0,0:0:0:0:
480,138,85545,1,0,0:0:0:0:
364,249,85680,1,0,0:0:0:0:
392,92,85815,1,0,0:0:0:0:
463,236,85950,2,0,P|496:316|420:280,1,198.000006042481,4|12,0:0|0:0,0:0:0:0:
176,304,86490,6,0,P|108:300|60:316,1,99.0000030212403,4|0,0:0|0:0,0:0:0:0:
208,68,86760,2,0,P|276:64|324:80,1,99.0000030212403
8,172,87030,2,0,P|0:116|4:64,1,99.0000030212403
24,28,87233,1,0,0:0:0:0:
24,28,87300,1,0,0:0:0:0:
208,68,87435,1,0,0:0:0:0:
192,204,87570,5,0,0:0:0:0:
24,28,87705,1,0,0:0:0:0:
8,172,87840,1,0,0:0:0:0:
208,68,87975,1,0,0:0:0:0:
191,383,88110,1,0,0:0:0:0:
192,204,88245,1,0,0:0:0:0:
297,348,88380,1,0,0:0:0:0:
126,294,88515,1,0,0:0:0:0:
296,238,88650,6,0,P|304:184|304:140,1,99.0000030212403
96,4,88920,2,0,P|96:53|103:102,1,99.0000030212403
348,44,89190,2,0,L|468:28,1,99.0000030212403
496,24,89392,1,0,0:0:0:0:
496,24,89459,1,0,0:0:0:0:
432,256,89595,1,0,0:0:0:0:
208,68,89730,6,0,L|284:56,2,66.0000020141602
144,160,90000,6,0,L|220:148,2,66.0000020141602
80,252,90270,6,0,L|156:240,2,66.0000020141602
40,336,90540,5,0,0:0:0:0:
88,332,90607,1,0,0:0:0:0:
136,328,90675,1,0,0:0:0:0:
184,324,90742,1,0,0:0:0:0:
232,320,90810,6,0,B|400:344|400:344|368:312,1,198.000006042481,4|0,0:0|0:0,0:0:0:0:
360,280,91147,1,0,0:0:0:0:
348,232,91215,1,0,0:0:0:0:
352,184,91282,1,0,0:0:0:0:
360,136,91350,2,0,B|352:88|352:88|360:28,1,99.0000030212403,4|0,0:0|0:0,0:0:0:0:
404,20,91552,1,0,0:0:0:0:
404,20,91620,1,0,0:0:0:0:
136,36,91755,5,4,0:0:0:0:
40,336,92025,5,4,0:0:0:0:
360,280,92160,1,0,0:0:0:0:
136,36,92295,1,4,0:0:0:0:
216,372,92565,1,0,0:0:0:0:
216,372,92632,1,0,0:0:0:0:
216,372,92700,2,0,P|220:300|216:264,1,99.0000030212403
112,156,92970,5,0,0:0:0:0:
372,192,93105,1,0,0:0:0:0:
244,100,93240,2,0,P|240:44|248:0,1,99.0000030212403
332,64,93510,1,0,0:0:0:0:
340,112,93577,1,0,0:0:0:0:
316,156,93645,1,0,0:0:0:0:
304,204,93712,1,0,0:0:0:0:
332,244,93780,1,0,0:0:0:0:
380,260,93847,1,0,0:0:0:0:
424,240,93915,6,0,P|456:176|372:204,1,198.000006042481
264,328,94320,2,0,B|328:288|400:388|472:324,1,198.000006042481
432,16,94860,5,12,0:0:0:0:
120,40,95130,6,0,B|28:60,1,72,4|0,0:0|0:0,0:0:0:0:
120,288,95400,2,0,P|116:240|120:204,1,72
276,64,95670,2,0,P|280:112|280:140,1,72
264,180,95872,1,0,0:0:0:0:
264,180,95940,1,0,0:0:0:0:
448,296,96075,6,0,B|412:280|412:280|312:320|312:320|272:300,1,180
204,352,96480,1,0,0:0:0:0:
200,264,96615,1,0,0:0:0:0:
192,176,96750,2,0,P|184:96|188:64,1,90
212,52,96952,1,0,0:0:0:0:
252,32,97020,1,0,0:0:0:0:
296,32,97087,1,0,0:0:0:0:
340,44,97155,1,0,0:0:0:0:
384,48,97222,1,0,0:0:0:0:
428,36,97290,5,0,0:0:0:0:
268,176,97425,1,0,0:0:0:0:
496,236,97560,2,0,P|440:232|392:240,1,99.0000030212403
96,296,97830,1,0,0:0:0:0:
296,376,97965,1,0,0:0:0:0:
296,376,98032,1,0,0:0:0:0:
288,376,98100,2,0,P|296:324|292:260,1,99.0000030212403
84,40,98370,6,0,P|80:96|88:144,1,99.0000030212403
112,179,98572,1,0,0:0:0:0:
161,170,98640,1,0,0:0:0:0:
203,194,98707,1,0,0:0:0:0:
244,221,98775,1,0,0:0:0:0:
292,210,98842,1,0,0:0:0:0:
313,165,98910,1,2,0:0:0:0:
424,92,99180,5,0,0:0:0:0:
396,324,99315,1,0,0:0:0:0:
336,40,99450,5,4,0:0:0:0:
150,121,99585,1,0,0:0:0:0:
150,121,99652,1,0,0:0:0:0:
150,121,99720,2,0,L|162:177,1,49.5000015106202,4|0,0:0|0:0,0:0:0:0:
108,248,99855,1,0,0:0:0:0:
108,248,99922,1,0,0:0:0:0:
108,248,99990,2,0,L|164:264,1,49.5000015106202,4|0,0:0|0:0,0:0:0:0:
192,296,100125,1,0,0:0:0:0:
240,288,100192,1,0,0:0:0:0:
288,280,100260,1,0,0:0:0:0:
336,292,100327,1,0,0:0:0:0:
384,308,100395,1,4,0:0:0:0:
324,168,100530,5,0,0:0:0:0:
488,224,100665,5,0,0:0:0:0:
472,176,100732,1,0,0:0:0:0:
456,128,100800,1,0,0:0:0:0:
440,84,100867,1,0,0:0:0:0:
424,36,100935,1,4,0:0:0:0:
228,44,101205,1,0,0:0:0:0:
228,44,101272,1,0,0:0:0:0:
228,44,101340,2,0,B|196:68|196:68|104:80|104:80|64:112,1,173.250005287171,8|0,0:0|0:0,0:0:0:0:
46,185,101610,6,0,P|40:249|44:288,1,99.0000030212403,4|0,0:0|0:0,0:0:0:0:
290,378,101880,2,0,P|293:328|287:279,1,99.0000030212403
194,137,102150,1,0,0:0:0:0:
162,174,102217,1,0,0:0:0:0:
172,222,102285,1,0,0:0:0:0:
213,247,102352,1,0,0:0:0:0:
261,236,102420,1,0,0:0:0:0:
276,189,102487,1,0,0:0:0:0:
257,142,102555,2,0,B|291:114|291:114|402:139|402:139|440:116,2,198.000006042481,4|0|0,0:0|0:0|0:0,0:0:0:0:
218,39,103230,5,0,0:0:0:0:
28,19,103500,5,0,0:0:0:0:
37,308,103770,5,4,0:0:0:0:
53,138,103905,1,0,0:0:0:0:
101,147,103972,1,0,0:0:0:0:
150,156,104040,2,0,L|205:162,1,49.5000015106202
261,236,104175,1,0,0:0:0:0:
309,227,104242,1,0,0:0:0:0:
357,216,104310,2,0,L|460:200,1,99.0000030212403
492,194,104512,1,0,0:0:0:0:
492,194,104580,1,0,0:0:0:0:
218,39,104715,6,0,B|204:81|204:81|256:166|256:166|235:233,1,198.000006042481
38,363,105120,2,0,P|88:356|144:359,1,99.0000030212403
179,373,105322,1,0,0:0:0:0:
227,366,105390,1,0,0:0:0:0:
462,332,105525,1,0,0:0:0:0:
267,260,105660,1,0,0:0:0:0:
502,226,105795,1,0,0:0:0:0:
422,41,105930,5,0,0:0:0:0:
276,112,106065,1,0,0:0:0:0:
274,161,106132,1,0,0:0:0:0:
269,210,106200,2,0,L|266:263,1,49.5000015106202
163,314,106335,1,0,0:0:0:0:
165,266,106402,1,0,0:0:0:0:
170,216,106470,2,0,L|182:94,1,99.0000030212403
186,68,106672,1,0,0:0:0:0:
186,68,106740,1,0,0:0:0:0:
38,23,106875,6,0,P|-38:19|26:87,1,198.000006042481
68,314,107280,2,0,P|71:261|68:212,1,99.0000030212403
186,68,107550,5,0,0:0:0:0:
246,256,107685,1,0,0:0:0:0:
433,206,107820,1,0,0:0:0:0:
373,18,107955,1,0,0:0:0:0:
336,219,108090,6,0,P|333:271|333:323,1,99.0000030212403,4|0,0:0|0:0,0:0:0:0:
479,119,108360,2,0,P|478:69|475:20,1,99.0000030212403
259,5,108630,1,0,0:0:0:0:
337,219,108765,1,0,0:0:0:0:
478,121,108900,1,0,0:0:0:0:
259,5,109035,1,0,0:0:0:0:
220,240,109170,5,0,0:0:0:0:
433,206,109305,1,0,0:0:0:0:
281,359,109440,1,0,0:0:0:0:
314,145,109575,1,0,0:0:0:0:
412,338,109710,1,0,0:0:0:0:
153,330,109845,1,0,0:0:0:0:
153,330,109912,1,0,0:0:0:0:
153,330,109980,2,0,P|98:327|45:330,1,99.0000030212403
9,98,110250,5,0,0:0:0:0:
237,141,110385,1,0,0:0:0:0:
218,55,110520,1,0,0:0:0:0:
35,184,110655,1,0,0:0:0:0:
237,141,110790,2,0,P|293:144|350:136,1,99.0000030212403
373,113,110992,1,0,0:0:0:0:
420,117,111060,1,0,0:0:0:0:
335,367,111195,6,0,B|480:345|480:345|425:314,1,198.000006042481
304,57,111600,5,0,0:0:0:0:
289,291,111735,1,0,0:0:0:0:
237,141,111870,6,0,L|185:250,1,99.0000030212403
79,305,112140,2,0,L|18:134,1,173.250005287171,8|0,0:0|0:0,0:0:0:0:
33,99,112410,5,4,0:0:0:0:
74,72,112477,1,0,0:0:0:0:
123,79,112545,1,0,0:0:0:0:
168,60,112612,1,0,0:0:0:0:
217,54,112680,1,0,0:0:0:0:
393,143,112815,1,0,0:0:0:0:
382,190,112882,1,0,0:0:0:0:
369,238,112950,2,0,L|356:300,1,49.5000015106202
227,350,113085,2,0,L|216:301,1,49.5000015106202
266,198,113220,1,0,0:0:0:0:
191,219,113355,6,0,B|100:212|74:293|74:293|69:242,1,198.000006042481
21,43,113760,2,0,P|17:94|22:153,1,99.0000030212403
162,92,114030,1,0,0:0:0:0:
210,99,114097,1,0,0:0:0:0:
258,88,114165,1,0,0:0:0:0:
301,64,114232,1,0,0:0:0:0:
349,77,114300,2,0,L|461:91,1,99.0000030212403
410,373,114570,6,0,L|401:325,1,49.5000015106202
256,149,114705,2,0,L|266:198,1,49.5000015106202
334,264,114840,1,0,0:0:0:0:
166,364,114975,2,0,L|157:307,1,49.5000015106202
82,249,115110,1,0,0:0:0:0:
68,200,115177,1,0,0:0:0:0:
72,152,115245,1,0,0:0:0:0:
80,104,115312,1,0,0:0:0:0:
84,56,115380,1,0,0:0:0:0:
301,64,115515,6,0,B|341:88|341:88|194:136,1,198.000006042481
166,364,115920,2,0,P|168:306|168:260,1,99.0000030212403
211,34,116190,1,0,0:0:0:0:
386,199,116325,2,0,L|406:223,3,24.7500007553101
344,166,116460,2,0,P|334:218|335:274,1,99.0000030212403,2|0,0:0|0:0,0:0:0:0:
264,336,116730,5,4,0:0:0:0:
233,299,116797,1,0,0:0:0:0:
227,249,116865,1,0,0:0:0:0:
213,201,116932,1,0,0:0:0:0:
181,162,117000,1,0,0:0:0:0:
132,154,117067,1,0,0:0:0:0:
94,186,117135,1,0,0:0:0:0:
103,234,117202,1,0,0:0:0:0:
146,257,117270,1,0,0:0:0:0:
194,247,117337,1,0,0:0:0:0:
235,218,117405,1,0,0:0:0:0:
283,208,117472,1,0,0:0:0:0:
329,225,117540,1,0,0:0:0:0:
473,165,117675,6,0,B|484:24|484:24|423:77,1,198.000006042481
273,83,118080,1,0,0:0:0:0:
227,61,118147,1,0,0:0:0:0:
180,67,118215,1,0,0:0:0:0:
145,102,118282,1,0,0:0:0:0:
151,155,118350,2,0,L|127:260,1,99.0000030212403
91,284,118553,1,0,0:0:0:0:
42,275,118620,1,0,0:0:0:0:
15,232,118688,1,0,0:0:0:0:
22,183,118755,1,0,0:0:0:0:
63,156,118822,1,0,0:0:0:0:
112,163,118890,6,0,L|96:101,1,49.5000015106202
180,67,119025,2,0,L|173:38,2,24.7500007553101
263,159,119160,6,0,L|250:111,1,49.5000015106202
320,57,119295,2,0,L|314:32,2,24.7500007553101
356,96,119430,5,0,0:0:0:0:
370,142,119497,1,0,0:0:0:0:
384,189,119565,1,0,0:0:0:0:
399,235,119632,1,0,0:0:0:0:
414,282,119700,1,0,0:0:0:0:
236,340,119835,6,0,B|157:316|96:380|34:356,1,198.000006042481
96,218,120240,2,0,P|87:163|94:98,1,99.0000030212403
225,26,120510,1,0,0:0:0:0:
418,25,120645,1,2,0:0:0:0:
170,169,120780,1,0,0:0:0:0:
473,168,120915,1,2,0:0:0:0:
328,339,121320,5,6,0:0:0:0:
