osu file format v14

[General]
AudioFilename: audio.mp3
AudioLeadIn: 0
PreviewTime: 237
Countdown: 0
SampleSet: None
StackLeniency: 0.7
Mode: 3
LetterboxInBreaks: 0
SpecialStyle: 0
WidescreenStoryboard: 1

[Editor]
Bookmarks: 11146,19873
DistanceSpacing: 1.4
BeatDivisor: 4
GridSize: 8
TimelineZoom: 2

[Metadata]
Title:Saw-Saw.
TitleUnicode:Saw-Saw.
Artist:t+pazolite
ArtistUnicode:t+pazolite
Creator:Hydria
Version:Extra
Source:
Tags:
BeatmapID:1387846
BeatmapSetID:654790

[Difficulty]
HPDrainRate:8
CircleSize:4
OverallDifficulty:8
ApproachRate:5
SliderMultiplier:1.4
SliderTickRate:1

[Events]
//Background and Video events
0,0,"Saw-Saw-BG.jpg",0,0
//Break Periods
//Storyboard Layer 0 (Background)
//Storyboard Layer 1 (Fail)
//Storyboard Layer 2 (Pass)
//Storyboard Layer 3 (Foreground)
//Storyboard Sound Samples

[TimingPoints]
237,272.727,4,2,1,80,1,0

[HitObjects]
64,192,2418,5,0,0:0:0:0:
192,192,2418,1,0,0:0:0:0:
320,192,2486,1,0,0:0:0:0:
192,192,2555,1,0,0:0:0:0:
448,192,2555,1,0,0:0:0:0:
64,192,2623,1,0,0:0:0:0:
320,192,2691,1,0,0:0:0:0:
448,192,2691,1,0,0:0:0:0:
64,192,2759,1,0,0:0:0:0:
192,192,2827,1,0,0:0:0:0:
320,192,2827,1,0,0:0:0:0:
448,192,2896,1,0,0:0:0:0:
64,192,2964,1,0,0:0:0:0:
192,192,2964,1,0,0:0:0:0:
320,192,3032,1,0,0:0:0:0:
448,192,3100,1,0,0:0:0:0:
64,192,3100,1,0,0:0:0:0:
192,192,3168,1,0,0:0:0:0:
320,192,3236,1,0,0:0:0:0:
64,192,3236,1,0,0:0:0:0:
448,192,3236,1,0,0:0:0:0:
192,192,3509,1,0,0:0:0:0:
448,192,3509,1,0,0:0:0:0:
320,192,3577,1,0,0:0:0:0:
192,192,3646,1,0,0:0:0:0:
64,192,3646,1,0,0:0:0:0:
320,192,3714,1,0,0:0:0:0:
448,192,3782,1,0,0:0:0:0:
64,192,3782,1,0,0:0:0:0:
192,192,3850,1,0,0:0:0:0:
320,192,3918,1,0,0:0:0:0:
448,192,3918,1,0,0:0:0:0:
64,192,3986,1,0,0:0:0:0:
320,192,4055,1,0,0:0:0:0:
448,192,4055,1,0,0:0:0:0:
192,192,4123,1,0,0:0:0:0:
64,192,4191,1,0,0:0:0:0:
320,192,4191,1,0,0:0:0:0:
448,192,4259,1,0,0:0:0:0:
192,192,4327,1,0,0:0:0:0:
64,192,4327,1,0,0:0:0:0:
320,192,4327,1,0,0:0:0:0:
448,192,4600,1,0,0:0:0:0:
64,192,4600,1,0,0:0:0:0:
320,192,4668,1,0,0:0:0:0:
192,192,4736,1,0,0:0:0:0:
64,192,4736,1,0,0:0:0:0:
320,192,4805,1,0,0:0:0:0:
192,192,4873,1,0,0:0:0:0:
448,192,4873,1,0,0:0:0:0:
64,192,4941,1,0,0:0:0:0:
320,192,5009,1,0,0:0:0:0:
448,192,5009,1,0,0:0:0:0:
64,192,5077,1,0,0:0:0:0:
192,192,5146,1,0,0:0:0:0:
320,192,5146,1,0,0:0:0:0:
448,192,5214,1,0,0:0:0:0:
192,192,5282,1,0,0:0:0:0:
64,192,5282,1,0,0:0:0:0:
448,192,5350,1,0,0:0:0:0:
320,192,5418,1,0,0:0:0:0:
64,192,5418,1,0,0:0:0:0:
192,192,5418,1,0,0:0:0:0:
448,192,5691,1,0,0:0:0:0:
192,192,5691,1,0,0:0:0:0:
320,192,5759,1,0,0:0:0:0:
64,192,5827,1,0,0:0:0:0:
192,192,5827,1,0,0:0:0:0:
448,192,5896,1,0,0:0:0:0:
64,192,5964,1,0,0:0:0:0:
192,192,5998,1,0,0:0:0:0:
448,192,6032,1,0,0:0:0:0:
320,192,6066,1,0,0:0:0:0:
192,192,6100,1,0,0:0:0:0:
64,192,6100,1,0,0:0:0:0:
448,192,6168,1,0,0:0:0:0:
320,192,6236,1,0,0:0:0:0:
64,192,6236,1,0,0:0:0:0:
448,192,6305,1,0,0:0:0:0:
64,192,6373,1,0,0:0:0:0:
192,192,6407,1,0,0:0:0:0:
320,192,6441,1,0,0:0:0:0:
448,192,6475,1,0,0:0:0:0:
192,192,6509,1,0,0:0:0:0:
64,192,6509,1,0,0:0:0:0:
448,192,6646,1,0,0:0:0:0:
320,192,6680,1,0,0:0:0:0:
64,192,6714,1,0,0:0:0:0:
192,192,6748,1,0,0:0:0:0:
320,192,6782,1,0,0:0:0:0:
448,192,6782,1,0,0:0:0:0:
64,192,6850,1,0,0:0:0:0:
192,192,6918,1,0,0:0:0:0:
448,192,6918,1,0,0:0:0:0:
320,192,6986,1,0,0:0:0:0:
192,192,7055,1,0,0:0:0:0:
64,192,7055,1,0,0:0:0:0:
320,192,7123,1,0,0:0:0:0:
448,192,7191,1,0,0:0:0:0:
64,192,7191,1,0,0:0:0:0:
192,192,7259,1,0,0:0:0:0:
320,192,7327,1,0,0:0:0:0:
448,192,7327,1,0,0:0:0:0:
64,192,7396,1,0,0:0:0:0:
320,192,7464,1,0,0:0:0:0:
448,192,7464,1,0,0:0:0:0:
192,192,7532,1,0,0:0:0:0:
64,192,7600,1,0,0:0:0:0:
320,192,7600,1,0,0:0:0:0:
448,192,7600,1,0,0:0:0:0:
64,192,7873,1,0,0:0:0:0:
192,192,7873,1,0,0:0:0:0:
448,192,7941,1,0,0:0:0:0:
192,192,8009,1,0,0:0:0:0:
64,192,8009,1,0,0:0:0:0:
320,192,8077,1,0,0:0:0:0:
192,192,8146,1,0,0:0:0:0:
448,192,8146,1,0,0:0:0:0:
64,192,8214,1,0,0:0:0:0:
320,192,8282,1,0,0:0:0:0:
448,192,8282,1,0,0:0:0:0:
192,192,8350,1,0,0:0:0:0:
64,192,8418,1,0,0:0:0:0:
320,192,8418,1,0,0:0:0:0:
192,192,8486,1,0,0:0:0:0:
64,192,8555,1,0,0:0:0:0:
448,192,8555,1,0,0:0:0:0:
320,192,8623,1,0,0:0:0:0:
192,192,8691,1,0,0:0:0:0:
64,192,8691,1,0,0:0:0:0:
448,192,8691,1,0,0:0:0:0:
192,192,8964,1,0,0:0:0:0:
320,192,8964,1,0,0:0:0:0:
64,192,9032,1,0,0:0:0:0:
320,192,9100,1,0,0:0:0:0:
448,192,9100,1,0,0:0:0:0:
64,192,9168,1,0,0:0:0:0:
192,192,9236,1,0,0:0:0:0:
448,192,9236,1,0,0:0:0:0:
320,192,9305,1,0,0:0:0:0:
192,192,9373,1,0,0:0:0:0:
64,192,9373,1,0,0:0:0:0:
320,192,9441,1,0,0:0:0:0:
448,192,9509,1,0,0:0:0:0:
64,192,9509,1,0,0:0:0:0:
192,192,9509,1,0,0:0:0:0:
320,192,9646,1,0,0:0:0:0:
448,192,9646,1,0,0:0:0:0:
64,192,9714,1,0,0:0:0:0:
192,192,9782,1,0,0:0:0:0:
320,192,9782,1,0,0:0:0:0:
448,192,9782,1,0,0:0:0:0:
64,192,10055,1,0,0:0:0:0:
448,192,10055,1,0,0:0:0:0:
320,192,10123,1,0,0:0:0:0:
64,192,10191,1,0,0:0:0:0:
192,192,10225,1,0,0:0:0:0:
448,192,10259,1,0,0:0:0:0:
64,192,10327,1,0,0:0:0:0:
320,192,10361,1,0,0:0:0:0:
448,192,10396,1,0,0:0:0:0:
192,192,10464,1,0,0:0:0:0:
64,192,10464,1,0,0:0:0:0:
448,192,10532,1,0,0:0:0:0:
320,192,10600,1,0,0:0:0:0:
192,192,10600,1,0,0:0:0:0:
64,192,10668,1,0,0:0:0:0:
448,192,10736,1,0,0:0:0:0:
320,192,10771,1,0,0:0:0:0:
192,192,10805,1,0,0:0:0:0:
64,192,10873,1,0,0:0:0:0:
448,192,10873,1,0,0:0:0:0:
320,192,10941,1,0,0:0:0:0:
448,192,10975,1,0,0:0:0:0:
192,192,11009,1,0,0:0:0:0:
64,192,11043,1,0,0:0:0:0:
448,192,11077,1,0,0:0:0:0:
320,192,11111,1,0,0:0:0:0:
64,192,11146,1,0,0:0:0:0:
192,192,11180,1,0,0:0:0:0:
320,192,11214,1,0,0:0:0:0:
448,192,11248,1,0,0:0:0:0:
64,192,11282,1,0,0:0:0:0:
192,192,11282,1,0,0:0:0:0:
320,192,11350,1,0,0:0:0:0:
448,192,11418,1,0,0:0:0:0:
64,192,11418,1,0,0:0:0:0:
192,192,11486,1,0,0:0:0:0:
320,192,11555,1,0,0:0:0:0:
448,192,11555,1,0,0:0:0:0:
64,192,11623,1,0,0:0:0:0:
192,192,11691,1,0,0:0:0:0:
448,192,11691,1,0,0:0:0:0:
320,192,11759,1,0,0:0:0:0:
192,192,11827,1,0,0:0:0:0:
64,192,11827,1,0,0:0:0:0:
448,192,11896,1,0,0:0:0:0:
320,192,11964,1,0,0:0:0:0:
192,192,11964,1,0,0:0:0:0:
64,192,11964,1,0,0:0:0:0:
320,192,12236,1,0,0:0:0:0:
448,192,12236,1,0,0:0:0:0:
64,192,12305,1,0,0:0:0:0:
192,192,12373,1,0,0:0:0:0:
448,192,12373,1,0,0:0:0:0:
64,192,12441,1,0,0:0:0:0:
320,192,12509,1,0,0:0:0:0:
192,192,12509,1,0,0:0:0:0:
448,192,12577,1,0,0:0:0:0:
64,192,12646,1,0,0:0:0:0:
320,192,12646,1,0,0:0:0:0:
448,192,12714,1,0,0:0:0:0:
192,192,12782,1,0,0:0:0:0:
64,192,12782,1,0,0:0:0:0:
320,192,12850,1,0,0:0:0:0:
448,192,12918,1,0,0:0:0:0:
64,192,12918,1,0,0:0:0:0:
192,192,12986,1,0,0:0:0:0:
320,192,13055,1,0,0:0:0:0:
448,192,13055,1,0,0:0:0:0:
64,192,13055,1,0,0:0:0:0:
192,192,13327,1,0,0:0:0:0:
448,192,13327,1,0,0:0:0:0:
64,192,13396,1,0,0:0:0:0:
320,192,13464,1,0,0:0:0:0:
448,192,13464,1,0,0:0:0:0:
64,192,13532,1,0,0:0:0:0:
192,192,13600,1,0,0:0:0:0:
320,192,13600,1,0,0:0:0:0:
448,192,13668,1,0,0:0:0:0:
64,192,13736,1,0,0:0:0:0:
192,192,13736,1,0,0:0:0:0:
448,192,13805,1,0,0:0:0:0:
320,192,13873,1,0,0:0:0:0:
64,192,13873,1,0,0:0:0:0:
192,192,13941,1,0,0:0:0:0:
320,192,14009,1,0,0:0:0:0:
448,192,14009,1,0,0:0:0:0:
64,192,14077,1,0,0:0:0:0:
192,192,14146,1,0,0:0:0:0:
320,192,14146,1,0,0:0:0:0:
448,192,14146,1,0,0:0:0:0:
192,192,14418,1,0,0:0:0:0:
448,192,14418,1,0,0:0:0:0:
320,192,14486,1,0,0:0:0:0:
64,192,14555,1,0,0:0:0:0:
448,192,14555,1,0,0:0:0:0:
192,192,14623,1,0,0:0:0:0:
320,192,14691,1,0,0:0:0:0:
448,192,14725,1,0,0:0:0:0:
192,192,14759,1,0,0:0:0:0:
64,192,14793,1,0,0:0:0:0:
320,192,14827,1,0,0:0:0:0:
448,192,14827,1,0,0:0:0:0:
192,192,14896,1,0,0:0:0:0:
448,192,14964,1,0,0:0:0:0:
64,192,14964,1,0,0:0:0:0:
320,192,15032,1,0,0:0:0:0:
64,192,15100,1,0,0:0:0:0:
192,192,15134,1,0,0:0:0:0:
320,192,15168,1,0,0:0:0:0:
448,192,15202,1,0,0:0:0:0:
192,192,15236,1,0,0:0:0:0:
64,192,15236,1,0,0:0:0:0:
320,192,15373,1,0,0:0:0:0:
448,192,15407,1,0,0:0:0:0:
192,192,15441,1,0,0:0:0:0:
64,192,15475,1,0,0:0:0:0:
320,192,15509,1,0,0:0:0:0:
448,192,15509,1,0,0:0:0:0:
192,192,15577,1,0,0:0:0:0:
64,192,15646,1,0,0:0:0:0:
320,192,15646,1,0,0:0:0:0:
448,192,15714,1,0,0:0:0:0:
192,192,15782,1,0,0:0:0:0:
64,192,15782,1,0,0:0:0:0:
448,192,15850,1,0,0:0:0:0:
320,192,15918,1,0,0:0:0:0:
192,192,15918,1,0,0:0:0:0:
64,192,15986,1,0,0:0:0:0:
320,192,16055,1,0,0:0:0:0:
448,192,16055,1,0,0:0:0:0:
64,192,16123,1,0,0:0:0:0:
192,192,16191,1,0,0:0:0:0:
448,192,16191,1,0,0:0:0:0:
320,192,16259,1,0,0:0:0:0:
192,192,16327,1,0,0:0:0:0:
64,192,16327,1,0,0:0:0:0:
448,192,16327,1,0,0:0:0:0:
64,192,16600,1,0,0:0:0:0:
192,192,16600,1,0,0:0:0:0:
448,192,16668,1,0,0:0:0:0:
64,192,16736,1,0,0:0:0:0:
320,192,16736,1,0,0:0:0:0:
192,192,16805,1,0,0:0:0:0:
64,192,16873,1,0,0:0:0:0:
448,192,16873,1,0,0:0:0:0:
320,192,16941,1,0,0:0:0:0:
192,192,17009,1,0,0:0:0:0:
448,192,17009,1,0,0:0:0:0:
64,192,17077,1,0,0:0:0:0:
320,192,17146,1,0,0:0:0:0:
448,192,17146,1,0,0:0:0:0:
64,192,17214,1,0,0:0:0:0:
192,192,17282,1,0,0:0:0:0:
320,192,17282,1,0,0:0:0:0:
448,192,17350,1,0,0:0:0:0:
192,192,17418,1,0,0:0:0:0:
64,192,17418,1,0,0:0:0:0:
64,192,17691,1,0,0:0:0:0:
192,192,17691,1,0,0:0:0:0:
448,192,17759,1,0,0:0:0:0:
64,192,17827,1,0,0:0:0:0:
320,192,17827,1,0,0:0:0:0:
192,192,17896,1,0,0:0:0:0:
448,192,17964,1,0,0:0:0:0:
320,192,17998,1,0,0:0:0:0:
64,192,18032,1,0,0:0:0:0:
192,192,18066,1,0,0:0:0:0:
320,192,18100,1,0,0:0:0:0:
448,192,18100,1,0,0:0:0:0:
64,192,18168,1,0,0:0:0:0:
192,192,18236,1,0,0:0:0:0:
448,192,18236,1,0,0:0:0:0:
64,192,18305,1,0,0:0:0:0:
320,192,18373,1,0,0:0:0:0:
448,192,18407,1,0,0:0:0:0:
192,192,18441,1,0,0:0:0:0:
320,192,18509,1,0,0:0:0:0:
64,192,18509,1,0,0:0:0:0:
192,192,18646,1,0,0:0:0:0:
448,192,18714,1,0,0:0:0:0:
192,192,18782,1,0,0:0:0:0:
64,192,18782,128,0,19055:0:0:0:0:
320,192,19055,1,0,0:0:0:0:
448,192,19055,1,0,0:0:0:0:
192,192,19123,1,0,0:0:0:0:
64,192,19191,1,0,0:0:0:0:
320,192,19259,1,0,0:0:0:0:
448,192,19327,128,0,19736:0:0:0:0:
192,192,19327,1,0,0:0:0:0:
320,192,19736,1,0,0:0:0:0:
64,192,19873,5,0,0:0:0:0:
192,192,19873,1,0,0:0:0:0:
320,192,19941,1,0,0:0:0:0:
192,192,20009,1,0,0:0:0:0:
448,192,20009,1,0,0:0:0:0:
64,192,20077,1,0,0:0:0:0:
320,192,20146,1,0,0:0:0:0:
448,192,20146,1,0,0:0:0:0:
64,192,20214,1,0,0:0:0:0:
192,192,20282,1,0,0:0:0:0:
320,192,20282,1,0,0:0:0:0:
448,192,20350,1,0,0:0:0:0:
64,192,20418,1,0,0:0:0:0:
192,192,20418,1,0,0:0:0:0:
320,192,20486,1,0,0:0:0:0:
448,192,20555,1,0,0:0:0:0:
64,192,20555,1,0,0:0:0:0:
192,192,20623,1,0,0:0:0:0:
320,192,20691,1,0,0:0:0:0:
64,192,20691,1,0,0:0:0:0:
448,192,20691,1,0,0:0:0:0:
192,192,20964,1,0,0:0:0:0:
448,192,20964,1,0,0:0:0:0:
320,192,21032,1,0,0:0:0:0:
192,192,21100,1,0,0:0:0:0:
64,192,21100,1,0,0:0:0:0:
320,192,21168,1,0,0:0:0:0:
448,192,21236,1,0,0:0:0:0:
64,192,21236,1,0,0:0:0:0:
192,192,21305,1,0,0:0:0:0:
320,192,21373,1,0,0:0:0:0:
448,192,21373,1,0,0:0:0:0:
64,192,21441,1,0,0:0:0:0:
320,192,21509,1,0,0:0:0:0:
448,192,21509,1,0,0:0:0:0:
192,192,21577,1,0,0:0:0:0:
64,192,21646,1,0,0:0:0:0:
320,192,21646,1,0,0:0:0:0:
448,192,21714,1,0,0:0:0:0:
192,192,21782,1,0,0:0:0:0:
64,192,21782,1,0,0:0:0:0:
320,192,21782,1,0,0:0:0:0:
448,192,22055,1,0,0:0:0:0:
64,192,22055,1,0,0:0:0:0:
320,192,22123,1,0,0:0:0:0:
192,192,22191,1,0,0:0:0:0:
64,192,22191,1,0,0:0:0:0:
320,192,22259,1,0,0:0:0:0:
192,192,22327,1,0,0:0:0:0:
448,192,22327,1,0,0:0:0:0:
64,192,22396,1,0,0:0:0:0:
320,192,22464,1,0,0:0:0:0:
448,192,22464,1,0,0:0:0:0:
64,192,22532,1,0,0:0:0:0:
192,192,22600,1,0,0:0:0:0:
320,192,22600,1,0,0:0:0:0:
448,192,22668,1,0,0:0:0:0:
192,192,22736,1,0,0:0:0:0:
64,192,22736,1,0,0:0:0:0:
448,192,22805,1,0,0:0:0:0:
320,192,22873,1,0,0:0:0:0:
64,192,22873,1,0,0:0:0:0:
192,192,22873,1,0,0:0:0:0:
448,192,23146,1,0,0:0:0:0:
192,192,23146,1,0,0:0:0:0:
320,192,23214,1,0,0:0:0:0:
64,192,23282,1,0,0:0:0:0:
192,192,23282,1,0,0:0:0:0:
448,192,23350,1,0,0:0:0:0:
64,192,23418,1,0,0:0:0:0:
192,192,23452,1,0,0:0:0:0:
448,192,23486,1,0,0:0:0:0:
320,192,23521,1,0,0:0:0:0:
192,192,23555,1,0,0:0:0:0:
64,192,23555,1,0,0:0:0:0:
448,192,23623,1,0,0:0:0:0:
320,192,23691,1,0,0:0:0:0:
64,192,23691,1,0,0:0:0:0:
448,192,23759,1,0,0:0:0:0:
64,192,23827,1,0,0:0:0:0:
192,192,23861,1,0,0:0:0:0:
320,192,23896,1,0,0:0:0:0:
448,192,23930,1,0,0:0:0:0:
192,192,23964,1,0,0:0:0:0:
64,192,23964,1,0,0:0:0:0:
448,192,24100,1,0,0:0:0:0:
320,192,24134,1,0,0:0:0:0:
64,192,24168,1,0,0:0:0:0:
192,192,24202,1,0,0:0:0:0:
320,192,24236,1,0,0:0:0:0:
448,192,24236,1,0,0:0:0:0:
64,192,24305,1,0,0:0:0:0:
192,192,24373,1,0,0:0:0:0:
448,192,24373,1,0,0:0:0:0:
320,192,24441,1,0,0:0:0:0:
192,192,24509,1,0,0:0:0:0:
64,192,24509,1,0,0:0:0:0:
320,192,24577,1,0,0:0:0:0:
448,192,24646,1,0,0:0:0:0:
64,192,24646,1,0,0:0:0:0:
192,192,24714,1,0,0:0:0:0:
320,192,24782,1,0,0:0:0:0:
448,192,24782,1,0,0:0:0:0:
64,192,24850,1,0,0:0:0:0:
320,192,24918,1,0,0:0:0:0:
448,192,24918,1,0,0:0:0:0:
192,192,24986,1,0,0:0:0:0:
64,192,25055,1,0,0:0:0:0:
320,192,25055,1,0,0:0:0:0:
448,192,25055,1,0,0:0:0:0:
64,192,25327,1,0,0:0:0:0:
192,192,25327,1,0,0:0:0:0:
448,192,25396,1,0,0:0:0:0:
192,192,25464,1,0,0:0:0:0:
64,192,25464,1,0,0:0:0:0:
320,192,25532,1,0,0:0:0:0:
192,192,25600,1,0,0:0:0:0:
448,192,25600,1,0,0:0:0:0:
64,192,25668,1,0,0:0:0:0:
320,192,25736,1,0,0:0:0:0:
448,192,25736,1,0,0:0:0:0:
192,192,25805,1,0,0:0:0:0:
64,192,25873,1,0,0:0:0:0:
320,192,25873,1,0,0:0:0:0:
192,192,25941,1,0,0:0:0:0:
64,192,26009,1,0,0:0:0:0:
448,192,26009,1,0,0:0:0:0:
320,192,26077,1,0,0:0:0:0:
192,192,26146,1,0,0:0:0:0:
64,192,26146,1,0,0:0:0:0:
448,192,26146,1,0,0:0:0:0:
192,192,26418,1,0,0:0:0:0:
320,192,26418,1,0,0:0:0:0:
64,192,26486,1,0,0:0:0:0:
320,192,26555,1,0,0:0:0:0:
448,192,26555,1,0,0:0:0:0:
64,192,26623,1,0,0:0:0:0:
192,192,26691,1,0,0:0:0:0:
448,192,26691,1,0,0:0:0:0:
320,192,26759,1,0,0:0:0:0:
192,192,26827,1,0,0:0:0:0:
64,192,26827,1,0,0:0:0:0:
320,192,26896,1,0,0:0:0:0:
448,192,26964,1,0,0:0:0:0:
64,192,26964,1,0,0:0:0:0:
192,192,26964,1,0,0:0:0:0:
320,192,27100,1,0,0:0:0:0:
448,192,27100,1,0,0:0:0:0:
64,192,27168,1,0,0:0:0:0:
192,192,27236,1,0,0:0:0:0:
320,192,27236,1,0,0:0:0:0:
448,192,27236,1,0,0:0:0:0:
64,192,27509,1,0,0:0:0:0:
448,192,27509,1,0,0:0:0:0:
320,192,27577,1,0,0:0:0:0:
64,192,27646,1,0,0:0:0:0:
192,192,27680,1,0,0:0:0:0:
448,192,27714,1,0,0:0:0:0:
64,192,27782,1,0,0:0:0:0:
320,192,27816,1,0,0:0:0:0:
448,192,27850,1,0,0:0:0:0:
192,192,27918,1,0,0:0:0:0:
64,192,27918,1,0,0:0:0:0:
448,192,27986,1,0,0:0:0:0:
320,192,28055,1,0,0:0:0:0:
192,192,28055,1,0,0:0:0:0:
64,192,28123,1,0,0:0:0:0:
448,192,28191,1,0,0:0:0:0:
320,192,28225,1,0,0:0:0:0:
192,192,28259,1,0,0:0:0:0:
64,192,28327,1,0,0:0:0:0:
448,192,28327,1,0,0:0:0:0:
320,192,28396,1,0,0:0:0:0:
448,192,28430,1,0,0:0:0:0:
192,192,28464,1,0,0:0:0:0:
64,192,28498,1,0,0:0:0:0:
448,192,28532,1,0,0:0:0:0:
320,192,28566,1,0,0:0:0:0:
64,192,28600,1,0,0:0:0:0:
192,192,28600,1,0,0:0:0:0:
448,192,28668,1,0,0:0:0:0:
64,192,28736,1,0,0:0:0:0:
192,192,28736,1,0,0:0:0:0:
320,192,28805,1,0,0:0:0:0:
448,192,28873,1,0,0:0:0:0:
64,192,28873,1,0,0:0:0:0:
192,192,28941,1,0,0:0:0:0:
320,192,29009,1,0,0:0:0:0:
448,192,29009,1,0,0:0:0:0:
64,192,29077,1,0,0:0:0:0:
192,192,29146,1,0,0:0:0:0:
448,192,29146,1,0,0:0:0:0:
320,192,29214,1,0,0:0:0:0:
192,192,29282,1,0,0:0:0:0:
64,192,29282,1,0,0:0:0:0:
448,192,29350,1,0,0:0:0:0:
320,192,29418,1,0,0:0:0:0:
192,192,29418,1,0,0:0:0:0:
64,192,29418,1,0,0:0:0:0:
320,192,29691,1,0,0:0:0:0:
448,192,29691,1,0,0:0:0:0:
64,192,29759,1,0,0:0:0:0:
192,192,29827,1,0,0:0:0:0:
448,192,29827,1,0,0:0:0:0:
64,192,29896,1,0,0:0:0:0:
320,192,29964,1,0,0:0:0:0:
192,192,29964,1,0,0:0:0:0:
448,192,30032,1,0,0:0:0:0:
64,192,30100,1,0,0:0:0:0:
320,192,30100,1,0,0:0:0:0:
448,192,30168,1,0,0:0:0:0:
192,192,30236,1,0,0:0:0:0:
64,192,30236,1,0,0:0:0:0:
320,192,30305,1,0,0:0:0:0:
448,192,30373,1,0,0:0:0:0:
64,192,30373,1,0,0:0:0:0:
192,192,30441,1,0,0:0:0:0:
320,192,30509,1,0,0:0:0:0:
448,192,30509,1,0,0:0:0:0:
64,192,30509,1,0,0:0:0:0:
192,192,30782,1,0,0:0:0:0:
448,192,30782,1,0,0:0:0:0:
64,192,30850,1,0,0:0:0:0:
320,192,30918,1,0,0:0:0:0:
448,192,30918,1,0,0:0:0:0:
64,192,30986,1,0,0:0:0:0:
192,192,31055,1,0,0:0:0:0:
320,192,31055,1,0,0:0:0:0:
448,192,31123,1,0,0:0:0:0:
64,192,31191,1,0,0:0:0:0:
192,192,31191,1,0,0:0:0:0:
448,192,31259,1,0,0:0:0:0:
320,192,31327,1,0,0:0:0:0:
64,192,31327,1,0,0:0:0:0:
192,192,31396,1,0,0:0:0:0:
320,192,31464,1,0,0:0:0:0:
448,192,31464,1,0,0:0:0:0:
64,192,31532,1,0,0:0:0:0:
192,192,31600,1,0,0:0:0:0:
320,192,31600,1,0,0:0:0:0:
448,192,31600,1,0,0:0:0:0:
192,192,31873,1,0,0:0:0:0:
448,192,31873,1,0,0:0:0:0:
320,192,31941,1,0,0:0:0:0:
64,192,32009,1,0,0:0:0:0:
448,192,32009,1,0,0:0:0:0:
192,192,32077,1,0,0:0:0:0:
320,192,32146,1,0,0:0:0:0:
448,192,32180,1,0,0:0:0:0:
192,192,32214,1,0,0:0:0:0:
64,192,32248,1,0,0:0:0:0:
320,192,32282,1,0,0:0:0:0:
448,192,32282,1,0,0:0:0:0:
192,192,32350,1,0,0:0:0:0:
448,192,32418,1,0,0:0:0:0:
64,192,32418,1,0,0:0:0:0:
320,192,32486,1,0,0:0:0:0:
64,192,32555,1,0,0:0:0:0:
192,192,32589,1,0,0:0:0:0:
320,192,32623,1,0,0:0:0:0:
448,192,32657,1,0,0:0:0:0:
192,192,32691,1,0,0:0:0:0:
64,192,32691,1,0,0:0:0:0:
320,192,32827,1,0,0:0:0:0:
448,192,32861,1,0,0:0:0:0:
192,192,32896,1,0,0:0:0:0:
64,192,32930,1,0,0:0:0:0:
320,192,32964,1,0,0:0:0:0:
448,192,32964,1,0,0:0:0:0:
192,192,33032,1,0,0:0:0:0:
64,192,33100,1,0,0:0:0:0:
320,192,33100,1,0,0:0:0:0:
448,192,33168,1,0,0:0:0:0:
192,192,33236,1,0,0:0:0:0:
64,192,33236,1,0,0:0:0:0:
448,192,33305,1,0,0:0:0:0:
320,192,33373,1,0,0:0:0:0:
192,192,33373,1,0,0:0:0:0:
64,192,33441,1,0,0:0:0:0:
320,192,33509,1,0,0:0:0:0:
448,192,33509,1,0,0:0:0:0:
64,192,33577,1,0,0:0:0:0:
192,192,33646,1,0,0:0:0:0:
448,192,33646,1,0,0:0:0:0:
320,192,33714,1,0,0:0:0:0:
192,192,33782,1,0,0:0:0:0:
64,192,33782,1,0,0:0:0:0:
448,192,33782,1,0,0:0:0:0:
64,192,34055,1,0,0:0:0:0:
192,192,34055,1,0,0:0:0:0:
448,192,34123,1,0,0:0:0:0:
64,192,34191,1,0,0:0:0:0:
320,192,34191,1,0,0:0:0:0:
192,192,34259,1,0,0:0:0:0:
64,192,34327,1,0,0:0:0:0:
448,192,34327,1,0,0:0:0:0:
320,192,34396,1,0,0:0:0:0:
192,192,34464,1,0,0:0:0:0:
448,192,34464,1,0,0:0:0:0:
64,192,34532,1,0,0:0:0:0:
320,192,34600,1,0,0:0:0:0:
448,192,34600,1,0,0:0:0:0:
64,192,34668,1,0,0:0:0:0:
192,192,34736,1,0,0:0:0:0:
320,192,34736,1,0,0:0:0:0:
448,192,34805,1,0,0:0:0:0:
192,192,34873,1,0,0:0:0:0:
64,192,34873,1,0,0:0:0:0:
64,192,35146,1,0,0:0:0:0:
192,192,35146,1,0,0:0:0:0:
448,192,35214,1,0,0:0:0:0:
64,192,35282,1,0,0:0:0:0:
320,192,35282,1,0,0:0:0:0:
192,192,35350,1,0,0:0:0:0:
448,192,35418,1,0,0:0:0:0:
320,192,35452,1,0,0:0:0:0:
64,192,35486,1,0,0:0:0:0:
192,192,35521,1,0,0:0:0:0:
320,192,35555,1,0,0:0:0:0:
448,192,35555,1,0,0:0:0:0:
64,192,35623,1,0,0:0:0:0:
192,192,35691,1,0,0:0:0:0:
448,192,35691,1,0,0:0:0:0:
64,192,35759,1,0,0:0:0:0:
320,192,35827,1,0,0:0:0:0:
448,192,35861,1,0,0:0:0:0:
192,192,35896,1,0,0:0:0:0:
320,192,35964,1,0,0:0:0:0:
64,192,35964,1,0,0:0:0:0:
192,192,36100,1,0,0:0:0:0:
448,192,36168,1,0,0:0:0:0:
192,192,36236,1,0,0:0:0:0:
64,192,36236,128,0,36509:0:0:0:0:
448,192,36509,128,0,37055:0:0:0:0:
