osu file format v12

[General]
AudioFilename: 09. t+pazolite Rumble Kung-fu Showdown.mp3
AudioLeadIn: 0
PreviewTime: 97155
Countdown: 1
SampleSet: Normal
StackLeniency: 0.7
Mode: 1
LetterboxInBreaks: 1
WidescreenStoryboard: 0

[Editor]
Bookmarks: 48468,101468,105468,109468,115468
DistanceSpacing: 0.8
BeatDivisor: 4
GridSize: 32
TimelineZoom: 2.5

[Metadata]
Title:Rumble Kung-fu Showdown
TitleUnicode:Rumble Kung-fu Showdown
Artist:t+pazolite
ArtistUnicode:t+pazolite
Creator:Lundlerol
Version:Taiko*Krestar
Source:絢爛喧噪オリエント
Tags:Hardcore
BeatmapID:396613
BeatmapSetID:162659

[Difficulty]
HPDrainRate:5
CircleSize:5
OverallDifficulty:5
ApproachRate:10
SliderMultiplier:1.4
SliderTickRate:1

[Events]
//Background and Video events
0,0,"40411963.jpg",0,110
//Break Periods
//Storyboard Layer 0 (Background)
//Storyboard Layer 1 (Fail)
//Storyboard Layer 2 (Pass)
//Storyboard Layer 3 (Foreground)
//Storyboard Sound Samples
//Background Colour Transformations
3,100,163,162,255

[TimingPoints]
468,250,4,1,0,100,1,0
16530,-133.333333333333,4,1,0,90,0,0
24405,-125,4,1,0,90,0,0
32280,-111.111111111111,4,1,0,90,0,0
46530,-108.695652173913,4,1,0,90,0,0
46780,-106.382978723404,4,1,0,90,0,0
47030,-104.166666666667,4,1,0,90,0,0
47280,-102.040816326531,4,1,0,90,0,0
47530,-100,4,1,0,90,0,0
64280,-133.333333333333,4,1,0,80,0,0
79530,-117.647058823529,4,1,0,90,0,0
88280,-100,4,1,0,100,0,0
95405,-98.0392156862745,4,1,0,100,0,0
95655,-96.1538461538461,4,1,0,100,0,0
95905,-94.3396226415094,4,1,0,100,0,0
96155,-92.5925925925926,4,1,0,100,0,0
96405,-100,4,1,0,100,0,0
97468,-100,4,1,0,100,0,1
113468,-100,4,1,0,100,0,0
113530,-133.333333333333,4,1,0,90,0,0
114405,-121.951219512195,4,1,0,90,0,0
114655,-109.89010989011,4,1,0,90,0,0
114905,-100,4,1,0,90,0,0
115468,-100,4,1,0,100,0,1
129468,-100,4,1,0,100,0,0
145468,-100,4,1,0,100,0,1
152530,-100,4,1,0,100,0,0
153468,-100,4,1,0,100,0,1
160530,-100,4,1,0,100,0,0
161468,-100,4,1,0,100,0,1
168468,-100,4,1,0,100,0,0
169468,-100,4,1,0,100,0,1
176468,-100,4,1,0,100,0,0

[HitObjects]
256,192,468,5,8,0:0:0:0:
256,192,593,1,0,0:0:0:0:
256,192,655,1,0,0:0:0:0:
256,192,718,1,0,0:0:0:0:
256,192,843,1,8,0:0:0:0:
256,192,968,1,0,0:0:0:0:
256,192,1030,1,0,0:0:0:0:
256,192,1093,1,0,0:0:0:0:
256,192,1218,1,8,0:0:0:0:
256,192,1280,1,8,0:0:0:0:
256,192,1343,1,0,0:0:0:0:
256,192,1468,1,8,0:0:0:0:
256,192,1530,1,8,0:0:0:0:
256,192,1593,1,0,0:0:0:0:
224,192,1655,1,0,0:0:0:0:
256,192,1718,1,0,0:0:0:0:
256,192,1843,1,8,0:0:0:0:
256,192,1968,1,0,0:0:0:0:
256,192,2030,1,0,0:0:0:0:
256,192,2093,1,0,0:0:0:0:
256,192,2155,1,0,0:0:0:0:
256,192,2218,1,8,0:0:0:0:
256,192,2343,1,8,0:0:0:0:
256,192,2468,1,0,0:0:0:0:
256,192,2593,1,0,0:0:0:0:
256,192,2655,1,0,0:0:0:0:
256,192,2718,1,0,0:0:0:0:
256,192,2843,1,8,0:0:0:0:
256,192,2968,1,0,0:0:0:0:
256,192,3030,1,0,0:0:0:0:
256,192,3093,1,0,0:0:0:0:
256,192,3218,1,8,0:0:0:0:
256,192,3280,1,8,0:0:0:0:
256,192,3343,1,0,0:0:0:0:
256,192,3468,1,8,0:0:0:0:
224,128,3530,1,8,0:0:0:0:
256,192,3593,1,0,0:0:0:0:
256,192,3655,1,0,0:0:0:0:
256,192,3718,1,0,0:0:0:0:
256,192,3843,1,8,0:0:0:0:
256,192,3968,1,0,0:0:0:0:
256,192,4030,1,8,0:0:0:0:
224,128,4093,1,0,0:0:0:0:
256,192,4155,1,0,0:0:0:0:
256,192,4218,1,8,0:0:0:0:
256,192,4280,1,8,0:0:0:0:
256,192,4343,1,0,0:0:0:0:
256,192,4468,1,8,0:0:0:0:
256,192,4593,1,0,0:0:0:0:
256,192,4655,1,0,0:0:0:0:
256,192,4718,1,0,0:0:0:0:
256,192,4843,1,8,0:0:0:0:
256,192,4968,1,0,0:0:0:0:
256,192,5030,1,0,0:0:0:0:
256,192,5093,1,0,0:0:0:0:
256,192,5218,1,8,0:0:0:0:
256,192,5280,1,8,0:0:0:0:
256,192,5343,1,0,0:0:0:0:
256,192,5468,1,8,0:0:0:0:
256,192,5530,1,8,0:0:0:0:
256,192,5593,1,0,0:0:0:0:
224,192,5655,1,0,0:0:0:0:
256,192,5718,1,0,0:0:0:0:
256,192,5843,1,8,0:0:0:0:
256,192,5968,1,0,0:0:0:0:
256,192,6030,1,0,0:0:0:0:
256,192,6093,1,0,0:0:0:0:
256,192,6155,1,0,0:0:0:0:
256,192,6218,1,8,0:0:0:0:
224,192,6280,1,0,0:0:0:0:
256,192,6343,1,8,0:0:0:0:
256,192,6468,1,0,0:0:0:0:
256,192,6593,1,0,0:0:0:0:
256,192,6655,1,0,0:0:0:0:
256,192,6718,1,0,0:0:0:0:
256,192,6843,1,8,0:0:0:0:
256,192,6968,1,0,0:0:0:0:
256,192,7030,1,0,0:0:0:0:
256,192,7093,1,0,0:0:0:0:
256,192,7218,1,8,0:0:0:0:
224,192,7280,1,8,0:0:0:0:
256,192,7343,1,0,0:0:0:0:
224,192,7405,1,0,0:0:0:0:
256,192,7468,1,8,0:0:0:0:
256,192,7718,1,8,0:0:0:0:
256,192,7843,1,0,0:0:0:0:
256,192,7968,1,8,0:0:0:0:
256,192,8218,1,0,0:0:0:0:
256,192,8468,1,8,0:0:0:0:
256,192,8593,1,0,0:0:0:0:
256,192,8655,1,0,0:0:0:0:
256,192,8718,1,0,0:0:0:0:
256,192,8843,1,8,0:0:0:0:
256,192,8968,1,0,0:0:0:0:
256,192,9030,1,0,0:0:0:0:
256,192,9093,1,0,0:0:0:0:
256,192,9218,1,8,0:0:0:0:
256,192,9280,1,8,0:0:0:0:
256,192,9343,1,0,0:0:0:0:
256,192,9468,1,8,0:0:0:0:
256,192,9530,1,8,0:0:0:0:
256,192,9593,1,0,0:0:0:0:
224,192,9655,1,0,0:0:0:0:
256,192,9718,1,0,0:0:0:0:
256,192,9843,1,8,0:0:0:0:
256,192,9968,1,0,0:0:0:0:
256,192,10030,1,8,0:0:0:0:
256,192,10093,1,0,0:0:0:0:
256,192,10155,1,0,0:0:0:0:
256,192,10218,1,8,0:0:0:0:
256,192,10343,1,8,0:0:0:0:
256,192,10468,1,0,0:0:0:0:
256,192,10593,1,0,0:0:0:0:
256,192,10655,1,8,0:0:0:0:
256,192,10718,1,0,0:0:0:0:
256,192,10843,1,8,0:0:0:0:
256,192,10968,1,0,0:0:0:0:
256,192,11030,1,8,0:0:0:0:
256,192,11093,1,0,0:0:0:0:
256,192,11218,1,8,0:0:0:0:
256,192,11280,1,8,0:0:0:0:
256,192,11343,1,0,0:0:0:0:
256,192,11405,1,8,0:0:0:0:
256,192,11468,1,0,0:0:0:0:
224,128,11530,1,0,0:0:0:0:
256,192,11593,1,0,0:0:0:0:
256,192,11655,1,8,0:0:0:0:
256,192,11718,1,0,0:0:0:0:
256,192,11843,1,8,0:0:0:0:
256,192,11968,1,0,0:0:0:0:
256,192,12030,1,8,0:0:0:0:
224,128,12093,1,0,0:0:0:0:
256,192,12155,1,0,0:0:0:0:
256,192,12218,1,8,0:0:0:0:
256,192,12280,1,8,0:0:0:0:
256,192,12343,1,0,0:0:0:0:
256,192,12468,1,8,0:0:0:0:
256,192,12593,1,0,0:0:0:0:
256,192,12655,1,8,0:0:0:0:
256,192,12718,1,0,0:0:0:0:
256,192,12843,1,8,0:0:0:0:
256,192,12968,1,0,0:0:0:0:
256,192,13030,1,8,0:0:0:0:
256,192,13093,1,0,0:0:0:0:
256,192,13218,1,8,0:0:0:0:
256,192,13280,1,8,0:0:0:0:
256,192,13343,1,0,0:0:0:0:
256,192,13405,1,8,0:0:0:0:
256,192,13468,1,0,0:0:0:0:
256,192,13530,1,0,0:0:0:0:
256,192,13593,1,8,0:0:0:0:
224,192,13655,1,8,0:0:0:0:
256,192,13718,1,0,0:0:0:0:
256,192,13843,1,8,0:0:0:0:
256,192,13968,1,0,0:0:0:0:
256,192,14030,1,8,0:0:0:0:
256,192,14093,1,0,0:0:0:0:
256,192,14155,1,0,0:0:0:0:
256,192,14218,1,8,0:0:0:0:
224,192,14280,1,0,0:0:0:0:
256,192,14343,1,8,0:0:0:0:
256,192,14468,1,0,0:0:0:0:
256,192,14593,1,0,0:0:0:0:
256,192,14655,1,8,0:0:0:0:
256,192,14718,1,0,0:0:0:0:
256,192,14843,1,8,0:0:0:0:
256,192,14968,1,0,0:0:0:0:
256,192,15030,1,8,0:0:0:0:
256,192,15093,1,0,0:0:0:0:
256,192,15218,1,8,0:0:0:0:
224,192,15280,1,8,0:0:0:0:
256,192,15343,1,0,0:0:0:0:
224,192,15405,1,0,0:0:0:0:
256,192,15468,1,8,0:0:0:0:
256,192,15718,1,8,0:0:0:0:
256,192,15843,1,0,0:0:0:0:
256,192,15968,1,8,0:0:0:0:
256,192,16218,1,0,0:0:0:0:
256,192,16468,1,4,0:0:0:0:
256,192,16968,1,8,0:0:0:0:
256,192,17093,1,0,0:0:0:0:
256,192,17218,1,0,0:0:0:0:
256,192,17343,1,0,0:0:0:0:
256,192,17468,1,0,0:0:0:0:
256,192,17593,1,0,0:0:0:0:
256,192,17718,1,8,0:0:0:0:
256,192,17843,1,0,0:0:0:0:
256,192,17968,1,0,0:0:0:0:
256,192,18093,1,8,0:0:0:0:
256,192,18218,1,0,0:0:0:0:
256,192,18343,1,8,0:0:0:0:
256,192,18468,1,0,0:0:0:0:
256,192,18718,1,0,0:0:0:0:
256,192,18968,1,8,0:0:0:0:
256,224,19093,1,0,0:0:0:0:
256,224,19218,1,0,0:0:0:0:
256,224,19343,1,0,0:0:0:0:
256,224,19468,1,8,0:0:0:0:
256,224,19718,1,8,0:0:0:0:
256,224,19843,1,0,0:0:0:0:
256,224,19968,1,8,0:0:0:0:
256,192,20093,1,8,0:0:0:0:
256,192,20343,1,8,0:0:0:0:
256,192,20468,1,0,0:0:0:0:
256,192,20718,1,0,0:0:0:0:
256,192,20968,1,8,0:0:0:0:
256,192,21093,1,0,0:0:0:0:
256,192,21218,1,0,0:0:0:0:
256,192,21343,1,0,0:0:0:0:
256,192,21468,1,0,0:0:0:0:
256,192,21593,1,0,0:0:0:0:
256,192,21718,1,8,0:0:0:0:
256,192,21843,1,0,0:0:0:0:
256,192,21968,1,0,0:0:0:0:
256,192,22093,1,8,0:0:0:0:
256,192,22218,1,0,0:0:0:0:
256,192,22343,1,8,0:0:0:0:
256,192,22468,1,0,0:0:0:0:
256,192,22718,1,0,0:0:0:0:
256,192,22968,1,8,0:0:0:0:
256,192,23093,1,0,0:0:0:0:
256,192,23218,1,0,0:0:0:0:
256,192,23343,1,0,0:0:0:0:
256,192,23468,1,8,0:0:0:0:
256,192,23718,1,8,0:0:0:0:
256,192,23843,1,0,0:0:0:0:
256,192,23968,1,8,0:0:0:0:
256,192,24093,1,8,0:0:0:0:
256,192,24218,1,0,0:0:0:0:
256,192,24468,1,4,0:0:0:0:
256,192,24718,1,0,0:0:0:0:
256,192,24968,1,8,0:0:0:0:
256,192,25093,1,0,0:0:0:0:
256,192,25218,1,0,0:0:0:0:
256,192,25343,1,0,0:0:0:0:
256,192,25468,1,8,0:0:0:0:
256,192,25593,1,0,0:0:0:0:
256,192,25718,1,4,0:0:0:0:
256,192,25968,1,8,0:0:0:0:
256,192,26093,1,0,0:0:0:0:
256,192,26343,1,0,0:0:0:0:
256,192,26468,1,4,0:0:0:0:
256,192,26718,1,0,0:0:0:0:
256,192,26968,1,8,0:0:0:0:
256,192,27093,1,0,0:0:0:0:
256,192,27218,1,0,0:0:0:0:
256,192,27343,1,0,0:0:0:0:
256,192,27468,1,8,0:0:0:0:
256,192,27593,1,0,0:0:0:0:
256,192,27718,1,4,0:0:0:0:
256,192,27968,1,8,0:0:0:0:
256,192,28093,1,0,0:0:0:0:
256,192,28343,1,0,0:0:0:0:
256,192,28468,1,4,0:0:0:0:
256,192,28718,1,0,0:0:0:0:
256,192,28968,1,8,0:0:0:0:
256,192,29093,1,0,0:0:0:0:
256,192,29218,1,0,0:0:0:0:
256,192,29343,1,0,0:0:0:0:
256,192,29468,1,8,0:0:0:0:
256,192,29593,1,0,0:0:0:0:
256,192,29718,1,4,0:0:0:0:
256,192,29968,1,8,0:0:0:0:
256,192,30093,1,0,0:0:0:0:
256,192,30218,1,8,0:0:0:0:
256,192,30343,1,0,0:0:0:0:
256,192,30468,1,4,0:0:0:0:
256,192,30718,1,0,0:0:0:0:
256,192,30968,1,8,0:0:0:0:
256,192,31093,1,0,0:0:0:0:
256,192,31218,1,0,0:0:0:0:
256,192,31343,1,0,0:0:0:0:
256,192,31468,1,8,0:0:0:0:
272,160,31718,1,4,0:0:0:0:
176,176,31843,1,0,0:0:0:0:
208,176,31968,1,8,0:0:0:0:
176,176,32218,1,8,0:0:0:0:
288,192,32468,1,4,0:0:0:0:
256,192,32718,1,0,0:0:0:0:
288,192,32968,1,8,0:0:0:0:
256,208,33093,1,0,0:0:0:0:
256,208,33218,1,0,0:0:0:0:
256,208,33343,1,0,0:0:0:0:
256,208,33468,1,8,0:0:0:0:
256,176,33593,1,8,0:0:0:0:
256,208,33718,1,4,0:0:0:0:
256,208,33968,1,0,0:0:0:0:
160,128,34093,1,8,0:0:0:0:
256,208,34218,1,8,0:0:0:0:
256,208,34280,1,8,0:0:0:0:
256,208,34343,1,0,0:0:0:0:
256,208,34405,1,8,0:0:0:0:
256,208,34468,1,0,0:0:0:0:
368,208,34718,1,0,0:0:0:0:
368,208,34968,1,8,0:0:0:0:
224,160,35093,1,0,0:0:0:0:
368,208,35218,1,8,0:0:0:0:
256,208,35468,1,8,0:0:0:0:
256,208,35530,1,0,0:0:0:0:
256,208,35593,1,8,0:0:0:0:
256,208,35718,1,4,0:0:0:0:
256,208,35843,1,0,0:0:0:0:
256,208,35968,1,8,0:0:0:0:
256,208,36093,1,0,0:0:0:0:
256,208,36343,1,0,0:0:0:0:
256,208,36468,1,4,0:0:0:0:
256,208,36718,1,8,0:0:0:0:
256,208,36780,1,8,0:0:0:0:
256,208,36843,1,0,0:0:0:0:
256,208,36968,1,8,0:0:0:0:
256,208,37093,1,0,0:0:0:0:
256,208,37218,1,8,0:0:0:0:
256,208,37468,1,8,0:0:0:0:
256,208,37593,1,0,0:0:0:0:
256,208,37718,1,4,0:0:0:0:
256,208,37843,1,0,0:0:0:0:
256,208,37968,1,8,0:0:0:0:
256,208,38030,1,8,0:0:0:0:
256,208,38093,1,8,0:0:0:0:
256,208,38218,1,0,0:0:0:0:
256,208,38280,1,8,0:0:0:0:
256,208,38343,1,0,0:0:0:0:
256,208,38405,1,8,0:0:0:0:
256,208,38468,1,0,0:0:0:0:
256,208,38718,1,0,0:0:0:0:
288,224,38843,1,0,0:0:0:0:
256,208,38968,1,8,0:0:0:0:
288,224,39093,1,0,0:0:0:0:
256,208,39218,1,0,0:0:0:0:
256,208,39343,1,4,0:0:0:0:
288,224,39718,1,8,0:0:0:0:
288,224,39968,1,4,0:0:0:0:
288,224,40468,1,4,0:0:0:0:
288,224,40718,1,0,0:0:0:0:
288,224,40968,1,8,0:0:0:0:
288,224,41093,1,0,0:0:0:0:
288,224,41218,1,8,0:0:0:0:
288,224,41280,1,8,0:0:0:0:
288,224,41343,1,0,0:0:0:0:
288,224,41468,1,8,0:0:0:0:
288,224,41593,1,0,0:0:0:0:
320,208,41718,1,8,0:0:0:0:
288,224,41780,1,8,0:0:0:0:
288,224,41843,1,0,0:0:0:0:
288,224,41905,1,0,0:0:0:0:
288,224,41968,1,8,0:0:0:0:
288,224,42093,1,0,0:0:0:0:
288,224,42218,1,8,0:0:0:0:
288,224,42280,1,8,0:0:0:0:
288,224,42343,1,0,0:0:0:0:
288,224,42405,1,8,0:0:0:0:
288,224,42468,1,0,0:0:0:0:
288,224,42718,1,0,0:0:0:0:
240,192,42968,1,8,0:0:0:0:
240,192,43093,1,0,0:0:0:0:
176,112,43218,1,8,0:0:0:0:
272,80,43468,1,8,0:0:0:0:
128,32,43593,1,0,0:0:0:0:
128,32,43718,1,4,0:0:0:0:
128,96,43968,1,8,0:0:0:0:
128,96,44218,1,0,0:0:0:0:
128,96,44343,1,8,0:0:0:0:
128,96,44468,1,4,0:0:0:0:
96,96,44718,1,8,0:0:0:0:
96,96,44968,1,4,0:0:0:0:
128,96,45218,1,8,0:0:0:0:
208,160,45468,1,4,0:0:0:0:
208,160,45718,1,8,0:0:0:0:
208,160,45968,1,4,0:0:0:0:
208,160,46218,1,8,0:0:0:0:
208,160,46280,1,8,0:0:0:0:
208,160,46343,1,0,0:0:0:0:
256,176,46405,1,8,0:0:0:0:
256,176,46468,1,0,0:0:0:0:
256,176,46718,1,4,0:0:0:0:
256,176,46968,1,4,0:0:0:0:
256,176,47218,1,4,0:0:0:0:
256,176,47468,1,4,0:0:0:0:
256,176,47718,1,4,0:0:0:0:
256,176,47843,1,8,0:0:0:0:
256,176,47905,1,8,0:0:0:0:
256,176,47968,1,0,0:0:0:0:
256,176,48093,1,8,0:0:0:0:
256,176,48218,1,8,0:0:0:0:
256,176,48280,1,8,0:0:0:0:
256,176,48343,1,8,0:0:0:0:
256,176,48468,1,4,0:0:0:0:
256,176,48593,1,0,0:0:0:0:
256,176,48718,1,0,0:0:0:0:
256,176,48843,1,0,0:0:0:0:
256,176,48968,1,0,0:0:0:0:
256,176,49093,1,0,0:0:0:0:
256,176,49218,1,0,0:0:0:0:
256,176,49343,1,0,0:0:0:0:
256,176,49468,1,0,0:0:0:0:
256,176,49718,1,0,0:0:0:0:
256,176,49843,1,0,0:0:0:0:
256,176,49968,1,0,0:0:0:0:
256,176,50030,1,0,0:0:0:0:
256,176,50093,1,0,0:0:0:0:
256,176,50155,1,0,0:0:0:0:
256,176,50218,1,0,0:0:0:0:
256,176,50343,1,0,0:0:0:0:
256,176,50468,1,4,0:0:0:0:
256,176,50593,1,0,0:0:0:0:
256,176,50655,1,0,0:0:0:0:
256,176,50718,1,8,0:0:0:0:
256,176,50843,1,0,0:0:0:0:
256,176,50968,1,8,0:0:0:0:
256,176,51093,1,8,0:0:0:0:
256,176,51155,1,8,0:0:0:0:
256,176,51218,1,0,0:0:0:0:
256,176,51468,1,4,0:0:0:0:
288,192,51718,1,8,0:0:0:0:
224,160,51780,1,8,0:0:0:0:
256,176,51843,1,0,0:0:0:0:
256,176,51905,1,0,0:0:0:0:
256,176,51968,1,8,0:0:0:0:
288,160,52093,1,0,0:0:0:0:
288,160,52218,1,8,0:0:0:0:
256,176,52280,1,8,0:0:0:0:
256,176,52343,1,8,0:0:0:0:
256,176,52468,1,4,0:0:0:0:
256,176,52593,1,0,0:0:0:0:
256,176,52718,1,0,0:0:0:0:
256,176,52843,1,0,0:0:0:0:
256,176,52968,1,0,0:0:0:0:
256,176,53093,1,0,0:0:0:0:
256,176,53218,1,0,0:0:0:0:
256,176,53343,1,0,0:0:0:0:
256,176,53468,1,0,0:0:0:0:
256,176,53718,1,0,0:0:0:0:
256,176,53843,1,0,0:0:0:0:
256,176,53968,1,0,0:0:0:0:
256,176,54030,1,0,0:0:0:0:
256,176,54093,1,0,0:0:0:0:
256,176,54155,1,0,0:0:0:0:
256,176,54218,1,0,0:0:0:0:
256,176,54343,1,0,0:0:0:0:
256,176,54468,1,4,0:0:0:0:
256,176,54593,1,0,0:0:0:0:
256,176,54655,1,0,0:0:0:0:
256,176,54718,1,8,0:0:0:0:
256,176,54843,1,0,0:0:0:0:
256,176,54968,1,8,0:0:0:0:
256,176,55030,1,8,0:0:0:0:
256,176,55093,1,0,0:0:0:0:
256,176,55218,1,0,0:0:0:0:
256,176,55468,1,4,0:0:0:0:
256,176,55593,1,0,0:0:0:0:
288,192,55718,1,8,0:0:0:0:
224,160,55780,1,8,0:0:0:0:
256,176,55843,1,0,0:0:0:0:
256,176,55905,1,8,0:0:0:0:
256,176,55968,1,0,0:0:0:0:
288,160,56093,1,0,0:0:0:0:
288,160,56218,1,8,0:0:0:0:
256,176,56280,1,8,0:0:0:0:
256,176,56343,1,8,0:0:0:0:
256,176,56468,1,4,0:0:0:0:
256,176,56593,1,0,0:0:0:0:
256,176,56718,1,0,0:0:0:0:
256,176,56843,1,0,0:0:0:0:
256,176,56968,1,0,0:0:0:0:
256,176,57093,1,0,0:0:0:0:
256,176,57218,1,0,0:0:0:0:
256,176,57343,1,0,0:0:0:0:
256,176,57468,1,0,0:0:0:0:
256,176,57718,1,0,0:0:0:0:
256,176,57843,1,0,0:0:0:0:
256,176,57968,1,0,0:0:0:0:
256,176,58030,1,0,0:0:0:0:
256,176,58093,1,0,0:0:0:0:
256,176,58155,1,0,0:0:0:0:
256,176,58218,1,0,0:0:0:0:
256,176,58343,1,0,0:0:0:0:
256,176,58468,1,4,0:0:0:0:
256,176,58593,1,0,0:0:0:0:
256,176,58655,1,0,0:0:0:0:
256,176,58718,1,8,0:0:0:0:
256,176,58780,1,8,0:0:0:0:
256,176,58843,1,0,0:0:0:0:
256,176,58968,1,8,0:0:0:0:
256,176,59093,1,8,0:0:0:0:
256,176,59155,1,8,0:0:0:0:
256,176,59218,1,0,0:0:0:0:
256,176,59468,1,4,0:0:0:0:
256,176,59593,1,0,0:0:0:0:
288,192,59718,1,8,0:0:0:0:
224,160,59780,1,8,0:0:0:0:
256,176,59843,1,0,0:0:0:0:
256,176,59905,1,0,0:0:0:0:
256,176,59968,1,8,0:0:0:0:
288,160,60093,1,0,0:0:0:0:
288,160,60218,1,8,0:0:0:0:
256,176,60280,1,8,0:0:0:0:
256,176,60343,1,8,0:0:0:0:
256,176,60468,1,4,0:0:0:0:
256,176,60593,1,0,0:0:0:0:
256,176,60718,1,0,0:0:0:0:
256,176,60843,1,0,0:0:0:0:
256,176,60968,1,0,0:0:0:0:
256,176,61093,1,0,0:0:0:0:
256,176,61218,1,0,0:0:0:0:
256,176,61343,1,0,0:0:0:0:
256,176,61468,1,0,0:0:0:0:
256,176,61718,1,0,0:0:0:0:
256,176,61843,1,0,0:0:0:0:
256,176,61968,1,0,0:0:0:0:
256,176,62030,1,0,0:0:0:0:
256,176,62093,1,0,0:0:0:0:
256,176,62155,1,0,0:0:0:0:
256,176,62218,1,0,0:0:0:0:
256,176,62343,1,0,0:0:0:0:
256,176,62468,1,4,0:0:0:0:
256,176,62593,1,0,0:0:0:0:
288,192,62655,1,0,0:0:0:0:
256,176,62718,1,8,0:0:0:0:
256,176,62780,1,0,0:0:0:0:
256,176,62843,1,8,0:0:0:0:
256,176,62905,1,8,0:0:0:0:
224,160,62968,1,0,0:0:0:0:
256,176,63030,1,0,0:0:0:0:
224,160,63093,1,8,0:0:0:0:
256,176,63155,1,0,0:0:0:0:
256,176,63218,1,8,0:0:0:0:
288,192,63280,1,8,0:0:0:0:
288,192,63343,1,0,0:0:0:0:
288,192,63405,1,8,0:0:0:0:
256,176,63468,1,0,0:0:0:0:
288,192,63718,1,8,0:0:0:0:
224,160,63780,1,8,0:0:0:0:
256,176,63843,1,0,0:0:0:0:
256,176,63905,1,0,0:0:0:0:
256,176,63968,1,8,0:0:0:0:
288,160,64093,1,0,0:0:0:0:
288,160,64218,1,8,0:0:0:0:
224,160,64468,1,8,0:0:0:0:
224,160,64718,1,8,0:0:0:0:
224,160,64843,1,0,0:0:0:0:
224,160,65093,1,0,0:0:0:0:
224,160,65343,1,8,0:0:0:0:
224,160,65468,1,0,0:0:0:0:
224,160,65718,1,8,0:0:0:0:
256,160,65968,1,0,0:0:0:0:
288,160,66218,1,0,0:0:0:0:
288,160,66343,1,8,0:0:0:0:
288,160,66468,1,0,0:0:0:0:
256,160,66718,1,0,0:0:0:0:
256,160,66843,1,8,0:0:0:0:
256,160,66968,1,0,0:0:0:0:
256,160,67093,1,0,0:0:0:0:
256,160,67218,1,8,0:0:0:0:
256,160,67343,1,8,0:0:0:0:
256,160,67468,1,0,0:0:0:0:
288,160,67718,1,0,0:0:0:0:
288,160,67968,1,0,0:0:0:0:
288,160,68218,1,0,0:0:0:0:
288,160,68343,1,8,0:0:0:0:
288,160,68468,1,8,0:0:0:0:
288,160,68718,1,8,0:0:0:0:
288,160,68843,1,0,0:0:0:0:
288,160,69093,1,0,0:0:0:0:
288,160,69343,1,8,0:0:0:0:
288,160,69468,1,0,0:0:0:0:
288,160,69718,1,8,0:0:0:0:
288,160,69968,1,0,0:0:0:0:
288,160,70218,1,0,0:0:0:0:
288,160,70343,1,8,0:0:0:0:
288,160,70468,1,0,0:0:0:0:
288,160,70718,1,0,0:0:0:0:
288,160,70843,1,8,0:0:0:0:
288,160,70968,1,0,0:0:0:0:
256,160,71093,1,8,0:0:0:0:
256,160,71218,1,0,0:0:0:0:
256,192,71343,1,0,0:0:0:0:
256,192,71468,1,8,0:0:0:0:
256,192,71718,1,8,0:0:0:0:
256,192,71968,1,8,0:0:0:0:
256,192,72218,1,8,0:0:0:0:
256,192,72468,1,0,0:0:0:0:
256,192,72718,1,8,0:0:0:0:
256,192,72843,1,0,0:0:0:0:
256,192,73093,1,0,0:0:0:0:
256,192,73343,1,8,0:0:0:0:
256,192,73468,1,0,0:0:0:0:
256,192,73718,1,8,0:0:0:0:
256,192,73968,1,0,0:0:0:0:
256,192,74218,1,0,0:0:0:0:
256,192,74343,1,8,0:0:0:0:
256,192,74468,1,0,0:0:0:0:
256,192,74718,1,0,0:0:0:0:
256,192,74843,1,8,0:0:0:0:
256,192,74968,1,0,0:0:0:0:
256,192,75093,1,0,0:0:0:0:
256,192,75218,1,8,0:0:0:0:
256,192,75343,1,8,0:0:0:0:
256,192,75468,1,0,0:0:0:0:
224,192,75718,1,8,0:0:0:0:
256,192,75968,1,8,0:0:0:0:
224,160,76468,1,8,0:0:0:0:
224,160,76718,1,8,0:0:0:0:
224,160,76843,1,0,0:0:0:0:
224,160,77093,1,0,0:0:0:0:
256,192,77343,1,8,0:0:0:0:
256,192,77468,1,0,0:0:0:0:
256,192,77718,1,8,0:0:0:0:
256,160,77968,1,0,0:0:0:0:
256,160,78218,1,0,0:0:0:0:
256,160,78343,1,8,0:0:0:0:
256,160,78468,1,0,0:0:0:0:
256,160,78718,1,0,0:0:0:0:
256,160,78843,1,8,0:0:0:0:
256,160,78968,1,0,0:0:0:0:
256,160,79093,1,0,0:0:0:0:
256,160,79218,1,8,0:0:0:0:
256,160,79343,1,8,0:0:0:0:
256,160,79468,1,0,0:0:0:0:
256,160,80218,1,8,0:0:0:0:
256,160,80468,1,0,0:0:0:0:
256,160,80593,1,0,0:0:0:0:
256,160,80655,1,0,0:0:0:0:
256,160,80718,1,8,0:0:0:0:
256,192,80843,1,8,0:0:0:0:
256,192,80968,1,0,0:0:0:0:
256,192,81093,1,8,0:0:0:0:
288,224,81218,1,8,0:0:0:0:
288,224,81343,1,0,0:0:0:0:
320,224,81468,1,8,0:0:0:0:
320,224,81530,1,8,0:0:0:0:
320,224,81593,1,0,0:0:0:0:
320,224,81718,1,8,0:0:0:0:
320,224,81843,1,8,0:0:0:0:
320,224,81968,1,0,0:0:0:0:
320,224,82093,1,8,0:0:0:0:
320,224,82218,1,0,0:0:0:0:
320,256,82343,1,0,0:0:0:0:
320,256,82468,1,8,0:0:0:0:
288,256,82593,1,8,0:0:0:0:
288,256,82655,1,8,0:0:0:0:
288,256,82718,1,0,0:0:0:0:
320,192,82843,1,8,0:0:0:0:
256,192,82968,1,0,0:0:0:0:
256,192,83093,1,0,0:0:0:0:
256,192,83155,1,0,0:0:0:0:
256,192,83218,1,8,0:0:0:0:
256,192,83343,1,8,0:0:0:0:
224,160,83468,1,0,0:0:0:0:
256,192,83593,1,8,0:0:0:0:
256,192,83843,1,8,0:0:0:0:
256,192,84093,1,8,0:0:0:0:
256,192,84218,1,8,0:0:0:0:
256,192,84343,1,8,0:0:0:0:
256,192,84405,1,8,0:0:0:0:
256,192,84468,1,0,0:0:0:0:
256,192,84593,1,0,0:0:0:0:
288,192,84655,1,8,0:0:0:0:
288,192,84718,1,0,0:0:0:0:
288,192,84843,1,0,0:0:0:0:
288,192,84968,1,8,0:0:0:0:
288,192,85093,1,8,0:0:0:0:
288,192,85218,1,0,0:0:0:0:
224,192,85343,1,8,0:0:0:0:
288,192,85468,1,0,0:0:0:0:
288,192,85593,1,0,0:0:0:0:
288,192,85718,1,8,0:0:0:0:
256,192,85780,1,8,0:0:0:0:
256,192,85843,1,0,0:0:0:0:
288,192,85968,1,0,0:0:0:0:
288,192,86218,1,0,0:0:0:0:
288,192,86343,1,8,0:0:0:0:
288,192,86468,1,0,0:0:0:0:
288,192,86593,1,8,0:0:0:0:
288,192,86655,1,8,0:0:0:0:
256,224,86718,1,0,0:0:0:0:
256,192,86843,1,8,0:0:0:0:
256,192,86968,1,8,0:0:0:0:
256,192,87093,1,0,0:0:0:0:
256,224,87155,1,0,0:0:0:0:
256,224,87218,1,8,0:0:0:0:
256,192,87343,1,8,0:0:0:0:
288,192,87468,1,8,0:0:0:0:
288,192,87718,1,8,0:0:0:0:
288,192,87968,1,0,0:0:0:0:
288,192,88218,1,8,0:0:0:0:
288,192,88468,1,4,0:0:0:0:
256,192,88593,1,0,0:0:0:0:
288,192,88718,1,8,0:0:0:0:
256,192,88780,1,8,0:0:0:0:
256,192,88843,1,0,0:0:0:0:
288,192,88968,1,8,0:0:0:0:
256,192,89093,1,8,0:0:0:0:
256,192,89155,1,8,0:0:0:0:
288,192,89218,1,8,0:0:0:0:
256,192,89343,1,0,0:0:0:0:
288,192,89468,1,8,0:0:0:0:
256,192,89593,1,0,0:0:0:0:
288,192,89718,1,8,0:0:0:0:
288,192,89780,1,8,0:0:0:0:
256,192,89843,1,8,0:0:0:0:
288,192,89905,1,8,0:0:0:0:
288,192,89968,1,0,0:0:0:0:
288,192,90030,1,0,0:0:0:0:
256,192,90093,1,0,0:0:0:0:
288,192,90218,1,8,0:0:0:0:
256,192,90280,1,8,0:0:0:0:
256,192,90343,1,8,0:0:0:0:
288,192,90468,1,8,0:0:0:0:
256,192,90593,1,0,0:0:0:0:
256,192,90655,1,0,0:0:0:0:
288,192,90718,1,8,0:0:0:0:
256,192,90843,1,8,0:0:0:0:
288,192,90968,1,8,0:0:0:0:
256,192,91030,1,8,0:0:0:0:
256,192,91093,1,0,0:0:0:0:
256,192,91155,1,0,0:0:0:0:
288,192,91218,1,8,0:0:0:0:
256,192,91343,1,8,0:0:0:0:
288,192,91468,1,8,0:0:0:0:
256,192,91593,1,0,0:0:0:0:
288,192,91718,1,8,0:0:0:0:
256,192,91780,1,8,0:0:0:0:
256,192,91843,1,8,0:0:0:0:
288,192,91968,1,8,0:0:0:0:
288,192,92218,1,8,0:0:0:0:
288,192,92280,1,0,0:0:0:0:
288,192,92343,1,8,0:0:0:0:
256,192,92468,1,4,0:0:0:0:
288,192,92593,1,0,0:0:0:0:
288,192,92718,1,8,0:0:0:0:
256,192,92780,1,8,0:0:0:0:
288,192,92843,1,0,0:0:0:0:
288,192,92968,1,0,0:0:0:0:
288,192,93093,1,8,0:0:0:0:
288,192,93218,1,8,0:0:0:0:
256,192,93280,1,0,0:0:0:0:
288,192,93343,1,8,0:0:0:0:
256,192,93468,1,4,0:0:0:0:
256,192,93593,1,0,0:0:0:0:
288,192,93718,1,8,0:0:0:0:
288,192,93780,1,8,0:0:0:0:
288,192,93843,1,8,0:0:0:0:
288,192,93905,1,8,0:0:0:0:
288,192,93968,1,0,0:0:0:0:
288,192,94030,1,0,0:0:0:0:
288,192,94093,1,0,0:0:0:0:
288,192,94218,1,8,0:0:0:0:
288,192,94280,1,8,0:0:0:0:
288,192,94343,1,8,0:0:0:0:
256,192,94468,1,4,0:0:0:0:
288,192,94593,1,0,0:0:0:0:
288,192,94718,1,8,0:0:0:0:
288,192,94780,1,8,0:0:0:0:
288,192,94843,1,8,0:0:0:0:
256,192,94968,1,4,0:0:0:0:
256,192,95093,1,8,0:0:0:0:
256,192,95218,1,8,0:0:0:0:
256,192,95280,1,0,0:0:0:0:
256,192,95343,1,8,0:0:0:0:
256,192,95468,1,4,0:0:0:0:
256,192,95718,1,4,0:0:0:0:
256,192,95968,1,4,0:0:0:0:
256,192,96218,1,4,0:0:0:0:
256,192,96468,1,0,0:0:0:0:
256,192,96593,1,8,0:0:0:0:
256,192,96718,1,0,0:0:0:0:
256,192,96843,1,8,0:0:0:0:
256,192,96968,1,8,0:0:0:0:
256,192,97030,1,8,0:0:0:0:
256,192,97093,1,8,0:0:0:0:
256,192,97155,1,8,0:0:0:0:
256,192,97218,1,0,0:0:0:0:
256,192,97280,1,0,0:0:0:0:
256,192,97343,1,0,0:0:0:0:
256,192,97468,1,4,0:0:0:0:
224,192,97593,1,0,0:0:0:0:
256,192,97718,1,8,0:0:0:0:
224,192,97780,1,0,0:0:0:0:
256,192,97843,1,8,0:0:0:0:
256,192,97968,1,0,0:0:0:0:
224,192,98030,1,0,0:0:0:0:
256,192,98093,1,8,0:0:0:0:
256,192,98218,1,0,0:0:0:0:
256,192,98343,1,8,0:0:0:0:
256,192,98468,1,8,0:0:0:0:
256,192,98530,1,8,0:0:0:0:
256,192,98593,1,0,0:0:0:0:
256,192,98718,1,8,0:0:0:0:
256,192,98780,1,8,0:0:0:0:
256,192,98843,1,8,0:0:0:0:
256,192,98968,1,0,0:0:0:0:
256,192,99093,1,8,0:0:0:0:
256,192,99218,1,0,0:0:0:0:
256,192,99280,1,0,0:0:0:0:
256,192,99343,1,8,0:0:0:0:
256,192,99468,1,8,0:0:0:0:
256,192,99593,1,0,0:0:0:0:
256,192,99655,1,8,0:0:0:0:
256,192,99718,1,0,0:0:0:0:
256,192,99843,1,8,0:0:0:0:
256,192,99968,1,0,0:0:0:0:
256,192,100093,1,8,0:0:0:0:
256,128,100155,1,8,0:0:0:0:
224,192,100218,1,0,0:0:0:0:
224,192,100343,1,8,0:0:0:0:
224,192,100468,1,0,0:0:0:0:
224,192,100530,1,0,0:0:0:0:
224,192,100593,1,0,0:0:0:0:
224,192,100718,1,0,0:0:0:0:
224,224,100843,1,8,0:0:0:0:
256,192,100968,1,0,0:0:0:0:
224,224,101093,1,8,0:0:0:0:
256,192,101218,1,0,0:0:0:0:
224,224,101343,1,8,0:0:0:0:
288,224,101405,1,8,0:0:0:0:
288,224,101468,1,0,0:0:0:0:
256,192,101593,1,0,0:0:0:0:
256,192,101655,1,8,0:0:0:0:
256,192,101718,1,0,0:0:0:0:
224,192,101780,1,0,0:0:0:0:
256,192,101843,1,8,0:0:0:0:
256,192,101968,1,0,0:0:0:0:
224,192,102030,1,0,0:0:0:0:
256,192,102093,1,8,0:0:0:0:
256,192,102218,1,0,0:0:0:0:
256,192,102343,1,8,0:0:0:0:
256,192,102468,1,8,0:0:0:0:
256,192,102530,1,8,0:0:0:0:
256,192,102593,1,0,0:0:0:0:
256,192,102718,1,8,0:0:0:0:
256,192,102780,1,8,0:0:0:0:
256,192,102843,1,8,0:0:0:0:
256,192,102905,1,8,0:0:0:0:
256,192,102968,1,0,0:0:0:0:
256,192,103093,1,8,0:0:0:0:
256,192,103218,1,0,0:0:0:0:
256,192,103280,1,0,0:0:0:0:
256,192,103343,1,8,0:0:0:0:
288,192,103405,1,8,0:0:0:0:
256,192,103468,1,0,0:0:0:0:
256,192,103593,1,0,0:0:0:0:
256,192,103655,1,8,0:0:0:0:
256,192,103718,1,0,0:0:0:0:
288,192,103780,1,0,0:0:0:0:
256,192,103843,1,8,0:0:0:0:
256,192,103968,1,0,0:0:0:0:
256,192,104093,1,8,0:0:0:0:
256,128,104155,1,8,0:0:0:0:
224,192,104218,1,0,0:0:0:0:
224,160,104280,1,0,0:0:0:0:
224,192,104343,1,8,0:0:0:0:
224,192,104468,1,0,0:0:0:0:
224,192,104530,1,0,0:0:0:0:
224,192,104593,1,0,0:0:0:0:
224,192,104718,1,8,0:0:0:0:
256,192,104780,1,8,0:0:0:0:
224,224,104843,1,8,0:0:0:0:
256,192,104905,1,8,0:0:0:0:
256,192,104968,1,0,0:0:0:0:
224,224,105093,1,8,0:0:0:0:
256,192,105218,1,0,0:0:0:0:
224,224,105343,1,8,0:0:0:0:
288,224,105405,1,8,0:0:0:0:
288,224,105468,1,0,0:0:0:0:
256,192,105593,1,0,0:0:0:0:
256,192,105655,1,8,0:0:0:0:
256,192,105718,1,0,0:0:0:0:
224,192,105780,1,0,0:0:0:0:
256,192,105843,1,8,0:0:0:0:
256,192,105968,1,0,0:0:0:0:
224,192,106030,1,0,0:0:0:0:
256,192,106093,1,8,0:0:0:0:
224,192,106155,1,0,0:0:0:0:
256,192,106218,1,8,0:0:0:0:
256,192,106343,1,8,0:0:0:0:
256,192,106468,1,8,0:0:0:0:
256,192,106530,1,8,0:0:0:0:
256,192,106593,1,0,0:0:0:0:
256,192,106718,1,8,0:0:0:0:
256,192,106780,1,8,0:0:0:0:
256,192,106843,1,8,0:0:0:0:
256,192,106905,1,8,0:0:0:0:
256,192,106968,1,0,0:0:0:0:
256,192,107093,1,8,0:0:0:0:
256,192,107218,1,0,0:0:0:0:
256,192,107280,1,0,0:0:0:0:
256,192,107343,1,8,0:0:0:0:
288,192,107405,1,0,0:0:0:0:
256,192,107468,1,8,0:0:0:0:
256,192,107593,1,0,0:0:0:0:
256,192,107655,1,8,0:0:0:0:
256,192,107718,1,0,0:0:0:0:
288,192,107780,1,0,0:0:0:0:
256,192,107843,1,8,0:0:0:0:
224,192,107905,1,8,0:0:0:0:
256,192,107968,1,0,0:0:0:0:
256,192,108093,1,8,0:0:0:0:
256,128,108155,1,8,0:0:0:0:
224,192,108218,1,0,0:0:0:0:
224,160,108280,1,0,0:0:0:0:
224,192,108343,1,8,0:0:0:0:
224,192,108468,1,0,0:0:0:0:
224,192,108530,1,0,0:0:0:0:
224,192,108593,1,8,0:0:0:0:
288,192,108655,1,0,0:0:0:0:
224,192,108718,1,8,0:0:0:0:
256,192,108780,1,8,0:0:0:0:
224,224,108843,1,0,0:0:0:0:
256,192,108905,1,8,0:0:0:0:
256,192,108968,1,0,0:0:0:0:
224,224,109093,1,8,0:0:0:0:
256,192,109218,1,0,0:0:0:0:
256,224,109280,1,8,0:0:0:0:
224,224,109343,1,0,0:0:0:0:
288,224,109405,1,8,0:0:0:0:
288,224,109468,1,0,0:0:0:0:
256,192,109593,1,0,0:0:0:0:
256,192,109655,1,8,0:0:0:0:
256,192,109718,1,0,0:0:0:0:
224,192,109780,1,0,0:0:0:0:
256,192,109843,1,8,0:0:0:0:
256,192,109968,1,0,0:0:0:0:
224,192,110030,1,0,0:0:0:0:
256,192,110093,1,8,0:0:0:0:
224,192,110155,1,0,0:0:0:0:
256,192,110218,1,8,0:0:0:0:
256,192,110343,1,8,0:0:0:0:
256,192,110468,1,8,0:0:0:0:
256,192,110530,1,8,0:0:0:0:
256,192,110593,1,0,0:0:0:0:
256,192,110718,1,8,0:0:0:0:
256,192,110780,1,8,0:0:0:0:
256,192,110843,1,8,0:0:0:0:
256,192,110905,1,8,0:0:0:0:
256,192,110968,1,0,0:0:0:0:
256,192,111093,1,8,0:0:0:0:
256,192,111218,1,0,0:0:0:0:
256,192,111280,1,0,0:0:0:0:
256,192,111343,1,8,0:0:0:0:
288,192,111405,1,0,0:0:0:0:
256,192,111468,1,8,0:0:0:0:
256,192,111593,1,0,0:0:0:0:
256,192,111655,1,8,0:0:0:0:
256,192,111718,1,0,0:0:0:0:
288,192,111780,1,0,0:0:0:0:
256,192,111843,1,8,0:0:0:0:
224,192,111905,1,8,0:0:0:0:
256,192,111968,1,0,0:0:0:0:
256,192,112093,1,8,0:0:0:0:
256,128,112155,1,0,0:0:0:0:
224,192,112218,1,8,0:0:0:0:
224,160,112280,1,8,0:0:0:0:
224,192,112343,1,0,0:0:0:0:
224,192,112468,1,0,0:0:0:0:
224,192,112530,1,0,0:0:0:0:
224,192,112593,1,0,0:0:0:0:
288,192,112655,1,0,0:0:0:0:
224,192,112718,1,8,0:0:0:0:
256,192,112780,1,8,0:0:0:0:
224,224,112843,1,8,0:0:0:0:
256,192,112905,1,8,0:0:0:0:
256,192,112968,1,0,0:0:0:0:
224,160,113030,1,0,0:0:0:0:
224,160,113093,1,0,0:0:0:0:
224,160,113155,1,0,0:0:0:0:
224,160,113218,1,8,0:0:0:0:
256,192,113259,1,8,0:0:0:0:
256,192,113301,1,8,0:0:0:0:
256,192,113343,1,8,0:0:0:0:
256,192,113384,1,8,0:0:0:0:
256,192,113426,1,8,0:0:0:0:
256,192,113468,1,0,0:0:0:0:
192,160,113718,1,8,0:0:0:0:
192,160,113843,1,0,0:0:0:0:
192,160,114093,1,0,0:0:0:0:
192,160,114343,1,0,0:0:0:0:
192,160,114468,1,12,0:0:0:0:
192,160,114718,1,12,0:0:0:0:
192,160,114968,1,12,0:0:0:0:
192,160,115218,1,0,0:0:0:0:
192,160,115343,1,8,0:0:0:0:
288,224,115468,1,4,0:0:0:0:
256,192,115593,1,0,0:0:0:0:
256,192,115655,1,8,0:0:0:0:
256,192,115718,1,0,0:0:0:0:
224,192,115780,1,0,0:0:0:0:
256,192,115843,1,8,0:0:0:0:
256,192,115968,1,0,0:0:0:0:
224,192,116030,1,0,0:0:0:0:
256,192,116093,1,8,0:0:0:0:
224,192,116155,1,0,0:0:0:0:
256,192,116218,1,8,0:0:0:0:
256,192,116343,1,0,0:0:0:0:
256,192,116468,1,8,0:0:0:0:
256,192,116530,1,8,0:0:0:0:
256,192,116593,1,8,0:0:0:0:
256,192,116655,1,8,0:0:0:0:
256,192,116718,1,0,0:0:0:0:
256,192,116780,1,0,0:0:0:0:
256,192,116843,1,8,0:0:0:0:
256,192,116905,1,8,0:0:0:0:
256,192,116968,1,0,0:0:0:0:
256,192,117093,1,8,0:0:0:0:
288,224,117218,1,0,0:0:0:0:
288,224,117280,1,0,0:0:0:0:
288,224,117343,1,8,0:0:0:0:
288,224,117405,1,8,0:0:0:0:
288,224,117468,1,0,0:0:0:0:
256,192,117593,1,0,0:0:0:0:
256,192,117655,1,8,0:0:0:0:
256,192,117718,1,0,0:0:0:0:
224,192,117780,1,0,0:0:0:0:
256,192,117843,1,8,0:0:0:0:
256,192,117968,1,0,0:0:0:0:
224,192,118030,1,0,0:0:0:0:
256,192,118093,1,8,0:0:0:0:
224,192,118155,1,0,0:0:0:0:
256,192,118218,1,8,0:0:0:0:
256,192,118343,1,8,0:0:0:0:
256,192,118468,1,8,0:0:0:0:
256,192,118530,1,8,0:0:0:0:
256,192,118593,1,0,0:0:0:0:
256,192,118718,1,8,0:0:0:0:
256,192,118780,1,8,0:0:0:0:
256,192,118843,1,8,0:0:0:0:
256,192,118905,1,8,0:0:0:0:
256,192,118968,1,0,0:0:0:0:
256,192,119093,1,8,0:0:0:0:
256,192,119218,1,0,0:0:0:0:
256,192,119280,1,0,0:0:0:0:
256,192,119343,1,8,0:0:0:0:
288,192,119405,1,0,0:0:0:0:
256,192,119468,1,8,0:0:0:0:
256,192,119593,1,0,0:0:0:0:
256,192,119655,1,8,0:0:0:0:
256,192,119718,1,0,0:0:0:0:
288,192,119780,1,0,0:0:0:0:
256,192,119843,1,8,0:0:0:0:
224,192,119905,1,8,0:0:0:0:
256,192,119968,1,0,0:0:0:0:
256,192,120093,1,8,0:0:0:0:
256,128,120155,1,0,0:0:0:0:
224,192,120218,1,8,0:0:0:0:
224,160,120280,1,8,0:0:0:0:
224,192,120343,1,0,0:0:0:0:
224,192,120468,1,0,0:0:0:0:
224,192,120530,1,0,0:0:0:0:
224,192,120593,1,8,0:0:0:0:
224,160,120655,1,0,0:0:0:0:
224,192,120718,1,8,0:0:0:0:
256,192,120780,1,8,0:0:0:0:
224,224,120843,1,0,0:0:0:0:
224,160,120905,1,0,0:0:0:0:
256,192,120968,1,8,0:0:0:0:
224,160,121030,1,0,0:0:0:0:
224,160,121093,1,8,0:0:0:0:
224,160,121218,1,8,0:0:0:0:
256,192,121280,1,8,0:0:0:0:
256,192,121343,1,8,0:0:0:0:
256,192,121405,1,8,0:0:0:0:
256,192,121468,1,0,0:0:0:0:
256,192,121593,1,0,0:0:0:0:
256,192,121655,1,0,0:0:0:0:
256,192,121718,1,8,0:0:0:0:
256,192,121843,1,0,0:0:0:0:
224,192,121968,1,0,0:0:0:0:
224,192,122093,1,8,0:0:0:0:
224,192,122218,1,0,0:0:0:0:
224,192,122343,1,8,0:0:0:0:
224,192,122468,1,0,0:0:0:0:
224,192,122718,1,8,0:0:0:0:
224,192,122968,1,8,0:0:0:0:
192,192,123093,1,0,0:0:0:0:
192,192,123218,1,8,0:0:0:0:
192,192,123343,1,8,0:0:0:0:
192,192,123468,1,0,0:0:0:0:
192,192,123593,1,0,0:0:0:0:
192,192,123655,1,0,0:0:0:0:
192,192,123718,1,8,0:0:0:0:
192,192,123843,1,0,0:0:0:0:
192,192,123968,1,8,0:0:0:0:
192,192,124093,1,8,0:0:0:0:
192,192,124155,1,8,0:0:0:0:
192,192,124218,1,0,0:0:0:0:
192,192,124343,1,8,0:0:0:0:
192,192,124468,1,0,0:0:0:0:
192,192,124718,1,8,0:0:0:0:
224,192,124968,1,8,0:0:0:0:
224,192,125093,1,8,0:0:0:0:
224,192,125218,1,0,0:0:0:0:
224,192,125280,1,0,0:0:0:0:
192,192,125343,1,8,0:0:0:0:
192,192,125405,1,8,0:0:0:0:
192,192,125468,1,0,0:0:0:0:
192,192,125593,1,0,0:0:0:0:
192,192,125718,1,8,0:0:0:0:
192,192,125843,1,8,0:0:0:0:
192,192,125968,1,0,0:0:0:0:
192,192,126093,1,8,0:0:0:0:
192,192,126343,1,8,0:0:0:0:
192,192,126468,1,0,0:0:0:0:
224,192,126718,1,8,0:0:0:0:
224,192,126843,1,8,0:0:0:0:
224,192,126968,1,0,0:0:0:0:
224,192,127218,1,8,0:0:0:0:
192,192,127343,1,8,0:0:0:0:
192,192,127468,1,0,0:0:0:0:
256,192,127593,1,0,0:0:0:0:
256,192,127655,1,8,0:0:0:0:
256,192,127718,1,0,0:0:0:0:
256,192,127843,1,8,0:0:0:0:
256,192,127905,1,8,0:0:0:0:
256,192,127968,1,0,0:0:0:0:
256,192,128093,1,0,0:0:0:0:
256,192,128218,1,8,0:0:0:0:
256,192,128280,1,8,0:0:0:0:
224,192,128343,1,8,0:0:0:0:
256,192,128468,1,0,0:0:0:0:
224,192,128593,1,0,0:0:0:0:
192,192,128718,1,8,0:0:0:0:
320,192,128780,1,8,0:0:0:0:
192,192,128843,1,8,0:0:0:0:
256,192,128968,1,0,0:0:0:0:
192,192,129093,1,0,0:0:0:0:
256,192,129218,1,0,0:0:0:0:
256,192,129259,1,0,0:0:0:0:
256,192,129301,1,0,0:0:0:0:
320,192,129342,1,0,0:0:0:0:
288,160,129384,1,0,0:0:0:0:
288,160,129426,1,0,0:0:0:0:
288,160,129467,1,0,0:0:0:0:
224,192,129718,1,0,0:0:0:0:
224,192,129968,1,8,0:0:0:0:
224,128,130218,1,4,0:0:0:0:
288,192,130343,1,0,0:0:0:0:
224,128,130468,1,8,0:0:0:0:
224,192,130718,1,0,0:0:0:0:
288,192,130843,1,0,0:0:0:0:
288,160,130968,1,8,0:0:0:0:
224,192,131093,1,8,0:0:0:0:
288,192,131218,1,0,0:0:0:0:
288,192,131343,1,8,0:0:0:0:
224,128,131468,1,4,0:0:0:0:
288,192,131718,1,0,0:0:0:0:
288,192,131843,1,0,0:0:0:0:
288,192,131968,1,8,0:0:0:0:
224,128,132218,1,4,0:0:0:0:
224,128,132468,1,8,0:0:0:0:
288,192,132718,1,8,0:0:0:0:
288,192,132843,1,8,0:0:0:0:
224,128,132968,1,4,0:0:0:0:
288,192,133093,1,8,0:0:0:0:
288,192,133343,1,8,0:0:0:0:
224,128,133468,1,4,0:0:0:0:
288,192,133593,1,0,0:0:0:0:
288,192,133843,1,0,0:0:0:0:
288,192,133968,1,8,0:0:0:0:
224,128,134218,1,4,0:0:0:0:
288,192,134343,1,0,0:0:0:0:
224,128,134468,1,8,0:0:0:0:
224,128,134718,1,8,0:0:0:0:
288,192,134843,1,8,0:0:0:0:
192,128,134968,1,0,0:0:0:0:
192,128,135093,1,8,0:0:0:0:
192,128,135218,1,0,0:0:0:0:
192,128,135468,1,4,0:0:0:0:
192,128,135843,1,0,0:0:0:0:
192,128,135968,1,8,0:0:0:0:
192,128,136093,1,8,0:0:0:0:
192,128,136218,1,4,0:0:0:0:
192,128,136468,1,8,0:0:0:0:
192,128,136718,1,8,0:0:0:0:
192,160,136843,1,8,0:0:0:0:
192,128,136968,1,4,0:0:0:0:
192,160,137093,1,8,0:0:0:0:
192,160,137218,1,8,0:0:0:0:
192,160,137343,1,8,0:0:0:0:
192,128,137468,1,4,0:0:0:0:
192,128,137718,1,0,0:0:0:0:
224,192,137843,1,0,0:0:0:0:
288,160,137968,1,8,0:0:0:0:
288,160,138218,1,4,0:0:0:0:
288,160,138468,1,8,0:0:0:0:
288,160,138718,1,8,0:0:0:0:
224,192,138843,1,0,0:0:0:0:
288,160,138968,1,8,0:0:0:0:
288,160,139093,1,8,0:0:0:0:
288,160,139218,1,8,0:0:0:0:
288,160,139468,1,4,0:0:0:0:
288,160,139718,1,8,0:0:0:0:
224,192,139843,1,0,0:0:0:0:
288,160,139968,1,8,0:0:0:0:
288,160,140093,1,8,0:0:0:0:
288,160,140218,1,4,0:0:0:0:
288,160,140468,1,8,0:0:0:0:
256,224,140593,1,8,0:0:0:0:
288,160,140718,1,8,0:0:0:0:
256,224,140843,1,0,0:0:0:0:
288,160,140968,1,4,0:0:0:0:
256,224,141093,1,8,0:0:0:0:
288,160,141218,1,8,0:0:0:0:
256,224,141343,1,8,0:0:0:0:
288,160,141468,1,4,0:0:0:0:
256,224,141718,1,8,0:0:0:0:
256,224,141843,1,8,0:0:0:0:
288,160,141968,1,4,0:0:0:0:
256,224,142093,1,8,0:0:0:0:
256,224,142218,1,0,0:0:0:0:
256,224,142343,1,8,0:0:0:0:
288,160,142468,1,4,0:0:0:0:
256,224,142718,1,8,0:0:0:0:
256,224,142843,1,8,0:0:0:0:
288,160,142968,1,4,0:0:0:0:
256,224,143093,1,8,0:0:0:0:
256,224,143218,1,0,0:0:0:0:
256,224,143343,1,8,0:0:0:0:
288,160,143468,1,4,0:0:0:0:
256,224,143593,1,8,0:0:0:0:
288,160,143718,1,4,0:0:0:0:
256,224,143843,1,8,0:0:0:0:
288,160,143968,1,4,0:0:0:0:
256,224,144093,1,8,0:0:0:0:
288,160,144218,1,4,0:0:0:0:
256,224,144343,1,8,0:0:0:0:
288,160,144468,1,4,0:0:0:0:
256,224,144593,1,8,0:0:0:0:
288,160,144718,1,0,0:0:0:0:
288,160,144843,1,8,0:0:0:0:
288,192,144968,1,8,0:0:0:0:
288,192,145218,1,8,0:0:0:0:
256,192,145468,1,8,0:0:0:0:
160,96,145593,1,0,0:0:0:0:
256,192,145655,1,8,0:0:0:0:
256,128,145718,1,0,0:0:0:0:
320,160,145843,1,8,0:0:0:0:
352,224,145968,1,0,0:0:0:0:
384,128,146030,1,8,0:0:0:0:
256,192,146093,1,0,0:0:0:0:
256,192,146218,1,8,0:0:0:0:
192,288,146280,1,8,0:0:0:0:
256,192,146343,1,0,0:0:0:0:
256,256,146468,1,8,0:0:0:0:
256,192,146530,1,8,0:0:0:0:
224,192,146593,1,0,0:0:0:0:
224,192,146655,1,0,0:0:0:0:
160,224,146718,1,0,0:0:0:0:
256,192,146843,1,8,0:0:0:0:
352,224,146968,1,0,0:0:0:0:
256,192,147030,1,8,0:0:0:0:
256,192,147093,1,0,0:0:0:0:
384,128,147155,1,0,0:0:0:0:
192,288,147218,1,8,0:0:0:0:
256,192,147343,1,8,0:0:0:0:
256,192,147468,1,0,0:0:0:0:
256,192,147593,1,0,0:0:0:0:
256,224,147655,1,8,0:0:0:0:
288,160,147718,1,0,0:0:0:0:
192,224,147843,1,8,0:0:0:0:
256,192,147968,1,0,0:0:0:0:
224,160,148030,1,8,0:0:0:0:
288,256,148093,1,0,0:0:0:0:
160,192,148218,1,8,0:0:0:0:
288,256,148280,1,8,0:0:0:0:
256,192,148343,1,0,0:0:0:0:
288,256,148405,1,0,0:0:0:0:
256,192,148468,1,8,0:0:0:0:
224,128,148530,1,8,0:0:0:0:
256,192,148593,1,0,0:0:0:0:
192,224,148655,1,0,0:0:0:0:
288,224,148718,1,0,0:0:0:0:
288,160,148843,1,8,0:0:0:0:
256,192,148968,1,0,0:0:0:0:
224,192,149030,1,8,0:0:0:0:
224,128,149093,1,0,0:0:0:0:
224,192,149155,1,0,0:0:0:0:
224,192,149218,1,8,0:0:0:0:
256,192,149280,1,8,0:0:0:0:
320,192,149343,1,0,0:0:0:0:
320,192,149468,1,8,0:0:0:0:
256,128,149593,1,0,0:0:0:0:
256,192,149655,1,8,0:0:0:0:
256,192,149718,1,0,0:0:0:0:
256,192,149843,1,8,0:0:0:0:
256,224,149968,1,0,0:0:0:0:
160,96,150030,1,8,0:0:0:0:
160,192,150093,1,0,0:0:0:0:
160,96,150218,1,8,0:0:0:0:
256,192,150280,1,8,0:0:0:0:
160,96,150343,1,0,0:0:0:0:
192,288,150468,1,8,0:0:0:0:
224,96,150530,1,8,0:0:0:0:
256,192,150593,1,0,0:0:0:0:
224,192,150655,1,0,0:0:0:0:
256,192,150718,1,0,0:0:0:0:
288,192,150843,1,8,0:0:0:0:
320,128,150968,1,0,0:0:0:0:
352,256,151030,1,8,0:0:0:0:
256,256,151093,1,0,0:0:0:0:
256,192,151155,1,0,0:0:0:0:
256,192,151218,1,8,0:0:0:0:
224,192,151280,1,0,0:0:0:0:
256,192,151343,1,8,0:0:0:0:
288,256,151468,1,0,0:0:0:0:
256,192,151593,1,0,0:0:0:0:
256,128,151655,1,8,0:0:0:0:
224,160,151718,1,0,0:0:0:0:
352,192,151843,1,8,0:0:0:0:
160,160,151968,1,0,0:0:0:0:
160,224,152030,1,8,0:0:0:0:
224,224,152093,1,0,0:0:0:0:
320,224,152218,1,8,0:0:0:0:
224,192,152280,1,8,0:0:0:0:
256,192,152343,1,0,0:0:0:0:
224,192,152405,1,0,0:0:0:0:
256,192,152468,1,8,0:0:0:0:
256,192,152718,1,8,0:0:0:0:
256,192,152843,1,0,0:0:0:0:
256,192,152968,1,8,0:0:0:0:
256,192,153218,1,0,0:0:0:0:
256,192,153468,1,8,0:0:0:0:
256,192,153593,1,0,0:0:0:0:
256,192,153655,1,8,0:0:0:0:
320,192,153718,1,0,0:0:0:0:
256,192,153843,1,8,0:0:0:0:
256,192,153968,1,0,0:0:0:0:
256,192,154030,1,8,0:0:0:0:
256,192,154093,1,0,0:0:0:0:
256,192,154218,1,8,0:0:0:0:
256,192,154280,1,8,0:0:0:0:
256,192,154343,1,0,0:0:0:0:
256,192,154405,1,8,0:0:0:0:
256,192,154468,1,0,0:0:0:0:
224,128,154530,1,0,0:0:0:0:
288,128,154593,1,0,0:0:0:0:
256,192,154655,1,8,0:0:0:0:
256,192,154718,1,0,0:0:0:0:
192,192,154843,1,8,0:0:0:0:
128,128,154968,1,0,0:0:0:0:
256,192,155030,1,8,0:0:0:0:
224,128,155093,1,0,0:0:0:0:
256,192,155155,1,0,0:0:0:0:
256,192,155218,1,8,0:0:0:0:
224,224,155280,1,8,0:0:0:0:
256,192,155343,1,0,0:0:0:0:
256,128,155468,1,8,0:0:0:0:
256,192,155593,1,0,0:0:0:0:
256,192,155655,1,8,0:0:0:0:
256,192,155718,1,0,0:0:0:0:
256,192,155843,1,8,0:0:0:0:
288,160,155968,1,0,0:0:0:0:
224,224,156030,1,8,0:0:0:0:
256,192,156093,1,0,0:0:0:0:
256,192,156218,1,8,0:0:0:0:
256,192,156280,1,8,0:0:0:0:
256,192,156343,1,0,0:0:0:0:
256,192,156405,1,8,0:0:0:0:
256,192,156468,1,0,0:0:0:0:
160,160,156530,1,0,0:0:0:0:
192,128,156593,1,8,0:0:0:0:
320,256,156655,1,8,0:0:0:0:
256,256,156718,1,0,0:0:0:0:
256,192,156843,1,8,0:0:0:0:
256,192,156968,1,0,0:0:0:0:
256,192,157030,1,8,0:0:0:0:
256,192,157093,1,0,0:0:0:0:
256,192,157155,1,0,0:0:0:0:
256,192,157218,1,8,0:0:0:0:
224,192,157280,1,0,0:0:0:0:
256,192,157343,1,8,0:0:0:0:
256,192,157468,1,0,0:0:0:0:
256,192,157593,1,8,0:0:0:0:
256,192,157718,1,0,0:0:0:0:
192,192,157780,1,8,0:0:0:0:
256,192,157843,1,0,0:0:0:0:
256,192,157968,1,8,0:0:0:0:
256,192,158093,1,0,0:0:0:0:
256,192,158155,1,8,0:0:0:0:
256,192,158218,1,0,0:0:0:0:
128,224,158343,1,8,0:0:0:0:
256,192,158405,1,8,0:0:0:0:
256,192,158468,1,0,0:0:0:0:
256,192,158530,1,8,0:0:0:0:
192,256,158593,1,0,0:0:0:0:
256,192,158655,1,0,0:0:0:0:
256,192,158718,1,8,0:0:0:0:
224,192,158780,1,8,0:0:0:0:
256,192,158843,1,0,0:0:0:0:
256,192,158968,1,8,0:0:0:0:
256,192,159093,1,0,0:0:0:0:
256,192,159155,1,8,0:0:0:0:
256,192,159218,1,0,0:0:0:0:
256,192,159280,1,0,0:0:0:0:
256,192,159343,1,8,0:0:0:0:
224,192,159405,1,0,0:0:0:0:
256,192,159468,1,8,0:0:0:0:
256,192,159593,1,0,0:0:0:0:
256,192,159655,1,8,0:0:0:0:
256,192,159718,1,0,0:0:0:0:
256,192,159843,1,8,0:0:0:0:
320,224,159968,1,0,0:0:0:0:
256,192,160030,1,8,0:0:0:0:
256,192,160093,1,0,0:0:0:0:
224,192,160155,1,0,0:0:0:0:
256,192,160218,1,8,0:0:0:0:
224,192,160280,1,8,0:0:0:0:
256,192,160343,1,0,0:0:0:0:
224,192,160405,1,0,0:0:0:0:
256,192,160468,1,8,0:0:0:0:
256,192,160718,1,8,0:0:0:0:
256,192,160843,1,0,0:0:0:0:
256,192,160968,1,8,0:0:0:0:
256,192,161218,1,0,0:0:0:0:
256,192,161468,1,8,0:0:0:0:
256,192,161593,1,0,0:0:0:0:
256,192,161655,1,8,0:0:0:0:
192,224,161718,1,0,0:0:0:0:
256,192,161843,1,8,0:0:0:0:
256,192,161968,1,0,0:0:0:0:
256,192,162030,1,8,0:0:0:0:
256,192,162093,1,0,0:0:0:0:
256,192,162218,1,8,0:0:0:0:
256,192,162280,1,8,0:0:0:0:
256,192,162343,1,0,0:0:0:0:
224,192,162405,1,0,0:0:0:0:
256,192,162468,1,8,0:0:0:0:
256,192,162530,1,8,0:0:0:0:
256,192,162593,1,0,0:0:0:0:
224,192,162655,1,0,0:0:0:0:
256,192,162718,1,0,0:0:0:0:
288,224,162843,1,8,0:0:0:0:
288,192,162968,1,0,0:0:0:0:
288,192,163030,1,8,0:0:0:0:
288,192,163093,1,0,0:0:0:0:
288,192,163155,1,0,0:0:0:0:
288,192,163218,1,8,0:0:0:0:
288,192,163280,1,0,0:0:0:0:
288,192,163343,1,8,0:0:0:0:
288,192,163468,1,0,0:0:0:0:
288,192,163530,1,8,0:0:0:0:
288,192,163593,1,8,0:0:0:0:
288,192,163655,1,0,0:0:0:0:
320,128,163718,1,8,0:0:0:0:
224,128,163843,1,8,0:0:0:0:
192,160,163968,1,0,0:0:0:0:
288,192,164030,1,8,0:0:0:0:
288,192,164093,1,0,0:0:0:0:
320,192,164218,1,8,0:0:0:0:
288,192,164280,1,8,0:0:0:0:
288,192,164343,1,0,0:0:0:0:
288,192,164405,1,8,0:0:0:0:
288,192,164468,1,0,0:0:0:0:
224,128,164530,1,8,0:0:0:0:
288,192,164593,1,0,0:0:0:0:
288,192,164655,1,0,0:0:0:0:
288,192,164718,1,8,0:0:0:0:
288,192,164843,1,8,0:0:0:0:
288,192,164968,1,0,0:0:0:0:
288,192,165030,1,8,0:0:0:0:
224,128,165093,1,0,0:0:0:0:
256,192,165155,1,0,0:0:0:0:
256,192,165218,1,8,0:0:0:0:
256,192,165280,1,8,0:0:0:0:
320,128,165343,1,0,0:0:0:0:
256,192,165468,1,8,0:0:0:0:
256,192,165593,1,0,0:0:0:0:
256,192,165655,1,8,0:0:0:0:
256,192,165718,1,0,0:0:0:0:
256,192,165843,1,8,0:0:0:0:
256,192,165968,1,0,0:0:0:0:
256,192,166030,1,8,0:0:0:0:
256,192,166093,1,0,0:0:0:0:
256,128,166218,1,8,0:0:0:0:
256,192,166280,1,8,0:0:0:0:
256,192,166343,1,0,0:0:0:0:
224,224,166405,1,0,0:0:0:0:
256,96,166468,1,8,0:0:0:0:
256,192,166530,1,0,0:0:0:0:
256,192,166593,1,8,0:0:0:0:
224,192,166655,1,8,0:0:0:0:
256,192,166718,1,0,0:0:0:0:
256,192,166843,1,8,0:0:0:0:
256,192,166968,1,0,0:0:0:0:
256,192,167030,1,8,0:0:0:0:
256,192,167093,1,0,0:0:0:0:
224,160,167155,1,0,0:0:0:0:
256,192,167218,1,8,0:0:0:0:
224,192,167280,1,0,0:0:0:0:
160,128,167343,1,8,0:0:0:0:
160,128,167468,1,8,0:0:0:0:
128,128,167593,1,0,0:0:0:0:
256,192,167655,1,8,0:0:0:0:
256,192,167718,1,0,0:0:0:0:
256,192,167843,1,8,0:0:0:0:
256,192,167968,1,0,0:0:0:0:
256,192,168030,1,8,0:0:0:0:
256,192,168093,1,0,0:0:0:0:
256,192,168155,1,0,0:0:0:0:
256,192,168218,1,8,0:0:0:0:
192,128,168280,1,8,0:0:0:0:
256,192,168343,1,0,0:0:0:0:
224,192,168405,1,0,0:0:0:0:
256,192,168468,1,8,0:0:0:0:
256,192,168718,1,8,0:0:0:0:
256,192,168843,1,0,0:0:0:0:
352,160,168968,1,8,0:0:0:0:
256,128,169218,1,0,0:0:0:0:
256,192,169468,1,8,0:0:0:0:
256,192,169593,1,0,0:0:0:0:
256,192,169655,1,8,0:0:0:0:
256,192,169718,1,0,0:0:0:0:
256,192,169843,1,8,0:0:0:0:
256,192,169968,1,0,0:0:0:0:
256,192,170030,1,8,0:0:0:0:
256,160,170093,1,0,0:0:0:0:
256,192,170218,1,8,0:0:0:0:
256,192,170280,1,8,0:0:0:0:
256,192,170343,1,0,0:0:0:0:
256,160,170468,1,8,0:0:0:0:
256,224,170530,1,8,0:0:0:0:
256,192,170593,1,0,0:0:0:0:
224,192,170655,1,0,0:0:0:0:
256,192,170718,1,0,0:0:0:0:
256,192,170843,1,8,0:0:0:0:
256,192,170968,1,0,0:0:0:0:
256,192,171030,1,8,0:0:0:0:
256,192,171093,1,0,0:0:0:0:
256,192,171155,1,0,0:0:0:0:
256,256,171218,1,8,0:0:0:0:
192,128,171343,1,8,0:0:0:0:
320,192,171468,1,0,0:0:0:0:
256,192,171593,1,0,0:0:0:0:
256,192,171655,1,8,0:0:0:0:
320,160,171718,1,0,0:0:0:0:
256,192,171843,1,8,0:0:0:0:
256,192,171968,1,0,0:0:0:0:
288,192,172030,1,8,0:0:0:0:
256,192,172093,1,0,0:0:0:0:
256,192,172218,1,8,0:0:0:0:
256,192,172280,1,8,0:0:0:0:
256,192,172343,1,0,0:0:0:0:
256,256,172405,1,8,0:0:0:0:
192,160,172468,1,0,0:0:0:0:
224,128,172530,1,0,0:0:0:0:
224,224,172593,1,0,0:0:0:0:
256,192,172655,1,8,0:0:0:0:
256,192,172718,1,0,0:0:0:0:
256,192,172843,1,8,0:0:0:0:
256,192,172968,1,0,0:0:0:0:
256,192,173030,1,8,0:0:0:0:
224,128,173093,1,0,0:0:0:0:
256,192,173155,1,0,0:0:0:0:
256,192,173218,1,8,0:0:0:0:
256,192,173280,1,8,0:0:0:0:
256,192,173343,1,0,0:0:0:0:
256,224,173468,1,8,0:0:0:0:
256,224,173593,1,0,0:0:0:0:
256,224,173655,1,8,0:0:0:0:
256,224,173718,1,0,0:0:0:0:
256,224,173843,1,8,0:0:0:0:
256,224,173968,1,0,0:0:0:0:
256,224,174030,1,8,0:0:0:0:
256,224,174093,1,0,0:0:0:0:
256,224,174218,1,8,0:0:0:0:
256,224,174280,1,8,0:0:0:0:
256,224,174343,1,0,0:0:0:0:
256,224,174405,1,8,0:0:0:0:
224,224,174468,1,0,0:0:0:0:
256,224,174530,1,0,0:0:0:0:
256,224,174593,1,8,0:0:0:0:
224,192,174655,1,8,0:0:0:0:
256,224,174718,1,0,0:0:0:0:
256,224,174843,1,8,0:0:0:0:
256,224,174968,1,0,0:0:0:0:
256,224,175030,1,8,0:0:0:0:
256,224,175093,1,0,0:0:0:0:
256,224,175155,1,0,0:0:0:0:
256,224,175218,1,8,0:0:0:0:
224,192,175280,1,0,0:0:0:0:
256,224,175343,1,8,0:0:0:0:
256,224,175468,1,0,0:0:0:0:
288,224,175530,1,0,0:0:0:0:
256,224,175593,1,0,0:0:0:0:
256,224,175655,1,0,0:0:0:0:
256,224,175718,1,8,0:0:0:0:
256,224,175780,1,8,0:0:0:0:
256,224,175843,1,8,0:0:0:0:
256,192,175905,1,8,0:0:0:0:
256,192,175968,1,0,0:0:0:0:
256,192,176030,1,0,0:0:0:0:
256,192,176093,1,0,0:0:0:0:
256,192,176155,1,0,0:0:0:0:
256,192,176218,1,8,0:0:0:0:
256,192,176259,1,8,0:0:0:0:
256,192,176301,1,8,0:0:0:0:
256,192,176343,1,8,0:0:0:0:
288,192,176384,1,8,0:0:0:0:
288,192,176426,1,8,0:0:0:0:
256,192,176468,1,0,0:0:0:0:
256,192,176718,1,8,0:0:0:0:
256,192,176843,1,0,0:0:0:0:
256,192,176968,1,8,0:0:0:0:
256,192,177218,1,0,0:0:0:0:
256,192,177468,1,0,0:0:0:0:
288,192,177968,1,12,0:0:0:0:
