osu file format v14

[General]
AudioFilename: t pazolite - Pleasure Ritual.mp3
AudioLeadIn: 0
PreviewTime: 85503
Countdown: 0
SampleSet: Normal
StackLeniency: 0.7
Mode: 0
LetterboxInBreaks: 0
WidescreenStoryboard: 0

[Editor]
DistanceSpacing: 2
BeatDivisor: 4
GridSize: 4
TimelineZoom: 2.1

[Metadata]
Title:Pleasure Ritual
TitleUnicode:Pleasure Ritual
Artist:t+pazolite
ArtistUnicode:t+pazolite
Creator:Sadistic Potato
Version:Satisfaction
Source:
Tags:
BeatmapID:695016
BeatmapSetID:311102

[Difficulty]
HPDrainRate:7
CircleSize:4
OverallDifficulty:7
ApproachRate:9.7
SliderMultiplier:1.55
SliderTickRate:1

[Events]
//Background and Video events
0,0,"bg.jpg",0,0
//Break Periods
//Storyboard Layer 0 (Background)
//Storyboard Layer 1 (Fail)
//Storyboard Layer 2 (Pass)
//Storyboard Layer 3 (Foreground)
//Storyboard Sound Samples

[TimingPoints]
150,333.333333333333,4,1,1,100,1,0
10816,-83.3333333333333,4,1,1,100,0,0
19483,-66.6666666666667,4,1,1,100,0,0
20149,-100,4,1,1,100,0,0
21483,-71.4285714285714,4,1,1,100,0,0
52816,-66.6666666666667,4,1,1,100,0,0
83483,-58.8235294117647,4,1,1,100,0,0
85483,-100,4,1,1,100,0,0
106816,-83.3333333333333,4,1,1,100,0,0
136483,-66.6666666666667,4,1,1,100,0,0
136816,-83.3333333333333,4,1,1,100,0,0
137149,-66.6666666666667,4,1,1,100,0,0
138816,-83.3333333333333,4,1,1,100,0,0
149149,-58.8235294117647,4,1,1,100,0,0
149483,-66.6666666666667,4,1,1,100,0,1
192149,-83.3333333333333,4,1,1,100,0,0
245066,-66.6666666666667,4,1,1,100,0,0
245483,-83.3333333333333,4,1,1,100,0,0
250483,-66.6666666666667,4,1,1,100,0,0
250816,-83.3333333333333,4,1,1,100,0,0
256149,-66.6666666666667,4,1,1,100,0,1
277149,-58.8235294117647,4,1,1,100,0,1
277483,-80,4,1,1,100,0,0
282483,-58.8235294117647,4,1,1,100,0,0
282816,-66.6666666666667,4,1,1,100,0,0
287649,-133.333333333333,4,1,1,100,0,0
287816,-200,4,1,1,100,0,0
288149,-71.4285714285714,4,1,1,100,0,0
298816,-58.8235294117647,4,1,1,100,0,0
309149,-100,4,1,1,100,0,0
309483,-58.8235294117647,4,1,1,100,0,0
322483,-66.6666666666667,4,1,1,100,0,0

[HitObjects]
96,64,150,6,0,P|120:148|276:72,1,310
384,68,1149,1,0,0:0:0:0:
432,164,1315,1,0,0:0:0:0:
360,248,1483,2,0,P|279:137|179:230,1,310
104,312,2483,5,0,0:0:0:0:
36,228,2650,1,0,0:0:0:0:
128,168,2816,2,0,L|264:72,1,155
472,68,3483,2,0,L|345:157,1,155
376,264,3983,1,0,0:0:0:0:
340,276,4066,1,0,0:0:0:0:
300,276,4149,2,0,B|252:200|216:208|216:208|240:164|240:164|192:180|224:140|196:144|220:116|184:124|196:96|96:72,1,310
32,200,5483,6,0,B|88:204|116:224|116:224|96:288|188:288|256:308|256:308|272:244,1,310
200,184,6483,2,0,P|256:176|296:176,1,77.5
384,196,6816,2,0,B|432:208|432:208|444:216|404:116|236:48,1,310
344,28,7816,2,0,B|384:48|384:48|412:80,1,77.5
456,168,8149,2,0,B|380:208|380:208|380:260|304:248,1,155
228,224,8816,2,0,B|260:296|260:296|240:324|276:336|300:364,1,155
144,312,9316,1,0,0:0:0:0:
120,284,9399,1,0,0:0:0:0:
120,244,9483,2,0,B|84:188|84:188|120:176|120:176|100:156|124:48|256:40,1,310
180,132,10816,6,0,L|272:92,1,92.9999971618653,8|0,0:0|0:0,0:0:0:0:
392,156,11149,2,0,L|284:208,1,92.9999971618653,8|0,0:0|0:0,0:0:0:0:
244,320,11483,2,0,L|336:280,1,92.9999971618653,8|0,0:0|0:0,0:0:0:0:
464,324,11816,1,0,0:0:0:0:
364,228,11983,1,0,0:0:0:0:
224,244,12149,2,8,P|164:216|128:208,1,92.9999971618653
76,336,12483,2,8,P|36:232|88:136,1,185.999994323731
128,100,13066,5,0,0:0:0:0:
180,124,13149,1,0,0:0:0:0:
264,52,13316,1,0,0:0:0:0:
364,96,13483,2,0,P|420:132|440:152,1,92.9999971618653,8|0,0:0|0:0,0:0:0:0:
348,216,13816,2,0,P|300:240|256:308,1,92.9999971618653,8|0,0:0|0:0,0:0:0:0:
168,228,14149,2,8,B|168:316|240:352|304:344,1,185.999994323731,0|0,0:0|0:0,0:0:0:0:
384,292,14649,5,0,0:0:0:0:
428,276,14733,1,0,0:0:0:0:
464,244,14816,2,0,P|472:200|472:140,1,92.9999971618653,8|0,0:0|0:0,0:0:0:0:
348,56,15149,2,0,P|356:100|356:160,1,92.9999971618653,8|0,0:0|0:0,0:0:0:0:
220,124,15483,2,8,P|144:112|88:128,1,92.9999971618653
72,156,15733,1,8,0:0:0:0:
116,216,15816,2,8,P|176:220|236:196,1,92.9999971618653
324,132,16149,6,8,P|368:148|404:204,1,92.9999971618653
365,326,16483,2,8,P|312:320|260:292,1,92.9999971618653
140,340,16816,1,8,0:0:0:0:
232,236,16983,1,8,0:0:0:0:
96,204,17149,1,8,0:0:0:0:
224,152,17316,1,8,0:0:0:0:
112,72,17483,6,8,L|40:136,1,92.9999971618653
204,40,17816,2,8,L|300:68,1,92.9999971618653
360,188,18149,2,8,P|348:132|360:76,1,92.9999971618653
460,252,18483,2,8,P|472:196|460:136,1,92.9999971618653
340,296,18816,6,8,P|280:320|232:328,1,92.9999971618653
252,184,19149,1,8,0:0:0:0:
160,292,19316,1,8,0:0:0:0:
100,168,19483,2,8,P|116:112|116:80,1,58.1250022172929
176,36,19649,2,8,P|192:92|192:124,1,58.1250022172929
252,172,19816,2,8,P|268:116|268:84,1,58.1250022172929
328,40,19982,2,8,P|344:96|344:128,1,58.1250022172929
408,172,20149,2,0,B|468:236|468:236|436:280|380:332|296:344|288:300,1,310
336,152,21149,5,0,0:0:0:0:
96,248,21316,1,0,0:0:0:0:
200,164,21483,2,0,P|160:112|88:72,1,108.499996688843,8|0,0:0|0:0,0:0:0:0:
248,44,21816,1,0,0:0:0:0:
287,81,21899,1,0,0:0:0:0:
337,100,21982,1,0,0:0:0:0:
391,100,22065,1,0,0:0:0:0:
444,84,22149,2,0,P|464:144|464:212,1,108.499996688843,8|0,0:0|0:0,0:0:0:0:
384,292,22483,6,0,L|312:292,1,54.2499983444214
244,224,22649,2,0,L|316:224,1,54.2499983444214
164,288,22816,2,0,P|120:256|104:192,1,108.499996688843,8|0,0:0|0:0,0:0:0:0:
148,84,23149,1,0,0:0:0:0:
200,72,23232,1,0,0:0:0:0:
254,78,23315,1,0,0:0:0:0:
302,103,23398,1,0,0:0:0:0:
348,136,23483,2,0,P|392:152|456:144,1,108.499996688843,8|0,0:0|0:0,0:0:0:0:
436,328,23816,6,0,L|400:280,1,54.2499983444214
312,264,23983,2,0,L|280:216,1,54.2499983444214
192,196,24149,2,0,P|224:160|292:152,1,108.499996688843,8|0,0:0|0:0,0:0:0:0:
464,180,24483,1,0,0:0:0:0:
439,228,24566,1,0,0:0:0:0:
407,271,24649,1,0,0:0:0:0:
368,309,24732,1,0,0:0:0:0:
324,344,24816,2,0,P|264:328|208:324,1,108.499996688843,8|0,0:0|0:0,0:0:0:0:
92,292,25149,6,0,P|116:292|156:284,1,54.2499983444214
160,224,25316,2,0,P|200:224|232:216,1,54.2499983444214
260,176,25483,2,0,P|208:132|152:120,1,108.499996688843,8|0,0:0|0:0,0:0:0:0:
76,168,25816,1,0,0:0:0:0:
81,114,25899,1,0,0:0:0:0:
115,72,25982,1,0,0:0:0:0:
165,54,26065,1,0,0:0:0:0:
220,40,26149,2,0,P|272:56|296:52,1,54.2499983444214,8|0,0:0|0:0,0:0:0:0:
380,48,26316,2,0,L|424:96,1,54.2499983444214
376,188,26483,2,0,L|420:236,1,54.2499983444214
372,328,26649,2,0,L|416:376,1,54.2499983444214
312,284,26816,6,0,P|264:248|200:224,1,108.499996688843,8|0,0:0|0:0,0:0:0:0:
264,108,27149,1,0,0:0:0:0:
312,131,27232,1,0,0:0:0:0:
365,140,27315,1,0,0:0:0:0:
419,132,27398,1,0,0:0:0:0:
468,104,27483,2,0,P|496:168|500:220,1,108.499996688843,8|0,0:0|0:0,0:0:0:0:
432,316,27816,6,0,L|364:316,1,54.2499983444214
268,312,27983,2,0,L|200:312,1,54.2499983444214
108,300,28149,2,0,P|128:240|188:212,1,108.499996688843,8|0,0:0|0:0,0:0:0:0:
284,168,28483,1,0,0:0:0:0:
254,122,28566,1,0,0:0:0:0:
211,89,28649,1,0,0:0:0:0:
160,72,28732,1,0,0:0:0:0:
108,60,28816,2,0,P|96:104|56:160,1,108.499996688843,8|0,0:0|0:0,0:0:0:0:
156,244,29149,6,0,L|224:244,1,54.2499983444214
320,240,29316,2,0,L|388:240,1,54.2499983444214
480,228,29482,2,0,P|460:168|400:140,1,108.499996688843,8|0,0:0|0:0,0:0:0:0:
296,172,29816,1,0,0:0:0:0:
316,122,29899,1,0,0:0:0:0:
354,84,29982,1,0,0:0:0:0:
405,65,30065,1,0,0:0:0:0:
456,48,30149,2,0,P|396:28|324:28,1,108.499996688843,8|0,0:0|0:0,0:0:0:0:
228,72,30483,6,0,L|168:36,1,54.2499983444214
84,92,30649,2,0,L|128:128,1,54.2499983444214
60,212,30816,2,0,P|136:224|176:264,1,108.499996688843,8|0,0:0|0:0,0:0:0:0:
80,344,31149,1,0,0:0:0:0:
133,352,31232,1,0,0:0:0:0:
187,349,31315,1,0,0:0:0:0:
240,336,31398,1,0,0:0:0:0:
280,300,31483,2,0,L|332:280,1,54.2499983444214,8|0,0:0|0:0,0:0:0:0:
336,172,31649,2,0,L|276:188,1,54.2499983444214
276,76,31816,2,0,L|340:60,1,54.2499983444214
220,88,31983,2,0,L|164:104,1,54.2499983444214
64,80,32149,6,0,P|52:140|92:180,1,108.499996688843,8|0,0:0|0:0,0:0:0:0:
224,224,32483,2,0,L|280:200,1,54.2499983444214
380,220,32649,2,0,L|324:248,1,54.2499983444214
392,336,32816,2,0,P|444:316|480:264,1,108.499996688843,8|0,0:0|0:0,0:0:0:0:
464,124,33149,1,0,0:0:0:0:
423,88,33232,1,0,0:0:0:0:
374,66,33315,1,0,0:0:0:0:
320,59,33399,1,0,0:0:0:0:
264,52,33483,2,0,P|224:96|168:112,1,108.499996688843,8|0,0:0|0:0,0:0:0:0:
56,204,33816,5,0,0:0:0:0:
109,208,33899,1,0,0:0:0:0:
159,230,33982,1,0,0:0:0:0:
198,267,34066,1,0,0:0:0:0:
236,308,34149,2,0,P|292:292|336:240,1,108.499996688843,8|0,0:0|0:0,0:0:0:0:
476,224,34483,6,0,L|416:268,1,54.2499983444214
368,296,34649,2,0,L|312:336,1,54.2499983444214
256,368,34816,2,0,P|192:368|144:336,1,108.499996688843,8|0,0:0|0:0,0:0:0:0:
76,216,35149,1,0,0:0:0:0:
126,236,35232,1,0,0:0:0:0:
179,239,35315,1,0,0:0:0:0:
231,224,35399,1,0,0:0:0:0:
280,192,35483,2,0,P|304:160|360:120,1,108.499996688843,8|0,0:0|0:0,0:0:0:0:
464,196,35816,6,0,L|440:148,1,54.2499983444214
336,112,35983,2,0,L|400:84,1,54.2499983444214
284,52,36149,2,0,P|216:48|176:64,1,108.499996688843,8|0,0:0|0:0,0:0:0:0:
52,84,36483,5,0,0:0:0:0:
98,111,36566,1,0,0:0:0:0:
140,145,36649,1,0,0:0:0:0:
175,187,36733,1,0,0:0:0:0:
200,240,36816,2,0,L|144:264,1,54.2499983444214,8|0,0:0|0:0,0:0:0:0:
256,288,36983,2,0,L|208:332,1,54.2499983444214
320,356,37149,1,0,0:0:0:0:
363,324,37232,1,0,0:0:0:0:
392,278,37315,1,0,0:0:0:0:
400,225,37399,1,0,0:0:0:0:
404,172,37483,6,0,P|344:176|272:152,1,108.499996688843,8|0,0:0|0:0,0:0:0:0:
156,104,37816,1,0,0:0:0:0:
201,74,37899,1,0,0:0:0:0:
252,58,37982,1,0,0:0:0:0:
306,57,38066,1,0,0:0:0:0:
360,64,38149,2,0,P|392:84|464:100,1,108.499996688843,8|0,0:0|0:0,0:0:0:0:
332,184,38483,6,0,L|284:208,1,54.2499983444214
176,192,38649,2,0,L|120:220,1,54.2499983444214
92,320,38816,2,0,L|224:308,1,108.499996688843,8|0,0:0|0:0,0:0:0:0:
416,340,39149,1,0,0:0:0:0:
363,328,39232,1,0,0:0:0:0:
315,302,39315,1,0,0:0:0:0:
278,263,39399,1,0,0:0:0:0:
268,208,39483,2,0,P|240:184|156:160,1,108.499996688843,8|0,0:0|0:0,0:0:0:0:
88,260,39816,6,0,L|48:312,1,54.2499983444214
96,140,39983,2,0,L|52:196,1,54.2499983444214
152,60,40149,2,0,P|224:72|272:60,1,108.499996688843,8|0,0:0|0:0,0:0:0:0:
388,44,40483,1,0,0:0:0:0:
424,83,40566,1,0,0:0:0:0:
446,133,40649,1,0,0:0:0:0:
449,187,40733,1,0,0:0:0:0:
448,240,40816,2,0,P|384:264|340:264,1,108.499996688843,8|0,0:0|0:0,0:0:0:0:
180,348,41149,2,0,L|224:304,1,54.2499983444214
252,224,41316,2,0,L|300:192,1,54.2499983444214
388,172,41483,2,0,P|360:112|300:80,1,108.499996688843,8|0,0:0|0:0,0:0:0:0:
176,72,41816,6,0,L|236:80,1,54.2499983444214
128,124,41983,2,0,L|176:156,1,54.2499983444214
84,176,42149,1,8,0:0:0:0:
119,217,42232,1,0,0:0:0:0:
161,251,42315,1,0,0:0:0:0:
208,277,42399,1,0,0:0:0:0:
260,296,42483,2,0,L|248:352,1,54.2499983444214
420,324,42649,2,0,L|408:272,1,54.2499983444214
452,188,42816,6,0,L|336:220,1,108.499996688843,8|0,0:0|0:0,0:0:0:0:
156,116,43150,2,0,L|204:144,1,54.2499983444214
268,208,43316,2,0,L|268:144,1,54.2499983444214
176,164,43483,2,0,L|224:192,1,54.2499983444214
288,256,43650,2,0,L|288:192,1,54.2499983444214
196,276,43816,2,0,P|152:308|88:320,1,108.499996688843
24,188,44149,6,0,P|68:144|116:128,1,108.499996688843,8|0,0:0|0:0,0:0:0:0:
264,140,44483,1,0,0:0:0:0:
223,107,44566,1,0,0:0:0:0:
230,56,44649,1,0,0:0:0:0:
277,35,44733,1,0,0:0:0:0:
319,66,44816,1,0,0:0:0:0:
320,120,44899,1,0,0:0:0:0:
316,176,44983,1,0,0:0:0:0:
312,228,45066,1,0,0:0:0:0:
304,280,45149,2,0,P|360:280|392:208,1,108.499996688843
416,92,45483,6,0,L|456:132,1,54.2499983444214,8|0,0:0|0:0,0:0:0:0:
376,204,45649,2,0,L|336:168,1,54.2499983444214
228,184,45816,1,0,0:0:0:0:
227,237,45899,1,0,0:0:0:0:
196,280,45982,1,0,0:0:0:0:
144,294,46066,1,0,0:0:0:0:
93,277,46149,1,0,0:0:0:0:
62,234,46232,1,0,0:0:0:0:
65,181,46316,1,0,0:0:0:0:
96,137,46399,1,0,0:0:0:0:
144,112,46483,2,0,L|268:100,1,108.499996688843
396,144,46816,6,0,L|448:176,1,54.2499983444214,8|0,0:0|0:0,0:0:0:0:
296,256,46983,2,0,L|284:196,1,54.2499983444214
396,144,47149,2,0,L|448:176,1,54.2499983444214
296,256,47316,2,0,L|284:196,1,54.2499983444214
320,100,47483,1,0,0:0:0:0:
279,64,47566,1,0,0:0:0:0:
229,43,47649,1,0,0:0:0:0:
175,39,47733,1,0,0:0:0:0:
128,64,47816,2,0,L|60:40,1,54.2499983444214
140,136,47983,2,0,L|192:112,1,54.2499983444214
260,140,48149,6,0,P|220:188|136:228,1,108.499996688843,8|0,0:0|0:0,0:0:0:0:
56,296,48483,1,0,0:0:0:0:
103,322,48566,1,0,0:0:0:0:
154,339,48649,1,0,0:0:0:0:
208,344,48733,1,0,0:0:0:0:
196,268,48816,1,0,0:0:0:0:
250,267,48899,1,0,0:0:0:0:
303,275,48982,1,0,0:0:0:0:
355,290,49066,1,0,0:0:0:0:
424,324,49149,2,0,P|452:296|472:224,1,108.499996688843
356,132,49483,6,0,L|408:192,1,54.2499983444214,8|0,0:0|0:0,0:0:0:0:
460,60,49649,2,0,L|408:32,1,54.2499983444214
304,40,49816,2,0,L|240:56,1,54.2499983444214
176,132,49983,2,0,L|252:116,1,54.2499983444214
140,56,50149,2,0,L|84:72,1,54.2499983444214
44,172,50316,2,0,L|104:148,1,54.2499983444214
200,180,50483,2,0,P|224:224|280:264,1,108.499996688843
440,124,50816,6,0,P|464:184|464:192,1,54.2499983444214,8|0,0:0|0:0,0:0:0:0:
404,264,50983,2,0,P|384:228|380:188,1,54.2499983444214
472,68,51149,2,0,P|496:128|496:136,1,54.2499983444214
368,312,51316,2,0,P|348:276|344:236,1,54.2499983444214
368,156,51483,1,0,0:0:0:0:
316,138,51566,1,0,0:0:0:0:
262,135,51649,1,0,0:0:0:0:
209,146,51733,1,0,0:0:0:0:
164,180,51816,2,0,L|112:220,3,54.2499983444214
148,284,52149,6,8,L|80:280,1,54.2499983444214
280,292,52316,2,8,L|216:288,1,54.2499983444214
320,208,52483,2,8,L|374:204,1,54.2499983444214
188,216,52650,2,8,L|242:212,1,54.2499983444214
264,136,52816,1,0,0:0:0:0:
233,86,52899,1,0,0:0:0:0:
187,51,52982,1,0,0:0:0:0:
131,36,53066,1,0,0:0:0:0:
76,32,53149,2,0,P|92:112|88:180,1,116.250004434586,8|0,0:0|0:0,0:0:0:0:
52,280,53483,6,0,P|88:312|160:324,1,116.250004434586,8|0,0:0|0:0,0:0:0:0:
292,312,53816,2,0,L|240:280,1,58.1250022172929
208,172,53983,2,0,L|260:204,1,58.1250022172929
308,96,54149,1,0,0:0:0:0:
342,142,54232,1,0,0:0:0:0:
387,178,54315,1,0,0:0:0:0:
440,202,54399,1,0,0:0:0:0:
500,208,54483,1,0,0:0:0:0:
416,72,54649,1,0,0:0:0:0:
284,164,54816,5,8,0:0:0:0:
196,32,54983,1,0,0:0:0:0:
148,164,55149,2,0,L|196:224,1,58.1250022172929
64,320,55316,2,0,L|52:260,1,58.1250022172929
148,164,55483,2,0,L|196:224,1,58.1250022172929
64,320,55650,2,0,L|52:260,1,58.1250022172929
168,256,55816,2,0,P|260:228|324:232,1,116.250004434586
436,272,56149,6,0,P|384:304|312:324,1,116.250004434586,8|0,0:0|0:0,0:0:0:0:
284,160,56483,2,0,L|292:100,1,58.1250022172929
408,36,56649,2,0,L|464:56,1,58.1250022172929
284,160,56816,2,0,L|292:100,1,58.1250022172929
408,36,56982,2,0,L|464:56,1,58.1250022172929
376,132,57149,2,0,P|356:72|272:20,1,116.250004434586
84,44,57483,2,0,P|152:64|196:116,1,116.250004434586,8|0,0:0|0:0,0:0:0:0:
56,196,57816,5,0,0:0:0:0:
103,228,57899,1,0,0:0:0:0:
158,245,57982,1,0,0:0:0:0:
216,245,58066,1,0,0:0:0:0:
224,164,58149,1,0,0:0:0:0:
278,182,58232,1,0,0:0:0:0:
322,219,58315,1,0,0:0:0:0:
348,271,58399,1,0,0:0:0:0:
428,288,58483,1,0,0:0:0:0:
415,231,58566,1,0,0:0:0:0:
385,181,58649,1,0,0:0:0:0:
342,142,58733,1,0,0:0:0:0:
292,108,58816,6,0,P|368:88|432:64,1,116.250004434586,8|0,0:0|0:0,0:0:0:0:
204,64,59149,2,0,L|136:96,1,58.1250022172929
96,192,59316,2,0,L|44:224,1,58.1250022172929
112,320,59483,2,0,L|161:289,1,58.1250022172929
216,186,59650,2,0,L|268:161,1,58.1250022172929
360,92,59816,2,0,P|408:132|432:204,1,116.250004434586
284,256,60149,6,0,P|336:296|420:288,1,116.250004434586,8|0,0:0|0:0,0:0:0:0:
224,336,60483,2,0,L|156:356,1,58.1250022172929
76,280,60649,2,0,L|140:260,1,58.1250022172929
212,180,60816,2,0,L|152:200,1,58.1250022172929
56,140,60983,2,0,L|124:108,1,58.1250022172929
200,44,61149,2,0,P|268:52|320:100,1,116.250004434586
468,100,61483,6,0,P|424:128|400:152,1,58.1250022172929,8|0,0:0|0:0,0:0:0:0:
264,112,61649,1,0,0:0:0:0:
265,169,61732,1,0,0:0:0:0:
292,220,61815,1,0,0:0:0:0:
339,253,61899,1,0,0:0:0:0:
396,262,61982,1,0,0:0:0:0:
451,245,62065,1,0,0:0:0:0:
496,208,62149,6,0,L|432:184,1,58.1250022172929,8|0,0:0|0:0,0:0:0:0:
388,84,62316,1,0,0:0:0:0:
382,140,62399,1,0,0:0:0:0:
349,188,62482,1,0,0:0:0:0:
301,219,62566,1,0,0:0:0:0:
244,230,62649,1,0,0:0:0:0:
188,215,62732,1,0,0:0:0:0:
144,180,62816,6,8,L|88:196,1,58.1250022172929
96,312,62983,2,8,L|160:320,1,58.1250022172929
260,328,63149,2,8,L|320:336,1,58.1250022172929
264,184,63316,2,8,L|320:200,1,58.1250022172929
328,84,63483,1,0,0:0:0:0:
378,112,63566,1,0,0:0:0:0:
418,154,63649,1,0,0:0:0:0:
443,206,63733,1,0,0:0:0:0:
452,260,63816,2,0,P|440:324|428:376,1,116.250004434586,8|0,0:0|0:0,0:0:0:0:
284,300,64149,6,0,P|220:316|164:280,1,116.250004434586,8|0,0:0|0:0,0:0:0:0:
80,164,64483,2,0,L|56:232,1,58.1250022172929,8|0,0:0|0:0,0:0:0:0:
224,44,64649,2,0,L|156:84,1,58.1250022172929
80,164,64816,2,0,L|56:232,1,58.1250022172929,8|0,0:0|0:0,0:0:0:0:
224,44,64982,2,0,L|156:84,1,58.1250022172929
80,164,65149,1,8,0:0:0:0:
126,198,65232,1,0,0:0:0:0:
182,213,65315,1,0,0:0:0:0:
239,206,65399,1,0,0:0:0:0:
292,176,65483,2,0,L|352:148,1,58.1250022172929,8|0,0:0|0:0,0:0:0:0:
412,56,65649,2,0,L|344:88,1,58.1250022172929
432,172,65816,5,8,0:0:0:0:
441,228,65899,1,0,0:0:0:0:
427,284,65982,1,0,0:0:0:0:
391,330,66065,1,0,0:0:0:0:
344,364,66149,2,0,P|304:348|276:348,1,58.1250022172929,8|0,0:0|0:0,0:0:0:0:
180,300,66316,2,0,P|140:288|108:292,1,58.1250022172929
56,192,66483,2,0,P|128:160|204:156,1,116.250004434586,8|0,0:0|0:0,0:0:0:0:
292,52,66816,6,0,P|336:88|364:156,1,116.250004434586,8|0,0:0|0:0,0:0:0:0:
244,252,67149,2,0,L|296:220,1,58.1250022172929,8|0,0:0|0:0,0:0:0:0:
396,276,67316,2,0,L|460:236,1,58.1250022172929
176,252,67483,2,0,L|228:220,1,58.1250022172929,8|0,0:0|0:0,0:0:0:0:
328,276,67650,2,0,L|392:236,1,58.1250022172929
176,252,67816,1,8,0:0:0:0:
213,208,67899,1,0,0:0:0:0:
225,152,67982,1,0,0:0:0:0:
208,96,68065,1,0,0:0:0:0:
168,56,68149,6,8,L|104:48,1,58.1250022172929
288,108,68316,2,8,L|344:120,1,58.1250022172929
192,120,68483,2,8,L|128:112,1,58.1250022172929
312,172,68650,2,8,L|368:184,1,58.1250022172929
216,184,68816,2,0,P|144:208|112:240,1,116.250004434586,8|0,0:0|0:0,0:0:0:0:
252,328,69149,2,0,P|304:304|348:228,1,116.250004434586,8|0,0:0|0:0,0:0:0:0:
464,152,69483,6,0,P|400:144|348:124,1,116.250004434586,8|0,0:0|0:0,0:0:0:0:
196,76,69816,2,0,L|144:116,1,58.1250022172929,8|0,0:0|0:0,0:0:0:0:
300,180,69983,2,0,L|324:236,1,58.1250022172929
196,76,70149,2,0,L|144:116,1,58.1250022172929,8|0,0:0|0:0,0:0:0:0:
300,180,70316,2,0,L|324:236,1,58.1250022172929
196,76,70483,1,8,0:0:0:0:
253,70,70566,1,0,0:0:0:0:
310,80,70649,1,0,0:0:0:0:
363,103,70732,1,0,0:0:0:0:
416,136,70816,2,0,L|480:144,1,58.1250022172929,8|0,0:0|0:0,0:0:0:0:
404,236,70983,2,0,L|468:244,1,58.1250022172929
436,356,71149,6,0,L|500:364,1,58.1250022172929,8|0,0:0|0:0,0:0:0:0:
312,300,71316,2,0,L|360:336,1,58.1250022172929
248,240,71483,1,8,0:0:0:0:
190,247,71566,1,0,0:0:0:0:
136,228,71649,1,0,0:0:0:0:
96,186,71732,1,0,0:0:0:0:
80,128,71816,2,0,P|136:104|140:24,1,116.250004434586,8|0,0:0|0:0,0:0:0:0:
312,44,72149,6,0,P|376:56|416:100,1,116.250004434586,8|0,0:0|0:0,0:0:0:0:
308,148,72483,2,0,L|260:196,1,58.1250022172929,8|0,0:0|0:0,0:0:0:0:
460,248,72649,2,0,L|444:176,1,58.1250022172929
308,148,72816,2,0,L|260:196,1,58.1250022172929,8|0,0:0|0:0,0:0:0:0:
460,248,72982,2,0,L|444:176,1,58.1250022172929
348,252,73149,1,8,0:0:0:0:
304,290,73232,1,0,0:0:0:0:
250,310,73315,1,0,0:0:0:0:
192,308,73398,1,0,0:0:0:0:
136,296,73483,6,0,L|80:324,1,58.1250022172929,8|0,0:0|0:0,0:0:0:0:
208,228,73649,1,0,0:0:0:0:
136,224,73733,1,0,0:0:0:0:
68,220,73816,2,0,L|12:252,1,58.1250022172929,8|0,0:0|0:0,0:0:0:0:
312,168,73983,1,0,0:0:0:0:
240,164,74067,1,0,0:0:0:0:
172,160,74150,2,0,L|116:192,1,58.1250022172929,8|0,0:0|0:0,0:0:0:0:
416,100,74316,1,0,0:0:0:0:
344,96,74400,1,0,0:0:0:0:
272,88,74483,2,0,P|200:68|120:68,1,116.250004434586,8|0,0:0|0:0,0:0:0:0:
28,112,74816,6,0,P|84:156|116:212,1,116.250004434586,8|0,0:0|0:0,0:0:0:0:
112,332,75149,2,0,L|156:288,1,58.1250022172929,8|0,0:0|0:0,0:0:0:0:
268,264,75316,2,0,L|224:312,1,58.1250022172929
112,332,75483,2,0,L|156:288,1,58.1250022172929,8|0,0:0|0:0,0:0:0:0:
268,264,75650,2,0,L|224:312,1,58.1250022172929
196,196,75816,5,8,0:0:0:0:
237,155,75899,1,0,0:0:0:0:
291,133,75982,1,0,0:0:0:0:
348,124,76065,1,0,0:0:0:0:
408,128,76149,2,0,L|464:168,1,58.1250022172929,8|0,0:0|0:0,0:0:0:0:
452,280,76316,2,0,L|400:248,1,58.1250022172929
304,184,76483,2,0,L|360:224,1,58.1250022172929,8|0,0:0|0:0,0:0:0:0:
348,336,76650,2,0,L|296:304,1,58.1250022172929
184,292,76816,5,8,0:0:0:0:
178,234,76899,1,0,0:0:0:0:
158,179,76982,1,0,0:0:0:0:
125,132,77065,1,0,0:0:0:0:
80,92,77149,2,0,P|148:88|216:40,1,116.250004434586,8|0,0:0|0:0,0:0:0:0:
328,40,77483,6,0,P|392:48|448:80,1,116.250004434586,8|0,0:0|0:0,0:0:0:0:
368,192,77816,2,0,L|328:248,1,58.1250022172929,8|0,0:0|0:0,0:0:0:0:
252,156,77983,2,0,L|296:104,1,58.1250022172929
368,192,78149,2,0,L|328:248,1,58.1250022172929,8|0,0:0|0:0,0:0:0:0:
252,156,78316,2,0,L|296:104,1,58.1250022172929
408,112,78483,1,8,0:0:0:0:
449,151,78566,1,0,0:0:0:0:
460,207,78649,1,0,0:0:0:0:
443,263,78732,1,0,0:0:0:0:
416,316,78816,6,8,L|336:328,1,58.1250022172929
240,324,78983,2,8,L|168:336,1,58.1250022172929
104,248,79149,2,8,L|161:257,1,58.1250022172929
279,256,79316,2,8,L|336:264,1,58.1250022172929
352,196,79483,1,8,0:0:0:0:
311,154,79566,1,0,0:0:0:0:
262,122,79649,1,0,0:0:0:0:
208,101,79732,1,0,0:0:0:0:
148,88,79816,2,0,L|124:144,1,58.1250022172929,8|0,0:0|0:0,0:0:0:0:
88,76,79983,2,0,L|60:144,1,58.1250022172929
40,196,80149,6,0,P|96:224|176:196,1,116.250004434586,8|0,0:0|0:0,0:0:0:0:
316,112,80483,2,0,P|348:128|368:160,1,58.1250022172929,8|0,0:0|0:0,0:0:0:0:
248,280,80649,2,0,P|216:264|196:232,1,58.1250022172929
316,112,80816,2,0,P|348:128|368:160,1,58.1250022172929,8|0,0:0|0:0,0:0:0:0:
248,280,80982,2,0,P|216:264|196:232,1,58.1250022172929
184,132,81149,1,8,0:0:0:0:
217,85,81232,1,0,0:0:0:0:
269,59,81315,1,0,0:0:0:0:
326,52,81398,1,0,0:0:0:0:
384,60,81483,6,0,L|368:124,1,58.1250022172929,8|0,0:0|0:0,0:0:0:0:
420,220,81649,2,0,L|440:152,1,58.1250022172929
328,120,81816,2,0,L|312:184,1,58.1250022172929,8|0,0:0|0:0,0:0:0:0:
364,280,81982,2,0,L|384:212,1,58.1250022172929
272,184,82149,2,0,L|256:248,1,58.1250022172929,8|0,0:0|0:0,0:0:0:0:
308,344,82315,2,0,L|328:276,1,58.1250022172929
208,308,82483,5,8,0:0:0:0:
176,259,82566,1,0,0:0:0:0:
130,224,82649,1,0,0:0:0:0:
75,205,82732,1,0,0:0:0:0:
20,184,82816,2,0,L|64:132,1,58.1250022172929,8|0,0:0|0:0,0:0:0:0:
168,104,82983,2,0,L|220:56,1,58.1250022172929
304,136,83149,2,0,L|261:175,1,58.1250022172929,8|0,0:0|0:0,0:0:0:0:
150,211,83316,2,0,L|112:255,1,58.1250022172929
200,312,83483,5,8,0:0:0:0:
264,322,83566,1,0,0:0:0:0:
326,303,83649,1,0,0:0:0:0:
374,258,83732,1,0,0:0:0:0:
424,320,83816,1,8,0:0:0:0:
451,260,83899,1,0,0:0:0:0:
451,195,83982,1,0,0:0:0:0:
423,136,84065,1,0,0:0:0:0:
384,88,84149,6,0,L|440:52,1,65.8750012564659,8|0,0:0|0:0,0:0:0:0:
192,76,84316,1,0,0:0:0:0:
232,120,84399,1,0,0:0:0:0:
272,168,84483,2,0,L|328:128,1,65.8750012564659,8|0,0:0|0:0,0:0:0:0:
84,156,84649,1,0,0:0:0:0:
124,200,84732,1,0,0:0:0:0:
164,248,84816,2,0,L|220:208,1,65.8750012564659,8|0,0:0|0:0,0:0:0:0:
400,232,84983,2,0,L|348:280,1,65.8750012564659
108,64,85149,1,8,0:0:0:0:
404,64,85483,5,4,0:0:0:0:
256,108,86483,1,0,0:0:0:0:
368,220,86649,1,0,0:0:0:0:
216,256,86816,2,0,B|164:224|136:244|136:244|132:204|132:204|96:200|88:112|176:48,1,310
356,36,87816,1,0,0:0:0:0:
300,112,87983,1,0,0:0:0:0:
392,128,88149,2,0,P|424:188|408:280,1,155
232,232,88816,2,0,P|200:168|224:72,1,155
292,140,89316,1,0,0:0:0:0:
328,172,89399,1,0,0:0:0:0:
344,220,89483,2,0,B|344:308|344:308|232:296|248:344|224:356|224:356|176:348|124:348|160:332,1,310
224,212,90816,6,0,B|240:152|216:124|216:124|168:148|168:96|168:96|120:120|148:52|48:36,1,310
48,128,91816,1,0,0:0:0:0:
80,216,91983,1,0,0:0:0:0:
116,300,92149,2,0,B|188:312|188:312|208:332|192:216|280:292|304:280|304:280|304:340|340:348|368:320|368:320|384:340,1,310
332,144,93149,1,0,0:0:0:0:
380,224,93316,1,0,0:0:0:0:
424,144,93483,2,0,P|384:72|300:48,1,155
224,204,94149,2,0,P|212:132|248:56,1,155
332,96,94649,1,0,0:0:0:0:
364,128,94733,1,0,0:0:0:0:
384,168,94816,2,0,L|388:328,1,155
292,216,95483,2,0,L|292:380,1,155
144,144,96149,6,0,P|192:152|240:144,1,77.5,8|0,0:0|0:0,0:0:0:0:
236,56,96483,1,0,0:0:0:0:
340,88,96649,1,0,0:0:0:0:
300,188,96816,1,0,0:0:0:0:
400,228,96983,1,0,0:0:0:0:
500,272,97149,2,0,P|480:316|440:344,1,77.5
352,320,97483,2,0,P|300:296|248:292,1,77.5,8|0,0:0|0:0,0:0:0:0:
132,340,97816,1,0,0:0:0:0:
216,240,97983,1,0,0:0:0:0:
100,180,98149,1,0,0:0:0:0:
12,276,98316,1,0,0:0:0:0:
32,144,98483,6,0,P|68:108|92:68,1,77.5
208,48,98816,2,0,P|264:28|368:48,1,155,8|0,0:0|0:0,0:0:0:0:
395,138,99483,2,0,P|323:164|248:152,1,155,8|0,0:0|0:0,0:0:0:0:
124,108,99983,1,0,0:0:0:0:
160,140,100066,1,0,0:0:0:0:
144,184,100149,2,8,P|128:224|100:252,1,77.5
196,228,100483,2,8,P|188:284|176:328,1,77.5
276,304,100816,1,8,0:0:0:0:
328,228,100983,1,8,0:0:0:0:
384,156,101149,2,0,L|428:152,1,38.75,10|0,0:0|0:0,0:0:0:0:
444,64,101316,2,0,L|484:60,1,38.75,10|0,0:0|0:0,0:0:0:0:
328,64,101483,6,0,P|272:48|176:76,1,155,8|0,0:0|0:0,0:0:0:0:
112,168,102149,2,0,L|84:252,1,77.5
172,108,102483,1,0,0:0:0:0:
240,200,102649,1,0,0:0:0:0:
308,296,102816,2,0,P|360:280|392:252,1,77.5,8|0,0:0|0:0,0:0:0:0:
380,152,103149,2,0,B|400:112|400:112|272:120,1,155
112,72,103816,5,0,0:0:0:0:
60,148,103983,1,0,0:0:0:0:
152,148,104149,2,0,P|188:180|196:288,1,155,8|0,0:0|0:0,0:0:0:0:
332,336,104816,2,0,P|329:260|379:202,1,155,8|0,0:0|0:0,0:0:0:0:
384,108,105316,1,0,0:0:0:0:
428,120,105399,1,0,0:0:0:0:
460,88,105483,2,2,B|480:56|464:48|464:48|400:24|400:24|344:60|324:28|292:48|292:48|264:84|232:72|232:72|224:84|200:92|200:92,1,310,10|2,0:0|0:0,0:0:0:0:
88,132,106316,1,0,0:0:0:0:
132,172,106399,1,0,0:0:0:0:
184,208,106483,2,2,L|200:212,8,9.6875
133,277,106816,6,0,P|146:234|184:208,1,92.9999971618653,8|0,0:0|0:0,0:0:0:0:
220,104,107149,1,0,0:0:0:0:
304,176,107316,1,0,0:0:0:0:
348,72,107483,1,8,0:0:0:0:
436,140,107649,1,0,0:0:0:0:
448,252,107816,2,0,P|388:296|344:300,1,92.9999971618653
272,252,108149,2,0,P|232:288|216:368,1,92.9999971618653,8|0,0:0|0:0,0:0:0:0:
236,368,108399,1,8,0:0:0:0:
280,380,108483,1,8,0:0:0:0:
352,296,108649,2,0,P|368:244|356:184,1,92.9999971618653,0|8,0:0|0:0,0:0:0:0:
308,108,108983,5,8,0:0:0:0:
264,136,109066,1,8,0:0:0:0:
216,108,109149,2,0,P|168:88|116:84,1,92.9999971618653,8|0,0:0|0:0,0:0:0:0:
68,180,109483,1,8,0:0:0:0:
268,220,109649,1,0,0:0:0:0:
332,312,109816,2,0,P|256:316|204:300,1,92.9999971618653
368,160,110149,2,0,P|392:208|392:264,1,92.9999971618653,8|0,0:0|0:0,0:0:0:0:
424,76,110483,5,0,0:0:0:0:
232,72,110649,1,0,0:0:0:0:
120,68,110816,2,0,P|108:108|96:136,1,46.4999985809327,8|0,0:0|0:0,0:0:0:0:
68,180,110983,1,8,0:0:0:0:
112,172,111066,1,8,0:0:0:0:
152,164,111149,2,0,L|200:148,1,46.4999985809327,8|0,0:0|0:0,0:0:0:0:
192,240,111316,2,0,L|248:228,1,46.4999985809327,8|0,0:0|0:0,0:0:0:0:
236,312,111483,2,0,L|284:304,1,46.4999985809327,8|0,0:0|0:0,0:0:0:0:
436,320,111649,2,0,L|380:336,1,46.4999985809327,8|0,0:0|0:0,0:0:0:0:
384,220,111816,2,0,P|384:168|352:128,1,92.9999971618653,8|0,0:0|0:0,0:0:0:0:
268,76,112149,6,0,P|220:88|152:72,1,92.9999971618653,8|0,0:0|0:0,0:0:0:0:
68,52,112483,1,0,0:0:0:0:
60,164,112649,2,0,P|60:220|88:284,2,92.9999971618653,0|8|0,0:0|0:0|0:0,0:0:0:0:
168,200,113149,1,0,0:0:0:0:
276,176,113316,2,0,P|348:144|396:152,1,92.9999971618653,0|8,0:0|0:0,0:0:0:0:
468,168,113649,5,8,0:0:0:0:
452,128,113733,1,8,0:0:0:0:
416,96,113816,2,0,L|416:48,1,46.4999985809327,8|0,0:0|0:0,0:0:0:0:
312,88,113983,2,0,L|300:40,1,46.4999985809327
204,112,114149,2,0,L|172:68,1,46.4999985809327,8|0,0:0|0:0,0:0:0:0:
72,140,114316,1,8,0:0:0:0:
72,172,114399,1,8,0:0:0:0:
72,208,114483,2,0,L|120:216,1,46.4999985809327,8|0,0:0|0:0,0:0:0:0:
180,284,114649,2,0,L|240:292,1,46.4999985809327,8|0,0:0|0:0,0:0:0:0:
292,224,114816,2,0,L|348:228,1,46.4999985809327,8|0,0:0|0:0,0:0:0:0:
392,280,114927,5,0,0:0:0:0:
424,228,115038,1,0,0:0:0:0:
440,168,115149,2,0,P|424:120|412:104,1,61.9999981079102,8|0,0:0|0:0,0:0:0:0:
316,196,115372,1,0,0:0:0:0:
332,136,115483,2,0,P|316:88|304:72,1,61.9999981079102,8|0,0:0|0:0,0:0:0:0:
252,56,115649,1,8,0:0:0:0:
220,92,115733,1,0,0:0:0:0:
200,132,115816,2,0,L|136:156,1,46.4999985809327,8|0,0:0|0:0,0:0:0:0:
200,232,115983,2,0,L|148:252,1,46.4999985809327,8|0,0:0|0:0,0:0:0:0:
192,336,116149,2,0,L|144:352,1,46.4999985809327,8|0,0:0|0:0,0:0:0:0:
284,304,116316,5,0,0:0:0:0:
324,264,116399,1,0,0:0:0:0:
380,252,116483,2,0,P|424:220|432:208,1,46.4999985809327,8|0,0:0|0:0,0:0:0:0:
416,132,116649,1,0,0:0:0:0:
352,104,116733,1,0,0:0:0:0:
288,80,116816,2,8,P|244:108|224:160,1,92.9999971618653
280,264,117149,5,8,0:0:0:0:
215,269,117232,1,8,0:0:0:0:
155,242,117315,1,8,0:0:0:0:
116,190,117398,1,8,0:0:0:0:
108,128,117483,2,0,P|72:88|32:64,1,92.9999971618653,8|0,0:0|0:0,0:0:0:0:
168,48,117816,1,8,0:0:0:0:
224,164,117983,1,0,0:0:0:0:
308,64,118149,2,0,L|392:72,1,46.4999985809327,8|0,0:0|0:0,0:0:0:0:
352,224,118316,5,2,0:0:0:0:
336,184,118399,1,0,0:0:0:0:
320,148,118483,2,0,L|372:136,1,46.4999985809327,8|0,0:0|0:0,0:0:0:0:
444,184,118649,2,0,L|496:176,1,46.4999985809327
432,300,118816,2,0,L|384:316,1,46.4999985809327,8|0,0:0|0:0,0:0:0:0:
296,308,118983,5,8,0:0:0:0:
260,280,119066,1,8,0:0:0:0:
212,248,119149,2,0,L|168:284,1,46.4999985809327,8|0,0:0|0:0,0:0:0:0:
204,144,119316,2,0,L|248:112,1,46.4999985809327,8|0,0:0|0:0,0:0:0:0:
148,100,119483,5,8,0:0:0:0:
106,78,119566,1,8,0:0:0:0:
62,88,119649,1,8,0:0:0:0:
33,124,119732,1,8,0:0:0:0:
24,172,119816,2,0,L|84:188,1,46.4999985809327,8|0,0:0|0:0,0:0:0:0:
84,276,119983,2,0,L|140:292,1,46.4999985809327,8|0,0:0|0:0,0:0:0:0:
200,348,120149,6,0,L|240:268,1,46.4999985809327,8|0,0:0|0:0,0:0:0:0:
348,288,120316,1,0,0:0:0:0:
368,232,120399,1,0,0:0:0:0:
388,176,120483,2,0,L|436:160,1,46.4999985809327,8|0,0:0|0:0,0:0:0:0:
288,104,120649,2,0,L|244:80,1,46.4999985809327,8|0,0:0|0:0,0:0:0:0:
408,108,120816,2,0,L|456:92,1,46.4999985809327,8|0,0:0|0:0,0:0:0:0:
260,164,120983,1,0,0:0:0:0:
216,184,121066,1,0,0:0:0:0:
168,172,121149,2,8,P|132:136|72:104,1,92.9999971618653
28,288,121483,6,0,P|48:320|64:336,1,46.4999985809327,8|0,0:0|0:0,0:0:0:0:
124,268,121649,1,8,0:0:0:0:
172,288,121733,1,8,0:0:0:0:
224,292,121816,2,0,L|272:296,1,46.4999985809327,8|0,0:0|0:0,0:0:0:0:
316,216,121983,2,0,L|380:216,1,46.4999985809327,8|0,0:0|0:0,0:0:0:0:
464,124,122149,2,0,L|416:124,1,46.4999985809327,8|0,0:0|0:0,0:0:0:0:
348,60,122316,2,0,L|288:60,1,46.4999985809327,8|0,0:0|0:0,0:0:0:0:
180,128,122483,2,0,L|120:128,1,46.4999985809327,8|8,0:0|0:0,0:0:0:0:
72,56,122649,2,8,L|128:40,1,46.4999985809327
56,304,122816,6,0,L|108:320,1,46.4999985809327,8|0,0:0|0:0,0:0:0:0:
180,264,122983,2,0,L|224:248,1,46.4999985809327
248,160,123149,2,0,L|208:124,1,46.4999985809327
376,128,123316,2,0,L|408:80,1,46.4999985809327
268,48,123483,2,0,L|212:60,1,46.4999985809327
272,136,123649,2,0,L|317:126,1,46.4999985809327
316,220,123816,2,8,L|361:210,1,46.4999985809327
364,304,123983,2,8,L|420:296,1,46.4999985809327
236,320,124149,6,0,L|200:356,1,46.4999985809327,8|0,0:0|0:0,0:0:0:0:
200,268,124316,2,0,L|144:284,1,46.4999985809327
204,208,124483,2,0,L|152:196,1,46.4999985809327
232,152,124649,2,0,L|196:112,1,46.4999985809327
108,100,124816,2,0,L|36:120,1,46.4999985809327
128,180,124983,1,0,0:0:0:0:
112,224,125066,1,0,0:0:0:0:
120,272,125149,2,8,L|144:312,1,46.4999985809327
272,296,125316,2,8,L|296:336,1,46.4999985809327
408,324,125483,2,0,P|432:252|432:220,1,61.9999981079102,8|0,0:0|0:0,0:0:0:0:
376,160,125705,5,0,0:0:0:0:
312,116,125816,2,0,P|272:96|228:88,1,61.9999981079102,8|0,0:0|0:0,0:0:0:0:
160,44,126038,1,0,0:0:0:0:
100,128,126149,2,0,L|88:188|84:208,1,46.4999985809327,8|0,0:0|0:0,0:0:0:0:
184,256,126316,2,0,L|192:208,1,46.4999985809327,8|0,0:0|0:0,0:0:0:0:
328,216,126483,2,0,L|320:264,1,46.4999985809327,8|0,0:0|0:0,0:0:0:0:
416,348,126649,2,0,L|456:304,1,46.4999985809327,8|0,0:0|0:0,0:0:0:0:
416,204,126816,2,0,L|468:188,1,46.4999985809327,8|0,0:0|0:0,0:0:0:0:
456,76,126983,5,0,0:0:0:0:
396,64,127066,1,0,0:0:0:0:
336,72,127149,2,0,L|288:84,1,46.4999985809327,8|0,0:0|0:0,0:0:0:0:
104,112,127316,2,0,L|168:112,1,46.4999985809327
336,72,127483,1,8,0:0:0:0:
307,108,127566,1,0,0:0:0:0:
289,151,127649,1,0,0:0:0:0:
283,197,127732,1,0,0:0:0:0:
276,248,127816,2,0,L|260:260,4,11.6249996452332,8|0|0|0|0,0:0|0:0|0:0|0:0|0:0,0:0:0:0:
328,276,127983,2,0,L|320:296,4,11.6249996452332,8|0|0|0|0,0:0|0:0|0:0|0:0|0:0,0:0:0:0:
388,292,128149,6,8,P|336:348|288:352,1,92.9999971618653
164,336,128483,2,8,P|192:292|248:252,1,92.9999971618653
368,208,128816,1,8,0:0:0:0:
244,108,128983,1,8,0:0:0:0:
140,224,129149,1,8,0:0:0:0:
268,320,129316,1,8,0:0:0:0:
368,208,129483,6,0,L|416:200,1,46.4999985809327,8|0,0:0|0:0,0:0:0:0:
324,108,129649,1,8,0:0:0:0:
288,88,129733,1,0,0:0:0:0:
240,88,129816,2,0,L|204:52,1,46.4999985809327,8|0,0:0|0:0,0:0:0:0:
148,128,129983,2,0,L|104:96,1,46.4999985809327,8|0,0:0|0:0,0:0:0:0:
72,184,130149,1,8,0:0:0:0:
64,229,130233,1,0,0:0:0:0:
68,276,130316,1,8,0:0:0:0:
89,316,130398,1,0,0:0:0:0:
128,348,130483,2,0,L|168:316,1,46.4999985809327,8|0,0:0|0:0,0:0:0:0:
244,276,130649,2,0,L|296:232,1,46.4999985809327,8|0,0:0|0:0,0:0:0:0:
344,176,130816,6,0,L|252:104,1,92.9999971618653,8|8,0:0|0:0,0:0:0:0:
120,68,131149,1,8,0:0:0:0:
280,68,131316,1,8,0:0:0:0:
136,132,131483,2,8,P|88:172|68:232,1,92.9999971618653
232,196,131816,1,8,0:0:0:0:
156,336,131983,1,8,0:0:0:0:
312,340,132149,2,0,P|340:320|348:304,1,46.4999985809327,8|0,0:0|0:0,0:0:0:0:
384,224,132316,1,8,0:0:0:0:
336,188,132399,1,0,0:0:0:0:
288,152,132483,2,0,L|308:104,1,46.4999985809327,8|0,0:0|0:0,0:0:0:0:
216,88,132649,2,0,L|208:32,1,46.4999985809327,8|0,0:0|0:0,0:0:0:0:
148,152,132816,2,0,L|112:120,1,46.4999985809327,8|0,0:0|0:0,0:0:0:0:
52,236,132983,5,8,0:0:0:0:
80,276,133066,1,0,0:0:0:0:
124,296,133149,2,0,L|168:276,1,46.4999985809327,8|0,0:0|0:0,0:0:0:0:
256,300,133316,2,0,L|208:336,1,46.4999985809327,8|0,0:0|0:0,0:0:0:0:
360,340,133483,6,8,P|400:304|420:264,1,92.9999971618653
288,216,133816,2,0,L|244:188,1,46.4999985809327,8|0,0:0|0:0,0:0:0:0:
444,160,133983,2,0,L|460:108,1,46.4999985809327,8|0,0:0|0:0,0:0:0:0:
288,216,134149,2,0,L|244:188,1,46.4999985809327,8|0,0:0|0:0,0:0:0:0:
444,160,134316,2,0,L|460:108,1,46.4999985809327,8|0,0:0|0:0,0:0:0:0:
288,216,134483,2,0,P|240:156|196:132,1,92.9999971618653,8|0,0:0|0:0,0:0:0:0:
88,124,134816,6,8,P|140:112|184:68,1,92.9999971618653
304,128,135149,2,0,L|348:156,1,46.4999985809327,8|0,0:0|0:0,0:0:0:0:
224,56,135316,2,0,L|188:28,1,46.4999985809327,8|0,0:0|0:0,0:0:0:0:
304,128,135483,2,0,L|348:156,1,46.4999985809327,8|0,0:0|0:0,0:0:0:0:
224,56,135649,2,0,L|188:28,1,46.4999985809327,8|0,0:0|0:0,0:0:0:0:
300,128,135816,2,8,P|356:156|384:184,1,92.9999971618653
296,288,136149,6,0,P|336:288|376:308,1,46.4999985809327,8|0,0:0|0:0,0:0:0:0:
200,252,136316,2,0,B|160:264|140:264|140:264,1,46.4999985809327,8|0,0:0|0:0,0:0:0:0:
272,192,136483,2,0,P|256:128|216:96,1,116.250004434586,8|0,0:0|0:0,0:0:0:0:
32,88,136816,2,0,L|40:152,1,46.4999985809327,8|0,0:0|0:0,0:0:0:0:
116,256,136983,2,0,L|104:196,1,46.4999985809327,8|0,0:0|0:0,0:0:0:0:
184,124,137149,2,0,P|200:184|252:236,1,116.250004434586,8|0,0:0|0:0,0:0:0:0:
456,300,137483,6,0,L|400:324,1,58.1250022172929,8|0,0:0|0:0,0:0:0:0:
416,228,137649,1,0,0:0:0:0:
360,221,137732,1,0,0:0:0:0:
313,188,137816,1,8,0:0:0:0:
265,155,137899,1,0,0:0:0:0:
210,139,137982,1,0,0:0:0:0:
154,154,138065,1,0,0:0:0:0:
116,196,138149,2,0,L|56:200,1,58.1250022172929,8|0,0:0|0:0,0:0:0:0:
144,248,138316,2,0,L|208:240,1,58.1250022172929
280,280,138483,2,0,L|248:304,6,29.0625011086464,8|0|0|0|0|0|0,0:0|0:0|0:0|0:0|0:0|0:0|0:0,0:0:0:0:
356,320,138816,6,0,P|408:268|420:228,1,92.9999971618653,8|0,0:0|0:0,0:0:0:0:
260,212,139149,1,8,0:0:0:0:
396,128,139316,1,0,0:0:0:0:
248,68,139483,2,0,P|188:48|136:44,1,92.9999971618653,8|0,0:0|0:0,0:0:0:0:
52,164,139816,5,8,0:0:0:0:
136,300,139983,1,0,0:0:0:0:
284,248,140149,2,0,P|324:204|340:160,1,92.9999971618653,8|0,0:0|0:0,0:0:0:0:
196,96,140483,2,0,P|148:112|116:148,1,92.9999971618653,8|0,0:0|0:0,0:0:0:0:
284,248,140816,2,0,P|324:204|340:160,1,92.9999971618653,8|0,0:0|0:0,0:0:0:0:
196,96,141149,2,0,P|148:112|116:148,1,92.9999971618653,8|0,0:0|0:0,0:0:0:0:
284,248,141483,2,0,P|324:204|340:160,1,92.9999971618653,8|0,0:0|0:0,0:0:0:0:
196,96,141816,2,0,P|148:112|116:148,1,92.9999971618653,8|0,0:0|0:0,0:0:0:0:
136,260,142149,6,0,P|96:296|48:304,1,92.9999971618653,8|0,0:0|0:0,0:0:0:0:
204,240,142483,2,0,P|240:184|280:164,1,92.9999971618653,8|0,0:0|0:0,0:0:0:0:
372,56,142816,2,0,L|316:80,1,46.4999985809327,8|0,0:0|0:0,0:0:0:0:
336,168,142983,1,0,0:0:0:0:
384,144,143066,1,0,0:0:0:0:
432,120,143149,2,0,L|472:156,1,46.4999985809327,8|0,0:0|0:0,0:0:0:0:
416,284,143316,2,0,L|424:228,1,46.4999985809327
296,288,143483,2,0,L|256:312,1,46.4999985809327,8|0,0:0|0:0,0:0:0:0:
164,228,143649,2,0,L|120:264,1,46.4999985809327
36,168,143816,2,0,L|148:96,1,92.9999971618653,8|0,0:0|0:0,0:0:0:0:
300,96,144149,5,8,0:0:0:0:
214,58,144315,1,0,0:0:0:0:
128,224,144483,1,8,0:0:0:0:
218,203,144649,1,0,0:0:0:0:
364,320,144816,5,8,0:0:0:0:
277,286,144982,1,0,0:0:0:0:
280,100,145149,1,8,0:0:0:0:
366,134,145315,1,0,0:0:0:0:
240,192,145483,2,0,P|184:208|116:192,1,92.9999971618653,8|0,0:0|0:0,0:0:0:0:
44,112,145816,2,0,P|72:75|114:56,1,92.9999971618653,8|0,0:0|0:0,0:0:0:0:
252,44,146149,2,0,P|316:68|384:68,1,92.9999971618653,8|0,0:0|0:0,0:0:0:0:
444,164,146483,1,8,0:0:0:0:
408,300,146649,2,0,L|400:248,1,46.4999985809327,8|0,0:0|0:0,0:0:0:0:
324,100,146816,6,0,L|288:148,1,46.4999985809327,8|0,0:0|0:0,0:0:0:0:
204,116,146983,2,0,L|200:168,1,46.4999985809327,8|0,0:0|0:0,0:0:0:0:
120,204,147149,2,0,L|168:256,1,46.4999985809327,8|0,0:0|0:0,0:0:0:0:
108,320,147316,2,0,L|172:320,1,46.4999985809327,8|0,0:0|0:0,0:0:0:0:
268,344,147483,1,8,0:0:0:0:
258,286,147566,1,8,0:0:0:0:
236,233,147649,1,8,0:0:0:0:
203,184,147733,1,8,0:0:0:0:
162,144,147816,1,8,0:0:0:0:
116,108,147899,1,8,0:0:0:0:
64,80,147983,1,8,0:0:0:0:
12,44,148066,1,8,0:0:0:0:
72,28,148149,6,0,L|140:28,1,46.4999985809327,8|0,0:0|0:0,0:0:0:0:
208,88,148316,1,8,0:0:0:0:
272,88,148399,1,8,0:0:0:0:
336,88,148483,2,0,L|384:88,1,46.4999985809327,8|0,0:0|0:0,0:0:0:0:
280,176,148649,1,8,0:0:0:0:
344,176,148732,1,8,0:0:0:0:
408,176,148816,2,0,L|456:176,1,46.4999985809327,8|0,0:0|0:0,0:0:0:0:
204,272,148983,1,8,0:0:0:0:
268,272,149066,1,8,0:0:0:0:
332,272,149149,2,0,L|348:272,12,16.4687503141165,8|0|0|0|0|0|0|0|0|0|0|0|0,0:0|0:0|0:0|0:0|0:0|0:0|0:0|0:0|0:0|0:0|0:0|0:0|0:0,0:0:0:0:
444,308,149483,6,0,P|368:344|288:344,1,116.250004434586,8|0,0:0|0:0,0:0:0:0:
208,180,149816,1,8,0:0:0:0:
44,312,149983,1,0,0:0:0:0:
88,108,150149,2,0,P|144:56|200:48,1,116.250004434586,8|0,0:0|0:0,0:0:0:0:
388,84,150483,5,8,0:0:0:0:
180,112,150649,1,0,0:0:0:0:
312,276,150816,2,0,L|272:228,1,58.1250022172929,8|0,0:0|0:0,0:0:0:0:
168,228,150983,5,0,0:0:0:0:
124,192,151066,1,0,0:0:0:0:
72,172,151149,2,0,P|40:132|32:60,1,116.250004434586,8|0,0:0|0:0,0:0:0:0:
240,40,151483,2,0,L|296:52,1,58.1250022172929,8|0,0:0|0:0,0:0:0:0:
400,68,151649,1,0,0:0:0:0:
386,124,151733,1,0,0:0:0:0:
362,177,151815,1,8,0:0:0:0:
329,224,151899,1,0,0:0:0:0:
287,265,151982,1,0,0:0:0:0:
239,297,152065,1,0,0:0:0:0:
184,320,152149,6,0,P|200:248|252:208,1,116.250004434586,8|0,0:0|0:0,0:0:0:0:
412,300,152483,1,8,0:0:0:0:
316,128,152649,1,0,0:0:0:0:
128,196,152816,2,0,P|152:128|152:72,1,116.250004434586,8|0,0:0|0:0,0:0:0:0:
80,48,153149,2,0,P|56:108|56:184,1,116.250004434586,8|0,0:0|0:0,0:0:0:0:
104,316,153483,6,0,L|172:288,1,58.1250022172929,8|0,0:0|0:0,0:0:0:0:
260,320,153649,1,0,0:0:0:0:
316,304,153733,1,0,0:0:0:0:
372,284,153816,2,0,L|416:240,1,58.1250022172929,8|0,0:0|0:0,0:0:0:0:
316,204,153983,2,0,L|256:180,1,58.1250022172929
304,164,154149,2,8,L|244:140,1,58.1250022172929
384,148,154316,2,8,L|444:124,1,58.1250022172929
396,108,154483,2,0,L|504:64,1,116.250004434586,8|0,0:0|0:0,0:0:0:0:
292,52,154816,6,0,P|236:72|168:84,1,116.250004434586,8|0,0:0|0:0,0:0:0:0:
68,260,155149,1,8,0:0:0:0:
88,52,155316,1,0,0:0:0:0:
200,228,155483,2,0,P|236:184|260:120,1,116.250004434586,8|0,0:0|0:0,0:0:0:0:
336,72,155816,2,0,P|388:116|424:180,1,116.250004434586,8|0,0:0|0:0,0:0:0:0:
328,264,156149,2,0,L|292:316,1,58.1250022172929,8|0,0:0|0:0,0:0:0:0:
232,232,156316,1,0,0:0:0:0:
184,204,156399,1,0,0:0:0:0:
136,176,156483,2,0,L|64:228,1,58.1250022172929,8|0,0:0|0:0,0:0:0:0:
180,92,156649,2,0,L|232:56,1,58.1250022172929
332,52,156816,5,8,0:0:0:0:
388,65,156899,1,0,0:0:0:0:
436,97,156982,1,0,0:0:0:0:
472,142,157066,1,0,0:0:0:0:
404,156,157149,1,8,0:0:0:0:
422,211,157232,1,0,0:0:0:0:
423,268,157315,1,0,0:0:0:0:
409,324,157399,1,0,0:0:0:0:
409,324,157483,6,8,P|340:320|276:320,1,116.250004434586
184,276,157733,1,8,0:0:0:0:
156,264,157816,2,0,P|100:256|72:260,1,58.1250022172929,8|0,0:0|0:0,0:0:0:0:
60,160,157983,1,8,0:0:0:0:
112,112,158066,1,8,0:0:0:0:
180,92,158149,2,0,L|144:40,1,58.1250022172929,8|0,0:0|0:0,0:0:0:0:
268,120,158316,2,0,L|308:172,1,58.1250022172929,8|0,0:0|0:0,0:0:0:0:
136,212,158483,2,0,L|200:180,1,58.1250022172929,8|0,0:0|0:0,0:0:0:0:
244,272,158649,2,0,L|256:216,1,58.1250022172929,8|0,0:0|0:0,0:0:0:0:
356,252,158816,6,0,L|328:192,1,58.1250022172929,8|0,0:0|0:0,0:0:0:0:
356,40,158983,1,8,0:0:0:0:
372,56,159066,1,8,0:0:0:0:
384,68,159149,2,0,L|436:100,1,58.1250022172929,8|0,0:0|0:0,0:0:0:0:
260,128,159316,1,8,0:0:0:0:
208,116,159399,1,8,0:0:0:0:
160,96,159483,2,0,L|112:56,1,58.1250022172929,8|0,0:0|0:0,0:0:0:0:
144,216,159649,2,0,L|80:180,1,58.1250022172929,8|0,0:0|0:0,0:0:0:0:
144,216,159816,2,0,L|240:320,1,116.250004434586,8|0,0:0|0:0,0:0:0:0:
404,196,160149,6,0,P|420:256|424:320,1,116.250004434586,8|0,0:0|0:0,0:0:0:0:
240,208,160483,1,8,0:0:0:0:
72,84,160649,1,0,0:0:0:0:
44,292,160816,2,0,P|68:212|100:152,1,116.250004434586,8|0,0:0|0:0,0:0:0:0:
268,88,161149,2,0,P|196:72|144:68,1,116.250004434586,8|0,0:0|0:0,0:0:0:0:
364,44,161483,2,0,P|332:36|300:36,1,58.1250022172929,8|0,0:0|0:0,0:0:0:0:
336,136,161649,1,0,0:0:0:0:
348,184,161733,1,0,0:0:0:0:
376,228,161816,2,0,P|436:248|488:296,1,116.250004434586,8|0,0:0|0:0,0:0:0:0:
284,364,162149,6,0,P|256:360|220:336,1,58.1250022172929,8|0,0:0|0:0,0:0:0:0:
204,244,162316,1,0,0:0:0:0:
193,187,162399,1,0,0:0:0:0:
167,134,162483,1,8,0:0:0:0:
129,91,162566,1,0,0:0:0:0:
81,58,162649,1,0,0:0:0:0:
32,32,162733,1,0,0:0:0:0:
24,88,162816,6,0,P|28:128|84:184,1,116.250004434586,8|0,0:0|0:0,0:0:0:0:
232,40,163149,1,8,0:0:0:0:
380,188,163316,1,0,0:0:0:0:
256,356,163483,2,0,P|216:364|136:352,1,116.250004434586,8|0,0:0|0:0,0:0:0:0:
44,168,163816,1,8,0:0:0:0:
252,192,163983,1,0,0:0:0:0:
168,0,164149,1,8,0:0:0:0:
348,104,164316,1,0,0:0:0:0:
376,144,164399,1,0,0:0:0:0:
408,184,164483,2,0,P|460:216|488:280,1,116.250004434586,8|0,0:0|0:0,0:0:0:0:
284,316,164816,5,8,0:0:0:0:
228,300,164899,1,0,0:0:0:0:
179,269,164982,1,0,0:0:0:0:
142,225,165066,1,0,0:0:0:0:
120,172,165149,2,0,B|156:160|156:160|196:164|216:112,1,116.250004434586,8|0,0:0|0:0,0:0:0:0:
172,36,165483,6,0,P|96:36|56:72,1,116.250004434586,8|0,0:0|0:0,0:0:0:0:
32,232,165816,1,8,0:0:0:0:
188,156,165983,1,0,0:0:0:0:
336,68,166149,2,0,P|404:60|456:84,1,116.250004434586,8|0,0:0|0:0,0:0:0:0:
416,288,166483,2,0,P|360:296|296:272,1,116.250004434586,8|0,0:0|0:0,0:0:0:0:
492,184,166816,1,8,0:0:0:0:
284,184,166983,1,0,0:0:0:0:
228,168,167066,1,0,0:0:0:0:
172,148,167149,1,8,0:0:0:0:
84,340,167316,1,0,0:0:0:0:
64,132,167483,6,0,L|108:80,1,58.1250022172929,8|0,0:0|0:0,0:0:0:0:
168,124,167649,1,0,0:0:0:0:
216,91,167732,1,0,0:0:0:0:
271,74,167815,1,8,0:0:0:0:
329,73,167899,1,0,0:0:0:0:
384,90,167982,1,0,0:0:0:0:
428,127,168065,1,0,0:0:0:0:
456,184,168149,6,0,P|400:216|376:220,1,58.1250022172929,8|0,0:0|0:0,0:0:0:0:
348,304,168316,1,8,0:0:0:0:
348,304,168399,1,8,0:0:0:0:
348,304,168483,2,0,L|280:296,1,58.1250022172929,8|0,0:0|0:0,0:0:0:0:
192,264,168649,1,8,0:0:0:0:
192,264,168732,1,8,0:0:0:0:
192,264,168816,2,0,L|124:256,1,58.1250022172929,8|0,0:0|0:0,0:0:0:0:
232,72,168983,1,8,0:0:0:0:
296,160,169066,1,8,0:0:0:0:
360,240,169150,1,8,0:0:0:0:
452,52,169316,1,8,0:0:0:0:
276,164,169483,6,0,L|336:152,1,58.1250022172929,8|0,0:0|0:0,0:0:0:0:
212,180,169649,1,8,0:0:0:0:
232,240,169733,1,8,0:0:0:0:
284,276,169816,2,0,P|324:280|364:276,1,58.1250022172929,8|0,0:0|0:0,0:0:0:0:
144,248,169983,1,8,0:0:0:0:
164,308,170067,1,8,0:0:0:0:
216,344,170150,2,0,P|256:348|296:344,1,58.1250022172929,8|0,0:0|0:0,0:0:0:0:
84,280,170316,2,0,L|24:264,1,58.1250022172929,8|0,0:0|0:0,0:0:0:0:
80,172,170483,2,0,P|108:96|180:96,1,116.250004434586,8|0,0:0|0:0,0:0:0:0:
368,64,170816,6,0,P|292:92|240:88,1,116.250004434586,8|0,0:0|0:0,0:0:0:0:
156,36,171066,1,0,0:0:0:0:
76,120,171149,2,0,P|60:176|84:256,1,116.250004434586,8|0,0:0|0:0,0:0:0:0:
168,292,171483,2,0,P|188:236|248:164,1,116.250004434586,8|0,0:0|0:0,0:0:0:0:
432,96,171816,1,8,0:0:0:0:
348,312,171983,1,0,0:0:0:0:
216,120,172149,1,8,0:0:0:0:
52,284,172316,1,0,0:0:0:0:
96,236,172399,1,0,0:0:0:0:
144,188,172483,1,8,0:0:0:0:
248,308,172649,2,0,L|308:308,1,58.1250022172929
416,344,172816,5,8,0:0:0:0:
385,294,172899,1,0,0:0:0:0:
347,250,172982,1,0,0:0:0:0:
304,212,173066,1,0,0:0:0:0:
256,180,173149,2,0,P|240:208|208:228,1,58.1250022172929,8|0,0:0|0:0,0:0:0:0:
260,112,173316,2,0,P|280:80|316:68,1,58.1250022172929
200,140,173483,6,0,P|156:156|104:104,1,116.250004434586,8|0,0:0|0:0,0:0:0:0:
100,348,173816,2,8,L|76:216,2,116.250004434586
284,344,174316,1,0,0:0:0:0:
336,336,174399,1,0,0:0:0:0:
388,328,174483,2,0,P|384:280|336:216,1,116.250004434586,8|0,0:0|0:0,0:0:0:0:
192,96,174816,6,0,L|132:136,1,58.1250022172929,8|0,0:0|0:0,0:0:0:0:
240,48,174983,1,8,0:0:0:0:
292,40,175066,1,8,0:0:0:0:
344,52,175149,2,0,L|400:80,1,58.1250022172929,8|0,0:0|0:0,0:0:0:0:
356,188,175316,2,0,L|420:212,1,58.1250022172929,8|0,0:0|0:0,0:0:0:0:
388,324,175483,2,0,L|336:296,1,58.1250022172929,8|0,0:0|0:0,0:0:0:0:
228,336,175649,2,0,L|216:264,1,58.1250022172929,8|0,0:0|0:0,0:0:0:0:
100,284,175816,2,0,L|80:148,1,116.250004434586,8|0,0:0|0:0,0:0:0:0:
60,64,176149,6,0,P|132:64|192:136,1,116.250004434586,8|0,0:0|0:0,0:0:0:0:
400,80,176483,1,8,0:0:0:0:
288,284,176649,1,0,0:0:0:0:
256,52,176816,2,0,P|208:84|188:144,1,116.250004434586,8|0,0:0|0:0,0:0:0:0:
400,228,177149,1,8,0:0:0:0:
184,316,177316,1,0,0:0:0:0:
120,92,177483,6,0,L|60:76,1,58.1250022172929,8|0,0:0|0:0,0:0:0:0:
40,192,177649,1,8,0:0:0:0:
76,228,177733,1,8,0:0:0:0:
120,260,177816,2,0,L|176:220,1,58.1250022172929,8|0,0:0|0:0,0:0:0:0:
276,268,177983,2,0,L|324:236,1,58.1250022172929,8|0,0:0|0:0,0:0:0:0:
428,188,178149,1,8,0:0:0:0:
404,135,178233,1,8,0:0:0:0:
362,95,178316,1,8,0:0:0:0:
308,74,178399,1,8,0:0:0:0:
252,56,178483,2,0,L|208:120,1,58.1250022172929,8|0,0:0|0:0,0:0:0:0:
112,64,178649,2,0,L|80:120,1,58.1250022172929,8|0,0:0|0:0,0:0:0:0:
72,232,178816,6,0,L|144:240,1,58.1250022172929,8|0,0:0|0:0,0:0:0:0:
172,348,178983,1,8,0:0:0:0:
192,296,179066,1,8,0:0:0:0:
212,244,179149,2,0,L|296:244,1,58.1250022172929,8|0,0:0|0:0,0:0:0:0:
324,292,179316,1,8,0:0:0:0:
344,240,179399,1,8,0:0:0:0:
364,188,179483,2,0,L|448:188,1,58.1250022172929,8|0,0:0|0:0,0:0:0:0:
320,128,179649,6,0,L|248:120,1,58.1250022172929,8|0,0:0|0:0,0:0:0:0:
108,68,179816,2,0,L|172:80,1,58.1250022172929,8|0,0:0|0:0,0:0:0:0:
320,128,179983,2,0,L|248:120,1,58.1250022172929,8|0,0:0|0:0,0:0:0:0:
164,180,180149,1,8,0:0:0:0:
372,288,180316,1,8,0:0:0:0:
416,308,180399,1,8,0:0:0:0:
460,340,180483,1,8,0:0:0:0:
440,112,180649,2,0,L|480:56,1,58.1250022172929,8|0,0:0|0:0,0:0:0:0:
220,184,180816,2,0,L|168:148,1,58.1250022172929,8|0,0:0|0:0,0:0:0:0:
456,164,180983,2,0,L|508:120,1,58.1250022172929,8|0,0:0|0:0,0:0:0:0:
236,240,181149,2,0,L|128:296,1,116.250004434586,8|0,0:0|0:0,0:0:0:0:
212,360,181483,6,0,P|248:344|316:288,1,116.250004434586,8|0,0:0|0:0,0:0:0:0:
228,80,181816,1,8,0:0:0:0:
444,164,181983,1,0,0:0:0:0:
124,232,182149,1,8,0:0:0:0:
80,96,182316,1,0,0:0:0:0:
44,64,182399,1,0,0:0:0:0:
0,44,182483,1,8,0:0:0:0:
160,40,182649,2,0,L|300:52,1,116.250004434586,0|8,0:0|0:0,0:0:0:0:
232,192,182983,2,0,L|144:196,1,58.1250022172929
436,80,183149,1,8,0:0:0:0:
274,145,183316,6,0,L|328:168,1,58.1250022172929
312,256,183483,2,0,L|256:240,1,58.1250022172929,8|0,0:0|0:0,0:0:0:0:
188,148,183649,2,0,L|256:164,1,58.1250022172929
216,256,183816,2,0,L|160:240,1,58.1250022172929,8|0,0:0|0:0,0:0:0:0:
100,140,183983,2,0,L|80:72,1,58.1250022172929
60,196,184149,2,0,L|36:316,1,116.250004434586,8|0,0:0|0:0,0:0:0:0:
236,188,184483,1,8,0:0:0:0:
432,312,184649,1,0,0:0:0:0:
416,80,184816,2,0,P|344:48|284:44,1,116.250004434586,8|0,0:0|0:0,0:0:0:0:
312,276,185149,5,8,0:0:0:0:
192,76,185316,1,0,0:0:0:0:
96,288,185483,2,0,L|56:336,1,58.1250022172929,8|0,0:0|0:0,0:0:0:0:
168,292,185649,1,8,0:0:0:0:
204,240,185733,1,8,0:0:0:0:
240,184,185816,2,0,L|324:176,1,58.1250022172929,8|0,0:0|0:0,0:0:0:0:
264,136,185983,2,0,L|328:132,1,58.1250022172929,8|0,0:0|0:0,0:0:0:0:
152,100,186149,1,8,0:0:0:0:
209,98,186232,1,0,0:0:0:0:
266,84,186315,1,8,0:0:0:0:
319,60,186399,1,0,0:0:0:0:
368,28,186483,2,0,B|408:20|440:20|492:56,1,116.250004434586,8|0,0:0|0:0,0:0:0:0:
404,164,186816,6,0,P|324:172|260:144,1,116.250004434586,8|0,0:0|0:0,0:0:0:0:
432,348,187149,1,8,0:0:0:0:
200,312,187316,1,0,0:0:0:0:
424,256,187483,2,0,P|364:228|288:232,1,116.250004434586,8|0,0:0|0:0,0:0:0:0:
460,44,187816,1,8,0:0:0:0:
264,168,187983,1,0,0:0:0:0:
84,24,188149,1,8,0:0:0:0:
56,256,188316,6,0,L|16:304,1,58.1250022172929
212,80,188483,2,0,L|256:36,1,58.1250022172929,8|0,0:0|0:0,0:0:0:0:
92,132,188649,2,0,L|32:116,1,58.1250022172929
196,212,188816,1,8,0:0:0:0:
240,248,188899,1,0,0:0:0:0:
295,268,188982,1,0,0:0:0:0:
353,269,189066,1,0,0:0:0:0:
328,340,189149,1,8,0:0:0:0:
385,332,189232,1,0,0:0:0:0:
432,300,189315,1,0,0:0:0:0:
459,249,189399,1,0,0:0:0:0:
472,192,189483,2,0,L|488:132,1,58.1250022172929,8|0,0:0|0:0,0:0:0:0:
284,136,189649,5,8,0:0:0:0:
336,116,189733,1,8,0:0:0:0:
388,96,189816,2,0,L|444:76,1,58.1250022172929,8|0,0:0|0:0,0:0:0:0:
328,44,189983,2,0,L|252:72,1,58.1250022172929,8|0,0:0|0:0,0:0:0:0:
156,56,190149,2,0,L|232:24,1,58.1250022172929,8|0,0:0|0:0,0:0:0:0:
137,138,190316,2,0,L|84:160,1,58.1250022172929,8|0,0:0|0:0,0:0:0:0:
191,216,190483,2,0,L|244:192,1,58.1250022172929,8|0,0:0|0:0,0:0:0:0:
336,248,190649,2,0,L|272:276,1,58.1250022172929,8|0,0:0|0:0,0:0:0:0:
352,364,190816,6,0,L|416:364,1,58.1250022172929,8|0,0:0|0:0,0:0:0:0:
148,272,190983,1,8,0:0:0:0:
184,308,191066,1,8,0:0:0:0:
232,328,191149,2,0,L|312:332,1,58.1250022172929,8|0,0:0|0:0,0:0:0:0:
332,220,191316,2,0,L|344:144,1,58.1250022172929,8|0,0:0|0:0,0:0:0:0:
132,64,191483,2,0,L|120:124,1,58.1250022172929,8|0,0:0|0:0,0:0:0:0:
332,220,191649,2,0,L|344:144,1,58.1250022172929,8|0,0:0|0:0,0:0:0:0:
132,64,191816,2,0,L|92:208,1,116.250004434586,12|0,0:0|0:0,0:0:0:0:
264,84,192149,6,0,P|316:100|372:88,1,92.9999971618653,8|0,0:0|0:0,0:0:0:0:
432,268,192483,1,0,0:0:0:0:
248,300,192649,1,0,0:0:0:0:
164,136,192816,2,0,P|108:124|72:128,1,92.9999971618653,8|0,0:0|0:0,0:0:0:0:
140,304,193149,1,0,0:0:0:0:
324,340,193316,1,0,0:0:0:0:
311,193,193483,2,0,P|266:203|220:200,1,92.9999971618653,8|0,0:0|0:0,0:0:0:0:
360,76,193816,1,0,0:0:0:0:
472,224,193983,1,0,0:0:0:0:
292,188,194149,2,0,P|240:152|176:136,1,92.9999971618653,8|0,0:0|0:0,0:0:0:0:
292,64,194483,6,0,L|344:36,1,46.4999985809327
176,68,194649,2,0,L|192:24,1,46.4999985809327
100,144,194816,2,0,P|76:92|88:44,1,92.9999971618653,8|0,0:0|0:0,0:0:0:0:
188,212,195149,1,0,0:0:0:0:
44,328,195316,1,0,0:0:0:0:
228,292,195483,2,0,P|304:272|344:280,1,92.9999971618653,8|0,0:0|0:0,0:0:0:0:
336,88,195816,5,0,0:0:0:0:
252,200,195983,1,0,0:0:0:0:
176,84,196149,2,0,P|136:60|88:48,1,92.9999971618653,8|0,0:0|0:0,0:0:0:0:
44,180,196483,1,0,0:0:0:0:
74,214,196566,1,0,0:0:0:0:
114,238,196649,1,0,0:0:0:0:
159,248,196733,1,0,0:0:0:0:
212,248,196816,2,0,L|256:224,1,46.4999985809327,8|0,0:0|0:0,0:0:0:0:
204,152,196983,2,0,L|260:128,1,46.4999985809327
216,48,197149,5,0,0:0:0:0:
262,44,197232,1,0,0:0:0:0:
306,57,197315,1,0,0:0:0:0:
343,84,197399,1,0,0:0:0:0:
369,123,197483,5,8,0:0:0:0:
504,164,197649,1,0,0:0:0:0:
480,252,197816,2,0,L|448:344,1,92.9999971618653
316,296,198149,1,8,0:0:0:0:
356,160,198316,1,0,0:0:0:0:
220,124,198483,2,0,P|168:116|116:124,1,92.9999971618653
52,60,198816,5,8,0:0:0:0:
220,48,198983,1,0,0:0:0:0:
108,172,199149,2,0,P|144:208|168:284,1,92.9999971618653
264,304,199483,2,0,L|288:252,1,46.4999985809327,8|0,0:0|0:0,0:0:0:0:
392,216,199649,2,0,L|368:268,1,46.4999985809327
328,160,199816,1,0,0:0:0:0:
348,118,199899,1,0,0:0:0:0:
368,76,199982,1,0,0:0:0:0:
388,34,200066,1,0,0:0:0:0:
328,32,200149,6,0,P|260:32|212:48,1,92.9999971618653,8|0,0:0|0:0,0:0:0:0:
204,204,200483,1,0,0:0:0:0:
84,88,200649,1,0,0:0:0:0:
252,104,200816,2,0,P|284:124|360:140,1,92.9999971618653,8|0,0:0|0:0,0:0:0:0:
444,268,201149,1,0,0:0:0:0:
404,104,201316,1,0,0:0:0:0:
312,244,201483,2,0,P|276:260|208:272,1,92.9999971618653,8|0,0:0|0:0,0:0:0:0:
88,208,201816,6,0,L|56:168,1,46.4999985809327
192,120,201983,2,0,L|216:168,1,46.4999985809327
56,92,202149,1,8,0:0:0:0:
89,60,202232,1,0,0:0:0:0:
132,42,202315,1,0,0:0:0:0:
178,41,202399,1,0,0:0:0:0:
232,44,202483,2,0,L|280:48,1,46.4999985809327
328,144,202649,2,0,L|384:144,1,46.4999985809327
444,236,202816,6,0,L|380:304,1,92.9999971618653,8|0,0:0|0:0,0:0:0:0:
240,216,203149,1,0,0:0:0:0:
108,320,203316,1,0,0:0:0:0:
228,320,203483,2,0,P|284:320|336:296,1,92.9999971618653,8|0,0:0|0:0,0:0:0:0:
164,216,203816,2,0,P|116:208|64:216,1,92.9999971618653
260,152,204149,1,8,0:0:0:0:
124,52,204316,1,0,0:0:0:0:
420,192,204483,1,0,0:0:0:0:
284,92,204650,1,0,0:0:0:0:
172,136,204816,2,0,P|176:80|208:40,1,92.9999971618653,8|0,0:0|0:0,0:0:0:0:
376,152,205149,2,0,L|344:192,1,46.4999985809327
396,100,205316,2,0,P|404:76|404:52,1,46.4999985809327
324,32,205483,6,0,P|292:72|220:112,1,92.9999971618653,8|0,0:0|0:0,0:0:0:0:
212,256,205816,1,0,0:0:0:0:
136,108,205983,1,0,0:0:0:0:
56,256,206149,2,0,L|112:156,1,92.9999971618653,8|0,0:0|0:0,0:0:0:0:
268,164,206483,1,0,0:0:0:0:
352,308,206649,1,0,0:0:0:0:
440,164,206816,2,0,P|424:112|384:80,1,92.9999971618653,8|0,0:0|0:0,0:0:0:0:
228,76,207149,6,0,L|280:52,1,46.4999985809327
220,184,207316,2,0,L|168:216,1,46.4999985809327
64,216,207483,1,8,0:0:0:0:
58,170,207566,1,0,0:0:0:0:
68,124,207649,1,0,0:0:0:0:
94,86,207733,1,0,0:0:0:0:
136,144,207816,1,0,0:0:0:0:
157,103,207899,1,0,0:0:0:0:
192,72,207982,1,0,0:0:0:0:
236,57,208066,1,0,0:0:0:0:
284,52,208149,6,0,P|336:44|388:48,1,92.9999971618653,8|0,0:0|0:0,0:0:0:0:
456,196,208483,1,0,0:0:0:0:
360,332,208649,1,0,0:0:0:0:
268,244,208816,2,0,P|296:192|336:168,1,92.9999971618653,8|0,0:0|0:0,0:0:0:0:
484,124,209149,1,0,0:0:0:0:
344,32,209316,1,0,0:0:0:0:
252,172,209483,2,0,P|212:136|160:132,1,92.9999971618653,8|0,0:0|0:0,0:0:0:0:
60,136,209816,5,0,0:0:0:0:
160,272,209983,1,0,0:0:0:0:
44,220,210149,2,0,P|56:272|112:320,1,92.9999971618653,8|0,0:0|0:0,0:0:0:0:
244,352,210483,2,0,L|192:344,1,46.4999985809327
296,264,210649,2,0,L|344:268,1,46.4999985809327
420,208,210816,2,0,P|400:164|360:120,1,92.9999971618653,8|0,0:0|0:0,0:0:0:0:
272,56,211149,1,0,0:0:0:0:
208,212,211316,1,0,0:0:0:0:
296,144,211483,2,0,P|312:192|340:240,1,92.9999971618653,8|0,0:0|0:0,0:0:0:0:
480,308,211816,5,0,0:0:0:0:
372,180,211983,1,0,0:0:0:0:
208,256,212149,2,0,P|264:256|312:276,1,92.9999971618653,8|0,0:0|0:0,0:0:0:0:
392,268,212483,6,0,L|356:236,1,46.4999985809327
252,328,212649,2,0,L|288:360,1,46.4999985809327
356,352,212816,1,8,0:0:0:0:
388,304,212899,1,0,0:0:0:0:
404,248,212983,1,0,0:0:0:0:
408,188,213066,1,0,0:0:0:0:
340,192,213149,1,0,0:0:0:0:
348,120,213233,1,0,0:0:0:0:
376,56,213316,1,0,0:0:0:0:
440,24,213399,1,0,0:0:0:0:
468,88,213483,6,0,P|472:136|460:200,1,92.9999971618653,8|0,0:0|0:0,0:0:0:0:
308,80,213816,1,0,0:0:0:0:
224,192,213983,1,0,0:0:0:0:
100,128,214149,1,0,0:0:0:0:
380,116,214483,1,0,0:0:0:0:
296,228,214650,1,0,0:0:0:0:
176,164,214816,2,0,L|128:144,1,46.4999985809327,8|0,0:0|0:0,0:0:0:0:
308,120,214983,2,0,L|264:104,1,46.4999985809327
284,288,215149,2,0,L|216:256,1,46.4999985809327
432,200,215316,2,0,L|388:184,1,46.4999985809327
396,252,215483,6,0,L|448:272,1,46.4999985809327
364,292,215649,1,0,0:0:0:0:
320,320,215733,1,0,0:0:0:0:
268,336,215816,2,0,L|224:360,1,46.4999985809327
176,256,215983,2,0,L|128:288,1,46.4999985809327
60,232,216149,6,0,P|96:184|148:164,1,92.9999971618653,8|0,0:0|0:0,0:0:0:0:
160,80,216483,1,0,0:0:0:0:
280,164,216649,2,0,L|316:72,1,92.9999971618653
160,80,217149,1,0,0:0:0:0:
280,164,217316,6,0,L|304:108,1,46.4999985809327
456,44,217483,2,0,L|440:88,1,46.4999985809327,8|0,0:0|0:0,0:0:0:0:
364,120,217649,1,0,0:0:0:0:
336,72,217733,1,0,0:0:0:0:
292,40,217816,1,0,0:0:0:0:
236,32,217899,1,0,0:0:0:0:
180,28,217983,2,0,L|124:48,1,46.4999985809327
64,160,218149,2,0,L|112:136,1,46.4999985809327
260,156,218316,2,0,L|216:176,1,46.4999985809327
132,232,218483,2,0,P|112:276|132:324,1,92.9999971618653
232,256,218816,6,0,P|224:308|244:348,1,92.9999971618653,8|0,0:0|0:0,0:0:0:0:
328,180,219149,1,0,0:0:0:0:
472,212,219316,1,0,0:0:0:0:
360,112,219483,2,0,P|400:152|408:208,1,92.9999971618653
472,320,219816,2,0,P|416:268|408:236,1,92.9999971618653
344,271,220149,6,0,L|368:312,1,46.4999985809327,8|0,0:0|0:0,0:0:0:0:
244,152,220316,1,0,0:0:0:0:
236,208,220399,1,0,0:0:0:0:
228,264,220483,2,0,L|252:304,1,46.4999985809327
120,284,220649,2,0,L|140:328,1,46.4999985809327
152,184,220816,2,0,L|132:140,1,46.4999985809327
44,56,220983,1,0,0:0:0:0:
96,56,221066,1,0,0:0:0:0:
148,56,221149,2,0,L|208:40,1,46.4999985809327
268,92,221316,2,0,L|312:80,1,46.4999985809327
404,60,221483,6,0,P|436:84|448:144,1,92.9999971618653,8|0,0:0|0:0,0:0:0:0:
404,216,221733,1,8,0:0:0:0:
320,180,221816,2,0,P|264:160|228:164,1,92.9999971618653,8|0,0:0|0:0,0:0:0:0:
148,208,222066,1,8,0:0:0:0:
168,280,222149,2,0,L|216:304,1,46.4999985809327,8|0,0:0|0:0,0:0:0:0:
376,352,222316,2,0,L|340:324,1,46.4999985809327,8|0,0:0|0:0,0:0:0:0:
260,244,222483,5,8,0:0:0:0:
224,204,222566,1,0,0:0:0:0:
188,164,222649,1,8,0:0:0:0:
152,124,222733,1,0,0:0:0:0:
116,84,222816,2,0,L|68:96,1,46.4999985809327,8|0,0:0|0:0,0:0:0:0:
52,188,222983,1,8,0:0:0:0:
44,240,223066,1,0,0:0:0:0:
36,292,223149,2,0,L|92:304,1,46.4999985809327,8|0,0:0|0:0,0:0:0:0:
237,263,223316,2,0,L|192:256,1,46.4999985809327,8|0,0:0|0:0,0:0:0:0:
140,340,223483,2,0,L|192:348,1,46.4999985809327,8|0,0:0|0:0,0:0:0:0:
404,312,223649,2,0,L|336:300,1,46.4999985809327,8|0,0:0|0:0,0:0:0:0:
256,252,223816,5,8,0:0:0:0:
256,184,223899,1,0,0:0:0:0:
256,116,223983,1,8,0:0:0:0:
256,48,224066,1,0,0:0:0:0:
256,12,224149,6,0,P|204:12|160:24,1,92.9999971618653,8|0,0:0|0:0,0:0:0:0:
68,184,224483,1,0,0:0:0:0:
212,300,224649,1,0,0:0:0:0:
296,132,224816,2,0,P|232:92|196:88,1,92.9999971618653
168,180,225149,2,0,P|184:208|208:228,1,46.4999985809327
264,212,225316,2,0,P|280:240|304:260,1,46.4999985809327
380,280,225483,2,0,P|420:264|436:244,1,46.4999985809327,8|0,0:0|0:0,0:0:0:0:
456,176,225649,1,0,0:0:0:0:
416,148,225733,1,0,0:0:0:0:
376,120,225816,2,0,P|340:88|276:72,1,92.9999971618653
200,64,226149,6,0,L|152:100,3,46.4999985809327
104,48,226483,2,0,L|72:84,1,46.4999985809327
76,220,226649,2,0,L|104:168,1,46.4999985809327
192,164,226816,2,0,P|252:172|288:208,1,92.9999971618653,8|0,0:0|0:0,0:0:0:0:
260,352,227149,1,0,0:0:0:0:
436,288,227316,1,0,0:0:0:0:
352,188,227483,2,0,P|288:204|260:248,1,92.9999971618653
92,276,227816,5,0,0:0:0:0:
196,120,227983,1,0,0:0:0:0:
88,104,228149,2,0,L|64:64,1,46.4999985809327,8|0,0:0|0:0,0:0:0:0:
156,44,228316,1,0,0:0:0:0:
204,32,228399,1,0,0:0:0:0:
256,32,228483,2,0,L|312:32,1,46.4999985809327
308,116,228649,2,0,L|360:116,1,46.4999985809327
432,168,228816,2,0,L|432:220,1,46.4999985809327
332,276,228983,2,0,L|332:224,1,46.4999985809327
420,312,229149,2,0,P|384:340|312:348,1,92.9999971618653
232,264,229483,5,8,0:0:0:0:
104,260,229649,1,0,0:0:0:0:
212,188,229816,1,0,0:0:0:0:
80,184,229983,1,0,0:0:0:0:
132,72,230149,2,0,L|236:80,1,92.9999971618653,8|0,0:0|0:0,0:0:0:0:
392,160,230483,2,0,L|336:80,1,92.9999971618653
416,36,230816,6,0,P|456:68|476:124,1,92.9999971618653,8|0,0:0|0:0,0:0:0:0:
424,224,231149,1,0,0:0:0:0:
296,256,231316,1,0,0:0:0:0:
180,316,231483,2,0,L|224:332,1,46.4999985809327,8|0,0:0|0:0,0:0:0:0:
404,312,231649,2,0,L|356:296,1,46.4999985809327
144,192,231816,2,0,L|232:236,1,92.9999971618653
320,180,232149,6,0,P|308:128|280:88,1,92.9999971618653,8|0,0:0|0:0,0:0:0:0:
212,72,232399,1,8,0:0:0:0:
280,32,232483,2,0,P|332:48|384:40,1,92.9999971618653
448,48,232733,1,8,0:0:0:0:
404,112,232816,2,0,P|388:144|392:176,1,46.4999985809327,8|0,0:0|0:0,0:0:0:0:
472,204,232983,1,8,0:0:0:0:
468,252,233066,1,0,0:0:0:0:
456,300,233149,1,8,0:0:0:0:
436,348,233233,1,0,0:0:0:0:
388,336,233316,6,0,P|376:300|388:272,1,46.4999985809327,8|0,0:0|0:0,0:0:0:0:
380,212,233483,1,8,0:0:0:0:
332,184,233566,1,0,0:0:0:0:
292,144,233649,1,8,0:0:0:0:
272,92,233733,1,0,0:0:0:0:
336,100,233816,1,8,0:0:0:0:
312,44,233899,1,0,0:0:0:0:
252,28,233983,2,0,L|196:36,1,46.4999985809327,8|0,0:0|0:0,0:0:0:0:
172,128,234149,2,0,L|124:140,1,46.4999985809327,8|0,0:0|0:0,0:0:0:0:
56,256,234316,2,0,L|124:232,1,46.4999985809327,8|0,0:0|0:0,0:0:0:0:
248,248,234483,2,8,L|192:272,3,46.4999985809327
100,336,234816,5,8,0:0:0:0:
160,344,234900,1,0,0:0:0:0:
220,352,234983,1,0,0:0:0:0:
280,360,235066,1,0,0:0:0:0:
340,368,235149,2,0,P|396:364|448:336,1,92.9999971618653,8|0,0:0|0:0,0:0:0:0:
408,192,235483,2,0,P|352:192|304:212,1,92.9999971618653,8|0,0:0|0:0,0:0:0:0:
168,256,235816,5,8,0:0:0:0:
320,292,235983,1,0,0:0:0:0:
268,116,236149,2,0,L|324:96,1,46.4999985809327,8|0,0:0|0:0,0:0:0:0:
128,88,236316,1,0,0:0:0:0:
176,72,236399,1,0,0:0:0:0:
224,56,236483,2,0,L|268:36,1,46.4999985809327,8|0,0:0|0:0,0:0:0:0:
396,80,236649,2,0,L|352:104,1,46.4999985809327
232,204,236816,2,0,L|276:184,1,46.4999985809327,8|0,0:0|0:0,0:0:0:0:
240,280,236983,2,0,L|284:260,1,46.4999985809327
440,228,237149,2,0,L|396:208,1,46.4999985809327
432,304,237316,2,0,L|388:284,1,46.4999985809327
320,348,237483,6,0,P|264:360|196:360,1,92.9999971618653,8|0,0:0|0:0,0:0:0:0:
96,352,237816,1,8,0:0:0:0:
256,256,237983,1,0,0:0:0:0:
72,224,238149,2,0,B|40:196|40:196|124:140,1,92.9999971618653,8|0,0:0|0:0,0:0:0:0:
200,224,238483,1,8,0:0:0:0:
260,72,238649,1,0,0:0:0:0:
76,104,238816,6,0,L|148:104,1,46.4999985809327,8|0,0:0|0:0,0:0:0:0:
128,196,238983,1,8,0:0:0:0:
184,196,239066,1,8,0:0:0:0:
240,196,239149,2,0,L|288:196,1,46.4999985809327,8|0,0:0|0:0,0:0:0:0:
420,260,239316,2,0,L|356:260,1,46.4999985809327,8|0,0:0|0:0,0:0:0:0:
300,136,239483,2,0,L|300:80,1,46.4999985809327,8|0,0:0|0:0,0:0:0:0:
352,312,239649,2,0,L|352:360,1,46.4999985809327,8|0,0:0|0:0,0:0:0:0:
300,136,239816,2,0,L|300:24,1,92.9999971618653,8|0,0:0|0:0,0:0:0:0:
208,56,240149,6,0,P|156:72|108:64,1,92.9999971618653,8|0,0:0|0:0,0:0:0:0:
36,236,240483,1,8,0:0:0:0:
196,140,240649,1,0,0:0:0:0:
336,188,240816,2,0,P|396:172|440:140,1,92.9999971618653,8|0,0:0|0:0,0:0:0:0:
360,56,241149,1,8,0:0:0:0:
244,200,241316,1,0,0:0:0:0:
340,288,241483,6,0,L|280:308,1,46.4999985809327,8|0,0:0|0:0,0:0:0:0:
220,324,241649,1,0,0:0:0:0:
164,316,241733,1,0,0:0:0:0:
108,308,241816,2,0,P|92:252|56:204,1,92.9999971618653,8|0,0:0|0:0,0:0:0:0:
152,56,242149,2,0,L|140:112,1,46.4999985809327,8|0,0:0|0:0,0:0:0:0:
180,188,242316,1,0,0:0:0:0:
232,208,242399,1,0,0:0:0:0:
288,228,242483,2,0,L|312:188,1,46.4999985809327,8|0,0:0|0:0,0:0:0:0:
392,276,242649,2,0,L|416:236,1,46.4999985809327
436,144,242816,6,0,P|392:108|356:92,1,92.9999971618653,8|0,0:0|0:0,0:0:0:0:
272,60,243066,1,8,0:0:0:0:
188,100,243149,2,0,P|156:136|144:208,1,92.9999971618653,8|0,0:0|0:0,0:0:0:0:
188,260,243399,1,8,0:0:0:0:
148,344,243483,2,0,P|120:348|84:336,1,46.4999985809327,8|0,0:0|0:0,0:0:0:0:
236,268,243649,2,0,P|258:264|281:268,1,46.4999985809327,8|0,0:0|0:0,0:0:0:0:
324,356,243816,2,0,L|272:352,1,46.4999985809327,8|0,0:0|0:0,0:0:0:0:
84,264,243983,2,0,L|144:268,1,46.4999985809327,8|0,0:0|0:0,0:0:0:0:
308,184,244149,6,0,L|276:144,1,46.4999985809327,8|0,0:0|0:0,0:0:0:0:
212,80,244316,1,0,0:0:0:0:
156,60,244399,1,0,0:0:0:0:
100,84,244483,2,0,L|60:108,1,46.4999985809327,8|0,0:0|0:0,0:0:0:0:
72,220,244649,2,0,L|112:192,1,46.4999985809327
216,216,244816,2,0,L|176:240,1,46.4999985809327,8|0,0:0|0:0,0:0:0:0:
276,276,244983,2,0,L|236:300,1,46.4999985809327,8|0,0:0|0:0,0:0:0:0:
340,344,245149,2,0,L|400:228,1,116.250004434586,8|0,0:0|0:0,0:0:0:0:
352,98,245483,6,0,P|391:123|420:160,1,92.9999971618653,8|0,0:0|0:0,0:0:0:0:
456,296,245816,1,8,0:0:0:0:
344,212,245983,1,0,0:0:0:0:
208,228,246149,2,0,P|156:208|116:160,1,92.9999971618653,8|0,0:0|0:0,0:0:0:0:
120,88,246483,2,0,L|172:80,1,46.4999985809327,8|0,0:0|0:0,0:0:0:0:
228,88,246649,2,0,L|272:104,1,46.4999985809327
320,136,246816,2,0,L|344:176,1,46.4999985809327,8|0,0:0|0:0,0:0:0:0:
324,44,246983,1,0,0:0:0:0:
380,48,247066,1,0,0:0:0:0:
436,52,247149,2,0,L|484:56,1,46.4999985809327,8|0,0:0|0:0,0:0:0:0:
400,160,247316,2,0,L|353:156,1,46.4999985809327
248,80,247483,5,8,0:0:0:0:
203,67,247566,1,0,0:0:0:0:
157,70,247649,1,0,0:0:0:0:
113,86,247733,1,0,0:0:0:0:
76,116,247816,2,0,L|32:96,1,46.4999985809327,8|0,0:0|0:0,0:0:0:0:
84,216,247983,2,0,L|32:232,1,46.4999985809327
156,304,248149,2,0,P|168:252|216:212,1,92.9999971618653,8|0,0:0|0:0,0:0:0:0:
264,196,248399,1,0,0:0:0:0:
328,236,248483,2,0,P|332:256|324:292,1,46.4999985809327,8|0,0:0|0:0,0:0:0:0:
248,344,248649,2,0,P|240:320|256:288,1,46.4999985809327
392,168,248816,2,0,P|396:188|388:224,1,46.4999985809327,8|0,0:0|0:0,0:0:0:0:
304,176,248983,5,0,0:0:0:0:
284,132,249066,1,0,0:0:0:0:
248,96,249149,2,0,P|288:60|328:40,1,92.9999971618653,8|0,0:0|0:0,0:0:0:0:
452,60,249483,2,0,P|432:80|400:96,1,46.4999985809327,8|0,0:0|0:0,0:0:0:0:
376,160,249649,1,8,0:0:0:0:
408,216,249733,1,8,0:0:0:0:
444,272,249816,2,0,L|392:296,1,46.4999985809327,8|0,0:0|0:0,0:0:0:0:
272,328,249983,2,0,L|328:328,1,46.4999985809327,8|0,0:0|0:0,0:0:0:0:
248,236,250149,2,0,L|180:216,1,46.4999985809327,8|0,0:0|0:0,0:0:0:0:
212,184,250316,2,0,L|144:164,1,46.4999985809327,8|0,0:0|0:0,0:0:0:0:
180,128,250483,2,0,L|60:84,1,116.250004434586,8|0,0:0|0:0,0:0:0:0:
204,40,250816,6,0,P|256:28|312:28,1,92.9999971618653,8|0,0:0|0:0,0:0:0:0:
452,44,251149,1,8,0:0:0:0:
372,180,251316,1,0,0:0:0:0:
368,104,251483,2,0,P|432:132|456:188,1,92.9999971618653,8|0,0:0|0:0,0:0:0:0:
368,256,251816,2,0,P|304:228|280:172,1,92.9999971618653,8|0,0:0|0:0,0:0:0:0:
268,56,252149,2,0,L|224:80,1,46.4999985809327,8|0,0:0|0:0,0:0:0:0:
48,72,252316,1,0,0:0:0:0:
96,52,252399,1,0,0:0:0:0:
144,36,252483,2,0,L|192:28,1,46.4999985809327,8|0,0:0|0:0,0:0:0:0:
124,156,252649,2,0,L|60:156,1,46.4999985809327
160,268,252816,2,0,L|208:260,1,46.4999985809327,8|0,0:0|0:0,0:0:0:0:
304,236,252983,5,0,0:0:0:0:
342,209,253066,1,0,0:0:0:0:
368,171,253149,1,8,0:0:0:0:
377,126,253233,1,0,0:0:0:0:
371,80,253316,1,0,0:0:0:0:
353,37,253399,1,0,0:0:0:0:
312,20,253483,6,0,L|260:16,1,46.4999985809327,8|0,0:0|0:0,0:0:0:0:
112,72,253649,1,8,0:0:0:0:
168,96,253733,1,8,0:0:0:0:
224,120,253816,2,0,L|296:112,1,46.4999985809327,8|0,0:0|0:0,0:0:0:0:
48,160,253983,1,8,0:0:0:0:
104,184,254067,1,8,0:0:0:0:
160,208,254149,2,0,L|232:200,1,46.4999985809327,8|0,0:0|0:0,0:0:0:0:
196,280,254316,2,0,L|248:272,1,46.4999985809327,8|0,0:0|0:0,0:0:0:0:
404,200,254483,2,0,L|357:194,1,46.4999985809327,8|0,0:0|0:0,0:0:0:0:
368,272,254649,2,0,L|322:264,1,46.4999985809327,8|0,0:0|0:0,0:0:0:0:
264,208,254816,6,0,L|304:168,1,46.4999985809327,8|0,0:0|0:0,0:0:0:0:
348,112,254983,1,8,0:0:0:0:
312,80,255066,1,8,0:0:0:0:
272,52,255149,2,0,L|228:76,1,46.4999985809327,8|0,0:0|0:0,0:0:0:0:
56,216,255316,2,0,L|96:168,1,46.4999985809327,8|0,0:0|0:0,0:0:0:0:
192,288,255483,2,0,L|196:240,1,46.4999985809327,8|0,0:0|0:0,0:0:0:0:
348,260,255649,2,0,L|312:216,1,46.4999985809327,8|0,0:0|0:0,0:0:0:0:
456,148,255816,1,8,0:0:0:0:
411,136,255899,1,0,0:0:0:0:
366,124,255982,1,0,0:0:0:0:
321,112,256066,1,0,0:0:0:0:
272,96,256149,6,0,B|208:64|176:56|152:64,1,116.250004434586,12|0,0:0|0:0,0:0:0:0:
72,304,256483,1,8,0:0:0:0:
176,136,256649,1,0,0:0:0:0:
336,336,256816,2,0,P|408:328|456:304,1,116.250004434586,8|0,0:0|0:0,0:0:0:0:
320,40,257149,1,8,0:0:0:0:
480,128,257316,1,0,0:0:0:0:
328,232,257483,1,8,0:0:0:0:
176,136,257649,1,0,0:0:0:0:
120,96,257733,1,0,0:0:0:0:
64,56,257816,1,8,0:0:0:0:
128,264,257983,5,0,0:0:0:0:
184,280,258066,1,0,0:0:0:0:
240,296,258149,1,8,0:0:0:0:
240,296,258233,1,0,0:0:0:0:
240,296,258316,1,8,0:0:0:0:
240,296,258399,1,0,0:0:0:0:
240,296,258483,1,8,0:0:0:0:
240,296,258566,1,0,0:0:0:0:
240,296,258649,1,8,0:0:0:0:
240,296,258733,1,0,0:0:0:0:
240,296,258816,6,0,P|320:296|368:312,1,116.250004434586,8|0,0:0|0:0,0:0:0:0:
428,324,259066,1,0,0:0:0:0:
472,264,259149,2,0,P|488:208|476:152,2,116.250004434586,8|0|8,0:0|0:0|0:0,0:0:0:0:
328,244,259649,1,0,0:0:0:0:
280,196,259733,1,0,0:0:0:0:
228,152,259816,2,0,P|272:108|328:96,1,116.250004434586,8|0,0:0|0:0,0:0:0:0:
404,128,260149,5,8,0:0:0:0:
176,208,260316,1,8,0:0:0:0:
224,156,260399,1,8,0:0:0:0:
280,124,260483,2,0,L|348:116,1,58.1250022172929,8|0,0:0|0:0,0:0:0:0:
260,260,260649,2,0,L|200:276,1,58.1250022172929,8|0,0:0|0:0,0:0:0:0:
96,192,260816,2,0,L|156:180,1,58.1250022172929,8|0,0:0|0:0,0:0:0:0:
24,88,260983,2,0,L|88:72,1,58.1250022172929,8|0,0:0|0:0,0:0:0:0:
204,72,261149,2,0,P|232:128|332:132,1,116.250004434586,8|0,0:0|0:0,0:0:0:0:
376,56,261483,6,0,P|428:96|428:172,1,116.250004434586,8|0,0:0|0:0,0:0:0:0:
320,304,261816,1,8,0:0:0:0:
192,152,261983,1,0,0:0:0:0:
84,316,262149,2,0,P|144:336|200:324,1,116.250004434586,8|0,0:0|0:0,0:0:0:0:
404,156,262483,1,8,0:0:0:0:
232,64,262649,1,0,0:0:0:0:
252,260,262816,1,8,0:0:0:0:
92,144,262983,1,0,0:0:0:0:
104,88,263066,1,0,0:0:0:0:
144,48,263149,1,8,0:0:0:0:
148,244,263316,1,0,0:0:0:0:
332,172,263483,1,8,0:0:0:0:
476,308,263649,5,0,0:0:0:0:
424,284,263733,1,0,0:0:0:0:
376,308,263816,1,8,0:0:0:0:
192,232,263983,1,0,0:0:0:0:
344,104,264149,2,0,L|400:76,1,58.1250022172929,8|0,0:0|0:0,0:0:0:0:
236,108,264316,1,8,0:0:0:0:
212,84,264399,1,8,0:0:0:0:
188,60,264483,2,0,L|244:28,1,58.1250022172929,8|0,0:0|0:0,0:0:0:0:
136,208,264649,1,8,0:0:0:0:
112,184,264733,1,8,0:0:0:0:
88,160,264816,2,0,L|144:128,1,58.1250022172929
280,240,264983,1,8,0:0:0:0:
320,276,265066,1,8,0:0:0:0:
364,312,265149,2,0,L|296:352,1,58.1250022172929,8|0,0:0|0:0,0:0:0:0:
180,332,265316,2,0,L|248:300,1,58.1250022172929,8|0,0:0|0:0,0:0:0:0:
72,180,265483,6,0,L|128:168,1,58.1250022172929,8|0,0:0|0:0,0:0:0:0:
164,88,265649,1,8,0:0:0:0:
220,80,265733,1,8,0:0:0:0:
276,72,265816,2,0,L|336:60,1,58.1250022172929,8|0,0:0|0:0,0:0:0:0:
304,156,265983,1,8,0:0:0:0:
360,148,266067,1,8,0:0:0:0:
416,140,266150,2,0,L|476:128,1,58.1250022172929,8|0,0:0|0:0,0:0:0:0:
100,192,266316,1,8,0:0:0:0:
264,300,266483,2,0,P|216:344|136:352,1,116.250004434586,8|0,0:0|0:0,0:0:0:0:
260,72,266816,5,8,0:0:0:0:
176,252,266983,1,0,0:0:0:0:
372,248,267149,1,8,0:0:0:0:
208,140,267316,1,0,0:0:0:0:
404,136,267483,1,8,0:0:0:0:
312,312,267649,1,0,0:0:0:0:
300,116,267816,1,8,0:0:0:0:
328,216,267983,1,0,0:0:0:0:
128,168,268149,1,8,0:0:0:0:
316,112,268316,5,0,0:3:0:0:
356,68,268400,1,0,0:3:0:0:
292,64,268483,1,8,0:0:0:0:
360,308,268649,1,0,0:0:0:0:
313,341,268732,1,0,0:0:0:0:
256,351,268815,1,8,0:0:0:0:
200,335,268898,1,0,0:0:0:0:
157,297,268982,1,8,0:0:0:0:
136,243,269065,1,0,0:0:0:0:
139,186,269148,1,8,0:0:0:0:
167,136,269232,1,0,0:0:0:0:
214,103,269316,1,8,0:0:0:0:
271,93,269398,1,0,0:0:0:0:
320,112,269483,6,0,B|352:120|372:88|372:88|440:120,1,116.250004434586,8|0,0:0|0:0,0:0:0:0:
340,292,269816,1,8,0:0:0:0:
232,124,269983,1,0,0:0:0:0:
120,284,270149,1,8,0:0:0:0:
68,92,270316,1,0,0:0:0:0:
240,192,270483,1,8,0:0:0:0:
396,72,270650,1,0,0:0:0:0:
416,268,270816,1,8,0:0:0:0:
152,260,270983,1,0,0:0:0:0:
224,264,271066,1,0,0:0:0:0:
288,300,271149,1,8,0:0:0:0:
416,192,271316,1,0,0:0:0:0:
292,96,271483,1,8,0:0:0:0:
484,52,271649,1,0,0:0:0:0:
112,208,271816,2,0,L|112:336,1,116.250004434586,8|0,0:0|0:0,0:0:0:0:
40,140,272149,5,8,0:0:0:0:
208,244,272316,1,8,0:0:0:0:
112,72,272483,1,8,0:0:0:0:
284,172,272649,1,8,0:0:0:0:
148,316,272816,1,8,0:0:0:0:
324,228,272983,1,8,0:0:0:0:
128,240,273149,1,8,0:0:0:0:
304,148,273316,1,8,0:0:0:0:
292,344,273483,5,8,0:0:0:0:
188,136,273649,1,8,0:0:0:0:
408,60,273816,1,8,0:0:0:0:
232,212,273983,1,8,0:0:0:0:
432,328,274149,1,8,0:0:0:0:
320,124,274316,1,8,0:0:0:0:
204,324,274482,1,8,0:0:0:0:
64,140,274649,1,8,0:0:0:0:
200,76,274816,6,0,L|268:72,1,58.1250022172929,8|0,0:0|0:0,0:0:0:0:
436,52,274983,1,8,0:0:0:0:
440,109,275066,1,0,0:0:0:0:
431,167,275149,1,8,0:0:0:0:
410,221,275232,1,0,0:0:0:0:
377,269,275316,1,8,0:0:0:0:
335,309,275399,1,0,0:0:0:0:
328,184,275483,6,0,P|319:211|301:234,1,58.1250022172929,8|0,0:0|0:0,0:0:0:0:
260,136,275649,1,8,0:0:0:0:
244,191,275732,1,0,0:0:0:0:
212,240,275816,1,8,0:0:0:0:
170,279,275898,1,0,0:0:0:0:
119,307,275982,1,8,0:0:0:0:
62,321,276065,1,0,0:0:0:0:
148,188,276149,6,0,L|98:217,1,58.1250022172929,8|0,0:0|0:0,0:0:0:0:
232,48,276316,1,8,0:0:0:0:
164,88,276399,1,8,0:0:0:0:
100,132,276483,2,0,L|48:160,1,58.1250022172929,8|0,0:0|0:0,0:0:0:0:
216,272,276649,1,8,0:0:0:0:
284,232,276733,1,8,0:0:0:0:
348,188,276816,2,0,L|400:160,1,58.1250022172929,8|0,0:0|0:0,0:0:0:0:
292,116,276983,1,8,0:0:0:0:
224,156,277066,1,0,0:0:0:0:
160,200,277150,2,0,L|28:272,1,131.750002512932,8|0,0:0|0:0,0:0:0:0:
212,360,277483,6,0,P|292:360|332:340,1,96.875,8|0,0:0|0:0,0:0:0:0:
440,208,277816,2,0,P|436:128|400:104,1,96.875
272,64,278149,2,0,P|240:124|256:172,1,96.875
76,140,278483,1,0,0:0:0:0:
200,288,278649,1,0,0:0:0:0:
364,180,278816,2,0,L|416:96,1,96.875,8|0,0:0|0:0,0:0:0:0:
340,48,279149,2,0,P|264:24|248:64,1,96.875
208,200,279483,2,0,L|120:136,1,96.875
128,304,279816,5,0,0:0:0:0:
180,72,279983,1,0,0:0:0:0:
320,128,280149,2,0,P|400:136|448:36,1,193.75,8|0,0:0|0:0,0:0:0:0:
376,216,280649,1,0,0:0:0:0:
372,76,280816,2,0,P|296:24|208:84,1,193.75,8|0,0:0|0:0,0:0:0:0:
192,200,281316,1,0,0:0:0:0:
180,248,281399,1,0,0:0:0:0:
168,288,281483,1,8,0:0:0:0:
120,108,281649,5,0,0:0:0:0:
96,160,281733,1,0,0:0:0:0:
72,212,281816,1,8,0:0:0:0:
228,352,281983,1,8,0:0:0:0:
261,317,282066,1,0,0:0:0:0:
291,309,282149,1,8,0:0:0:0:
321,347,282232,1,0,0:0:0:0:
359,375,282316,1,8,0:0:0:0:
398,349,282399,1,0,0:0:0:0:
444,324,282483,2,0,L|500:200,1,131.750002512932,8|0,0:0|0:0,0:0:0:0:
204,36,282816,6,0,P|280:48|316:36,1,116.250004434586,8|0,0:0|0:0,0:0:0:0:
292,228,283149,2,0,P|320:144|360:112,1,116.250004434586
96,72,283483,1,0,0:0:0:0:
152,316,283649,1,0,0:0:0:0:
308,144,283816,1,0,0:0:0:0:
80,200,283983,1,0,0:0:0:0:
324,292,284149,2,0,P|352:224|376:184,1,116.250004434586,8|0,0:0|0:0,0:0:0:0:
448,228,284483,2,0,P|444:136|428:108,1,116.250004434586
196,288,284816,5,0,0:0:0:0:
189,230,284899,1,0,0:0:0:0:
167,176,284982,1,8,0:0:0:0:
136,127,285065,1,0,0:0:0:0:
93,95,285149,1,8,0:0:0:0:
36,80,285232,1,0,0:0:0:0:
36,68,285316,1,8,0:0:0:0:
91,51,285399,1,0,0:0:0:0:
144,32,285483,6,0,L|268:13,1,116.250004434586,8|0,0:0|0:0,0:0:0:0:
384,196,285816,2,0,L|264:184,1,116.250004434586
88,328,286149,2,0,P|128:244|132:216,1,116.250004434586,8|0,0:0|0:0,0:0:0:0:
192,40,286483,2,0,P|156:84|152:156,1,116.250004434586
84,160,286816,5,8,0:0:0:0:
344,180,286983,1,0,0:0:0:0:
164,328,287149,1,8,0:0:0:0:
332,20,287316,1,8,0:0:0:0:
400,320,287483,2,0,L|408:256,1,58.1250022172929,8|0,0:0|0:0,0:0:0:0:
264,200,287649,2,0,L|268:164,1,29.0625011086464,8|0,0:0|0:0,0:0:0:0:
128,104,287816,2,0,L|128:56,1,38.75,8|0,0:0|0:0,0:0:0:0:
296,56,288149,6,0,P|356:68|408:88,1,108.499996688843,8|0,0:0|0:0,0:0:0:0:
468,256,288483,2,0,P|415:245|370:215,1,108.499996688843
248,112,288816,2,0,P|192:68|144:52,1,108.499996688843
280,32,289149,1,0,0:0:0:0:
64,108,289316,1,0,0:0:0:0:
200,272,289483,2,0,P|244:308|300:288,1,108.499996688843,8|0,0:0|0:0,0:0:0:0:
360,132,289816,2,0,P|432:84|492:180,1,216.999993377686
448,256,290316,6,0,L|404:288,1,54.2499983444214,8|0,0:0|0:0,0:0:0:0:
352,240,290483,1,8,0:0:0:0:
296,192,290566,1,0,0:0:0:0:
220,144,290649,1,8,0:0:0:0:
152,76,290733,1,0,0:0:0:0:
64,0,290816,2,0,P|88:76|64:220,1,216.999993377686,8|0,0:0|0:0,0:0:0:0:
256,304,291316,2,0,L|200:320,1,54.2499983444214
160,216,291483,2,0,P|228:144|320:208,1,216.999993377686
408,248,291983,5,0,0:0:0:0:
436,200,292066,1,0,0:0:0:0:
460,148,292149,2,0,P|460:100|420:40,1,108.499996688843,8|0,0:0|0:0,0:0:0:0:
336,32,292483,2,0,P|364:77|365:131,1,108.499996688843
388,328,292816,1,8,0:0:0:0:
328,236,292899,1,0,0:0:0:0:
256,156,292983,1,8,0:0:0:0:
168,92,293065,1,0,0:0:0:0:
68,48,293149,2,0,P|84:128|92:176,1,108.499996688843,8|0,0:0|0:0,0:0:0:0:
340,104,293483,6,0,L|232:60,1,108.499996688843,8|0,0:0|0:0,0:0:0:0:
92,200,293816,1,0,0:0:0:0:
200,340,293983,1,0,0:0:0:0:
288,232,294149,2,0,L|400:208,1,108.499996688843
212,248,294483,1,0,0:0:0:0:
408,344,294649,1,0,0:0:0:0:
424,220,294816,2,0,P|408:160|412:112,1,108.499996688843,8|0,0:0|0:0,0:0:0:0:
480,148,295149,2,0,P|452:60|332:44,1,216.999993377686
56,168,295649,6,0,L|96:128,1,54.2499983444214,8|0,0:0|0:0,0:0:0:0:
124,40,295816,1,8,0:0:0:0:
155,84,295899,1,0,0:0:0:0:
186,128,295982,1,8,0:0:0:0:
217,173,296065,1,0,0:0:0:0:
248,216,296149,2,0,B|216:224|216:224|224:308|168:304|136:264|136:264|128:308|120:320,1,216.999993377686,8|0,0:0|0:0,0:0:0:0:
276,40,296816,2,0,B|340:64|340:64|364:32|400:12|420:40|424:88|424:88|424:88|448:80,1,216.999993377686,8|0,0:0|0:0,0:0:0:0:
372,160,297316,2,0,P|336:168|308:148,1,54.2499983444214
76,116,297483,5,8,0:0:0:0:
128,96,297566,1,0,0:0:0:0:
180,72,297649,2,8,L|240:56,1,54.2499983444214
236,168,297816,1,8,0:0:0:0:
288,148,297899,1,0,0:0:0:0:
340,124,297983,2,8,L|400:108,1,54.2499983444214
488,204,298149,1,8,0:0:0:0:
427,291,298233,1,0,0:0:0:0:
329,337,298316,1,8,0:0:0:0:
222,344,298399,1,8,0:0:0:0:
116,304,298483,2,8,L|60:296,3,54.2499983444214
96,232,298816,6,0,P|136:172|156:112,1,131.750002512932,8|0,0:0|0:0,0:0:0:0:
92,36,299149,2,0,L|120:104,3,65.8750012564659,8|0|0|0,0:0|0:0|0:0|0:0,0:0:0:0:
244,56,299483,2,0,L|232:136,3,65.8750012564659,8|0|0|0,0:0|0:0|0:0|0:0,0:0:0:0:
364,152,299816,2,0,L|304:204,3,65.8750012564659,8|0|0|0,0:0|0:0|0:0|0:0,0:0:0:0:
200,328,300149,2,0,B|204:252|204:252,1,65.8750012564659,8|0,0:0|0:0,0:0:0:0:
311,58,300316,2,0,B|308:132|308:121,1,65.8750012564659
200,328,300483,2,0,B|204:252|204:252,1,65.8750012564659,8|0,0:0|0:0,0:0:0:0:
311,58,300649,2,0,B|308:132|308:121,1,65.8750012564659
308,264,300816,2,0,L|384:284,1,65.8750012564659,8|0,0:0|0:0,0:0:0:0:
148,216,300983,2,0,L|72:224,1,65.8750012564659
200,148,301149,2,0,B|272:160|280:116|280:116|328:144|328:144,1,131.750002512932,8|0,0:0|0:0,0:0:0:0:
440,176,301483,6,0,L|392:128,1,65.8750012564659,8|0,0:0|0:0,0:0:0:0:
312,232,301649,2,0,L|264:164,1,65.8750012564659
272,64,301816,2,0,L|320:16,3,65.8750012564659,8|0|0|0,0:0|0:0|0:0|0:0,0:0:0:0:
168,80,302149,2,0,L|100:72,3,65.8750012564659,8|0|0|0,0:0|0:0|0:0|0:0,0:0:0:0:
116,136,302483,1,8,0:0:0:0:
89,196,302566,1,0,0:0:0:0:
88,261,302649,1,8,0:0:0:0:
122,317,302732,1,0,0:0:0:0:
171,361,302816,6,0,L|264:348,1,65.8750012564659,8|0,0:0|0:0,0:0:0:0:
340,268,302983,2,0,L|424:256,1,65.8750012564659,8|0,0:0|0:0,0:0:0:0:
480,152,303149,2,0,L|412:164,1,65.8750012564659,8|0,0:0|0:0,0:0:0:0:
284,188,303316,2,0,L|200:204,1,65.8750012564659,8|0,0:0|0:0,0:0:0:0:
296,92,303483,1,8,0:0:0:0:
352,72,303566,1,0,0:0:0:0:
408,56,303649,1,0,0:0:0:0:
192,204,303816,1,8,0:0:0:0:
136,224,303899,1,0,0:0:0:0:
80,240,303983,1,0,0:0:0:0:
104,108,304149,6,0,P|152:56|212:40,1,131.750002512932
336,88,304483,2,0,L|296:24,1,65.8750012564659,8|0,0:0|0:0,0:0:0:0:
450,151,304649,2,0,L|416:96,1,65.8750012564659
336,88,304816,2,0,L|296:24,1,65.8750012564659,8|0,0:0|0:0,0:0:0:0:
450,151,304982,2,0,L|416:96,1,65.8750012564659
368,224,305149,2,0,L|360:152,1,65.8750012564659,8|0,0:0|0:0,0:0:0:0:
268,300,305316,2,0,L|280:220,1,65.8750012564659
168,208,305483,6,0,L|96:244,1,65.8750012564659,8|0,0:0|0:0,0:0:0:0:
238,98,305649,2,0,L|180:128,1,65.8750012564659
168,208,305818,2,0,L|96:244,1,65.8750012564659,8|0,0:0|0:0,0:0:0:0:
238,98,305982,2,0,L|180:128,1,65.8750012564659
84,112,306149,1,8,0:0:0:0:
58,172,306232,1,0,0:0:0:0:
60,237,306315,1,8,0:0:0:0:
88,296,306398,1,0,0:0:0:0:
144,340,306483,2,8,L|176:336,4,32.937500628233
192,220,306816,6,0,P|292:192|332:196,1,131.750002512932,8|0,0:0|0:0,0:0:0:0:
472,228,307149,2,0,L|392:248,1,65.8750012564659,8|0,0:0|0:0,0:0:0:0:
440,284,307316,2,0,L|360:304,1,65.8750012564659
228,276,307483,2,0,L|291:260,1,65.8750012564659,8|0,0:0|0:0,0:0:0:0:
196,332,307649,2,0,L|259:316,1,65.8750012564659
384,344,307816,2,0,L|360:272,1,65.8750012564659,8|0,0:0|0:0,0:0:0:0:
184,80,307983,2,0,L|208:152,1,65.8750012564659
272,144,308149,6,0,L|328:104,1,65.8750012564659,8|0,0:0|0:0,0:0:0:0:
280,280,308316,1,8,0:0:0:0:
328,240,308399,1,8,0:0:0:0:
376,200,308483,2,0,L|424:156,1,65.8750012564659,8|0,0:0|0:0,0:0:0:0:
136,284,308649,1,8,0:0:0:0:
184,244,308733,1,8,0:0:0:0:
232,204,308816,2,0,L|280:160,1,65.8750012564659,8|0,0:0|0:0,0:0:0:0:
148,156,308983,1,8,0:0:0:0:
196,116,309066,1,8,0:0:0:0:
244,76,309149,2,0,L|304:28,1,77.5,8|0,0:0|0:0,0:0:0:0:
424,48,309483,6,0,P|420:120|444:196,1,131.750002512932,8|0,0:0|0:0,0:0:0:0:
312,128,309816,2,0,L|272:68,3,65.8750012564659,8|0|0|0,0:0|0:0|0:0|0:0,0:0:0:0:
252,204,310149,2,0,L|192:172,3,65.8750012564659,8|0|0|0,0:0|0:0|0:0|0:0,0:0:0:0:
216,304,310483,2,0,L|144:292,3,65.8750012564659,8|0|0|0,0:0|0:0|0:0|0:0,0:0:0:0:
424,308,310816,2,0,L|360:328,1,65.8750012564659,8|0,0:0|0:0,0:0:0:0:
100,244,310983,2,0,L|168:224,1,65.8750012564659
424,308,311149,2,0,L|360:328,1,65.8750012564659,8|0,0:0|0:0,0:0:0:0:
100,244,311316,2,0,L|168:224,1,65.8750012564659
212,348,311483,2,0,L|252:288,1,65.8750012564659,8|0,0:0|0:0,0:0:0:0:
340,80,311649,2,0,L|300:140,1,65.8750012564659
204,160,311816,2,0,P|144:132|100:80,1,131.750002512932,8|0,0:0|0:0,0:0:0:0:
40,112,312149,6,0,P|52:64|112:0,1,131.750002512932,8|0,0:0|0:0,0:0:0:0:
352,252,312483,2,0,L|368:180,1,65.8750012564659,8|0,0:0|0:0,0:0:0:0:
256,120,312649,2,0,L|244:48,1,65.8750012564659
364,120,312816,2,0,L|416:80,3,65.8750012564659,8|0|0|0,0:0|0:0|0:0|0:0,0:0:0:0:
236,228,313149,2,0,L|184:268,3,65.8750012564659,8|0|0|0,0:0|0:0|0:0|0:0,0:0:0:0:
192,100,313483,6,0,L|204:32,1,65.8750012564659,8|0,0:0|0:0,0:0:0:0:
300,56,313649,2,0,L|364:36,1,65.8750012564659,8|0,0:0|0:0,0:0:0:0:
292,188,313816,2,0,L|304:120,1,65.8750012564659,8|0,0:0|0:0,0:0:0:0:
400,144,313983,2,0,L|464:124,1,65.8750012564659,8|0,0:0|0:0,0:0:0:0:
420,252,314149,1,8,0:0:0:0:
404,312,314233,1,0,0:0:0:0:
384,372,314316,1,0,0:0:0:0:
92,132,314483,1,8,0:0:0:0:
108,72,314567,1,0,0:0:0:0:
128,12,314650,1,0,0:0:0:0:
344,48,314816,6,0,P|264:56|204:40,1,131.750002512932,8|0,0:0|0:0,0:0:0:0:
176,152,315149,2,0,L|112:136,1,65.8750012564659,8|0,0:0|0:0,0:0:0:0:
32,224,315316,1,0,0:0:0:0:
96,272,315399,1,0,0:0:0:0:
176,268,315483,2,0,L|244:260,1,65.8750012564659,8|0,0:0|0:0,0:0:0:0:
256,348,315649,1,0,0:0:0:0:
324,296,315733,1,0,0:0:0:0:
376,236,315816,2,0,L|396:168,1,65.8750012564659,8|0,0:0|0:0,0:0:0:0:
232,136,315983,2,0,L|156:152,1,65.8750012564659
292,196,316149,6,0,L|312:128,1,65.8750012564659,8|0,0:0|0:0,0:0:0:0:
148,96,316316,2,0,L|72:112,1,65.8750012564659
36,216,316483,2,0,L|136:196,1,65.8750012564659,8|0,0:0|0:0,0:0:0:0:
168,316,316649,2,0,L|240:304,1,65.8750012564659
112,248,316816,2,0,L|212:228,1,65.8750012564659,8|0,0:0|0:0,0:0:0:0:
244,348,316982,2,0,L|316:336,1,65.8750012564659
408,248,317149,2,0,L|360:304,1,65.8750012564659,8|0,0:0|0:0,0:0:0:0:
328,112,317316,2,0,L|312:196,1,65.8750012564659
248,336,317483,5,8,0:0:0:0:
260,271,317566,1,0,0:0:0:0:
251,206,317649,1,0,0:0:0:0:
221,148,317732,1,0,0:0:0:0:
156,124,317816,1,8,0:0:0:0:
176,62,317899,1,0,0:0:0:0:
227,22,317982,1,0,0:0:0:0:
292,19,318065,1,0,0:0:0:0:
356,32,318149,5,8,0:0:0:0:
401,78,318232,1,0,0:0:0:0:
421,140,318315,1,8,0:0:0:0:
416,205,318398,1,0,0:0:0:0:
383,261,318482,1,8,0:0:0:0:
326,293,318565,1,0,0:0:0:0:
260,295,318649,1,8,0:0:0:0:
198,274,318732,1,0,0:0:0:0:
128,224,318816,6,0,L|64:180,1,65.8750012564659,8|0,0:0|0:0,0:0:0:0:
112,72,318983,2,0,L|176:116,1,65.8750012564659
404,192,319149,2,0,L|458:154,1,65.8750012564659,8|0,0:0|0:0,0:0:0:0:
420,40,319316,2,0,L|365:77,1,65.8750012564659
180,128,319483,1,8,0:0:0:0:
173,193,319566,1,0,0:0:0:0:
149,254,319649,1,8,0:0:0:0:
108,305,319732,1,0,0:0:0:0:
64,352,319816,2,8,L|52:332,16,16.4687503141165,8|8|8|8|8|8|8|8|8|8|8|8|8|8|8|8|12,0:0|0:0|0:0|0:0|0:0|0:0|0:0|0:0|0:0|0:0|0:0|0:0|0:0|0:0|0:0|0:0|0:0,0:0:0:0:
104,180,320316,5,0,0:0:0:0:
396,52,320483,1,0,0:0:0:0:
330,59,320566,1,0,0:0:0:0:
265,67,320649,1,0,0:0:0:0:
199,75,320732,1,0,0:0:0:0:
134,82,320816,1,8,0:0:0:0:
324,268,320983,5,0,0:0:0:0:
64,304,321149,1,0,0:0:0:0:
111,257,321232,1,0,0:0:0:0:
158,211,321315,1,0,0:0:0:0:
205,165,321398,1,0,0:0:0:0:
252,119,321483,1,8,0:0:0:0:
488,240,321649,5,0,0:0:0:0:
312,44,321816,1,0,0:0:0:0:
332,106,321899,1,0,0:0:0:0:
353,168,321982,1,0,0:0:0:0:
374,231,322065,1,0,0:0:0:0:
312,224,322149,1,8,0:0:0:0:
279,280,322232,1,0,0:0:0:0:
221,310,322315,1,8,0:0:0:0:
156,305,322398,1,0,0:0:0:0:
92,280,322483,2,0,L|68:220,1,58.1250022172929,8|0,0:0|0:0,0:0:0:0:
168,164,322649,2,0,L|136:112,1,58.1250022172929
224,36,322816,2,0,L|336:96|336:96,1,116.250004434586,8|0,0:0|0:0,0:0:0:0:
408,308,323149,5,0,0:0:0:0:
354,331,323232,1,0,0:0:0:0:
297,339,323315,1,0,0:0:0:0:
241,328,323398,1,0,0:0:0:0:
198,289,323483,1,8,0:0:0:0:
104,116,323649,1,0,0:0:0:0:
296,60,323816,1,0,0:0:0:0:
353,59,323899,1,0,0:0:0:0:
408,78,323982,1,0,0:0:0:0:
454,113,324065,1,0,0:0:0:0:
486,161,324149,1,8,0:0:0:0:
480,360,324316,5,0,0:0:0:0:
312,256,324483,2,0,L|376:128,1,116.250004434586
168,136,324816,2,0,L|196:252,1,116.250004434586,8|0,0:0|0:0,0:0:0:0:
272,336,325149,1,0,0:0:0:0:
214,338,325232,1,0,0:0:0:0:
159,318,325315,1,0,0:0:0:0:
117,279,325398,1,0,0:0:0:0:
91,227,325483,5,8,0:0:0:0:
456,216,325649,1,0,0:0:0:0:
220,56,325816,1,0,0:0:0:0:
278,57,325899,1,0,0:0:0:0:
335,67,325982,1,0,0:0:0:0:
390,84,326065,1,0,0:0:0:0:
443,108,326149,1,8,0:0:0:0:
464,292,326316,1,0,0:0:0:0:
344,224,326483,1,0,0:0:0:0:
301,184,326566,1,0,0:0:0:0:
253,151,326649,1,0,0:0:0:0:
202,125,326732,1,0,0:0:0:0:
146,106,326816,5,8,0:0:0:0:
68,232,326983,1,0,0:0:0:0:
224,212,327149,1,0,0:0:0:0:
253,163,327232,1,0,0:0:0:0:
307,145,327315,1,0,0:0:0:0:
360,167,327398,1,0,0:0:0:0:
396,212,327483,2,0,L|424:272,1,58.1250022172929,8|0,0:0|0:0,0:0:0:0:
388,216,327649,2,0,L|424:292,1,58.1250022172929
336,272,327816,5,0,0:0:0:0:
311,287,327899,1,0,0:0:0:0:
286,302,327983,1,0,0:0:0:0:
262,318,328066,1,0,0:0:0:0:
240,332,328149,2,0,P|144:340|88:344,1,116.250004434586,8|0,0:0|0:0,0:0:0:0:
124,164,328483,2,0,L|84:220,1,58.1250022172929
196,256,328649,2,0,L|248:224,1,58.1250022172929
240,108,328816,2,0,L|360:92,1,116.250004434586,8|0,0:0|0:0,0:0:0:0:
472,176,329149,6,0,L|396:172,1,58.1250022172929
260,56,329316,2,0,L|304:16,1,58.1250022172929
192,32,329483,1,8,0:0:0:0:
148,70,329566,1,0,0:0:0:0:
116,118,329649,1,0,0:0:0:0:
99,173,329732,1,0,0:0:0:0:
88,228,329816,2,0,L|40:180,1,58.1250022172929
88,296,329983,2,0,L|32:244,1,58.1250022172929
208,96,330149,2,0,L|284:44,1,58.1250022172929,8|0,0:0|0:0,0:0:0:0:
320,344,330316,2,0,L|256:376,1,58.1250022172929
76,64,330483,1,4,0:0:0:0:
192,32,330816,6,0,L|312:40,1,116.250004434586,8|0,0:0|0:0,0:0:0:0:
452,220,331149,1,0,0:0:0:0:
252,336,331316,1,0,0:0:0:0:
256,212,331483,2,0,P|208:156|164:128,1,116.250004434586,8|0,0:0|0:0,0:0:0:0:
52,332,331816,1,0,0:0:0:0:
96,104,331983,1,0,0:0:0:0:
232,76,332149,2,0,P|304:52|364:56,1,116.250004434586,8|0,0:0|0:0,0:0:0:0:
264,176,332483,1,0,0:0:0:0:
468,264,332649,2,0,L|444:208,1,58.1250022172929
380,244,332816,1,8,0:0:0:0:
349,293,332899,1,0,0:0:0:0:
306,331,332983,1,8,0:0:0:0:
253,354,333065,1,0,0:0:0:0:
188,352,333149,2,0,L|144:296,1,58.1250022172929,8|0,0:0|0:0,0:0:0:0:
104,28,333316,2,0,L|140:92,1,58.1250022172929,8|0,0:0|0:0,0:0:0:0:
208,128,333483,6,0,L|328:108,1,116.250004434586,8|0,0:0|0:0,0:0:0:0:
444,60,333816,2,0,L|380:36,1,58.1250022172929
484,108,333983,2,0,L|420:84,1,58.1250022172929
464,156,334149,2,0,L|360:84,1,116.250004434586,8|0,0:0|0:0,0:0:0:0:
256,32,334483,1,8,0:0:0:0:
199,21,334566,1,0,0:0:0:0:
140,21,334649,1,8,0:0:0:0:
84,33,334732,1,0,0:0:0:0:
30,56,334816,1,8,0:0:0:0:
32,100,334899,1,0,0:0:0:0:
32,144,334982,1,8,0:0:0:0:
32,176,335065,1,0,0:0:0:0:
32,216,335149,6,0,P|96:192|144:216,1,116.250004434586,8|0,0:0|0:0,0:0:0:0:
344,320,335483,2,0,P|280:344|228:332,1,116.250004434586,8|0,0:0|0:0,0:0:0:0:
48,340,335816,1,8,0:0:0:0:
102,318,335899,1,0,0:0:0:0:
156,297,335982,1,8,0:0:0:0:
210,276,336065,1,0,0:0:0:0:
264,256,336149,2,0,P|308:204|316:156,1,116.250004434586,8|0,0:0|0:0,0:0:0:0:
92,8,336483,1,0,0:0:0:0:
152,12,336566,1,0,0:0:0:0:
208,24,336649,1,0,0:0:0:0:
264,37,336732,1,0,0:0:0:0:
320,56,336816,2,0,L|436:80,1,116.250004434586,8|0,0:0|0:0,0:0:0:0:
444,204,337149,6,0,L|408:256,3,58.1250022172929
384,168,337483,2,0,L|248:176,1,116.250004434586,8|0,0:0|0:0,0:0:0:0:
112,76,337816,2,0,L|160:116,3,58.1250022172929
60,124,338149,1,8,0:0:0:0:
89,175,338233,1,0,0:0:0:0:
117,226,338315,1,0,0:0:0:0:
141,279,338398,1,0,0:0:0:0:
170,328,338482,1,0,0:0:0:0:
196,376,338566,1,0,0:0:0:0:
223,329,338649,1,0,0:0:0:0:
256,282,338732,1,0,0:0:0:0:
280,232,338816,6,0,P|348:176|388:156,1,116.250004434586,8|0,0:0|0:0,0:0:0:0:
456,96,339149,1,0,0:0:0:0:
404,69,339232,1,0,0:0:0:0:
349,49,339315,1,0,0:0:0:0:
293,34,339398,1,0,0:0:0:0:
236,24,339483,1,8,0:0:0:0:
72,348,339649,1,0,0:0:0:0:
68,56,339816,1,0,0:0:0:0:
106,99,339899,1,0,0:0:0:0:
152,134,339982,1,0,0:0:0:0:
204,161,340065,1,0,0:0:0:0:
259,178,340149,5,8,0:0:0:0:
320,180,340233,1,8,0:0:0:0:
380,180,340316,2,0,L|444:180,1,58.1250022172929,8|0,0:0|0:0,0:0:0:0:
176,312,340483,1,8,0:0:0:0:
237,314,340567,1,8,0:0:0:0:
297,314,340649,2,0,L|361:314,1,58.1250022172929,8|0,0:0|0:0,0:0:0:0:
80,244,340816,1,8,0:0:0:0:
138,244,340899,1,8,0:0:0:0:
196,244,340983,1,8,0:0:0:0:
254,244,341065,1,8,0:0:0:0:
312,244,341149,1,12,0:0:0:0:
