osu file format v14

[General]
AudioFilename: oshamascramble.mp3
AudioLeadIn: 0
PreviewTime: -1
Countdown: 0
SampleSet: Normal
StackLeniency: 0.7
Mode: 0
LetterboxInBreaks: 1
WidescreenStoryboard: 0

[Editor]
Bookmarks: 28877
DistanceSpacing: 1
BeatDivisor: 4
GridSize: 4
TimelineZoom: 2.4

[Metadata]
Title:Oshama Scramble!
TitleUnicode:Oshama Scramble!
Artist:t+pazolite
ArtistUnicode:t+pazolite
Creator:Aerie
Version:MASTER
Source:maimai
Tags:
BeatmapID:770290
BeatmapSetID:349311

[Difficulty]
HPDrainRate:7
CircleSize:4
OverallDifficulty:8
ApproachRate:9.6
SliderMultiplier:2
SliderTickRate:2

[Events]
//Background and Video events
0,0,"os.jpg",0,0
//Break Periods
//Storyboard Layer 0 (Background)
//Storyboard Layer 1 (Fail)
//Storyboard Layer 2 (Pass)
//Storyboard Layer 3 (Foreground)
//Storyboard Sound Samples

[TimingPoints]
-2386,315.789473684211,4,1,0,100,1,0
15840,-80,4,1,0,100,0,0
18998,-100,4,1,0,100,0,0
21367,-133.333333333333,4,1,0,100,0,0
31393,-100,4,1,0,100,0,0
42761,-66.6666666666667,4,1,0,100,0,1
62182,-133.333333333333,4,1,0,100,0,0
74814,-100,4,1,0,100,0,0
95814,-100,4,1,0,100,0,1
113498,-66.6666666666667,4,1,0,100,0,1
114525,-100,4,1,0,100,0,1
116350,-100,4,1,0,100,0,0

[HitObjects]
84,192,1403,6,0,P|104:132|176:88,1,150
280,84,1877,1,0,0:0:0:0:
376,304,2192,1,0,0:0:0:0:
460,88,2508,1,0,0:0:0:0:
460,348,2824,5,0,0:0:0:0:
332,340,2982,2,0,P|264:308|256:276,1,100
256,160,3298,5,0,0:0:0:0:
140,68,3456,1,0,0:0:0:0:
280,72,3614,1,0,0:0:0:0:
172,160,3771,1,0,0:0:0:0:
292,236,3929,1,0,0:0:0:0:
68,288,4166,6,0,P|120:224|184:224,1,150
168,112,4719,2,0,P|104:60|56:64,1,100
28,140,5035,2,0,P|56:192|116:192,1,100
272,196,5350,5,0,0:0:0:0:
180,92,5508,1,0,0:0:0:0:
80,188,5666,1,0,0:0:0:0:
180,288,5824,1,0,0:0:0:0:
228,156,5982,1,0,0:0:0:0:
88,156,6140,1,0,0:0:0:0:
88,296,6298,1,0,0:0:0:0:
228,304,6456,6,0,P|292:284|288:224,1,100
160,160,6771,1,0,0:0:0:0:
52,52,6929,1,0,0:0:0:0:
124,160,7087,1,0,0:0:0:0:
48,288,7245,1,0,0:0:0:0:
124,160,7403,6,0,L|232:160,1,100
356,164,7719,2,0,L|416:164,2,50
276,232,8035,2,0,P|280:304|256:352,1,100
200,336,8350,1,0,0:0:0:0:
332,340,8508,2,0,P|368:288|424:272,2,100
204,264,8982,6,0,L|164:220,3,50
172,152,9298,2,0,L|216:196,3,50
284,196,9614,2,0,L|244:156,3,50
324,168,9929,1,0,0:0:0:0:
356,124,10007,1,0,0:0:0:0:
400,100,10086,1,0,0:0:0:0:
452,116,10165,1,0,0:0:0:0:
484,160,10244,1,0,0:0:0:0:
256,192,10324,12,0,11192,0:0:0:0:
108,300,11508,6,0,P|172:240|228:224,1,100
216,224,11745,1,0,0:3:0:0:
248,208,11824,1,0,0:3:0:0:
372,124,11982,2,0,P|324:92|272:80,1,100
132,72,12298,1,0,0:0:0:0:
132,224,12456,1,0,0:0:0:0:
256,144,12614,1,0,0:0:0:0:
352,32,12771,5,0,0:0:0:0:
392,44,12850,1,0,0:0:0:0:
420,72,12929,1,0,0:0:0:0:
436,108,13008,1,0,0:0:0:0:
444,148,13087,1,0,0:0:0:0:
448,188,13166,1,0,0:0:0:0:
444,228,13245,6,0,P|400:276|356:292,1,100
352,100,13561,1,0,0:0:0:0:
180,180,13719,1,0,0:0:0:0:
324,304,13877,1,0,0:0:0:0:
140,228,14035,6,0,L|212:120,1,100
220,112,14271,1,0,0:0:0:0:
244,80,14350,1,0,0:0:0:0:
300,220,14508,2,0,L|412:280,1,100
344,124,14824,2,0,L|452:64,1,100
464,52,15061,1,0,0:0:0:0:
484,16,15140,1,0,0:0:0:0:
336,32,15298,5,0,0:0:0:0:
296,52,15377,1,0,0:0:0:0:
260,80,15456,1,0,0:0:0:0:
240,120,15535,1,0,0:0:0:0:
224,160,15614,2,0,L|208:216,2,50
76,164,15929,6,0,P|148:84|160:84,1,125
76,164,16245,2,0,P|16:96|-8:72,2,125
108,204,16640,1,0,0:0:0:0:
148,236,16719,6,0,P|184:176|168:120,1,125
424,136,17035,2,0,P|388:76|404:20,1,125
248,336,17350,2,0,P|284:276|268:220,1,125
348,44,17666,1,0,0:0:0:0:
428,212,17824,2,0,P|408:280|360:320,1,125
320,328,18061,1,0,0:0:0:0:
272,312,18140,1,0,0:0:0:0:
156,136,18298,5,0,0:0:0:0:
368,140,18456,1,0,0:0:0:0:
200,268,18614,1,0,0:0:0:0:
256,64,18771,1,0,0:0:0:0:
312,268,18929,1,0,0:0:0:0:
120,244,19087,6,0,P|112:176|76:152,1,100
424,160,19403,2,0,P|400:212|448:268,1,100
296,48,19719,2,0,P|224:44|204:72,1,100
216,304,20035,2,0,P|284:300|296:256,1,100
308,240,20271,5,0,0:0:0:0:
328,204,20350,1,0,0:0:0:0:
352,172,20429,1,0,0:0:0:0:
384,148,20508,1,0,0:0:0:0:
424,144,20587,1,0,0:0:0:0:
460,160,20666,5,0,0:0:0:0:
488,188,20745,1,0,0:0:0:0:
500,224,20824,1,0,0:0:0:0:
500,264,20903,1,0,0:0:0:0:
488,304,20982,2,0,L|452:348,4,50
344,328,21456,6,0,P|280:320|256:296,1,75.0000028610231
172,268,21771,1,0,0:0:0:0:
108,176,21929,1,0,0:0:0:0:
160,76,22087,2,0,P|240:52|312:92,1,150.000005722046
464,272,22719,5,0,0:0:0:0:
164,268,23035,1,0,0:0:0:0:
276,172,23192,1,0,0:0:0:0:
52,48,23508,1,0,0:0:0:0:
260,192,23824,5,0,0:0:0:0:
348,100,23982,1,0,0:0:0:0:
420,204,24140,2,0,P|424:284|352:312,1,150.000005722046
240,316,24614,1,0,0:0:0:0:
184,204,24771,2,0,P|180:112|224:72,1,150.000005722046
368,72,25245,5,0,0:0:0:0:
408,196,25403,1,0,0:0:0:0:
316,76,25561,1,0,0:0:0:0:
284,224,25719,1,0,0:0:0:0:
196,60,25877,1,0,0:0:0:0:
136,252,26035,1,0,0:0:0:0:
360,100,26350,5,0,0:0:0:0:
236,64,26508,1,0,0:0:0:0:
108,64,26666,2,0,L|32:128,1,75.0000028610231
60,240,26982,1,0,0:0:0:0:
176,160,27140,1,0,0:0:0:0:
400,260,27456,6,0,P|436:180|388:108,1,150.000005722046
112,132,28087,1,0,0:0:0:0:
264,132,28245,1,0,0:0:0:0:
164,244,28403,1,0,0:0:0:0:
196,96,28561,1,0,0:0:0:0:
412,304,28877,6,0,P|328:324|324:324,1,75.0000028610231
224,228,29192,1,0,0:0:0:0:
376,228,29350,1,0,0:0:0:0:
268,336,29508,1,0,0:0:0:0:
292,188,29666,2,0,P|332:136|288:56,1,150.000005722046
152,68,30140,1,0,0:0:0:0:
60,176,30298,1,0,0:0:0:0:
440,64,30614,5,0,0:0:0:0:
152,148,30929,1,0,0:0:0:0:
424,276,31245,1,0,0:0:0:0:
244,288,31403,5,0,0:0:0:0:
116,192,31561,1,0,0:0:0:0:
252,104,31719,1,0,0:0:0:0:
84,88,31877,5,0,0:0:0:0:
84,88,31956,1,0,0:0:0:0:
84,88,32035,2,0,P|152:104|192:152,1,100
256,260,32350,1,0,0:0:0:0:
400,88,32508,5,0,0:0:0:0:
400,88,32587,1,0,0:0:0:0:
400,88,32666,2,0,P|344:104|308:152,1,100
256,276,32982,2,0,B|208:268|176:236|160:196,2,100
436,272,33456,6,0,L|372:168,1,100
272,88,33771,1,0,0:0:0:0:
148,48,33929,1,0,0:0:0:0:
36,112,34087,1,0,0:0:0:0:
36,244,34245,1,0,0:0:0:0:
176,232,34403,5,0,0:0:0:0:
208,188,34482,1,0,0:0:0:0:
240,144,34561,2,0,L|304:52,1,100
188,60,34877,1,0,0:0:0:0:
188,220,35035,5,0,0:0:0:0:
224,180,35114,1,0,0:0:0:0:
260,136,35192,2,0,L|316:52,1,100
256,228,35508,5,0,0:0:0:0:
156,80,35666,1,0,0:0:0:0:
336,80,35824,1,0,0:0:0:0:
176,204,35982,1,0,0:0:0:0:
248,16,36140,1,0,0:0:0:0:
248,336,36456,6,0,L|132:248,1,100
84,140,36771,1,0,0:0:0:0:
224,216,36929,1,0,0:0:0:0:
228,56,37087,1,0,0:0:0:0:
364,144,37245,1,0,0:0:0:0:
44,144,37561,1,0,0:0:0:0:
320,304,37877,1,0,0:0:0:0:
120,56,38192,5,0,0:0:0:0:
232,172,38350,1,0,0:0:0:0:
208,12,38508,1,0,0:0:0:0:
320,124,38666,1,0,0:0:0:0:
72,328,38982,6,0,P|52:260|76:196,1,100
176,112,39298,1,0,0:0:0:0:
4,112,39456,1,0,0:0:0:0:
96,256,39614,1,0,0:0:0:0:
92,88,39771,1,0,0:0:0:0:
176,236,39929,2,0,P|232:184|248:144,1,100
408,208,40245,1,0,0:0:0:0:
280,96,40403,1,0,0:0:0:0:
144,200,40561,1,0,0:0:0:0:
40,64,40719,5,0,0:0:0:0:
72,88,40798,1,0,0:0:0:0:
108,108,40877,1,0,0:0:0:0:
164,24,41035,5,0,0:0:0:0:
192,52,41114,1,0,0:0:0:0:
224,76,41192,1,0,0:0:0:0:
320,24,41350,5,0,0:0:0:0:
348,52,41429,1,0,0:0:0:0:
376,84,41508,2,0,L|432:136,4,50
256,192,42771,5,0,0:0:0:0:
120,208,43087,6,0,B|168:136|72:112|120:28,1,150.000005722046
372,208,43403,2,0,B|324:136|420:112|372:28,1,150.000005722046
164,288,43719,6,0,B|116:216|212:192|164:108,1,150.000005722046
316,284,44035,2,0,B|364:212|268:188|316:104,1,150.000005722046
104,40,44350,6,0,B|152:112|56:136|104:220,1,150.000005722046
360,44,44666,2,0,B|312:116|408:140|360:224,1,150.000005722046
116,180,44982,5,0,0:0:0:0:
360,192,45140,1,0,0:0:0:0:
120,200,45298,1,0,0:0:0:0:
360,184,45456,1,0,0:0:0:0:
120,200,45614,6,0,P|88:264|124:368,1,150.000005722046
368,204,45929,2,0,P|396:276|364:372,1,150.000005722046
136,36,46245,6,0,P|100:100|132:204,1,150.000005722046
376,28,46561,2,0,P|404:100|372:196,1,150.000005722046
88,196,46877,1,0,0:0:0:0:
476,196,47192,5,0,0:0:0:0:
392,72,47350,1,0,0:0:0:0:
344,228,47508,1,0,0:0:0:0:
276,60,47666,1,0,0:0:0:0:
216,244,47824,1,0,0:0:0:0:
160,40,47982,1,0,0:0:0:0:
360,176,48140,6,0,B|416:120|392:84|456:64,1,150.000005722046
132,192,48456,2,0,B|188:136|164:100|228:80,1,150.000005722046
384,336,48771,6,0,B|440:280|416:244|480:224,1,150.000005722046
188,304,49087,2,0,B|244:248|220:212|284:192,1,150.000005722046
464,304,49403,6,0,B|408:248|432:212|368:192,1,150.000005722046
216,336,49719,2,0,B|160:280|184:244|120:224,1,150.000005722046
204,64,50035,5,0,0:0:0:0:
428,64,50192,1,0,0:0:0:0:
264,220,50350,1,0,0:0:0:0:
312,16,50508,1,0,0:0:0:0:
400,208,50666,6,0,P|428:292|404:356,1,150.000005722046
200,132,50982,2,0,P|160:208|168:280,1,150.000005722046
388,64,51298,6,0,P|436:156|432:232,1,150.000005722046
196,20,51614,2,0,P|148:88|148:160,1,150.000005722046
256,192,51929,12,0,52877,0:0:0:0:
304,296,53192,6,0,P|336:204|328:140,1,150.000005722046
304,296,53508,2,0,P|268:216|288:144,1,150.000005722046
304,296,53824,6,0,B|344:224|344:224|312:148,1,150.000005722046
304,296,54140,2,0,B|260:220|260:220|280:152,1,150.000005722046
376,40,54456,6,0,P|376:124|360:192,1,150.000005722046
216,36,54771,2,0,P|208:128|220:188,1,150.000005722046
40,212,55087,5,0,0:0:0:0:
132,56,55245,1,0,0:0:0:0:
240,236,55403,1,0,0:0:0:0:
340,52,55561,1,0,0:0:0:0:
448,284,55719,6,0,B|372:332|364:232|276:304,1,150.000005722046
68,188,56035,2,0,B|144:236|152:136|240:208,1,150.000005722046
440,80,56350,6,0,B|364:128|356:28|268:100,1,150.000005722046
68,196,56666,2,0,B|144:244|152:144|240:216,1,150.000005722046
260,180,56903,1,0,0:0:0:0:
304,152,56982,1,0,0:0:0:0:
112,68,57298,5,0,0:0:0:0:
168,208,57456,1,0,0:0:0:0:
232,48,57614,1,0,0:0:0:0:
176,232,57771,1,0,0:0:0:0:
84,60,57929,1,0,0:0:0:0:
16,260,58087,1,0,0:0:0:0:
272,136,58245,6,0,P|288:212|248:272,1,150.000005722046
272,136,58561,2,0,P|256:212|296:272,1,150.000005722046
272,136,58877,6,0,B|304:212|304:212|276:288,1,150.000005722046
272,136,59192,2,0,B|240:212|240:212|268:288,1,150.000005722046
224,344,59508,6,0,P|140:296|108:232,1,150.000005722046
288,344,59824,2,0,P|372:296|404:232,1,150.000005722046
244,184,60140,5,0,0:0:0:0:
132,60,60298,1,0,0:0:0:0:
296,60,60456,1,0,0:0:0:0:
208,216,60614,1,0,0:0:0:0:
32,132,60771,5,0,0:0:0:0:
228,132,60929,1,0,0:0:0:0:
60,284,61087,1,0,0:0:0:0:
124,84,61245,1,0,0:0:0:0:
192,300,61403,1,0,0:0:0:0:
40,96,61561,1,0,0:0:0:0:
320,52,61719,1,0,0:0:0:0:
204,348,61877,1,0,0:0:0:0:
96,64,62350,6,0,L|48:64,1,37.5000014305115
108,100,62508,2,0,L|72:116,1,37.5000014305115
128,140,62666,2,0,L|96:172,1,37.5000014305115
164,168,62824,2,0,L|148:208,1,37.5000014305115
208,184,62982,2,0,L|208:216|208:248,1,37.5000014305115
344,68,63298,1,0,0:0:0:0:
492,260,63614,5,0,0:0:0:0:
408,336,63771,1,0,0:0:0:0:
292,300,63929,1,0,0:0:0:0:
148,104,64245,1,0,0:0:0:0:
448,104,64561,1,0,0:0:0:0:
248,316,64877,1,0,0:0:0:0:
296,176,65035,5,0,0:0:0:0:
296,176,65114,1,0,0:0:0:0:
296,176,65192,2,0,L|356:244,1,75.0000028610231
60,52,65824,5,0,0:0:0:0:
308,112,66140,1,0,0:0:0:0:
224,208,66298,1,0,0:0:0:0:
184,88,66456,1,0,0:0:0:0:
416,256,66771,1,0,0:0:0:0:
140,328,67087,1,0,0:0:0:0:
220,40,67403,6,0,L|220:104,4,37.5000014305115
60,304,68035,1,0,0:0:0:0:
320,152,68350,1,0,0:0:0:0:
64,28,68666,5,0,0:0:0:0:
204,56,68824,1,0,0:0:0:0:
140,184,68982,1,0,0:0:0:0:
348,152,69298,1,0,0:0:0:0:
468,340,69614,1,0,0:0:0:0:
136,152,70245,2,0,B|220:340|240:8|328:348|372:128,1,300.000011444092
232,84,71035,5,0,0:0:0:0:
372,84,71192,1,0,0:0:0:0:
276,188,71350,1,0,0:0:0:0:
288,40,71508,1,0,0:0:0:0:
360,200,71666,1,0,0:0:0:0:
256,308,71824,5,0,0:0:0:0:
224,288,71903,1,0,0:0:0:0:
196,264,71982,1,0,0:0:0:0:
184,228,72061,1,0,0:0:0:0:
180,192,72140,1,0,0:0:0:0:
204,88,72298,6,0,P|264:56|296:64,1,75.0000028610231
380,56,72614,1,0,0:0:0:0:
384,204,72771,2,0,L|284:228,2,75.0000028610231
192,232,73245,1,0,0:0:0:0:
256,192,73403,12,0,74666,0:0:0:0:
100,64,74824,6,0,L|148:80,1,37.5000014305115
360,108,75140,1,0,0:0:0:0:
308,240,75298,1,0,0:0:0:0:
184,172,75456,1,0,0:0:0:0:
324,176,75614,1,0,0:0:0:0:
200,240,75771,1,0,0:0:0:0:
256,192,75929,12,0,77192,0:0:0:0:
168,132,77350,6,0,L|192:132|224:132,4,50
296,228,77824,1,0,0:0:0:0:
220,88,77982,1,0,0:0:0:0:
376,124,78140,2,0,P|408:176|396:236,1,100
252,320,78456,5,0,0:0:0:0:
268,284,78535,1,0,0:0:0:0:
252,248,78614,1,0,0:0:0:0:
272,216,78692,1,0,0:0:0:0:
252,180,78771,1,0,0:0:0:0:
276,148,78850,1,0,0:0:0:0:
252,116,78929,1,0,0:0:0:0:
276,84,79008,5,0,0:0:0:0:
248,56,79087,1,0,0:0:0:0:
212,40,79166,1,0,0:0:0:0:
172,44,79245,1,0,0:0:0:0:
136,64,79324,1,0,0:0:0:0:
108,96,79403,1,0,0:0:0:0:
108,248,79561,1,0,0:0:0:0:
224,344,79719,6,0,L|260:304,3,50
292,276,80035,1,0,0:0:0:0:
320,256,80114,1,0,0:0:0:0:
340,228,80192,5,0,0:0:0:0:
352,196,80271,1,0,0:0:0:0:
352,160,80350,1,0,0:0:0:0:
348,124,80429,1,0,0:0:0:0:
328,96,80508,2,0,L|276:48,2,50
136,156,80824,1,0,0:0:0:0:
308,256,80982,5,0,0:0:0:0:
284,288,81061,1,0,0:0:0:0:
248,300,81140,1,0,0:0:0:0:
212,288,81219,1,0,0:0:0:0:
176,268,81298,1,0,0:0:0:0:
76,188,81456,1,0,0:0:0:0:
272,152,81614,5,0,0:0:0:0:
256,116,81692,1,0,0:0:0:0:
228,88,81771,1,0,0:0:0:0:
192,68,81850,1,0,0:0:0:0:
156,56,81929,1,0,0:0:0:0:
44,168,82087,5,0,0:0:0:0:
136,300,82245,2,0,P|204:312|236:280,1,100
312,200,82561,1,0,0:0:0:0:
404,108,82719,1,0,0:0:0:0:
272,108,82877,1,0,0:0:0:0:
396,192,83035,1,0,0:0:0:0:
244,232,83192,1,0,0:0:0:0:
384,328,83350,1,0,0:0:0:0:
256,192,83508,12,0,84771,0:0:0:0:
92,120,85087,6,0,P|140:88|216:108,1,100
460,124,85561,1,0,0:0:0:0:
264,324,85877,1,0,0:0:0:0:
204,196,86035,1,0,0:0:0:0:
480,144,86350,6,0,P|432:104|368:92,1,100
92,196,86824,2,0,P|184:268|272:284,1,200
364,216,87298,1,0,0:0:0:0:
36,68,87771,5,0,0:0:0:0:
88,220,87928,1,0,0:0:0:0:
352,28,88403,5,0,0:0:0:0:
248,60,88561,1,0,0:0:0:0:
160,124,88719,1,0,0:0:0:0:
400,132,89035,5,0,0:0:0:0:
140,308,89350,1,0,0:0:0:0:
400,308,89666,1,0,0:0:0:0:
260,80,89982,1,0,0:0:0:0:
36,208,90298,1,0,0:0:0:0:
316,316,90614,1,0,0:0:0:0:
144,68,90929,1,0,0:0:0:0:
340,296,91245,5,0,0:0:0:0:
272,152,91403,1,0,0:0:0:0:
180,280,91561,1,0,0:0:0:0:
336,212,91719,1,0,0:0:0:0:
188,156,91877,1,0,0:0:0:0:
40,240,92035,1,0,0:0:0:0:
112,64,92192,1,0,0:0:0:0:
252,48,92350,5,0,0:0:0:0:
296,52,92429,1,0,0:0:0:0:
336,68,92508,1,0,0:0:0:0:
372,96,92587,1,0,0:0:0:0:
400,132,92666,1,0,0:0:0:0:
420,172,92745,1,0,0:0:0:0:
424,216,92824,2,0,L|400:272,4,50
380,296,93219,2,0,L|336:340,4,50
256,192,93614,12,0,94877,0:0:0:0:
132,116,95192,5,0,0:0:0:0:
332,116,95350,1,0,0:0:0:0:
224,284,95508,1,0,0:0:0:0:
124,112,95666,1,0,0:0:0:0:
316,60,95824,6,0,P|384:112|384:168,1,100
320,268,96140,1,0,0:0:0:0:
180,188,96298,1,0,0:0:0:0:
188,348,96456,2,0,P|264:352|276:316,1,100
56,80,96929,5,0,0:0:0:0:
384,168,97245,1,0,0:0:0:0:
88,336,97561,1,0,0:0:0:0:
156,200,97719,1,0,0:0:0:0:
224,68,97877,2,0,P|292:84|324:128,1,100
384,236,98192,1,0,0:0:0:0:
216,288,98350,1,0,0:0:0:0:
64,212,98508,1,0,0:0:0:0:
136,56,98666,5,0,0:0:0:0:
168,212,98824,1,0,0:0:0:0:
212,176,98903,1,0,0:0:0:0:
244,152,98982,2,0,P|300:112|340:116,1,100
132,40,99298,1,0,0:0:0:0:
156,208,99456,5,0,0:0:0:0:
196,172,99535,1,0,0:0:0:0:
244,144,99614,2,0,P|304:112|344:128,1,100
424,184,99929,5,0,0:0:0:0:
224,184,100087,1,0,0:0:0:0:
364,328,100245,1,0,0:0:0:0:
320,132,100403,1,0,0:0:0:0:
256,320,100561,1,0,0:0:0:0:
184,28,100877,6,0,P|260:48|280:64,1,100
76,32,101192,1,0,0:0:0:0:
124,224,101350,1,0,0:0:0:0:
224,48,101508,1,0,0:0:0:0:
376,92,101666,2,0,P|436:172|392:272,1,200
132,132,102298,1,0,0:0:0:0:
432,140,102614,5,0,0:0:0:0:
332,28,102772,1,0,0:0:0:0:
324,176,102929,1,0,0:0:0:0:
412,56,103087,1,0,0:0:0:0:
196,264,103403,6,0,P|128:208|128:168,1,100
196,68,103719,1,0,0:0:0:0:
276,196,103877,1,0,0:0:0:0:
356,68,104035,1,0,0:0:0:0:
424,200,104192,2,0,P|396:284|296:316,1,200
160,252,104666,1,0,0:0:0:0:
264,140,104824,1,0,0:0:0:0:
52,352,105140,5,0,0:0:0:0:
252,80,105456,1,0,0:0:0:0:
464,348,105771,1,0,0:0:0:0:
248,96,106245,5,0,0:0:0:0:
408,108,106403,2,0,P|472:160|476:184,1,100
356,284,106719,1,0,0:0:0:0:
304,132,106877,1,0,0:0:0:0:
208,260,107035,2,0,P|164:204|116:192,1,100
312,80,107350,1,0,0:0:0:0:
152,76,107508,5,0,0:0:0:0:
296,232,107666,2,0,P|272:176|236:148,1,100
108,112,107982,1,0,0:0:0:0:
280,120,108140,1,0,0:0:0:0:
336,292,108298,2,0,P|360:220|404:200,1,100
120,192,108614,5,0,0:0:0:0:
44,52,108771,1,0,0:0:0:0:
204,40,108929,1,0,0:0:0:0:
248,60,109008,1,0,0:0:0:0:
292,84,109087,2,0,P|340:124|360:176,1,100
160,108,109403,5,0,0:0:0:0:
312,156,109561,1,0,0:0:0:0:
356,184,109640,1,0,0:0:0:0:
396,216,109719,2,0,P|488:292|496:304,1,100
392,108,110035,5,0,0:0:0:0:
316,236,110192,1,0,0:0:0:0:
232,88,110350,1,0,0:0:0:0:
156,264,110508,1,0,0:0:0:0:
312,140,110666,1,0,0:0:0:0:
88,140,110982,6,0,P|128:216|144:236,1,100
216,316,111298,1,0,0:0:0:0:
216,156,111456,1,0,0:0:0:0:
72,228,111614,1,0,0:0:0:0:
232,228,111771,1,0,0:0:0:0:
448,48,112087,1,0,0:0:0:0:
168,48,112403,5,0,0:0:0:0:
460,180,112719,1,0,0:0:0:0:
360,56,112877,1,0,0:0:0:0:
356,256,113035,2,0,P|308:288|264:272,1,100
120,92,113508,5,0,0:0:0:0:
376,92,113666,1,0,0:0:0:0:
192,268,113824,1,0,0:0:0:0:
256,20,113982,1,0,0:0:0:0:
312,268,114140,1,0,0:0:0:0:
124,96,114298,1,0,0:0:0:0:
104,296,114614,5,0,0:0:0:0:
252,36,114771,1,0,0:0:0:0:
412,292,114929,1,0,0:0:0:0:
232,284,115087,2,0,L|208:240,4,50
184,200,115482,1,0,0:0:0:0:
168,156,115561,1,0,0:0:0:0:
168,116,115640,1,0,0:0:0:0:
188,84,115719,5,0,0:0:0:0:
220,60,115798,1,0,0:0:0:0:
260,52,115877,1,0,0:0:0:0:
300,52,115956,1,0,0:0:0:0:
332,76,116035,1,0,0:0:0:0:
256,192,116350,12,0,120771,0:0:0:0:
84,48,121087,5,0,0:0:0:0:
