osu file format v14

[General]
AudioFilename: oshamascramble.mp3
AudioLeadIn: 0
PreviewTime: -1
Countdown: 0
SampleSet: Normal
StackLeniency: 0.7
Mode: 0
LetterboxInBreaks: 1
WidescreenStoryboard: 1

[Editor]
DistanceSpacing: 0.9
BeatDivisor: 2
GridSize: 4
TimelineZoom: 1.3

[Metadata]
Title:Oshama Scramble!
TitleUnicode:Oshama Scramble!
Artist:t+pazolite
ArtistUnicode:t+pazolite
Creator:Aerie
Version:BASIC
Source:maimai
Tags:maimai t+pazolite oshama scramble
BeatmapID:771451
BeatmapSetID:349311

[Difficulty]
HPDrainRate:2
CircleSize:3
OverallDifficulty:2
ApproachRate:4
SliderMultiplier:0.999999999999999
SliderTickRate:1

[Events]
//Background and Video events
0,0,"os.jpg",0,0
//Break Periods
//Storyboard Layer 0 (Background)
//Storyboard Layer 1 (Fail)
//Storyboard Layer 2 (Pass)
//Storyboard Layer 3 (Foreground)
//Storyboard Sound Samples

[TimingPoints]
-2386,315.789473684211,4,1,0,100,1,0
18998,-100,4,1,0,100,0,0
21367,-133.333333333333,4,1,0,100,0,0
31393,-100,4,1,0,100,0,0
42761,-100,4,1,0,100,0,1
62182,-133.333333333333,4,1,0,100,0,0
74814,-100,4,1,0,100,0,0
95814,-100,4,1,0,100,0,1
113498,-66.6666666666667,4,1,0,100,0,1
114525,-100,4,1,0,100,0,1
116350,-100,4,1,0,100,0,0

[HitObjects]
104,128,1403,6,0,P|212:84|312:112,1,200
460,208,2666,2,0,P|432:316|352:312,1,200
68,240,3929,2,0,P|124:152|228:168,1,200
420,84,5192,2,0,B|340:108|368:168|264:216,1,200
64,84,6456,5,0,0:0:0:0:
200,124,7087,1,0,0:0:0:0:
96,220,7719,1,0,0:0:0:0:
200,312,8350,1,0,0:0:0:0:
336,272,8982,2,0,L|392:184,2,99.9999999999999
196,256,10245,2,0,L|144:164,2,99.9999999999999
240,80,11508,6,0,L|352:92,1,99.9999999999999
368,176,12140,2,0,L|252:196,1,99.9999999999999
184,228,12771,2,0,B|108:200|72:140|88:56,1,200
196,216,14035,6,0,B|248:240|272:184|336:240,1,99.9999999999999
312,128,14666,2,0,B|260:152|236:96|172:152,1,99.9999999999999
124,116,15298,1,0,0:0:0:0:
68,184,15614,1,0,0:0:0:0:
136,240,15929,2,0,P|196:204|248:188,2,99.9999999999999
340,172,17192,2,0,P|384:228|316:336,1,200
180,200,18456,1,0,0:0:0:0:
256,192,19087,12,0,21298,0:0:0:0:
320,80,21614,6,0,P|388:140|380:224,1,150.000005722046
248,236,22877,2,0,P|212:156|252:92,1,150.000005722046
384,84,24140,5,0,0:0:0:0:
288,200,24771,1,0,0:0:0:0:
180,96,25403,2,0,L|120:44,2,75.000002861023
48,172,26666,2,0,P|48:264|88:312,1,150.000005722046
232,316,27929,2,0,P|312:280|388:312,1,150.000005722046
388,148,29192,2,0,P|312:168|256:124,1,150.000005722046
112,104,30456,2,0,L|112:192,3,75.000002861023
148,272,31719,5,0,0:0:0:0:
260,132,32350,1,0,0:0:0:0:
388,260,32982,2,0,L|488:260,2,99.9999999999999
208,260,34245,5,0,0:0:0:0:
184,108,34877,1,0,0:0:0:0:
184,108,35508,2,0,L|232:16,2,99.9999999999999
72,248,36771,6,0,P|112:304|252:300,1,200
416,304,38035,2,0,B|352:232|456:204|416:108,1,200
244,72,39298,1,0,0:0:0:0:
240,252,39929,1,0,0:0:0:0:
256,192,40561,12,0,41824,0:0:0:0:
112,296,43087,6,0,P|144:240|168:192,1,99.9999999999999
212,296,43719,2,0,P|244:240|268:192,1,99.9999999999999
312,296,44350,2,0,P|344:240|368:192,1,99.9999999999999
408,296,44982,2,0,P|440:240|464:192,2,99.9999999999999
352,212,45929,6,0,P|320:268|296:316,1,99.9999999999999
252,212,46561,2,0,P|220:268|196:316,1,99.9999999999999
256,104,47508,1,0,0:0:0:0:
64,44,48140,6,0,P|87:88|112:131,1,99.9999999999999
156,40,48771,2,0,P|179:84|204:127,1,99.9999999999999
248,36,49403,2,0,P|271:80|296:123,1,99.9999999999999
340,32,50035,2,0,P|372:88|396:136,2,99.9999999999999
296,123,50982,6,0,P|272:78|247:35,1,99.9999999999999
204,128,51614,2,0,P|180:83|155:40,1,99.9999999999999
56,40,53192,6,0,L|144:88,1,99.9999999999999
52,132,53824,2,0,L|140:180,1,99.9999999999999
52,228,54456,2,0,L|140:276,1,99.9999999999999
48,320,55087,2,0,L|136:368,2,99.9999999999999
139,275,56035,6,0,L|51:227,1,99.9999999999999
140,180,56666,2,0,L|52:132,1,99.9999999999999
248,88,57614,1,0,0:0:0:0:
444,48,58245,6,0,L|356:100,1,99.9999999999999
448,144,58877,2,0,L|360:196,1,99.9999999999999
452,240,59508,2,0,L|364:292,1,99.9999999999999
456,332,60140,2,0,L|368:384,5,99.9999999999999
296,252,62350,1,0,0:0:0:0:
144,84,63298,6,0,P|88:164|144:348,1,300.000011444092
336,344,65824,2,0,P|392:264|336:80,1,300.000011444092
52,172,68350,2,0,B|128:88|264:248|344:160,2,300.000011444092,2|2|2,0:0|0:0|0:0,0:0:0:0:
352,168,72140,1,0,0:0:0:0:
72,64,73403,6,0,B|144:136|244:32|376:76,1,300.000011444092
128,208,75929,6,0,P|264:92|408:224,1,400
404,152,78456,2,0,P|268:268|124:136,1,400
152,272,80982,5,0,0:0:0:0:
352,272,81614,1,0,0:0:0:0:
252,100,82245,2,0,L|252:200,3,99.9999999999999
252,300,83508,1,0,0:0:0:0:
408,252,84771,6,0,B|388:332|260:320|196:320|152:244,1,300
160,148,86035,1,0,0:0:0:0:
440,232,87298,2,0,B|356:292|264:168|148:252,1,300
128,152,88561,1,0,0:0:0:0:
320,92,89192,5,0,0:0:0:0:
384,280,89824,1,0,0:0:0:0:
196,344,90456,1,0,0:0:0:0:
256,192,91087,12,0,93614,0:0:0:0:
256,188,94877,5,0,0:0:0:0:
128,120,96140,2,0,P|192:92|236:112,1,99.9999999999999
388,204,97087,1,0,0:0:0:0:
216,308,97719,1,0,0:0:0:0:
216,108,98350,2,0,L|172:56,2,50
316,108,98982,2,0,L|368:60,2,50
252,184,99614,2,0,L|252:256,6,50
72,268,101192,5,0,0:0:0:0:
132,152,101824,2,0,P|192:124|328:144,1,200
412,244,103087,1,0,0:0:0:0:
256,192,103719,12,0,105929,0:0:0:0:
104,104,106245,6,0,L|220:76,1,99.9999999999999
272,76,106877,2,0,L|368:104,1,99.9999999999999
364,176,107508,2,0,L|260:200,1,99.9999999999999
200,216,108140,2,0,L|96:244,1,99.9999999999999
80,144,108771,1,0,0:0:0:0:
216,60,109403,1,0,0:0:0:0:
412,84,110035,2,0,L|460:36,4,50
344,248,111298,6,0,L|168:360,1,200
292,168,112561,2,0,L|108:280,1,200
420,128,113824,1,0,0:0:0:0:
88,128,114456,1,0,0:0:0:0:
232,292,115087,1,0,0:0:0:0:
324,92,115719,1,0,0:0:0:0:
256,192,116350,12,0,121087,0:0:0:0:
