osu file format v14

[General]
AudioFilename: t+pazolite - Oshama Scramble!.mp3
AudioLeadIn: 0
PreviewTime: 40907
Countdown: 0
SampleSet: Soft
StackLeniency: 0.7
Mode: 3
LetterboxInBreaks: 0
SpecialStyle: 0
WidescreenStoryboard: 0

[Editor]
DistanceSpacing: 1.6
BeatDivisor: 2
GridSize: 4
TimelineZoom: 1.7

[Metadata]
Title:Oshama Scramble!
TitleUnicode:Oshama Scramble!
Artist:t+pazolite
ArtistUnicode:t+pazolite
Creator:[ A v a l o n ]
Version:KK's BASIC
Source:maimai ORANGE PLUS
Tags:SEGA Ponko2 Girlish 3rd Album CHUNITHM Kuo Kyoka Exaria-sama Draftnell CDY
BeatmapID:1089580
BeatmapSetID:511480

[Difficulty]
HPDrainRate:6
CircleSize:4
OverallDifficulty:6
ApproachRate:5
SliderMultiplier:1.4
SliderTickRate:1

[Events]
//Background and Video events
0,0,"Background by CDY.png",0,0
//Break Periods
//Storyboard Layer 0 (Background)
//Storyboard Layer 1 (Fail)
//Storyboard Layer 2 (Pass)
//Storyboard Layer 3 (Foreground)
//Storyboard Sound Samples
Sample,5538,0,"crash.wav",60
Sample,5538,0,"clap.wav",40
Sample,5696,0,"kick.wav",50
Sample,5854,0,"clap.wav",40
Sample,6012,0,"kick.wav",50
Sample,6170,0,"clap.wav",40
Sample,6328,0,"kick.wav",50
Sample,6486,0,"clap.wav",40
Sample,6643,0,"kick.wav",50
Sample,6801,0,"clap.wav",40
Sample,6959,0,"kick.wav",50
Sample,7117,0,"clap.wav",40
Sample,7275,0,"kick.wav",50
Sample,7433,0,"clap.wav",40
Sample,7591,0,"kick.wav",50
Sample,7749,0,"clap.wav",40
Sample,7907,0,"kick.wav",50
Sample,8064,0,"clap.wav",40
Sample,8143,0,"kick.wav",50
Sample,8222,0,"kick.wav",50
Sample,8301,0,"kick.wav",50
Sample,8380,0,"clap.wav",40
Sample,8459,0,"kick.wav",50
Sample,8538,0,"kick.wav",50
Sample,8617,0,"kick.wav",50
Sample,8696,0,"clap.wav",40
Sample,8775,0,"kick.wav",50
Sample,8854,0,"kick.wav",50
Sample,8933,0,"kick.wav",50
Sample,9012,0,"clap.wav",40
Sample,9091,0,"kick.wav",50
Sample,9170,0,"kick.wav",50
Sample,9249,0,"kick.wav",50
Sample,9328,0,"clap.wav",40
Sample,10275,0,"boom.wav",60
Sample,10749,0,"hihat.wav",45
Sample,11064,0,"hihat.wav",45
Sample,11380,0,"hihat.wav",45
Sample,11696,0,"hihat.wav",45
Sample,12012,0,"hihat.wav",45
Sample,12328,0,"hihat.wav",45
Sample,12643,0,"hihat.wav",45
Sample,12959,0,"hihat.wav",45
Sample,13275,0,"hihat.wav",45
Sample,13591,0,"hihat.wav",45
Sample,13907,0,"hihat.wav",45
Sample,14222,0,"hihat.wav",45
Sample,14538,0,"hihat.wav",45
Sample,14854,0,"hihat.wav",45
Sample,15170,0,"hihat.wav",45
Sample,15486,0,"hihat.wav",45
Sample,15643,0,"kick.wav",50
Sample,15801,0,"hihat.wav",45
Sample,16117,0,"hihat.wav",45
Sample,16433,0,"hihat.wav",45
Sample,16749,0,"hihat.wav",45
Sample,17064,0,"hihat.wav",45
Sample,17380,0,"hihat.wav",45
Sample,17696,0,"hihat.wav",45
Sample,18012,0,"hihat.wav",45
Sample,18328,0,"hihat.wav",45
Sample,18328,0,"kick.wav",50
Sample,18643,0,"hihat.wav",45
Sample,18643,0,"kick.wav",50
Sample,18959,0,"hihat.wav",45
Sample,18959,0,"kick.wav",50
Sample,19275,0,"hihat.wav",45
Sample,19275,0,"kick.wav",50
Sample,19512,0,"kick.wav",50
Sample,19591,0,"kick.wav",50
Sample,19591,0,"hihat.wav",45
Sample,19670,0,"kick.wav",50
Sample,19749,0,"kick.wav",50
Sample,19828,0,"kick.wav",50
Sample,19907,0,"kick.wav",50
Sample,19907,0,"hihat.wav",45
Sample,19986,0,"kick.wav",50
Sample,20222,0,"hihat.wav",45
Sample,20380,0,"clap.wav",50
Sample,20380,0,"boom.wav",60
Sample,20538,0,"hihat.wav",45
Sample,20696,0,"kick.wav",50
Sample,21328,0,"snare.wav",60
Sample,22591,0,"snare.wav",60
Sample,25275,0,"snare.wav",60
Sample,26380,0,"snare.wav",60
Sample,27999,0,"drum.wav",45
Sample,28038,0,"drum.wav",45
Sample,28078,0,"drum.wav",45
Sample,28157,0,"drum.wav",45
Sample,28196,0,"drum.wav",45
Sample,28236,0,"drum.wav",45
Sample,28275,0,"kick.wav",50
Sample,28907,0,"snare.wav",60
Sample,29538,0,"kick.wav",50
Sample,29854,0,"drum.wav",45
Sample,29933,0,"drum.wav",45
Sample,30091,0,"drum.wav",45
Sample,30170,0,"drum.wav",45
Sample,30801,0,"kick.wav",50
Sample,30959,0,"hihat.wav",45
Sample,31275,0,"hihat.wav",45
Sample,31591,0,"hihat.wav",45
Sample,31907,0,"hihat.wav",45
Sample,32222,0,"hihat.wav",45
Sample,32538,0,"hihat.wav",45
Sample,32854,0,"hihat.wav",45
Sample,33170,0,"hihat.wav",45
Sample,33170,0,"kick.wav",50
Sample,33328,0,"snare.wav",60
Sample,33486,0,"hihat.wav",45
Sample,33801,0,"hihat.wav",45
Sample,33959,0,"crash.wav",60
Sample,34117,0,"hihat.wav",45
Sample,34433,0,"hihat.wav",45
Sample,34591,0,"snare.wav",60
Sample,34749,0,"hihat.wav",45
Sample,34749,0,"drum.wav",45
Sample,34788,0,"drum.wav",45
Sample,34828,0,"drum.wav",45
Sample,34867,0,"drum.wav",45
Sample,34907,0,"drum.wav",45
Sample,35064,0,"hihat.wav",45
Sample,35064,0,"drum.wav",45
Sample,35104,0,"drum.wav",45
Sample,35143,0,"drum.wav",45
Sample,35183,0,"drum.wav",45
Sample,35222,0,"drum.wav",45
Sample,35380,0,"hihat.wav",45
Sample,35380,0,"drum.wav",45
Sample,35420,0,"drum.wav",45
Sample,35459,0,"drum.wav",45
Sample,35499,0,"drum.wav",45
Sample,35538,0,"drum.wav",45
Sample,35696,0,"kick.wav",50
Sample,35696,0,"hihat.wav",45
Sample,35854,0,"crash.wav",60
Sample,35854,0,"snare.wav",60
Sample,36012,0,"snare.wav",60
Sample,36012,0,"hihat.wav",45
Sample,36328,0,"snare.wav",60
Sample,36328,0,"hihat.wav",45
Sample,36643,0,"snare.wav",60
Sample,36643,0,"hihat.wav",45
Sample,36643,0,"kick.wav",50
Sample,36959,0,"snare.wav",60
Sample,36959,0,"hihat.wav",45
Sample,36959,0,"kick.wav",50
Sample,37117,0,"snare.wav",60
Sample,37117,0,"crash.wav",60
Sample,37275,0,"snare.wav",60
Sample,37591,0,"snare.wav",60
Sample,37749,0,"snare.wav",60
Sample,37907,0,"snare.wav",60
Sample,37986,0,"kick.wav",50
Sample,38222,0,"kick.wav",50
Sample,38222,0,"snare.wav",60
Sample,38380,0,"snare.wav",40
Sample,38380,0,"crash.wav",60
Sample,38459,0,"snare.wav",40
Sample,38538,0,"snare.wav",40
Sample,38538,0,"hihat.wav",45
Sample,38617,0,"snare.wav",40
Sample,38696,0,"snare.wav",40
Sample,38775,0,"snare.wav",40
Sample,38854,0,"snare.wav",40
Sample,38854,0,"hihat.wav",45
Sample,38854,0,"kick.wav",50
Sample,38933,0,"snare.wav",40
Sample,39012,0,"crash.wav",60
Sample,39012,0,"snare.wav",40
Sample,39091,0,"snare.wav",40
Sample,39170,0,"hihat.wav",45
Sample,39170,0,"snare.wav",40
Sample,39249,0,"snare.wav",40
Sample,39328,0,"snare.wav",40
Sample,39407,0,"snare.wav",40
Sample,39486,0,"kick.wav",50
Sample,39486,0,"snare.wav",40
Sample,39486,0,"hihat.wav",45
Sample,39564,0,"snare.wav",40
Sample,39643,0,"snare.wav",40
Sample,39643,0,"crash.wav",60
Sample,39722,0,"snare.wav",40
Sample,39801,0,"hihat.wav",45
Sample,39801,0,"kick.wav",50
Sample,39801,0,"snare.wav",40
Sample,39880,0,"snare.wav",40
Sample,39959,0,"crash.wav",60
Sample,39959,0,"kick.wav",50
Sample,39959,0,"snare.wav",40
Sample,40038,0,"snare.wav",40
Sample,40117,0,"hihat.wav",45
Sample,40117,0,"kick.wav",50
Sample,40117,0,"snare.wav",40
Sample,40196,0,"snare.wav",40
Sample,40275,0,"drum.wav",45
Sample,40275,0,"kick.wav",50
Sample,40275,0,"snare.wav",40
Sample,40314,0,"drum.wav",45
Sample,40354,0,"drum.wav",45
Sample,40393,0,"drum.wav",45
Sample,40433,0,"drum.wav",45
Sample,40591,0,"drum.wav",45
Sample,40630,0,"drum.wav",45
Sample,40670,0,"drum.wav",45
Sample,40709,0,"drum.wav",45
Sample,40749,0,"drum.wav",45
Sample,40749,0,"kick.wav",50
Sample,40828,0,"kick.wav",50
Sample,41854,0,"clap.wav",50
Sample,42328,0,"hihat.wav",45
Sample,42643,0,"hihat.wav",45
Sample,42959,0,"hihat.wav",45
Sample,43275,0,"hihat.wav",45
Sample,43591,0,"hihat.wav",45
Sample,43907,0,"hihat.wav",45
Sample,44222,0,"hihat.wav",45
Sample,44538,0,"hihat.wav",45
Sample,44854,0,"hihat.wav",45
Sample,45170,0,"hihat.wav",45
Sample,45486,0,"hihat.wav",45
Sample,45801,0,"hihat.wav",45
Sample,46117,0,"hihat.wav",45
Sample,46433,0,"hihat.wav",45
Sample,46749,0,"hihat.wav",45
Sample,47064,0,"hihat.wav",45
Sample,47380,0,"hihat.wav",45
Sample,47696,0,"hihat.wav",45
Sample,48012,0,"hihat.wav",45
Sample,48328,0,"hihat.wav",45
Sample,48643,0,"hihat.wav",45
Sample,48959,0,"hihat.wav",45
Sample,49275,0,"hihat.wav",45
Sample,49591,0,"hihat.wav",45
Sample,49907,0,"hihat.wav",45
Sample,50222,0,"hihat.wav",45
Sample,50538,0,"hihat.wav",45
Sample,50854,0,"hihat.wav",45
Sample,52433,0,"hihat.wav",45
Sample,52749,0,"hihat.wav",45
Sample,53064,0,"hihat.wav",45
Sample,53380,0,"hihat.wav",45
Sample,53696,0,"hihat.wav",45
Sample,54012,0,"hihat.wav",45
Sample,54328,0,"hihat.wav",45
Sample,54643,0,"hihat.wav",45
Sample,54959,0,"hihat.wav",45
Sample,55275,0,"hihat.wav",45
Sample,55591,0,"hihat.wav",45
Sample,55907,0,"hihat.wav",45
Sample,56222,0,"hihat.wav",45
Sample,56538,0,"hihat.wav",45
Sample,56854,0,"hihat.wav",45
Sample,57170,0,"hihat.wav",45
Sample,57486,0,"hihat.wav",45
Sample,57801,0,"hihat.wav",45
Sample,58117,0,"hihat.wav",45
Sample,58433,0,"hihat.wav",45
Sample,58749,0,"hihat.wav",45
Sample,59064,0,"hihat.wav",45
Sample,59380,0,"hihat.wav",45
Sample,59696,0,"hihat.wav",45
Sample,60012,0,"kick.wav",50
Sample,60012,0,"hihat.wav",45
Sample,60328,0,"kick.wav",50
Sample,60328,0,"hihat.wav",45
Sample,60643,0,"kick.wav",50
Sample,60643,0,"hihat.wav",45
Sample,60959,0,"kick.wav",50
Sample,60959,0,"hihat.wav",45
Sample,60959,0,"drum.wav",45
Sample,60999,0,"drum.wav",45
Sample,61038,0,"drum.wav",45
Sample,61078,0,"drum.wav",45
Sample,61117,0,"drum.wav",45
Sample,62538,0,"hihat.wav",45
Sample,63170,0,"hihat.wav",45
Sample,63486,0,"kick.wav",50
Sample,63801,0,"hihat.wav",45
Sample,64117,0,"hihat.wav",45
Sample,64433,0,"hihat.wav",45
Sample,64749,0,"hihat.wav",45
Sample,65064,0,"hihat.wav",45
Sample,65380,0,"kick.wav",50
Sample,65696,0,"hihat.wav",45
Sample,65696,0,"drum.wav",45
Sample,65749,0,"drum.wav",45
Sample,65801,0,"drum.wav",45
Sample,65854,0,"drum.wav",45
Sample,66012,0,"drum.wav",45
Sample,66486,0,"kick.wav",50
Sample,66486,0,"snare.wav",60
Sample,66486,0,"drum.wav",45
Sample,66564,0,"drum.wav",45
Sample,66643,0,"drum.wav",45
Sample,66722,0,"drum.wav",45
Sample,66801,0,"kick.wav",50
Sample,67591,0,"hihat.wav",45
Sample,67907,0,"hihat.wav",45
Sample,68222,0,"hihat.wav",45
Sample,68538,0,"hihat.wav",45
Sample,69012,0,"kick.wav",50
Sample,69643,0,"kick.wav",50
Sample,69643,0,"snare.wav",60
Sample,70117,0,"kick.wav",50
Sample,70275,0,"kick.wav",50
Sample,70433,0,"kick.wav",50
Sample,70670,0,"kick.wav",50
Sample,70749,0,"kick.wav",50
Sample,70828,0,"kick.wav",50
Sample,70907,0,"kick.wav",50
Sample,70986,0,"kick.wav",50
Sample,71064,0,"kick.wav",50
Sample,71143,0,"kick.wav",50
Sample,72486,0,"drum.wav",35
Sample,72643,0,"drum.wav",35
Sample,72722,0,"drum.wav",35
Sample,72801,0,"drum.wav",35
Sample,72959,0,"drum.wav",35
Sample,73038,0,"drum.wav",35
Sample,73117,0,"drum.wav",35
Sample,73196,0,"drum.wav",35
Sample,73275,0,"drum.wav",35
Sample,73354,0,"drum.wav",35
Sample,73433,0,"drum.wav",35
Sample,73512,0,"drum.wav",35
Sample,73591,0,"drum.wav",35
Sample,73670,0,"drum.wav",35
Sample,73749,0,"drum.wav",35
Sample,75012,0,"drum.wav",35
Sample,75170,0,"drum.wav",35
Sample,75249,0,"drum.wav",35
Sample,75328,0,"drum.wav",35
Sample,75486,0,"drum.wav",35
Sample,75564,0,"drum.wav",35
Sample,75643,0,"drum.wav",35
Sample,75722,0,"drum.wav",35
Sample,75801,0,"drum.wav",35
Sample,75880,0,"drum.wav",35
Sample,75959,0,"drum.wav",35
Sample,76038,0,"drum.wav",35
Sample,76117,0,"drum.wav",35
Sample,76196,0,"drum.wav",35
Sample,76275,0,"drum.wav",35
Sample,77538,0,"drum.wav",35
Sample,77696,0,"drum.wav",35
Sample,77775,0,"drum.wav",35
Sample,77854,0,"drum.wav",35
Sample,78012,0,"drum.wav",35
Sample,78091,0,"drum.wav",35
Sample,78170,0,"drum.wav",35
Sample,78249,0,"drum.wav",35
Sample,78328,0,"drum.wav",35
Sample,78407,0,"drum.wav",35
Sample,78486,0,"drum.wav",35
Sample,78564,0,"drum.wav",35
Sample,78643,0,"drum.wav",35
Sample,78722,0,"drum.wav",35
Sample,78801,0,"kick.wav",50
Sample,78959,0,"drum.wav",35
Sample,79038,0,"drum.wav",35
Sample,79117,0,"drum.wav",35
Sample,79275,0,"drum.wav",35
Sample,79354,0,"drum.wav",35
Sample,79433,0,"drum.wav",35
Sample,79512,0,"drum.wav",35
Sample,79591,0,"drum.wav",35
Sample,79670,0,"drum.wav",35
Sample,79749,0,"drum.wav",35
Sample,79828,0,"drum.wav",35
Sample,79907,0,"drum.wav",35
Sample,79986,0,"drum.wav",35
Sample,80064,0,"crash.wav",60
Sample,80064,0,"kick.wav",50
Sample,80222,0,"drum.wav",35
Sample,80301,0,"drum.wav",35
Sample,80380,0,"drum.wav",35
Sample,80538,0,"drum.wav",35
Sample,80617,0,"drum.wav",35
Sample,80696,0,"kick.wav",50
Sample,80696,0,"crash.wav",60
Sample,80775,0,"drum.wav",35
Sample,80854,0,"drum.wav",35
Sample,80933,0,"drum.wav",35
Sample,81012,0,"drum.wav",35
Sample,81091,0,"drum.wav",35
Sample,81170,0,"drum.wav",35
Sample,81249,0,"drum.wav",35
Sample,81328,0,"kick.wav",50
Sample,81407,0,"drum.wav",35
Sample,81486,0,"drum.wav",35
Sample,81564,0,"drum.wav",35
Sample,81643,0,"kick.wav",50
Sample,81722,0,"drum.wav",35
Sample,81801,0,"drum.wav",35
Sample,81880,0,"drum.wav",35
Sample,81959,0,"drum.wav",35
Sample,82038,0,"drum.wav",35
Sample,82117,0,"drum.wav",35
Sample,82196,0,"drum.wav",35
Sample,82275,0,"kick.wav",50
Sample,82354,0,"drum.wav",35
Sample,82433,0,"drum.wav",35
Sample,82512,0,"drum.wav",35
Sample,82591,0,"crash.wav",60
Sample,82749,0,"drum.wav",35
Sample,82828,0,"drum.wav",35
Sample,82907,0,"drum.wav",35
Sample,83064,0,"drum.wav",35
Sample,83222,0,"drum.wav",35
Sample,83301,0,"drum.wav",35
Sample,83380,0,"drum.wav",35
Sample,83459,0,"drum.wav",35
Sample,83538,0,"drum.wav",35
Sample,83696,0,"drum.wav",35
Sample,83854,0,"drum.wav",35
Sample,83854,0,"crash.wav",60
Sample,84012,0,"drum.wav",35
Sample,84091,0,"drum.wav",35
Sample,84170,0,"drum.wav",35
Sample,84328,0,"drum.wav",35
Sample,84486,0,"drum.wav",35
Sample,84564,0,"drum.wav",35
Sample,84643,0,"drum.wav",35
Sample,84722,0,"drum.wav",35
Sample,84801,0,"drum.wav",35
Sample,84880,0,"drum.wav",35
Sample,84959,0,"drum.wav",35
Sample,85117,0,"crash.wav",60
Sample,85117,0,"kick.wav",50
Sample,85275,0,"drum.wav",35
Sample,85354,0,"drum.wav",35
Sample,85433,0,"drum.wav",35
Sample,85591,0,"drum.wav",35
Sample,85670,0,"drum.wav",35
Sample,85749,0,"drum.wav",35
Sample,85828,0,"drum.wav",35
Sample,85907,0,"drum.wav",35
Sample,85986,0,"drum.wav",35
Sample,86064,0,"drum.wav",35
Sample,86143,0,"drum.wav",35
Sample,86222,0,"drum.wav",35
Sample,86380,0,"drum.wav",35
Sample,86380,0,"crash.wav",60
Sample,86459,0,"drum.wav",35
Sample,86538,0,"drum.wav",35
Sample,86696,0,"drum.wav",35
Sample,86854,0,"drum.wav",35
Sample,86933,0,"drum.wav",35
Sample,87012,0,"drum.wav",35
Sample,87012,0,"crash.wav",60
Sample,87170,0,"drum.wav",35
Sample,87249,0,"drum.wav",35
Sample,87328,0,"drum.wav",35
Sample,87407,0,"drum.wav",35
Sample,87486,0,"drum.wav",35
Sample,87564,0,"drum.wav",35
Sample,87643,0,"crash.wav",60
Sample,87643,0,"kick.wav",50
Sample,87801,0,"hihat.wav",45
Sample,88117,0,"hihat.wav",45
Sample,88275,0,"kick.wav",50
Sample,88433,0,"hihat.wav",45
Sample,88749,0,"hihat.wav",45
Sample,88907,0,"crash.wav",60
Sample,89064,0,"hihat.wav",45
Sample,89380,0,"hihat.wav",45
Sample,89538,0,"kick.wav",50
Sample,89696,0,"hihat.wav",45
Sample,90012,0,"hihat.wav",45
Sample,90170,0,"kick.wav",50
Sample,90328,0,"hihat.wav",45
Sample,90328,0,"kick.wav",50
Sample,90486,0,"kick.wav",50
Sample,90486,0,"crash.wav",60
Sample,90643,0,"kick.wav",50
Sample,90643,0,"hihat.wav",45
Sample,90801,0,"kick.wav",50
Sample,90959,0,"kick.wav",50
Sample,90959,0,"hihat.wav",45
Sample,91117,0,"kick.wav",50
Sample,91117,0,"crash.wav",60
Sample,91275,0,"kick.wav",50
Sample,91275,0,"hihat.wav",45
Sample,91512,0,"kick.wav",50
Sample,91591,0,"kick.wav",50
Sample,91591,0,"hihat.wav",45
Sample,91670,0,"kick.wav",50
Sample,91749,0,"kick.wav",50
Sample,91828,0,"kick.wav",50
Sample,91907,0,"kick.wav",50
Sample,91907,0,"hihat.wav",45
Sample,91986,0,"kick.wav",50
Sample,92143,0,"kick.wav",50
Sample,92222,0,"drum.wav",45
Sample,92222,0,"kick.wav",50
Sample,92262,0,"drum.wav",45
Sample,92301,0,"drum.wav",45
Sample,92301,0,"kick.wav",50
Sample,92341,0,"drum.wav",45
Sample,92380,0,"drum.wav",45
Sample,92380,0,"kick.wav",50
Sample,92459,0,"kick.wav",50
Sample,92538,0,"kick.wav",50
Sample,92538,0,"drum.wav",45
Sample,92578,0,"drum.wav",45
Sample,92617,0,"kick.wav",50
Sample,92617,0,"drum.wav",45
Sample,92657,0,"drum.wav",45
Sample,92696,0,"drum.wav",45
Sample,94907,0,"kick.wav",50
Sample,95222,0,"kick.wav",50
Sample,95854,0,"kick.wav",50
Sample,96170,0,"kick.wav",50
Sample,96486,0,"kick.wav",50
Sample,96959,0,"hihat.wav",45
Sample,97117,0,"kick.wav",50
Sample,97275,0,"hihat.wav",45
Sample,97907,0,"hihat.wav",45
Sample,98538,0,"hihat.wav",45
Sample,99801,0,"hihat.wav",45
Sample,100275,0,"kick.wav",50
Sample,100907,0,"kick.wav",50
Sample,101222,0,"kick.wav",50
Sample,101538,0,"kick.wav",50
Sample,102328,0,"hihat.wav",45
Sample,103433,0,"kick.wav",50
Sample,103907,0,"kick.wav",50
Sample,104222,0,"kick.wav",50
Sample,104538,0,"crash.wav",60
Sample,104854,0,"kick.wav",50
Sample,105012,0,"drum.wav",45
Sample,105170,0,"drum.wav",45
Sample,105249,0,"drum.wav",45
Sample,105328,0,"crash.wav",60
Sample,105328,0,"kick.wav",50
Sample,105328,0,"snare.wav",60
Sample,105643,0,"snare.wav",60
Sample,105959,0,"kick.wav",50
Sample,105959,0,"snare.wav",60
Sample,106275,0,"kick.wav",50
Sample,106275,0,"snare.wav",60
Sample,106591,0,"snare.wav",60
Sample,106591,0,"kick.wav",50
Sample,106907,0,"snare.wav",60
Sample,107064,0,"hihat.wav",45
Sample,107222,0,"kick.wav",50
Sample,107222,0,"snare.wav",60
Sample,107380,0,"hihat.wav",45
Sample,107538,0,"snare.wav",60
Sample,107854,0,"snare.wav",60
Sample,108012,0,"hihat.wav",45
Sample,108170,0,"snare.wav",60
Sample,108486,0,"snare.wav",60
Sample,108643,0,"hihat.wav",45
Sample,108801,0,"snare.wav",60
Sample,109117,0,"kick.wav",50
Sample,109433,0,"snare.wav",60
Sample,109749,0,"snare.wav",60
Sample,109907,0,"hihat.wav",45
Sample,110380,0,"snare.wav",60
Sample,110380,0,"kick.wav",50
Sample,110854,0,"kick.wav",50
Sample,111012,0,"snare.wav",60
Sample,111170,0,"kick.wav",50
Sample,111328,0,"snare.wav",60
Sample,111486,0,"kick.wav",50
Sample,111643,0,"snare.wav",60
Sample,111801,0,"snare.wav",60
Sample,111959,0,"snare.wav",60
Sample,112275,0,"snare.wav",60
Sample,112433,0,"snare.wav",60
Sample,112591,0,"snare.wav",60
Sample,112907,0,"snare.wav",40
Sample,112986,0,"snare.wav",40
Sample,113064,0,"snare.wav",40
Sample,113143,0,"snare.wav",40
Sample,113222,0,"snare.wav",40
Sample,113301,0,"snare.wav",40
Sample,113380,0,"snare.wav",40
Sample,113459,0,"snare.wav",40
Sample,113538,0,"kick.wav",50
Sample,113538,0,"snare.wav",40
Sample,113617,0,"kick.wav",50
Sample,113617,0,"snare.wav",40
Sample,113696,0,"snare.wav",40
Sample,113775,0,"kick.wav",50
Sample,113775,0,"snare.wav",40
Sample,113854,0,"snare.wav",40
Sample,113933,0,"snare.wav",40
Sample,113933,0,"kick.wav",50
Sample,114012,0,"snare.wav",40
Sample,114091,0,"snare.wav",40
Sample,114091,0,"kick.wav",50
Sample,114170,0,"snare.wav",40
Sample,114170,0,"drum.wav",45
Sample,114170,0,"crash.wav",60
Sample,114209,0,"drum.wav",45
Sample,114249,0,"kick.wav",50
Sample,114249,0,"drum.wav",45
Sample,114288,0,"drum.wav",45
Sample,114328,0,"kick.wav",50
Sample,114328,0,"drum.wav",45
Sample,114407,0,"kick.wav",50
Sample,114486,0,"kick.wav",50
Sample,114486,0,"drum.wav",45
Sample,114486,0,"crash.wav",60
Sample,114525,0,"drum.wav",45
Sample,114564,0,"kick.wav",50
Sample,114564,0,"drum.wav",45
Sample,114604,0,"drum.wav",45
Sample,114643,0,"kick.wav",50
Sample,114643,0,"drum.wav",45
Sample,114722,0,"kick.wav",50
Sample,115117,0,"boom.wav",60
Sample,115117,0,"crash.wav",60

[TimingPoints]
486,315.789473684211,4,2,1,30,1,0
42170,-100,4,2,1,30,0,1
51012,-100,4,2,1,30,0,0
52275,-100,4,2,1,30,0,1
61117,-100,4,2,1,30,0,0
95222,-100,4,2,1,30,0,1
115433,-100,4,2,1,30,0,0

[HitObjects]
64,192,486,5,0,0:0:0:40:clap.wav
64,192,801,1,0,0:0:0:40:clap.wav
64,192,1117,1,0,0:0:0:40:clap.wav
64,192,1433,1,0,0:0:0:40:clap.wav
64,192,1749,1,0,0:0:0:40:clap.wav
64,192,2064,1,0,0:0:0:40:clap.wav
192,192,2380,1,0,0:0:0:40:clap.wav
320,192,2696,1,0,0:0:0:40:clap.wav
448,192,3012,1,0,0:0:0:40:clap.wav
448,192,3328,1,0,0:0:0:40:clap.wav
448,192,3643,1,0,0:0:0:40:clap.wav
448,192,3959,1,0,0:0:0:40:clap.wav
448,192,4275,1,0,0:0:0:40:clap.wav
448,192,4591,1,0,0:0:0:40:clap.wav
320,192,4907,1,0,0:0:0:40:clap.wav
192,192,5222,1,0,0:0:0:40:clap.wav
64,192,5538,1,0,0:0:0:50:kick.wav
448,192,5538,1,0,0:0:0:0:
320,192,5854,1,0,0:0:0:50:kick.wav
192,192,6170,1,0,0:0:0:50:kick.wav
320,192,6486,1,0,0:0:0:50:kick.wav
64,192,6801,1,0,0:0:0:50:kick.wav
192,192,7117,1,0,0:0:0:50:kick.wav
320,192,7433,1,0,0:0:0:50:kick.wav
192,192,7749,1,0,0:0:0:50:kick.wav
64,192,8064,1,0,0:0:0:50:kick.wav
448,192,8380,1,0,0:0:0:50:kick.wav
192,192,8696,1,0,0:0:0:50:kick.wav
320,192,9012,1,0,0:0:0:50:kick.wav
64,192,9328,1,0,0:0:0:50:kick.wav
448,192,10275,128,0,10591:0:0:0:50:clap.wav
192,192,10591,1,0,0:0:0:60:crash.wav
64,192,10591,1,0,0:0:0:50:kick.wav
320,192,10907,1,0,0:0:0:50:kick.wav
64,192,11222,1,0,0:0:0:50:kick.wav
192,192,11538,1,0,0:0:0:50:kick.wav
320,192,11854,1,0,0:0:0:50:kick.wav
192,192,12170,1,0,0:0:0:50:kick.wav
448,192,12486,1,0,0:0:0:50:kick.wav
320,192,12801,1,0,0:0:0:50:kick.wav
64,192,13117,1,0,0:0:0:50:kick.wav
192,192,13433,1,0,0:0:0:50:kick.wav
320,192,13749,1,0,0:0:0:50:kick.wav
192,192,14064,1,0,0:0:0:50:kick.wav
64,192,14380,1,0,0:0:0:50:kick.wav
448,192,14696,1,0,0:0:0:50:kick.wav
320,192,15012,1,0,0:0:0:50:kick.wav
192,192,15328,1,0,0:0:0:50:kick.wav
320,192,15643,1,0,0:0:0:60:crash.wav
448,192,15959,1,0,0:0:0:50:kick.wav
64,192,16275,1,0,0:0:0:50:kick.wav
192,192,16591,1,0,0:0:0:50:kick.wav
320,192,16907,1,0,0:0:0:50:kick.wav
192,192,17222,1,0,0:0:0:50:kick.wav
448,192,17538,1,0,0:0:0:50:kick.wav
320,192,17854,1,0,0:0:0:50:kick.wav
64,192,18170,1,0,0:0:0:50:kick.wav
192,192,18486,1,0,0:0:0:50:kick.wav
320,192,18801,1,0,0:0:0:50:kick.wav
448,192,19117,1,0,0:0:0:50:kick.wav
64,192,19433,128,0,20696:0:0:0:50:kick.wav
192,192,20064,128,0,20696:0:0:0:50:kick.wav
448,192,20696,1,0,0:0:0:60:crash.wav
64,192,20854,1,0,0:0:0:0:
448,192,21012,1,0,0:0:0:0:
64,192,21170,1,0,0:0:0:0:
192,192,21486,1,0,0:0:0:0:
320,192,21801,1,0,0:0:0:0:
448,192,22117,1,0,0:0:0:0:
64,192,22275,128,0,22907:0:0:0:50:kick.wav
448,192,22907,1,0,0:0:0:0:
320,192,23064,1,0,0:0:0:0:
192,192,23222,1,0,0:0:0:50:kick.wav
320,192,23538,1,0,0:0:0:0:
192,192,23696,1,0,0:0:0:0:
64,192,23854,1,0,0:0:0:60:snare.wav
192,192,24170,1,0,0:0:0:0:
320,192,24328,1,0,0:0:0:0:
448,192,24486,1,0,0:0:0:0:
64,192,24643,1,0,0:0:0:0:
192,192,24801,1,0,0:0:0:50:kick.wav
320,192,24959,1,0,0:0:0:0:
448,192,25117,128,0,25433:0:0:0:60:snare.wav
64,192,25433,1,0,0:0:0:60:snare.wav
192,192,25591,1,0,0:0:0:0:
320,192,25749,1,0,0:0:0:50:kick.wav
192,192,25907,1,0,0:0:0:0:
64,192,26064,1,0,0:0:0:0:
448,192,26222,1,0,0:0:0:0:
320,192,26538,1,0,0:0:0:0:
192,192,26854,1,0,0:0:0:0:
64,192,27170,1,0,0:0:0:0:
448,192,27328,1,0,0:0:0:50:kick.wav
192,192,27486,1,0,0:0:0:0:
320,192,27643,128,0,27959:0:0:0:60:snare.wav
448,192,27959,1,0,0:0:0:45:drum.wav
320,192,28117,1,0,0:0:0:45:drum.wav
64,192,28275,1,0,0:0:0:45:drum.wav
192,192,28433,1,0,0:0:0:0:
448,192,28591,1,0,0:0:0:0:
320,192,28749,1,0,0:0:0:0:
320,192,29064,1,0,0:0:0:0:
192,192,29222,1,0,0:0:0:0:
64,192,29380,1,0,0:0:0:0:
192,192,29696,1,0,0:0:0:0:
320,192,30012,1,0,0:0:0:45:drum.wav
448,192,30328,128,0,30801:0:0:0:0:
192,192,30801,1,0,0:0:0:60:crash.wav
64,192,30801,1,0,0:0:0:60:snare.wav
64,192,31117,1,0,0:0:0:60:snare.wav
64,192,31433,1,0,0:0:0:60:snare.wav
64,192,31749,1,0,0:0:0:60:snare.wav
64,192,32064,1,0,0:0:0:60:snare.wav
64,192,32380,1,0,0:0:0:60:snare.wav
64,192,32696,1,0,0:0:0:60:snare.wav
64,192,33012,1,0,0:0:0:60:snare.wav
320,192,33328,1,0,0:0:0:50:kick.wav
448,192,33328,1,0,0:0:0:60:crash.wav
448,192,33643,1,0,0:0:0:60:snare.wav
192,192,33959,1,0,0:0:0:60:snare.wav
64,192,33959,1,0,0:0:0:50:kick.wav
64,192,34275,1,0,0:0:0:60:snare.wav
320,192,34591,1,0,0:0:0:60:crash.wav
448,192,34591,1,0,0:0:0:50:kick.wav
448,192,34907,1,0,0:0:0:60:snare.wav
448,192,35222,1,0,0:0:0:60:snare.wav
448,192,35538,1,0,0:0:0:60:snare.wav
64,192,35854,1,0,0:0:0:50:kick.wav
192,192,36170,1,0,0:0:0:60:snare.wav
320,192,36486,1,0,0:0:0:60:snare.wav
448,192,36801,1,0,0:0:0:60:snare.wav
64,192,37117,1,0,0:0:0:50:kick.wav
192,192,37433,1,0,0:0:0:60:snare.wav
448,192,37749,1,0,0:0:0:50:kick.wav
320,192,38064,1,0,0:0:0:60:snare.wav
64,192,38380,128,0,40907:0:0:0:50:kick.wav
192,192,38380,1,0,0:0:0:0:
192,192,39012,1,0,0:0:0:50:kick.wav
192,192,39643,128,0,40907:0:0:0:50:kick.wav
448,192,40907,1,0,0:0:0:50:kick.wav
64,192,41854,128,0,42170:0:0:0:60:boom.wav
320,192,42170,1,0,0:0:0:60:crash.wav
448,192,42170,1,0,0:0:0:50:kick.wav
448,192,42486,1,0,0:0:0:50:kick.wav
448,192,42801,1,0,0:0:0:50:kick.wav
448,192,43117,1,0,0:0:0:50:kick.wav
448,192,43433,1,0,0:0:0:50:kick.wav
448,192,43749,1,0,0:0:0:50:kick.wav
448,192,44064,1,0,0:0:0:50:kick.wav
448,192,44380,1,0,0:0:0:50:kick.wav
64,192,44696,1,0,0:0:0:50:kick.wav
192,192,45012,1,0,0:0:0:50:kick.wav
320,192,45328,1,0,0:0:0:50:kick.wav
448,192,45643,1,0,0:0:0:50:kick.wav
64,192,45959,1,0,0:0:0:50:kick.wav
192,192,46275,1,0,0:0:0:50:kick.wav
320,192,46591,1,0,0:0:0:50:kick.wav
192,192,46907,1,0,0:0:0:50:kick.wav
64,192,47222,1,0,0:0:0:50:kick.wav
64,192,47538,1,0,0:0:0:50:kick.wav
64,192,47854,1,0,0:0:0:50:kick.wav
64,192,48170,1,0,0:0:0:50:kick.wav
64,192,48486,1,0,0:0:0:50:kick.wav
64,192,48801,1,0,0:0:0:50:kick.wav
64,192,49117,1,0,0:0:0:50:kick.wav
64,192,49433,1,0,0:0:0:50:kick.wav
64,192,49749,1,0,0:0:0:50:kick.wav
64,192,50064,1,0,0:0:0:50:kick.wav
192,192,50380,1,0,0:0:0:50:kick.wav
320,192,50696,1,0,0:0:0:50:kick.wav
448,192,51012,128,0,52275:0:0:0:0:
320,192,51643,128,0,52275:0:0:0:0:
192,192,52275,1,0,0:0:0:50:kick.wav
64,192,52275,1,0,0:0:0:60:crash.wav
64,192,52591,1,0,0:0:0:50:kick.wav
64,192,52907,1,0,0:0:0:50:kick.wav
64,192,53222,1,0,0:0:0:50:kick.wav
64,192,53538,1,0,0:0:0:50:kick.wav
64,192,53854,1,0,0:0:0:50:kick.wav
64,192,54170,1,0,0:0:0:50:kick.wav
64,192,54486,1,0,0:0:0:50:kick.wav
448,192,54801,1,0,0:0:0:50:kick.wav
320,192,55117,1,0,0:0:0:50:kick.wav
192,192,55433,1,0,0:0:0:50:kick.wav
64,192,55749,1,0,0:0:0:50:kick.wav
448,192,56064,1,0,0:0:0:50:kick.wav
320,192,56380,1,0,0:0:0:50:kick.wav
192,192,56696,1,0,0:0:0:50:kick.wav
320,192,57012,1,0,0:0:0:50:kick.wav
448,192,57328,1,0,0:0:0:50:kick.wav
448,192,57643,1,0,0:0:0:50:kick.wav
448,192,57959,1,0,0:0:0:50:kick.wav
448,192,58275,1,0,0:0:0:50:kick.wav
448,192,58591,1,0,0:0:0:50:kick.wav
448,192,58907,1,0,0:0:0:50:kick.wav
448,192,59222,1,0,0:0:0:50:kick.wav
448,192,59538,1,0,0:0:0:50:kick.wav
64,192,59854,1,0,0:0:0:50:kick.wav
192,192,60170,1,0,0:0:0:50:kick.wav
320,192,60486,1,0,0:0:0:50:kick.wav
448,192,60801,1,0,0:0:0:50:kick.wav
64,192,61117,1,0,0:0:0:50:kick.wav
64,192,61433,128,0,62380:0:0:0:50:kick.wav
448,192,62380,1,0,0:0:0:60:crash.wav
320,192,62380,1,0,0:0:0:50:kick.wav
448,192,62854,1,0,0:0:0:50:kick.wav
192,192,63012,1,0,0:0:0:60:snare.wav
64,192,63012,1,0,0:0:0:50:kick.wav
64,192,63486,1,0,0:0:0:45:hihat.wav
320,192,63643,1,0,0:0:0:50:kick.wav
64,192,64907,1,0,0:0:0:50:kick.wav
64,192,65380,1,0,0:0:0:45:hihat.wav
320,192,65538,1,0,0:0:0:50:kick.wav
448,192,65538,1,0,0:0:0:60:snare.wav
192,192,65854,1,0,0:0:0:50:kick.wav
64,192,66170,128,0,66486:0:0:0:0:
448,192,66801,1,0,0:0:0:45:drum.wav
448,192,67117,1,0,0:0:0:50:kick.wav
64,192,67433,128,0,67749:0:0:0:50:kick.wav
320,192,67749,1,0,0:0:0:50:kick.wav
448,192,67749,1,0,0:0:0:60:snare.wav
64,192,68222,1,0,0:0:0:50:kick.wav
320,192,68380,1,0,0:0:0:50:kick.wav
448,192,68380,1,0,0:0:0:60:snare.wav
64,192,68696,128,0,69959:0:0:0:50:kick.wav
192,192,69328,128,0,69959:0:0:0:50:kick.wav
448,192,69959,128,0,71222:0:0:0:50:kick.wav
320,192,70591,128,0,71222:0:0:0:50:kick.wav
64,192,71222,1,0,0:0:0:50:kick.wav
192,192,71222,1,0,0:0:0:60:crash.wav
448,192,72486,1,0,0:0:0:50:kick.wav
64,192,72486,128,0,73749:0:0:0:60:crash.wav
64,192,75012,128,0,76275:0:0:0:50:kick.wav
448,192,75012,1,0,0:0:0:60:crash.wav
448,192,77538,128,0,78486:0:0:0:60:crash.wav
64,192,77538,1,0,0:0:0:50:kick.wav
448,192,78801,128,0,79749:0:0:0:35:drum.wav
64,192,78801,1,0,0:0:0:60:crash.wav
64,192,80064,128,0,80380:0:0:0:35:drum.wav
192,192,80696,128,0,81012:0:0:0:35:drum.wav
320,192,81328,128,0,81643:0:0:0:35:drum.wav
64,192,81643,1,0,0:0:0:35:drum.wav
448,192,81959,128,0,82275:0:0:0:50:kick.wav
64,192,82275,1,0,0:0:0:35:drum.wav
448,192,82591,128,0,87643:0:0:0:35:drum.wav
320,192,82591,1,0,0:0:0:50:kick.wav
320,192,83854,1,0,0:0:0:50:kick.wav
320,192,85117,128,0,87643:0:0:0:35:drum.wav
64,192,86380,1,0,0:0:0:50:kick.wav
64,192,87012,1,0,0:0:0:50:kick.wav
64,192,87643,128,0,87959:0:0:0:35:drum.wav
448,192,87959,1,0,0:0:0:50:kick.wav
192,192,88275,128,0,88591:0:0:0:60:crash.wav
448,192,88591,1,0,0:0:0:50:kick.wav
320,192,88907,128,0,89222:0:0:0:50:kick.wav
64,192,89222,1,0,0:0:0:50:kick.wav
448,192,89538,128,0,89854:0:0:0:60:crash.wav
64,192,89854,1,0,0:0:0:50:kick.wav
448,192,90170,128,0,91433:0:0:0:60:crash.wav
320,192,90801,128,0,91433:0:0:0:60:crash.wav
64,192,91433,128,0,92696:0:0:0:50:kick.wav
192,192,92064,128,0,92696:0:0:0:50:kick.wav
448,192,92696,1,0,0:0:0:50:kick.wav
448,192,93170,128,0,93959:0:0:0:0:
64,192,93959,1,0,0:0:0:50:kick.wav
320,192,94275,1,0,0:0:0:0:
192,192,94433,1,0,0:0:0:0:
64,192,94907,128,0,95222:0:0:0:60:boom.wav
448,192,95222,1,0,0:0:0:60:crash.wav
64,192,95380,1,0,0:0:0:45:hihat.wav
448,192,95538,1,0,0:0:0:50:kick.wav
64,192,95696,1,0,0:0:0:45:hihat.wav
192,192,96012,1,0,0:0:0:45:hihat.wav
320,192,96328,1,0,0:0:0:45:hihat.wav
448,192,96643,1,0,0:0:0:45:hihat.wav
64,192,96801,128,0,97433:0:0:0:50:kick.wav
448,192,97433,1,0,0:0:0:50:kick.wav
320,192,97591,1,0,0:0:0:45:hihat.wav
192,192,97749,1,0,0:0:0:50:kick.wav
320,192,98064,1,0,0:0:0:50:kick.wav
192,192,98222,1,0,0:0:0:45:hihat.wav
64,192,98380,1,0,0:0:0:50:kick.wav
192,192,98696,1,0,0:0:0:50:kick.wav
320,192,98854,1,0,0:0:0:45:hihat.wav
448,192,99012,1,0,0:0:0:50:kick.wav
64,192,99170,1,0,0:0:0:45:hihat.wav
192,192,99328,1,0,0:0:0:50:kick.wav
320,192,99486,1,0,0:0:0:45:hihat.wav
448,192,99643,128,0,99959:0:0:0:50:kick.wav
64,192,99959,1,0,0:0:0:60:jpndrum.wav
192,192,100117,1,0,0:0:0:0:
320,192,100275,1,0,0:0:0:60:crash.wav
192,192,100433,1,0,0:0:0:45:hihat.wav
64,192,100591,1,0,0:0:0:50:kick.wav
448,192,100749,1,0,0:0:0:45:hihat.wav
320,192,101064,1,0,0:0:0:45:hihat.wav
192,192,101380,1,0,0:0:0:45:hihat.wav
64,192,101696,1,0,0:0:0:45:hihat.wav
448,192,101854,1,0,0:0:0:50:kick.wav
192,192,102012,1,0,0:0:0:45:hihat.wav
320,192,102170,128,0,102486:0:0:0:50:kick.wav
448,192,102486,1,0,0:0:0:50:kick.wav
320,192,102643,1,0,0:0:0:45:hihat.wav
64,192,102801,1,0,0:0:0:50:kick.wav
192,192,102959,1,0,0:0:0:45:hihat.wav
448,192,103117,1,0,0:0:0:50:kick.wav
320,192,103275,1,0,0:0:0:45:hihat.wav
320,192,103591,1,0,0:0:0:45:hihat.wav
192,192,103749,1,0,0:0:0:50:kick.wav
64,192,103907,1,0,0:0:0:60:crash.wav
192,192,104222,1,0,0:0:0:60:crash.wav
320,192,104538,1,0,0:0:0:50:kick.wav
448,192,104854,128,0,105328:0:0:0:60:crash.wav
64,192,105328,1,0,0:0:0:45:drum.wav
448,192,105486,1,0,0:0:0:45:hihat.wav
64,192,105643,1,0,0:0:0:50:kick.wav
448,192,105801,1,0,0:0:0:45:hihat.wav
320,192,106117,1,0,0:0:0:45:hihat.wav
192,192,106433,1,0,0:0:0:45:hihat.wav
64,192,106749,1,0,0:0:0:45:hihat.wav
448,192,106907,128,0,107538:0:0:0:50:kick.wav
64,192,107538,1,0,0:0:0:50:kick.wav
192,192,107696,1,0,0:0:0:45:hihat.wav
320,192,107854,1,0,0:0:0:50:kick.wav
192,192,108170,1,0,0:0:0:50:kick.wav
320,192,108328,1,0,0:0:0:45:hihat.wav
448,192,108486,1,0,0:0:0:50:kick.wav
320,192,108801,1,0,0:0:0:50:kick.wav
192,192,108959,1,0,0:0:0:45:hihat.wav
64,192,109117,1,0,0:0:0:60:snare.wav
448,192,109275,1,0,0:0:0:45:hihat.wav
320,192,109433,1,0,0:0:0:50:kick.wav
192,192,109591,1,0,0:0:0:45:hihat.wav
64,192,109749,128,0,110064:0:0:0:50:kick.wav
448,192,110064,1,0,0:0:0:60:jpndrum.wav
320,192,110222,1,0,0:0:0:0:
192,192,110380,1,0,0:0:0:60:crash.wav
320,192,110538,1,0,0:0:0:60:snare.wav
448,192,110696,1,0,0:0:0:60:snare.wav
64,192,110854,1,0,0:0:0:60:snare.wav
192,192,111170,1,0,0:0:0:60:snare.wav
320,192,111486,1,0,0:0:0:60:snare.wav
448,192,111801,1,0,0:0:0:50:kick.wav
64,192,111959,1,0,0:0:0:50:kick.wav
320,192,112117,1,0,0:0:0:60:snare.wav
192,192,112275,128,0,112591:0:0:0:50:kick.wav
64,192,112591,1,0,0:0:0:50:kick.wav
192,192,112749,1,0,0:0:0:60:snare.wav
448,192,112907,1,0,0:0:0:50:kick.wav
320,192,113064,1,0,0:0:0:50:kick.wav
64,192,113222,1,0,0:0:0:50:kick.wav
192,192,113380,1,0,0:0:0:50:kick.wav
192,192,113696,1,0,0:0:0:50:kick.wav
320,192,113854,1,0,0:0:0:50:kick.wav
448,192,114012,1,0,0:0:0:50:kick.wav
64,192,114170,128,0,114801:0:0:0:50:kick.wav
448,192,114801,128,0,115433:0:0:0:50:kick.wav
320,192,115117,128,0,115433:0:0:0:50:clap.wav
64,192,115433,128,0,120170:0:0:0:50:kick.wav
