osu file format v14

[General]
AudioFilename: t+pazolite - Oshama Scramble!.mp3
AudioLeadIn: 0
PreviewTime: 40907
Countdown: 0
SampleSet: Soft
StackLeniency: 0.7
Mode: 3
LetterboxInBreaks: 0
SpecialStyle: 0
WidescreenStoryboard: 0

[Editor]
DistanceSpacing: 1.6
BeatDivisor: 4
GridSize: 4
TimelineZoom: 2.4

[Metadata]
Title:Oshama Scramble!
TitleUnicode:Oshama Scramble!
Artist:t+pazolite
ArtistUnicode:t+pazolite
Creator:[ A v a l o n ]
Version:EXPERT
Source:maimai ORANGE PLUS
Tags:SEGA Ponko2 Girlish 3rd Album CHUNITHM Kuo Kyoka Exaria-sama Draftnell CDY
BeatmapID:1087293
BeatmapSetID:511480

[Difficulty]
HPDrainRate:8
CircleSize:4
OverallDifficulty:8
ApproachRate:5
SliderMultiplier:1.4
SliderTickRate:1

[Events]
//Background and Video events
0,0,"Background by CDY.png",0,0
//Break Periods
//Storyboard Layer 0 (Background)
//Storyboard Layer 1 (Fail)
//Storyboard Layer 2 (Pass)
//Storyboard Layer 3 (Foreground)
//Storyboard Sound Samples
Sample,8064,0,"clap.wav",40
Sample,8380,0,"clap.wav",40
Sample,8696,0,"clap.wav",40
Sample,9012,0,"clap.wav",40
Sample,33328,0,"snare.wav",60
Sample,33959,0,"crash.wav",60
Sample,34591,0,"snare.wav",60
Sample,34749,0,"drum.wav",45
Sample,35064,0,"drum.wav",45
Sample,35104,0,"drum.wav",45
Sample,35143,0,"drum.wav",45
Sample,35183,0,"drum.wav",45
Sample,35380,0,"drum.wav",45
Sample,35854,0,"snare.wav",60
Sample,36012,0,"hihat.wav",45
Sample,36328,0,"hihat.wav",45
Sample,36643,0,"hihat.wav",45
Sample,36959,0,"hihat.wav",45
Sample,37117,0,"crash.wav",60
Sample,38380,0,"crash.wav",60
Sample,38538,0,"hihat.wav",45
Sample,38854,0,"hihat.wav",45
Sample,39012,0,"snare.wav",40
Sample,39170,0,"snare.wav",40
Sample,39486,0,"hihat.wav",45
Sample,39643,0,"crash.wav",60
Sample,39722,0,"snare.wav",40
Sample,39801,0,"hihat.wav",45
Sample,39880,0,"snare.wav",40
Sample,39959,0,"crash.wav",60
Sample,40038,0,"snare.wav",40
Sample,40117,0,"hihat.wav",45
Sample,40196,0,"snare.wav",40
Sample,40275,0,"snare.wav",40
Sample,40275,0,"drum.wav",45
Sample,42328,0,"hihat.wav",45
Sample,42959,0,"hihat.wav",45
Sample,43591,0,"hihat.wav",45
Sample,44854,0,"hihat.wav",45
Sample,45486,0,"hihat.wav",45
Sample,47380,0,"hihat.wav",45
Sample,48012,0,"hihat.wav",45
Sample,48643,0,"hihat.wav",45
Sample,49907,0,"hihat.wav",45
Sample,50538,0,"hihat.wav",45
Sample,60959,0,"hihat.wav",45
Sample,60959,0,"drum.wav",45
Sample,63801,0,"hihat.wav",45
Sample,64749,0,"hihat.wav",45
Sample,65064,0,"hihat.wav",45
Sample,65696,0,"drum.wav",45
Sample,66486,0,"drum.wav",45
Sample,72643,0,"drum.wav",35
Sample,75170,0,"drum.wav",35
Sample,77696,0,"drum.wav",35
Sample,78564,0,"drum.wav",35
Sample,78722,0,"drum.wav",35
Sample,78801,0,"kick.wav",50
Sample,79828,0,"drum.wav",35
Sample,79986,0,"drum.wav",35
Sample,80301,0,"drum.wav",35
Sample,80617,0,"drum.wav",35
Sample,80775,0,"drum.wav",35
Sample,80933,0,"drum.wav",35
Sample,81091,0,"drum.wav",35
Sample,81407,0,"drum.wav",35
Sample,81564,0,"drum.wav",35
Sample,81722,0,"drum.wav",35
Sample,81880,0,"drum.wav",35
Sample,82038,0,"drum.wav",35
Sample,82196,0,"drum.wav",35
Sample,82354,0,"drum.wav",35
Sample,82512,0,"drum.wav",35
Sample,82591,0,"crash.wav",60
Sample,82828,0,"drum.wav",35
Sample,83301,0,"drum.wav",35
Sample,83459,0,"drum.wav",35
Sample,83854,0,"crash.wav",60
Sample,84091,0,"drum.wav",35
Sample,84564,0,"drum.wav",35
Sample,84722,0,"drum.wav",35
Sample,84880,0,"drum.wav",35
Sample,85828,0,"drum.wav",35
Sample,86143,0,"drum.wav",35
Sample,86380,0,"kick.wav",50
Sample,87012,0,"crash.wav",60
Sample,87249,0,"drum.wav",35
Sample,87643,0,"kick.wav",50
Sample,92262,0,"drum.wav",45
Sample,92341,0,"drum.wav",45
Sample,92578,0,"drum.wav",45
Sample,92657,0,"drum.wav",45
Sample,99801,0,"hihat.wav",45
Sample,102328,0,"hihat.wav",45
Sample,105249,0,"drum.wav",45
Sample,105328,0,"snare.wav",60
Sample,109907,0,"hihat.wav",45
Sample,110380,0,"kick.wav",50
Sample,112986,0,"snare.wav",40
Sample,113143,0,"snare.wav",40
Sample,113301,0,"snare.wav",40
Sample,113459,0,"snare.wav",40
Sample,113617,0,"snare.wav",40
Sample,113775,0,"snare.wav",40
Sample,113933,0,"kick.wav",50
Sample,114170,0,"snare.wav",40
Sample,114170,0,"drum.wav",45
Sample,114170,0,"crash.wav",60
Sample,114249,0,"drum.wav",45
Sample,114486,0,"drum.wav",45
Sample,114486,0,"crash.wav",60
Sample,114564,0,"drum.wav",45
Sample,115117,0,"crash.wav",60

[TimingPoints]
486,315.789473684211,4,2,1,30,1,0
10275,-62.5,4,2,1,30,0,0
10433,-250.000000000001,4,2,1,30,0,0
10591,-100,4,2,1,30,0,0
41854,-45.4545454545455,4,2,1,30,0,0
41933,-125,4,2,1,30,0,0
42170,-100,4,2,1,30,0,1
51012,-100,4,2,1,30,0,0
52275,-100,4,2,1,30,0,1
61117,-100,4,2,1,30,0,0
95222,-100,4,2,1,30,0,1
115433,-100,4,2,1,30,0,0

[HitObjects]
448,192,486,5,0,0:0:0:40:clap.wav
64,192,486,1,0,0:0:0:0:
320,192,722,1,0,0:0:0:0:
64,192,801,1,0,0:0:0:40:clap.wav
448,192,801,1,0,0:0:0:0:
192,192,959,1,0,0:0:0:0:
64,192,1117,1,0,0:0:0:40:clap.wav
448,192,1117,1,0,0:0:0:0:
320,192,1275,1,0,0:0:0:0:
192,192,1433,1,0,0:0:0:40:clap.wav
448,192,1433,1,0,0:0:0:0:
320,192,1591,1,0,0:0:0:0:
448,192,1749,1,0,0:0:0:40:clap.wav
64,192,1749,1,0,0:0:0:0:
192,192,1907,1,0,0:0:0:0:
448,192,2064,1,0,0:0:0:40:clap.wav
320,192,2064,1,0,0:0:0:0:
192,192,2222,1,0,0:0:0:0:
64,192,2380,1,0,0:0:0:40:clap.wav
448,192,2380,1,0,0:0:0:0:
320,192,2538,1,0,0:0:0:0:
192,192,2696,1,0,0:0:0:40:clap.wav
448,192,2696,1,0,0:0:0:0:
320,192,2854,1,0,0:0:0:0:
64,192,3012,1,0,0:0:0:40:clap.wav
448,192,3012,1,0,0:0:0:0:
192,192,3249,1,0,0:0:0:0:
64,192,3328,1,0,0:0:0:40:clap.wav
448,192,3328,1,0,0:0:0:0:
320,192,3486,1,0,0:0:0:0:
64,192,3643,1,0,0:0:0:40:clap.wav
448,192,3643,1,0,0:0:0:0:
192,192,3801,1,0,0:0:0:0:
320,192,3959,1,0,0:0:0:40:clap.wav
64,192,3959,1,0,0:0:0:0:
192,192,4117,1,0,0:0:0:0:
64,192,4275,1,0,0:0:0:40:clap.wav
448,192,4275,1,0,0:0:0:0:
320,192,4433,1,0,0:0:0:0:
192,192,4591,1,0,0:0:0:40:clap.wav
64,192,4591,1,0,0:0:0:0:
320,192,4749,1,0,0:0:0:0:
448,192,4907,1,0,0:0:0:40:clap.wav
64,192,4907,1,0,0:0:0:0:
192,192,5064,1,0,0:0:0:0:
64,192,5222,1,0,0:0:0:40:clap.wav
320,192,5222,1,0,0:0:0:0:
192,192,5380,1,0,0:0:0:0:
320,192,5538,1,0,0:0:0:50:kick.wav
448,192,5538,1,0,0:0:0:60:crash.wav
64,192,5538,1,0,0:0:0:40:clap.wav
192,192,5696,1,0,0:0:0:50:kick.wav
320,192,5775,1,0,0:0:0:0:
64,192,5854,1,0,0:0:0:50:kick.wav
448,192,5854,1,0,0:0:0:40:clap.wav
320,192,6012,1,0,0:0:0:50:kick.wav
192,192,6170,1,0,0:0:0:50:kick.wav
448,192,6170,1,0,0:0:0:40:clap.wav
64,192,6328,1,0,0:0:0:50:kick.wav
320,192,6486,1,0,0:0:0:50:kick.wav
192,192,6486,1,0,0:0:0:40:clap.wav
448,192,6643,1,0,0:0:0:50:kick.wav
64,192,6801,1,0,0:0:0:50:kick.wav
320,192,6801,1,0,0:0:0:40:clap.wav
192,192,6959,1,0,0:0:0:50:kick.wav
192,192,7117,1,0,0:0:0:50:kick.wav
448,192,7117,1,0,0:0:0:40:clap.wav
320,192,7275,1,0,0:0:0:50:kick.wav
64,192,7433,1,0,0:0:0:50:kick.wav
320,192,7433,1,0,0:0:0:40:clap.wav
192,192,7591,1,0,0:0:0:50:kick.wav
448,192,7749,1,0,0:0:0:50:kick.wav
192,192,7749,1,0,0:0:0:40:clap.wav
320,192,7907,1,0,0:0:0:50:kick.wav
448,192,8064,1,0,0:0:0:50:kick.wav
64,192,8064,1,0,0:0:0:0:
192,192,8143,1,0,0:0:0:50:kick.wav
320,192,8222,1,0,0:0:0:50:kick.wav
192,192,8301,1,0,0:0:0:50:kick.wav
448,192,8380,1,0,0:0:0:50:kick.wav
320,192,8459,1,0,0:0:0:50:kick.wav
192,192,8538,1,0,0:0:0:50:kick.wav
64,192,8617,1,0,0:0:0:50:kick.wav
320,192,8696,1,0,0:0:0:50:kick.wav
192,192,8775,1,0,0:0:0:50:kick.wav
448,192,8854,1,0,0:0:0:50:kick.wav
320,192,8933,1,0,0:0:0:50:kick.wav
64,192,9012,1,0,0:0:0:50:kick.wav
192,192,9091,1,0,0:0:0:50:kick.wav
448,192,9170,1,0,0:0:0:50:kick.wav
320,192,9249,1,0,0:0:0:50:kick.wav
64,192,9328,1,0,0:0:0:50:kick.wav
192,192,9328,1,0,0:0:0:40:clap.wav
448,192,9643,1,0,0:0:0:0:
448,192,9801,1,0,0:0:0:0:
64,192,9959,1,0,0:0:0:0:
192,192,10038,1,0,0:0:0:0:
320,192,10117,1,0,0:0:0:0:
448,192,10196,1,0,0:0:0:0:
64,192,10275,128,0,10591:0:0:0:50:clap.wav
192,192,10275,128,0,10591:0:0:0:60:boom.wav
320,192,10591,1,0,0:0:0:60:crash.wav
448,192,10591,1,0,0:0:0:50:kick.wav
192,192,10749,1,0,0:0:0:45:hihat.wav
320,192,10828,1,0,0:0:0:0:
448,192,10907,1,0,0:0:0:50:kick.wav
64,192,10907,1,0,0:0:0:0:
192,192,11064,1,0,0:0:0:45:hihat.wav
320,192,11143,1,0,0:0:0:0:
192,192,11222,1,0,0:0:0:50:kick.wav
64,192,11222,1,0,0:0:0:0:
448,192,11380,1,0,0:0:0:45:hihat.wav
64,192,11538,1,0,0:0:0:50:kick.wav
448,192,11538,1,0,0:0:0:0:
320,192,11696,1,0,0:0:0:45:hihat.wav
448,192,11854,1,0,0:0:0:50:kick.wav
64,192,11854,1,0,0:0:0:0:
192,192,11933,1,0,0:0:0:0:
320,192,12012,1,0,0:0:0:45:hihat.wav
448,192,12091,1,0,0:0:0:0:
64,192,12170,1,0,0:0:0:50:kick.wav
192,192,12170,1,0,0:0:0:0:
64,192,12328,1,0,0:0:0:45:hihat.wav
192,192,12328,1,0,0:0:0:0:
320,192,12486,1,0,0:0:0:50:kick.wav
448,192,12486,1,0,0:0:0:0:
192,192,12643,1,0,0:0:0:45:hihat.wav
320,192,12722,1,0,0:0:0:0:
448,192,12801,1,0,0:0:0:50:kick.wav
64,192,12801,1,0,0:0:0:0:
320,192,12959,1,0,0:0:0:45:hihat.wav
192,192,13117,1,0,0:0:0:50:kick.wav
448,192,13117,1,0,0:0:0:0:
64,192,13275,1,0,0:0:0:45:hihat.wav
192,192,13354,1,0,0:0:0:0:
448,192,13433,1,0,0:0:0:50:kick.wav
320,192,13433,1,0,0:0:0:0:
448,192,13591,1,0,0:0:0:45:hihat.wav
320,192,13670,1,0,0:0:0:0:
64,192,13749,1,0,0:0:0:50:kick.wav
192,192,13749,1,0,0:0:0:0:
448,192,13907,1,0,0:0:0:45:hihat.wav
64,192,14064,1,0,0:0:0:50:kick.wav
448,192,14064,1,0,0:0:0:0:
320,192,14222,1,0,0:0:0:45:hihat.wav
64,192,14380,1,0,0:0:0:50:kick.wav
448,192,14380,1,0,0:0:0:0:
192,192,14459,1,0,0:0:0:0:
320,192,14538,1,0,0:0:0:45:hihat.wav
448,192,14617,1,0,0:0:0:0:
64,192,14696,1,0,0:0:0:50:kick.wav
192,192,14696,1,0,0:0:0:0:
64,192,14854,1,0,0:0:0:45:hihat.wav
192,192,14854,1,0,0:0:0:0:
320,192,15012,1,0,0:0:0:50:kick.wav
448,192,15012,1,0,0:0:0:0:
192,192,15170,1,0,0:0:0:45:hihat.wav
64,192,15328,1,0,0:0:0:50:kick.wav
320,192,15328,1,0,0:0:0:0:
448,192,15486,1,0,0:0:0:45:hihat.wav
64,192,15643,1,0,0:0:0:60:crash.wav
192,192,15643,1,0,0:0:0:50:kick.wav
320,192,15801,1,0,0:0:0:45:hihat.wav
448,192,15880,1,0,0:0:0:0:
64,192,15959,1,0,0:0:0:50:kick.wav
192,192,15959,1,0,0:0:0:0:
320,192,16117,1,0,0:0:0:45:hihat.wav
192,192,16196,1,0,0:0:0:0:
320,192,16275,1,0,0:0:0:50:kick.wav
448,192,16275,1,0,0:0:0:0:
64,192,16433,1,0,0:0:0:45:hihat.wav
64,192,16591,1,0,0:0:0:50:kick.wav
448,192,16591,1,0,0:0:0:0:
320,192,16749,1,0,0:0:0:45:hihat.wav
64,192,16907,1,0,0:0:0:50:kick.wav
448,192,16907,1,0,0:0:0:0:
192,192,16986,1,0,0:0:0:0:
320,192,17064,1,0,0:0:0:45:hihat.wav
448,192,17143,1,0,0:0:0:0:
192,192,17222,1,0,0:0:0:50:kick.wav
64,192,17222,1,0,0:0:0:0:
64,192,17380,1,0,0:0:0:45:hihat.wav
192,192,17380,1,0,0:0:0:0:
448,192,17538,1,0,0:0:0:50:kick.wav
320,192,17538,1,0,0:0:0:0:
64,192,17617,1,0,0:0:0:0:
192,192,17696,1,0,0:0:0:45:hihat.wav
320,192,17775,1,0,0:0:0:0:
448,192,17854,1,0,0:0:0:50:kick.wav
64,192,17854,1,0,0:0:0:0:
320,192,18012,1,0,0:0:0:45:hihat.wav
192,192,18170,1,0,0:0:0:50:kick.wav
448,192,18170,1,0,0:0:0:0:
320,192,18328,1,0,0:0:0:45:hihat.wav
64,192,18328,1,0,0:0:0:50:kick.wav
192,192,18486,1,0,0:0:0:50:kick.wav
448,192,18486,1,0,0:0:0:0:
320,192,18643,1,0,0:0:0:45:hihat.wav
64,192,18643,1,0,0:0:0:50:kick.wav
320,192,18801,1,0,0:0:0:50:kick.wav
448,192,18801,1,0,0:0:0:0:
192,192,18959,1,0,0:0:0:45:hihat.wav
64,192,18959,1,0,0:0:0:50:kick.wav
448,192,19117,1,0,0:0:0:50:kick.wav
320,192,19117,1,0,0:0:0:0:
192,192,19275,1,0,0:0:0:45:hihat.wav
64,192,19275,1,0,0:0:0:50:kick.wav
320,192,19433,1,0,0:0:0:50:kick.wav
448,192,19433,1,0,0:0:0:0:
64,192,19512,1,0,0:0:0:50:kick.wav
192,192,19591,1,0,0:0:0:50:kick.wav
320,192,19591,1,0,0:0:0:45:hihat.wav
448,192,19670,1,0,0:0:0:50:kick.wav
64,192,19749,1,0,0:0:0:50:kick.wav
192,192,19749,1,0,0:0:0:0:
320,192,19828,1,0,0:0:0:50:kick.wav
448,192,19907,1,0,0:0:0:50:kick.wav
64,192,19907,1,0,0:0:0:45:hihat.wav
192,192,19986,1,0,0:0:0:50:kick.wav
320,192,20064,1,0,0:0:0:50:kick.wav
448,192,20064,1,0,0:0:0:0:
64,192,20222,128,0,20380:0:0:0:45:hihat.wav
448,192,20380,1,0,0:0:0:50:clap.wav
320,192,20380,1,0,0:0:0:60:boom.wav
192,192,20380,128,0,20538:0:0:0:0:
64,192,20538,128,0,20696:0:0:0:45:hihat.wav
320,192,20696,1,0,0:0:0:60:crash.wav
448,192,20696,1,0,0:0:0:50:kick.wav
192,192,20854,1,0,0:0:0:0:
320,192,21012,1,0,0:0:0:0:
448,192,21170,1,0,0:0:0:0:
64,192,21170,1,0,0:0:0:0:
192,192,21328,1,0,0:0:0:60:snare.wav
320,192,21486,1,0,0:0:0:0:
448,192,21486,1,0,0:0:0:0:
192,192,21643,1,0,0:0:0:0:
64,192,21801,1,0,0:0:0:0:
320,192,21801,1,0,0:0:0:0:
448,192,21959,1,0,0:0:0:0:
192,192,22117,1,0,0:0:0:0:
320,192,22275,1,0,0:0:0:50:kick.wav
64,192,22433,1,0,0:0:0:0:
192,192,22591,1,0,0:0:0:60:snare.wav
448,192,22591,1,0,0:0:0:0:
320,192,22749,1,0,0:0:0:0:
448,192,22907,1,0,0:0:0:0:
64,192,22907,1,0,0:0:0:0:
192,192,23064,1,0,0:0:0:0:
320,192,23222,1,0,0:0:0:50:kick.wav
64,192,23222,1,0,0:0:0:0:
448,192,23380,1,0,0:0:0:0:
320,192,23538,1,0,0:0:0:0:
192,192,23696,1,0,0:0:0:0:
64,192,23696,1,0,0:0:0:0:
448,192,23854,1,0,0:0:0:60:snare.wav
192,192,24012,1,0,0:0:0:0:
320,192,24012,1,0,0:0:0:0:
64,192,24170,1,0,0:0:0:0:
320,192,24328,1,0,0:0:0:0:
448,192,24328,1,0,0:0:0:0:
192,192,24486,1,0,0:0:0:0:
320,192,24643,1,0,0:0:0:0:
64,192,24801,1,0,0:0:0:50:kick.wav
192,192,24959,1,0,0:0:0:0:
320,192,25117,1,0,0:0:0:60:snare.wav
448,192,25117,1,0,0:0:0:0:
192,192,25275,1,0,0:0:0:60:snare.wav
64,192,25433,1,0,0:0:0:60:snare.wav
448,192,25433,1,0,0:0:0:0:
320,192,25591,1,0,0:0:0:0:
192,192,25749,1,0,0:0:0:50:kick.wav
448,192,25749,1,0,0:0:0:0:
64,192,25907,1,0,0:0:0:0:
192,192,26064,1,0,0:0:0:0:
320,192,26222,1,0,0:0:0:0:
448,192,26222,1,0,0:0:0:0:
64,192,26380,1,0,0:0:0:60:snare.wav
320,192,26538,1,0,0:0:0:0:
192,192,26538,1,0,0:0:0:0:
448,192,26696,1,0,0:0:0:0:
64,192,26854,1,0,0:0:0:0:
192,192,26854,1,0,0:0:0:0:
320,192,27012,1,0,0:0:0:0:
64,192,27170,1,0,0:0:0:0:
192,192,27328,1,0,0:0:0:50:kick.wav
448,192,27328,1,0,0:0:0:0:
320,192,27486,1,0,0:0:0:0:
64,192,27643,1,0,0:0:0:60:snare.wav
192,192,27643,1,0,0:0:0:0:
448,192,27959,1,0,0:0:0:45:drum.wav
320,192,27999,1,0,0:0:0:45:drum.wav
192,192,28038,1,0,0:0:0:45:drum.wav
64,192,28078,1,0,0:0:0:45:drum.wav
448,192,28117,1,0,0:0:0:45:drum.wav
320,192,28157,1,0,0:0:0:45:drum.wav
192,192,28196,1,0,0:0:0:45:drum.wav
64,192,28236,1,0,0:0:0:45:drum.wav
320,192,28275,1,0,0:0:0:45:drum.wav
448,192,28275,1,0,0:0:0:50:kick.wav
192,192,28433,1,0,0:0:0:0:
320,192,28591,1,0,0:0:0:0:
448,192,28749,1,0,0:0:0:0:
64,192,28749,1,0,0:0:0:0:
192,192,28907,1,0,0:0:0:60:snare.wav
320,192,29064,1,0,0:0:0:0:
64,192,29064,1,0,0:0:0:0:
192,192,29222,1,0,0:0:0:0:
320,192,29380,1,0,0:0:0:0:
448,192,29380,1,0,0:0:0:0:
64,192,29538,1,0,0:0:0:50:kick.wav
192,192,29696,1,0,0:0:0:0:
448,192,29854,1,0,0:0:0:45:drum.wav
64,192,29933,1,0,0:0:0:45:drum.wav
320,192,30012,1,0,0:0:0:45:drum.wav
192,192,30091,1,0,0:0:0:45:drum.wav
64,192,30170,1,0,0:0:0:45:drum.wav
448,192,30170,1,0,0:0:0:0:
320,192,30328,1,0,0:0:0:0:
448,192,30486,1,0,0:0:0:0:
192,192,30486,128,0,30643:0:0:0:0:
320,192,30643,128,0,30801:0:0:0:0:
448,192,30801,1,0,0:0:0:60:crash.wav
192,192,30801,1,0,0:0:0:60:snare.wav
64,192,30801,1,0,0:0:0:50:kick.wav
320,192,30959,1,0,0:0:0:45:hihat.wav
192,192,31038,1,0,0:0:0:0:
64,192,31117,1,0,0:0:0:60:snare.wav
448,192,31117,1,0,0:0:0:0:
320,192,31275,1,0,0:0:0:45:hihat.wav
192,192,31354,1,0,0:0:0:0:
64,192,31433,1,0,0:0:0:60:snare.wav
448,192,31433,1,0,0:0:0:0:
192,192,31512,1,0,0:0:0:0:
320,192,31591,1,0,0:0:0:45:hihat.wav
448,192,31670,1,0,0:0:0:0:
64,192,31749,1,0,0:0:0:60:snare.wav
192,192,31749,1,0,0:0:0:0:
320,192,31907,1,0,0:0:0:45:hihat.wav
448,192,32064,1,0,0:0:0:60:snare.wav
192,192,32064,1,0,0:0:0:0:
64,192,32222,1,0,0:0:0:45:hihat.wav
192,192,32301,1,0,0:0:0:0:
320,192,32380,1,0,0:0:0:60:snare.wav
448,192,32380,1,0,0:0:0:0:
192,192,32538,1,0,0:0:0:45:hihat.wav
448,192,32696,1,0,0:0:0:60:snare.wav
64,192,32696,1,0,0:0:0:0:
320,192,32854,1,0,0:0:0:45:hihat.wav
192,192,33012,1,0,0:0:0:60:snare.wav
64,192,33012,1,0,0:0:0:0:
320,192,33170,1,0,0:0:0:45:hihat.wav
448,192,33170,1,0,0:0:0:50:kick.wav
64,192,33328,1,0,0:0:0:50:kick.wav
192,192,33328,1,0,0:0:0:60:crash.wav
320,192,33486,1,0,0:0:0:45:hihat.wav
192,192,33564,1,0,0:0:0:0:
448,192,33643,1,0,0:0:0:60:snare.wav
64,192,33643,1,0,0:0:0:0:
192,192,33801,1,0,0:0:0:45:hihat.wav
320,192,33959,1,0,0:0:0:60:snare.wav
448,192,33959,1,0,0:0:0:50:kick.wav
192,192,34117,1,0,0:0:0:45:hihat.wav
320,192,34196,1,0,0:0:0:0:
448,192,34275,1,0,0:0:0:60:snare.wav
64,192,34275,1,0,0:0:0:0:
320,192,34433,1,0,0:0:0:45:hihat.wav
192,192,34591,1,0,0:0:0:60:crash.wav
64,192,34591,1,0,0:0:0:50:kick.wav
448,192,34749,1,0,0:0:0:45:hihat.wav
320,192,34788,1,0,0:0:0:45:drum.wav
64,192,34828,1,0,0:0:0:45:drum.wav
192,192,34867,1,0,0:0:0:45:drum.wav
320,192,34907,1,0,0:0:0:60:snare.wav
448,192,34907,1,0,0:0:0:45:drum.wav
64,192,35064,1,0,0:0:0:45:hihat.wav
192,192,35104,1,0,0:0:0:0:
448,192,35143,1,0,0:0:0:0:
320,192,35183,1,0,0:0:0:0:
192,192,35222,1,0,0:0:0:60:snare.wav
64,192,35222,1,0,0:0:0:45:drum.wav
448,192,35380,1,0,0:0:0:45:hihat.wav
320,192,35420,1,0,0:0:0:45:drum.wav
64,192,35459,1,0,0:0:0:45:drum.wav
192,192,35499,1,0,0:0:0:45:drum.wav
320,192,35538,1,0,0:0:0:60:snare.wav
448,192,35538,1,0,0:0:0:45:drum.wav
64,192,35696,1,0,0:0:0:50:kick.wav
192,192,35696,1,0,0:0:0:45:hihat.wav
320,192,35854,1,0,0:0:0:50:kick.wav
448,192,35854,1,0,0:0:0:60:crash.wav
192,192,36012,1,0,0:0:0:60:snare.wav
320,192,36091,1,0,0:0:0:0:
448,192,36170,1,0,0:0:0:60:snare.wav
64,192,36170,1,0,0:0:0:0:
192,192,36328,1,0,0:0:0:60:snare.wav
320,192,36407,1,0,0:0:0:0:
64,192,36486,1,0,0:0:0:60:snare.wav
192,192,36564,1,0,0:0:0:0:
320,192,36643,1,0,0:0:0:50:kick.wav
448,192,36643,1,0,0:0:0:60:snare.wav
64,192,36801,1,0,0:0:0:60:snare.wav
448,192,36959,1,0,0:0:0:50:kick.wav
320,192,36959,1,0,0:0:0:60:snare.wav
192,192,37117,1,0,0:0:0:50:kick.wav
64,192,37117,1,0,0:0:0:60:snare.wav
320,192,37275,1,0,0:0:0:60:snare.wav
192,192,37354,1,0,0:0:0:0:
64,192,37433,1,0,0:0:0:60:snare.wav
448,192,37433,1,0,0:0:0:0:
192,192,37591,1,0,0:0:0:60:snare.wav
320,192,37749,1,0,0:0:0:50:kick.wav
448,192,37749,1,0,0:0:0:60:snare.wav
64,192,37907,1,0,0:0:0:60:snare.wav
192,192,37986,1,0,0:0:0:50:kick.wav
320,192,37986,1,0,0:0:0:0:
448,192,38064,1,0,0:0:0:60:snare.wav
64,192,38222,1,0,0:0:0:50:kick.wav
192,192,38222,1,0,0:0:0:60:snare.wav
64,192,38380,1,0,0:0:0:50:kick.wav
448,192,38380,1,0,0:0:0:40:snare.wav
320,192,38459,1,0,0:0:0:40:snare.wav
192,192,38538,1,0,0:0:0:40:snare.wav
320,192,38617,1,0,0:0:0:40:snare.wav
448,192,38696,1,0,0:0:0:40:snare.wav
64,192,38775,1,0,0:0:0:40:snare.wav
320,192,38854,1,0,0:0:0:50:kick.wav
192,192,38854,1,0,0:0:0:40:snare.wav
448,192,38933,1,0,0:0:0:40:snare.wav
192,192,39012,1,0,0:0:0:50:kick.wav
64,192,39012,1,0,0:0:0:60:crash.wav
320,192,39091,1,0,0:0:0:40:snare.wav
448,192,39170,1,0,0:0:0:45:hihat.wav
192,192,39249,1,0,0:0:0:40:snare.wav
320,192,39328,1,0,0:0:0:40:snare.wav
64,192,39407,1,0,0:0:0:40:snare.wav
192,192,39486,1,0,0:0:0:50:kick.wav
448,192,39486,1,0,0:0:0:40:snare.wav
320,192,39564,1,0,0:0:0:40:snare.wav
64,192,39643,1,0,0:0:0:50:kick.wav
448,192,39643,1,0,0:0:0:40:snare.wav
320,192,39801,1,0,0:0:0:50:kick.wav
192,192,39801,1,0,0:0:0:40:snare.wav
448,192,39959,1,0,0:0:0:50:kick.wav
64,192,39959,1,0,0:0:0:40:snare.wav
192,192,40117,1,0,0:0:0:50:kick.wav
320,192,40117,1,0,0:0:0:40:snare.wav
448,192,40275,1,0,0:0:0:50:kick.wav
320,192,40314,1,0,0:0:0:45:drum.wav
192,192,40354,1,0,0:0:0:45:drum.wav
64,192,40393,1,0,0:0:0:45:drum.wav
448,192,40433,1,0,0:0:0:45:drum.wav
320,192,40433,1,0,0:0:0:50:kick.wav
64,192,40512,1,0,0:0:0:0:
192,192,40512,1,0,0:0:0:50:kick.wav
448,192,40591,1,0,0:0:0:45:drum.wav
320,192,40630,1,0,0:0:0:45:drum.wav
192,192,40670,1,0,0:0:0:45:drum.wav
64,192,40709,1,0,0:0:0:45:drum.wav
320,192,40749,1,0,0:0:0:45:drum.wav
448,192,40749,1,0,0:0:0:50:kick.wav
192,192,40828,1,0,0:0:0:50:kick.wav
64,192,40828,1,0,0:0:0:0:
448,192,40907,1,0,0:0:0:50:kick.wav
320,192,40907,1,0,0:0:0:0:
64,192,41380,1,0,0:0:0:0:
192,192,41538,1,0,0:0:0:0:
320,192,41538,1,0,0:0:0:0:
64,192,41854,1,0,0:0:0:60:boom.wav
192,192,41854,1,0,0:0:0:50:clap.wav
448,192,41854,1,0,0:0:0:0:
320,192,42170,1,0,0:0:0:60:crash.wav
448,192,42170,1,0,0:0:0:50:kick.wav
64,192,42170,1,0,0:0:0:0:
192,192,42407,1,0,0:0:0:0:
320,192,42486,1,0,0:0:0:50:kick.wav
448,192,42486,1,0,0:0:0:0:
64,192,42643,1,0,0:0:0:45:hihat.wav
192,192,42801,1,0,0:0:0:50:kick.wav
320,192,42801,1,0,0:0:0:0:
448,192,43038,1,0,0:0:0:0:
192,192,43117,1,0,0:0:0:50:kick.wav
64,192,43117,1,0,0:0:0:0:
320,192,43275,1,0,0:0:0:45:hihat.wav
448,192,43433,1,0,0:0:0:50:kick.wav
64,192,43433,1,0,0:0:0:0:
192,192,43670,1,0,0:0:0:0:
320,192,43749,1,0,0:0:0:50:kick.wav
448,192,43749,1,0,0:0:0:0:
64,192,43907,1,0,0:0:0:45:hihat.wav
192,192,44064,1,0,0:0:0:50:kick.wav
448,192,44064,1,0,0:0:0:0:
320,192,44222,1,0,0:0:0:45:hihat.wav
64,192,44222,1,0,0:0:0:0:
192,192,44380,1,0,0:0:0:50:kick.wav
448,192,44380,1,0,0:0:0:0:
320,192,44538,1,0,0:0:0:45:hihat.wav
192,192,44538,1,0,0:0:0:0:
448,192,44696,1,0,0:0:0:50:kick.wav
64,192,44696,1,0,0:0:0:0:
192,192,44933,1,0,0:0:0:0:
320,192,45012,1,0,0:0:0:50:kick.wav
448,192,45012,1,0,0:0:0:0:
64,192,45170,1,0,0:0:0:45:hihat.wav
192,192,45328,1,0,0:0:0:50:kick.wav
320,192,45328,1,0,0:0:0:0:
448,192,45564,1,0,0:0:0:0:
192,192,45643,1,0,0:0:0:50:kick.wav
64,192,45643,1,0,0:0:0:0:
320,192,45801,1,0,0:0:0:45:hihat.wav
448,192,45959,1,0,0:0:0:50:kick.wav
64,192,45959,1,0,0:0:0:0:
192,192,46117,1,0,0:0:0:45:hihat.wav
64,192,46196,1,0,0:0:0:0:
320,192,46275,1,0,0:0:0:50:kick.wav
448,192,46275,1,0,0:0:0:0:
192,192,46433,1,0,0:0:0:45:hihat.wav
448,192,46433,1,0,0:0:0:0:
320,192,46591,1,0,0:0:0:50:kick.wav
64,192,46591,1,0,0:0:0:0:
64,192,46749,1,0,0:0:0:45:hihat.wav
448,192,46749,1,0,0:0:0:0:
320,192,46907,1,0,0:0:0:50:kick.wav
192,192,46907,1,0,0:0:0:0:
192,192,47064,1,0,0:0:0:45:hihat.wav
448,192,47064,1,0,0:0:0:0:
320,192,47222,1,0,0:0:0:50:kick.wav
448,192,47222,1,0,0:0:0:0:
64,192,47222,1,0,0:0:0:0:
192,192,47459,1,0,0:0:0:0:
320,192,47538,1,0,0:0:0:50:kick.wav
448,192,47538,1,0,0:0:0:0:
64,192,47696,1,0,0:0:0:45:hihat.wav
192,192,47854,1,0,0:0:0:50:kick.wav
320,192,47854,1,0,0:0:0:0:
448,192,48091,1,0,0:0:0:0:
192,192,48170,1,0,0:0:0:50:kick.wav
64,192,48170,1,0,0:0:0:0:
320,192,48328,1,0,0:0:0:45:hihat.wav
448,192,48486,1,0,0:0:0:50:kick.wav
64,192,48486,1,0,0:0:0:0:
192,192,48722,1,0,0:0:0:0:
448,192,48801,1,0,0:0:0:50:kick.wav
320,192,48801,1,0,0:0:0:0:
64,192,48959,1,0,0:0:0:45:hihat.wav
192,192,49117,1,0,0:0:0:50:kick.wav
320,192,49117,1,0,0:0:0:0:
64,192,49275,1,0,0:0:0:45:hihat.wav
448,192,49275,1,0,0:0:0:0:
320,192,49433,1,0,0:0:0:50:kick.wav
448,192,49433,1,0,0:0:0:0:
320,192,49591,1,0,0:0:0:45:hihat.wav
192,192,49591,1,0,0:0:0:0:
64,192,49749,1,0,0:0:0:50:kick.wav
192,192,49749,1,0,0:0:0:0:
320,192,49986,1,0,0:0:0:0:
448,192,50064,1,0,0:0:0:50:kick.wav
64,192,50064,1,0,0:0:0:0:
192,192,50222,1,0,0:0:0:45:hihat.wav
320,192,50380,1,0,0:0:0:50:kick.wav
448,192,50380,1,0,0:0:0:0:
192,192,50617,1,0,0:0:0:0:
64,192,50696,1,0,0:0:0:50:kick.wav
448,192,50696,1,0,0:0:0:0:
320,192,50854,1,0,0:0:0:45:hihat.wav
192,192,51012,1,0,0:0:0:0:
64,192,51012,1,0,0:0:0:0:
192,192,51328,1,0,0:0:0:0:
448,192,51486,1,0,0:0:0:0:
64,192,51564,1,0,0:0:0:0:
320,192,51643,1,0,0:0:0:0:
320,192,51801,1,0,0:0:0:0:
192,192,51959,1,0,0:0:0:0:
192,192,52117,1,0,0:0:0:0:
64,192,52275,1,0,0:0:0:50:kick.wav
320,192,52275,1,0,0:0:0:60:crash.wav
448,192,52275,1,0,0:0:0:0:
192,192,52433,1,0,0:0:0:45:hihat.wav
320,192,52512,1,0,0:0:0:0:
448,192,52591,1,0,0:0:0:50:kick.wav
64,192,52591,1,0,0:0:0:0:
192,192,52749,1,0,0:0:0:45:hihat.wav
64,192,52828,1,0,0:0:0:0:
320,192,52907,1,0,0:0:0:50:kick.wav
448,192,52907,1,0,0:0:0:0:
192,192,53064,1,0,0:0:0:45:hihat.wav
320,192,53143,1,0,0:0:0:0:
448,192,53222,1,0,0:0:0:50:kick.wav
64,192,53222,1,0,0:0:0:0:
192,192,53380,1,0,0:0:0:45:hihat.wav
64,192,53459,1,0,0:0:0:0:
320,192,53538,1,0,0:0:0:50:kick.wav
448,192,53538,1,0,0:0:0:0:
192,192,53696,1,0,0:0:0:45:hihat.wav
320,192,53775,1,0,0:0:0:0:
448,192,53854,1,0,0:0:0:50:kick.wav
64,192,53854,1,0,0:0:0:0:
192,192,54012,1,0,0:0:0:45:hihat.wav
64,192,54091,1,0,0:0:0:0:
320,192,54170,1,0,0:0:0:50:kick.wav
448,192,54170,1,0,0:0:0:0:
192,192,54328,1,0,0:0:0:45:hihat.wav
320,192,54407,1,0,0:0:0:0:
448,192,54486,1,0,0:0:0:50:kick.wav
64,192,54486,1,0,0:0:0:0:
192,192,54564,1,0,0:0:0:0:
320,192,54643,1,0,0:0:0:45:hihat.wav
448,192,54722,1,0,0:0:0:0:
192,192,54801,1,0,0:0:0:50:kick.wav
64,192,54801,1,0,0:0:0:0:
320,192,54959,1,0,0:0:0:45:hihat.wav
192,192,55038,1,0,0:0:0:0:
64,192,55117,1,0,0:0:0:50:kick.wav
448,192,55117,1,0,0:0:0:0:
320,192,55275,1,0,0:0:0:45:hihat.wav
192,192,55354,1,0,0:0:0:0:
320,192,55433,1,0,0:0:0:50:kick.wav
448,192,55433,1,0,0:0:0:0:
64,192,55591,1,0,0:0:0:45:hihat.wav
192,192,55670,1,0,0:0:0:0:
320,192,55749,1,0,0:0:0:50:kick.wav
64,192,55749,1,0,0:0:0:0:
448,192,55907,1,0,0:0:0:45:hihat.wav
320,192,55986,1,0,0:0:0:0:
192,192,56064,1,0,0:0:0:50:kick.wav
448,192,56064,1,0,0:0:0:0:
64,192,56222,1,0,0:0:0:45:hihat.wav
192,192,56301,1,0,0:0:0:0:
320,192,56380,1,0,0:0:0:50:kick.wav
448,192,56380,1,0,0:0:0:0:
192,192,56538,1,0,0:0:0:45:hihat.wav
320,192,56617,1,0,0:0:0:0:
448,192,56696,1,0,0:0:0:50:kick.wav
64,192,56696,1,0,0:0:0:0:
192,192,56775,1,0,0:0:0:0:
320,192,56854,1,0,0:0:0:45:hihat.wav
192,192,56933,1,0,0:0:0:0:
64,192,57012,1,0,0:0:0:50:kick.wav
448,192,57012,1,0,0:0:0:0:
320,192,57091,1,0,0:0:0:0:
192,192,57170,1,0,0:0:0:45:hihat.wav
64,192,57249,1,0,0:0:0:0:
320,192,57328,1,0,0:0:0:50:kick.wav
448,192,57328,1,0,0:0:0:0:
192,192,57486,1,0,0:0:0:45:hihat.wav
320,192,57564,1,0,0:0:0:0:
448,192,57643,1,0,0:0:0:50:kick.wav
64,192,57643,1,0,0:0:0:0:
192,192,57801,1,0,0:0:0:45:hihat.wav
64,192,57880,1,0,0:0:0:0:
320,192,57959,1,0,0:0:0:50:kick.wav
448,192,57959,1,0,0:0:0:0:
192,192,58117,1,0,0:0:0:45:hihat.wav
448,192,58196,1,0,0:0:0:0:
320,192,58275,1,0,0:0:0:50:kick.wav
64,192,58275,1,0,0:0:0:0:
192,192,58433,1,0,0:0:0:45:hihat.wav
64,192,58512,1,0,0:0:0:0:
320,192,58591,1,0,0:0:0:50:kick.wav
448,192,58591,1,0,0:0:0:0:
192,192,58749,1,0,0:0:0:45:hihat.wav
320,192,58828,1,0,0:0:0:0:
448,192,58907,1,0,0:0:0:50:kick.wav
64,192,58907,1,0,0:0:0:0:
192,192,59064,1,0,0:0:0:45:hihat.wav
64,192,59143,1,0,0:0:0:0:
320,192,59222,1,0,0:0:0:50:kick.wav
448,192,59222,1,0,0:0:0:0:
192,192,59380,1,0,0:0:0:45:hihat.wav
64,192,59459,1,0,0:0:0:0:
192,192,59538,1,0,0:0:0:50:kick.wav
448,192,59538,1,0,0:0:0:0:
320,192,59617,1,0,0:0:0:0:
64,192,59696,1,0,0:0:0:45:hihat.wav
192,192,59775,1,0,0:0:0:0:
320,192,59854,1,0,0:0:0:50:kick.wav
448,192,59854,1,0,0:0:0:0:
320,192,60012,1,0,0:0:0:50:kick.wav
448,192,60012,1,0,0:0:0:45:hihat.wav
64,192,60170,1,0,0:0:0:50:kick.wav
192,192,60170,1,0,0:0:0:0:
64,192,60328,1,0,0:0:0:50:kick.wav
192,192,60328,1,0,0:0:0:45:hihat.wav
448,192,60486,1,0,0:0:0:50:kick.wav
320,192,60486,1,0,0:0:0:0:
320,192,60643,1,0,0:0:0:50:kick.wav
448,192,60643,1,0,0:0:0:45:hihat.wav
192,192,60801,1,0,0:0:0:50:kick.wav
64,192,60801,1,0,0:0:0:0:
448,192,60959,1,0,0:0:0:50:kick.wav
320,192,60999,1,0,0:0:0:45:drum.wav
192,192,61038,1,0,0:0:0:45:drum.wav
64,192,61078,1,0,0:0:0:45:drum.wav
448,192,61117,1,0,0:0:0:50:kick.wav
320,192,61117,1,0,0:0:0:45:drum.wav
64,192,61433,128,0,62380:0:0:0:50:kick.wav
192,192,61433,128,0,62064:0:0:0:0:
320,192,62380,1,0,0:0:0:60:crash.wav
448,192,62380,1,0,0:0:0:50:kick.wav
192,192,62538,1,0,0:0:0:45:hihat.wav
320,192,62617,1,0,0:0:0:0:
64,192,62696,1,0,0:0:0:0:
320,192,62854,1,0,0:0:0:50:kick.wav
448,192,62854,1,0,0:0:0:0:
64,192,63012,1,0,0:0:0:60:snare.wav
192,192,63012,1,0,0:0:0:50:kick.wav
448,192,63170,1,0,0:0:0:45:hihat.wav
64,192,63328,1,0,0:0:0:0:
192,192,63328,1,0,0:0:0:0:
320,192,63486,1,0,0:0:0:45:hihat.wav
448,192,63486,1,0,0:0:0:50:kick.wav
64,192,63643,1,0,0:0:0:50:kick.wav
192,192,63643,1,0,0:0:0:0:
64,192,63959,1,0,0:0:0:0:
448,192,63959,1,0,0:0:0:0:
448,192,64117,1,0,0:0:0:45:hihat.wav
192,192,64117,1,0,0:0:0:0:
320,192,64275,1,0,0:0:0:0:
448,192,64275,1,0,0:0:0:0:
64,192,64433,1,0,0:0:0:45:hihat.wav
192,192,64591,1,0,0:0:0:0:
320,192,64591,128,0,64907:0:0:0:0:
448,192,64907,1,0,0:0:0:50:kick.wav
64,192,64907,1,0,0:0:0:0:
192,192,65222,1,0,0:0:0:0:
320,192,65380,1,0,0:0:0:45:hihat.wav
448,192,65380,1,0,0:0:0:50:kick.wav
64,192,65538,1,0,0:0:0:50:kick.wav
192,192,65538,1,0,0:0:0:60:snare.wav
320,192,65696,1,0,0:0:0:45:hihat.wav
192,192,65749,1,0,0:0:0:45:drum.wav
64,192,65801,1,0,0:0:0:45:drum.wav
320,192,65854,1,0,0:0:0:50:kick.wav
448,192,65854,1,0,0:0:0:45:drum.wav
192,192,66012,1,0,0:0:0:45:drum.wav
64,192,66012,1,0,0:0:0:0:
448,192,66170,1,0,0:0:0:0:
320,192,66170,128,0,66486:0:0:0:0:
64,192,66486,1,0,0:0:0:50:kick.wav
192,192,66486,1,0,0:0:0:60:snare.wav
448,192,66564,1,0,0:0:0:45:drum.wav
320,192,66643,1,0,0:0:0:45:drum.wav
192,192,66722,1,0,0:0:0:45:drum.wav
64,192,66801,128,0,66959:0:0:0:45:drum.wav
448,192,66801,128,0,66959:0:0:0:50:kick.wav
192,192,67117,128,0,67275:0:0:0:50:kick.wav
448,192,67117,128,0,67275:0:0:0:0:
320,192,67433,1,0,0:0:0:50:kick.wav
448,192,67433,1,0,0:0:0:0:
64,192,67591,1,0,0:0:0:45:hihat.wav
192,192,67670,1,0,0:0:0:0:
320,192,67749,1,0,0:0:0:50:kick.wav
64,192,67749,1,0,0:0:0:60:snare.wav
448,192,67907,1,0,0:0:0:45:hihat.wav
320,192,67986,1,0,0:0:0:0:
192,192,68064,1,0,0:0:0:0:
64,192,68143,1,0,0:0:0:0:
320,192,68222,1,0,0:0:0:50:kick.wav
448,192,68222,1,0,0:0:0:45:hihat.wav
64,192,68380,1,0,0:0:0:50:kick.wav
192,192,68380,1,0,0:0:0:60:snare.wav
448,192,68459,1,0,0:0:0:0:
320,192,68538,1,0,0:0:0:45:hihat.wav
448,192,68617,1,0,0:0:0:0:
320,192,68696,1,0,0:0:0:50:kick.wav
64,192,68696,128,0,68854:0:0:0:0:
192,192,68854,128,0,69012:0:0:0:0:
64,192,69012,1,0,0:0:0:50:kick.wav
448,192,69012,128,0,69170:0:0:0:0:
320,192,69170,128,0,69328:0:0:0:0:
448,192,69328,1,0,0:0:0:50:kick.wav
64,192,69328,1,0,0:0:0:0:
192,192,69407,1,0,0:0:0:0:
320,192,69486,1,0,0:0:0:0:
448,192,69564,1,0,0:0:0:0:
192,192,69643,1,0,0:0:0:50:kick.wav
64,192,69643,128,0,69959:0:0:0:60:snare.wav
320,192,69959,1,0,0:0:0:50:kick.wav
448,192,69959,1,0,0:0:0:0:
320,192,70117,1,0,0:0:0:50:kick.wav
448,192,70117,1,0,0:0:0:0:
64,192,70275,1,0,0:0:0:50:kick.wav
192,192,70275,1,0,0:0:0:0:
64,192,70433,1,0,0:0:0:50:kick.wav
192,192,70433,1,0,0:0:0:0:
320,192,70591,1,0,0:0:0:50:kick.wav
448,192,70591,1,0,0:0:0:0:
64,192,70670,1,0,0:0:0:50:kick.wav
192,192,70749,1,0,0:0:0:50:kick.wav
320,192,70749,1,0,0:0:0:0:
448,192,70828,1,0,0:0:0:50:kick.wav
64,192,70907,1,0,0:0:0:50:kick.wav
192,192,70907,1,0,0:0:0:0:
320,192,70986,1,0,0:0:0:50:kick.wav
64,192,71064,1,0,0:0:0:50:kick.wav
448,192,71064,1,0,0:0:0:0:
192,192,71143,1,0,0:0:0:50:kick.wav
320,192,71222,1,0,0:0:0:50:kick.wav
448,192,71222,1,0,0:0:0:60:crash.wav
64,192,71380,1,0,0:0:0:0:
320,192,71538,1,0,0:0:0:0:
192,192,71696,1,0,0:0:0:0:
448,192,71854,1,0,0:0:0:0:
320,192,72012,1,0,0:0:0:0:
64,192,72170,1,0,0:0:0:0:
192,192,72328,1,0,0:0:0:0:
320,192,72486,1,0,0:0:0:50:kick.wav
64,192,72486,1,0,0:0:0:60:crash.wav
448,192,72486,128,0,73749:0:0:0:35:drum.wav
192,192,72722,1,0,0:0:0:35:drum.wav
64,192,72801,1,0,0:0:0:35:drum.wav
320,192,72959,1,0,0:0:0:35:drum.wav
64,192,73038,1,0,0:0:0:35:drum.wav
192,192,73117,1,0,0:0:0:35:drum.wav
320,192,73196,1,0,0:0:0:35:drum.wav
64,192,73275,1,0,0:0:0:35:drum.wav
192,192,73354,1,0,0:0:0:35:drum.wav
320,192,73433,1,0,0:0:0:35:drum.wav
64,192,73512,1,0,0:0:0:35:drum.wav
192,192,73591,1,0,0:0:0:35:drum.wav
320,192,73670,1,0,0:0:0:35:drum.wav
64,192,73749,1,0,0:0:0:35:drum.wav
192,192,73907,1,0,0:0:0:0:
64,192,73986,1,0,0:0:0:0:
320,192,74064,1,0,0:0:0:0:
448,192,74380,128,0,74538:0:0:0:0:
64,192,74380,1,0,0:0:0:0:
192,192,74538,128,0,74696:0:0:0:0:
320,192,74696,128,0,74854:0:0:0:0:
448,192,74696,1,0,0:0:0:0:
64,192,74854,128,0,75012:0:0:0:0:
192,192,75012,1,0,0:0:0:50:kick.wav
320,192,75012,1,0,0:0:0:60:crash.wav
448,192,75012,128,0,76275:0:0:0:35:drum.wav
192,192,75249,1,0,0:0:0:35:drum.wav
64,192,75328,1,0,0:0:0:35:drum.wav
320,192,75486,1,0,0:0:0:35:drum.wav
64,192,75564,1,0,0:0:0:35:drum.wav
192,192,75643,1,0,0:0:0:35:drum.wav
320,192,75722,1,0,0:0:0:35:drum.wav
64,192,75801,1,0,0:0:0:35:drum.wav
192,192,75880,1,0,0:0:0:35:drum.wav
320,192,75959,1,0,0:0:0:35:drum.wav
64,192,76038,1,0,0:0:0:35:drum.wav
192,192,76117,1,0,0:0:0:35:drum.wav
320,192,76196,1,0,0:0:0:35:drum.wav
64,192,76275,1,0,0:0:0:35:drum.wav
192,192,76433,1,0,0:0:0:0:
64,192,76512,1,0,0:0:0:0:
320,192,76591,1,0,0:0:0:0:
448,192,76670,1,0,0:0:0:0:
192,192,76749,1,0,0:0:0:0:
64,192,76828,1,0,0:0:0:0:
448,192,76907,1,0,0:0:0:0:
320,192,76907,128,0,77064:0:0:0:0:
192,192,77064,128,0,77222:0:0:0:0:
64,192,77222,1,0,0:0:0:0:
448,192,77222,1,0,0:0:0:0:
320,192,77380,1,0,0:0:0:0:
192,192,77459,1,0,0:0:0:0:
320,192,77538,1,0,0:0:0:60:crash.wav
448,192,77538,1,0,0:0:0:50:kick.wav
64,192,77538,128,0,78486:0:0:0:35:drum.wav
320,192,77775,1,0,0:0:0:35:drum.wav
448,192,77854,1,0,0:0:0:35:drum.wav
192,192,78012,1,0,0:0:0:35:drum.wav
448,192,78091,1,0,0:0:0:35:drum.wav
320,192,78170,1,0,0:0:0:35:drum.wav
192,192,78249,1,0,0:0:0:35:drum.wav
448,192,78328,1,0,0:0:0:35:drum.wav
320,192,78407,1,0,0:0:0:35:drum.wav
192,192,78486,1,0,0:0:0:35:drum.wav
320,192,78643,1,0,0:0:0:35:drum.wav
448,192,78801,1,0,0:0:0:35:drum.wav
64,192,78801,1,0,0:0:0:60:crash.wav
192,192,78959,1,0,0:0:0:35:drum.wav
320,192,79038,1,0,0:0:0:35:drum.wav
64,192,79117,1,0,0:0:0:35:drum.wav
192,192,79196,1,0,0:0:0:0:
448,192,79275,1,0,0:0:0:35:drum.wav
320,192,79354,1,0,0:0:0:35:drum.wav
64,192,79433,1,0,0:0:0:35:drum.wav
192,192,79512,1,0,0:0:0:35:drum.wav
320,192,79591,1,0,0:0:0:35:drum.wav
448,192,79670,1,0,0:0:0:35:drum.wav
192,192,79749,1,0,0:0:0:35:drum.wav
64,192,79749,128,0,79907:0:0:0:0:
320,192,79907,128,0,80064:0:0:0:35:drum.wav
64,192,80064,1,0,0:0:0:35:drum.wav
448,192,80064,128,0,80380:0:0:0:60:crash.wav
192,192,80064,1,0,0:0:0:50:kick.wav
320,192,80222,1,0,0:0:0:35:drum.wav
64,192,80380,1,0,0:0:0:35:drum.wav
192,192,80538,1,0,0:0:0:35:drum.wav
320,192,80696,1,0,0:0:0:35:drum.wav
448,192,80696,1,0,0:0:0:50:kick.wav
64,192,80696,128,0,81012:0:0:0:60:crash.wav
192,192,80854,1,0,0:0:0:35:drum.wav
448,192,81012,1,0,0:0:0:35:drum.wav
320,192,81170,1,0,0:0:0:35:drum.wav
192,192,81249,1,0,0:0:0:35:drum.wav
320,192,81328,1,0,0:0:0:35:drum.wav
448,192,81328,1,0,0:0:0:50:kick.wav
64,192,81328,1,0,0:0:0:0:
64,192,81486,1,0,0:0:0:35:drum.wav
192,192,81643,1,0,0:0:0:35:drum.wav
448,192,81643,1,0,0:0:0:50:kick.wav
448,192,81801,1,0,0:0:0:35:drum.wav
64,192,81959,1,0,0:0:0:50:kick.wav
320,192,81959,1,0,0:0:0:35:drum.wav
192,192,82117,1,0,0:0:0:35:drum.wav
64,192,82275,1,0,0:0:0:35:drum.wav
448,192,82275,128,0,82591:0:0:0:50:kick.wav
320,192,82433,1,0,0:0:0:35:drum.wav
192,192,82591,1,0,0:0:0:35:drum.wav
64,192,82591,128,0,83538:0:0:0:50:kick.wav
320,192,82749,1,0,0:0:0:35:drum.wav
448,192,82907,1,0,0:0:0:35:drum.wav
320,192,83064,1,0,0:0:0:35:drum.wav
192,192,83222,1,0,0:0:0:35:drum.wav
320,192,83380,1,0,0:0:0:35:drum.wav
448,192,83538,128,0,83854:0:0:0:35:drum.wav
192,192,83538,1,0,0:0:0:0:
320,192,83696,1,0,0:0:0:35:drum.wav
64,192,83854,1,0,0:0:0:50:kick.wav
192,192,83854,1,0,0:0:0:35:drum.wav
320,192,84012,1,0,0:0:0:35:drum.wav
64,192,84170,128,0,84801:0:0:0:35:drum.wav
448,192,84170,1,0,0:0:0:0:
320,192,84328,1,0,0:0:0:35:drum.wav
192,192,84486,1,0,0:0:0:35:drum.wav
448,192,84643,1,0,0:0:0:35:drum.wav
320,192,84801,1,0,0:0:0:35:drum.wav
192,192,84959,1,0,0:0:0:35:drum.wav
320,192,85117,1,0,0:0:0:35:drum.wav
448,192,85117,1,0,0:0:0:60:crash.wav
64,192,85117,1,0,0:0:0:50:kick.wav
192,192,85275,1,0,0:0:0:35:drum.wav
320,192,85354,1,0,0:0:0:35:drum.wav
64,192,85433,1,0,0:0:0:35:drum.wav
192,192,85433,1,0,0:0:0:0:
320,192,85591,1,0,0:0:0:35:drum.wav
192,192,85670,1,0,0:0:0:35:drum.wav
320,192,85749,1,0,0:0:0:35:drum.wav
448,192,85749,1,0,0:0:0:0:
448,192,85907,1,0,0:0:0:35:drum.wav
64,192,85986,1,0,0:0:0:35:drum.wav
192,192,85986,1,0,0:0:0:0:
320,192,86064,1,0,0:0:0:35:drum.wav
64,192,86222,1,0,0:0:0:35:drum.wav
192,192,86222,1,0,0:0:0:0:
448,192,86380,1,0,0:0:0:35:drum.wav
320,192,86380,1,0,0:0:0:60:crash.wav
192,192,86459,1,0,0:0:0:35:drum.wav
320,192,86538,1,0,0:0:0:35:drum.wav
64,192,86696,1,0,0:0:0:35:drum.wav
448,192,86696,1,0,0:0:0:0:
192,192,86854,1,0,0:0:0:35:drum.wav
320,192,86933,1,0,0:0:0:35:drum.wav
448,192,87012,1,0,0:0:0:35:drum.wav
64,192,87012,1,0,0:0:0:50:kick.wav
192,192,87091,1,0,0:0:0:0:
320,192,87170,1,0,0:0:0:35:drum.wav
192,192,87328,1,0,0:0:0:35:drum.wav
448,192,87328,1,0,0:0:0:0:
64,192,87407,1,0,0:0:0:35:drum.wav
192,192,87486,1,0,0:0:0:35:drum.wav
320,192,87564,1,0,0:0:0:35:drum.wav
448,192,87643,1,0,0:0:0:35:drum.wav
64,192,87643,1,0,0:0:0:60:crash.wav
192,192,87801,128,0,87959:0:0:0:45:hihat.wav
64,192,87801,1,0,0:0:0:0:
320,192,87959,1,0,0:0:0:50:kick.wav
448,192,87959,1,0,0:0:0:0:
64,192,88117,128,0,88275:0:0:0:45:hihat.wav
192,192,88117,1,0,0:0:0:0:
320,192,88275,1,0,0:0:0:60:crash.wav
448,192,88275,1,0,0:0:0:50:kick.wav
192,192,88433,128,0,88591:0:0:0:45:hihat.wav
64,192,88433,1,0,0:0:0:0:
448,192,88591,1,0,0:0:0:50:kick.wav
320,192,88591,1,0,0:0:0:0:
64,192,88749,128,0,88907:0:0:0:45:hihat.wav
192,192,88749,1,0,0:0:0:0:
320,192,88907,1,0,0:0:0:50:kick.wav
448,192,88907,1,0,0:0:0:60:crash.wav
192,192,89064,128,0,89222:0:0:0:45:hihat.wav
64,192,89064,1,0,0:0:0:0:
320,192,89222,1,0,0:0:0:50:kick.wav
448,192,89222,1,0,0:0:0:0:
64,192,89380,128,0,89538:0:0:0:45:hihat.wav
192,192,89380,1,0,0:0:0:0:
320,192,89538,1,0,0:0:0:60:crash.wav
448,192,89538,1,0,0:0:0:50:kick.wav
192,192,89696,128,0,89854:0:0:0:45:hihat.wav
64,192,89696,1,0,0:0:0:0:
320,192,89854,1,0,0:0:0:50:kick.wav
448,192,89854,1,0,0:0:0:0:
64,192,90012,128,0,90170:0:0:0:45:hihat.wav
192,192,90012,1,0,0:0:0:0:
320,192,90170,1,0,0:0:0:60:crash.wav
448,192,90170,1,0,0:0:0:50:kick.wav
192,192,90328,1,0,0:0:0:45:hihat.wav
448,192,90328,1,0,0:0:0:50:kick.wav
320,192,90486,1,0,0:0:0:50:kick.wav
64,192,90486,1,0,0:0:0:60:crash.wav
448,192,90643,1,0,0:0:0:50:kick.wav
64,192,90643,1,0,0:0:0:45:hihat.wav
192,192,90801,1,0,0:0:0:60:crash.wav
320,192,90801,1,0,0:0:0:50:kick.wav
192,192,90959,1,0,0:0:0:50:kick.wav
448,192,90959,1,0,0:0:0:45:hihat.wav
64,192,91117,1,0,0:0:0:50:kick.wav
320,192,91117,1,0,0:0:0:60:crash.wav
64,192,91275,1,0,0:0:0:50:kick.wav
448,192,91275,1,0,0:0:0:45:hihat.wav
320,192,91433,1,0,0:0:0:50:kick.wav
448,192,91433,1,0,0:0:0:0:
64,192,91512,1,0,0:0:0:50:kick.wav
320,192,91591,1,0,0:0:0:50:kick.wav
192,192,91591,1,0,0:0:0:45:hihat.wav
448,192,91670,1,0,0:0:0:50:kick.wav
64,192,91749,1,0,0:0:0:50:kick.wav
192,192,91749,1,0,0:0:0:0:
320,192,91828,1,0,0:0:0:50:kick.wav
448,192,91907,1,0,0:0:0:50:kick.wav
64,192,91907,1,0,0:0:0:45:hihat.wav
192,192,91986,1,0,0:0:0:50:kick.wav
320,192,92064,1,0,0:0:0:50:kick.wav
448,192,92064,1,0,0:0:0:0:
64,192,92143,1,0,0:0:0:50:kick.wav
192,192,92143,1,0,0:0:0:0:
320,192,92222,1,0,0:0:0:45:drum.wav
448,192,92222,1,0,0:0:0:50:kick.wav
64,192,92301,1,0,0:0:0:45:drum.wav
192,192,92301,1,0,0:0:0:50:kick.wav
320,192,92380,1,0,0:0:0:45:drum.wav
448,192,92380,1,0,0:0:0:50:kick.wav
64,192,92459,1,0,0:0:0:50:kick.wav
192,192,92459,1,0,0:0:0:0:
320,192,92538,1,0,0:0:0:50:kick.wav
448,192,92538,1,0,0:0:0:45:drum.wav
64,192,92617,1,0,0:0:0:50:kick.wav
192,192,92617,1,0,0:0:0:45:drum.wav
320,192,92696,1,0,0:0:0:50:kick.wav
448,192,92696,128,0,93959:0:0:0:45:drum.wav
192,192,92854,1,0,0:0:0:0:
64,192,93012,1,0,0:0:0:0:
192,192,93170,1,0,0:0:0:0:
320,192,93249,1,0,0:0:0:0:
192,192,93328,1,0,0:0:0:0:
320,192,93486,1,0,0:0:0:0:
192,192,93564,1,0,0:0:0:0:
320,192,93643,1,0,0:0:0:0:
64,192,93801,1,0,0:0:0:0:
192,192,93880,1,0,0:0:0:0:
64,192,93959,1,0,0:0:0:50:kick.wav
320,192,93959,1,0,0:0:0:0:
192,192,94038,1,0,0:0:0:0:
320,192,94117,1,0,0:0:0:0:
64,192,94275,1,0,0:0:0:0:
192,192,94275,1,0,0:0:0:0:
64,192,94433,1,0,0:0:0:0:
192,192,94433,1,0,0:0:0:0:
448,192,94591,1,0,0:0:0:0:
320,192,94749,1,0,0:0:0:0:
448,192,94907,1,0,0:0:0:60:boom.wav
192,192,94907,1,0,0:0:0:50:kick.wav
64,192,94907,128,0,95222:0:0:0:0:
320,192,95064,128,0,95222:0:0:0:0:
192,192,95222,1,0,0:0:0:60:crash.wav
448,192,95222,1,0,0:0:0:50:kick.wav
320,192,95380,1,0,0:0:0:45:hihat.wav
448,192,95459,1,0,0:0:0:0:
64,192,95538,1,0,0:0:0:50:kick.wav
192,192,95538,1,0,0:0:0:0:
320,192,95696,1,0,0:0:0:45:hihat.wav
192,192,95775,1,0,0:0:0:0:
320,192,95854,1,0,0:0:0:50:kick.wav
448,192,95854,1,0,0:0:0:0:
64,192,96012,1,0,0:0:0:45:hihat.wav
192,192,96091,1,0,0:0:0:0:
320,192,96170,1,0,0:0:0:50:kick.wav
448,192,96170,1,0,0:0:0:0:
448,192,96328,1,0,0:0:0:45:hihat.wav
64,192,96328,1,0,0:0:0:0:
192,192,96407,1,0,0:0:0:0:
64,192,96486,1,0,0:0:0:50:kick.wav
320,192,96486,1,0,0:0:0:0:
448,192,96643,1,0,0:0:0:45:hihat.wav
192,192,96722,1,0,0:0:0:0:
320,192,96801,1,0,0:0:0:50:kick.wav
448,192,96801,1,0,0:0:0:0:
64,192,96959,1,0,0:0:0:45:hihat.wav
192,192,97038,1,0,0:0:0:0:
320,192,97117,1,0,0:0:0:50:kick.wav
64,192,97117,1,0,0:0:0:0:
448,192,97275,1,0,0:0:0:45:hihat.wav
192,192,97354,1,0,0:0:0:0:
64,192,97354,1,0,0:0:0:0:
320,192,97433,1,0,0:0:0:50:kick.wav
448,192,97433,1,0,0:0:0:0:
192,192,97591,1,0,0:0:0:45:hihat.wav
320,192,97591,1,0,0:0:0:0:
64,192,97749,1,0,0:0:0:50:kick.wav
448,192,97749,1,0,0:0:0:0:
192,192,97907,1,0,0:0:0:45:hihat.wav
64,192,97986,1,0,0:0:0:0:
320,192,98064,1,0,0:0:0:50:kick.wav
448,192,98064,1,0,0:0:0:0:
192,192,98222,1,0,0:0:0:45:hihat.wav
64,192,98380,1,0,0:0:0:50:kick.wav
448,192,98380,1,0,0:0:0:0:
320,192,98538,1,0,0:0:0:45:hihat.wav
448,192,98617,1,0,0:0:0:0:
192,192,98696,1,0,0:0:0:50:kick.wav
64,192,98696,1,0,0:0:0:0:
448,192,98854,1,0,0:0:0:45:hihat.wav
320,192,99012,1,0,0:0:0:50:kick.wav
192,192,99012,1,0,0:0:0:0:
64,192,99170,1,0,0:0:0:45:hihat.wav
448,192,99170,1,0,0:0:0:0:
192,192,99249,1,0,0:0:0:0:
320,192,99328,1,0,0:0:0:50:kick.wav
448,192,99328,1,0,0:0:0:0:
320,192,99486,1,0,0:0:0:45:hihat.wav
192,192,99486,1,0,0:0:0:0:
64,192,99643,1,0,0:0:0:50:kick.wav
192,192,99643,1,0,0:0:0:0:
64,192,99959,1,0,0:0:0:60:jpndrum.wav
192,192,99959,1,0,0:0:0:0:
448,192,99959,128,0,100275:0:0:0:0:
320,192,100117,128,0,100275:0:0:0:0:
192,192,100275,1,0,0:0:0:60:crash.wav
64,192,100275,1,0,0:0:0:50:kick.wav
320,192,100433,1,0,0:0:0:45:hihat.wav
192,192,100512,1,0,0:0:0:0:
320,192,100591,1,0,0:0:0:50:kick.wav
448,192,100591,1,0,0:0:0:0:
64,192,100749,1,0,0:0:0:45:hihat.wav
192,192,100828,1,0,0:0:0:0:
320,192,100907,1,0,0:0:0:50:kick.wav
64,192,100907,1,0,0:0:0:0:
192,192,101064,1,0,0:0:0:45:hihat.wav
448,192,101064,1,0,0:0:0:0:
64,192,101143,1,0,0:0:0:0:
320,192,101222,1,0,0:0:0:50:kick.wav
448,192,101222,1,0,0:0:0:0:
192,192,101380,128,0,101538:0:0:0:45:hihat.wav
64,192,101380,128,0,101538:0:0:0:0:
320,192,101538,1,0,0:0:0:50:kick.wav
448,192,101538,1,0,0:0:0:0:
192,192,101696,1,0,0:0:0:45:hihat.wav
320,192,101749,1,0,0:0:0:0:
448,192,101801,1,0,0:0:0:0:
192,192,101854,1,0,0:0:0:50:kick.wav
64,192,101854,1,0,0:0:0:0:
320,192,102012,1,0,0:0:0:45:hihat.wav
192,192,102091,1,0,0:0:0:0:
64,192,102170,1,0,0:0:0:50:kick.wav
448,192,102170,128,0,102486:0:0:0:0:
320,192,102407,1,0,0:0:0:0:
192,192,102486,1,0,0:0:0:50:kick.wav
64,192,102486,1,0,0:0:0:0:
320,192,102643,1,0,0:0:0:45:hihat.wav
448,192,102801,1,0,0:0:0:50:kick.wav
64,192,102801,1,0,0:0:0:0:
192,192,102959,1,0,0:0:0:45:hihat.wav
320,192,103038,1,0,0:0:0:0:
448,192,103117,1,0,0:0:0:50:kick.wav
64,192,103117,1,0,0:0:0:0:
320,192,103275,1,0,0:0:0:45:hihat.wav
192,192,103433,1,0,0:0:0:50:kick.wav
448,192,103433,1,0,0:0:0:0:
64,192,103591,1,0,0:0:0:45:hihat.wav
320,192,103591,1,0,0:0:0:0:
64,192,103749,1,0,0:0:0:50:kick.wav
192,192,103749,1,0,0:0:0:0:
448,192,103749,1,0,0:0:0:0:
192,192,103907,1,0,0:0:0:60:crash.wav
320,192,103907,1,0,0:0:0:50:kick.wav
448,192,103907,128,0,104222:0:0:0:0:
192,192,104222,1,0,0:0:0:60:crash.wav
64,192,104222,1,0,0:0:0:50:kick.wav
320,192,104222,128,0,104538:0:0:0:0:
448,192,104538,1,0,0:0:0:50:kick.wav
64,192,104538,1,0,0:0:0:60:crash.wav
192,192,104538,128,0,104854:0:0:0:0:
64,192,104854,128,0,105170:0:0:0:60:crash.wav
320,192,104854,1,0,0:0:0:50:kick.wav
448,192,104854,1,0,0:0:0:0:
192,192,105012,1,0,0:0:0:45:drum.wav
192,192,105170,1,0,0:0:0:45:drum.wav
64,192,105328,1,0,0:0:0:45:drum.wav
320,192,105328,1,0,0:0:0:60:crash.wav
448,192,105328,1,0,0:0:0:50:kick.wav
192,192,105486,1,0,0:0:0:45:hihat.wav
320,192,105564,1,0,0:0:0:0:
448,192,105643,1,0,0:0:0:50:kick.wav
64,192,105643,1,0,0:0:0:60:snare.wav
192,192,105801,1,0,0:0:0:45:hihat.wav
64,192,105880,1,0,0:0:0:0:
320,192,105959,1,0,0:0:0:50:kick.wav
448,192,105959,1,0,0:0:0:60:snare.wav
192,192,106117,1,0,0:0:0:45:hihat.wav
448,192,106196,1,0,0:0:0:0:
320,192,106275,1,0,0:0:0:50:kick.wav
64,192,106275,1,0,0:0:0:60:snare.wav
192,192,106433,1,0,0:0:0:45:hihat.wav
64,192,106512,1,0,0:0:0:0:
320,192,106591,1,0,0:0:0:60:snare.wav
448,192,106591,1,0,0:0:0:50:kick.wav
448,192,106749,1,0,0:0:0:45:hihat.wav
64,192,106749,1,0,0:0:0:0:
192,192,106828,1,0,0:0:0:0:
320,192,106907,1,0,0:0:0:50:kick.wav
64,192,106907,1,0,0:0:0:60:snare.wav
448,192,107064,1,0,0:0:0:45:hihat.wav
320,192,107222,1,0,0:0:0:50:kick.wav
192,192,107222,1,0,0:0:0:60:snare.wav
64,192,107380,1,0,0:0:0:45:hihat.wav
320,192,107459,1,0,0:0:0:0:
448,192,107459,1,0,0:0:0:0:
192,192,107538,1,0,0:0:0:50:kick.wav
64,192,107538,1,0,0:0:0:60:snare.wav
192,192,107696,1,0,0:0:0:45:hihat.wav
320,192,107696,1,0,0:0:0:0:
448,192,107854,1,0,0:0:0:50:kick.wav
64,192,107854,1,0,0:0:0:60:snare.wav
320,192,108012,1,0,0:0:0:45:hihat.wav
448,192,108091,1,0,0:0:0:0:
64,192,108170,1,0,0:0:0:50:kick.wav
192,192,108170,1,0,0:0:0:60:snare.wav
320,192,108328,1,0,0:0:0:45:hihat.wav
448,192,108486,1,0,0:0:0:50:kick.wav
64,192,108486,1,0,0:0:0:60:snare.wav
192,192,108643,1,0,0:0:0:45:hihat.wav
64,192,108722,1,0,0:0:0:0:
320,192,108801,1,0,0:0:0:50:kick.wav
448,192,108801,1,0,0:0:0:60:snare.wav
192,192,108959,1,0,0:0:0:45:hihat.wav
64,192,109117,1,0,0:0:0:60:snare.wav
320,192,109117,1,0,0:0:0:50:kick.wav
192,192,109275,1,0,0:0:0:45:hihat.wav
448,192,109275,1,0,0:0:0:0:
64,192,109354,1,0,0:0:0:0:
320,192,109433,1,0,0:0:0:50:kick.wav
448,192,109433,1,0,0:0:0:60:snare.wav
320,192,109591,1,0,0:0:0:45:hihat.wav
192,192,109591,1,0,0:0:0:0:
192,192,109749,1,0,0:0:0:50:kick.wav
64,192,109749,1,0,0:0:0:60:snare.wav
320,192,110064,1,0,0:0:0:60:jpndrum.wav
448,192,110064,1,0,0:0:0:0:
64,192,110064,128,0,110380:0:0:0:0:
192,192,110222,128,0,110380:0:0:0:0:
320,192,110380,1,0,0:0:0:60:crash.wav
448,192,110380,1,0,0:0:0:60:snare.wav
192,192,110538,1,0,0:0:0:60:snare.wav
64,192,110696,1,0,0:0:0:60:snare.wav
320,192,110854,1,0,0:0:0:60:snare.wav
448,192,110854,1,0,0:0:0:50:kick.wav
192,192,111012,1,0,0:0:0:60:snare.wav
64,192,111012,1,0,0:0:0:0:
320,192,111170,1,0,0:0:0:60:snare.wav
448,192,111170,1,0,0:0:0:50:kick.wav
192,192,111328,1,0,0:0:0:60:snare.wav
64,192,111328,1,0,0:0:0:0:
320,192,111486,1,0,0:0:0:60:snare.wav
448,192,111486,1,0,0:0:0:50:kick.wav
448,192,111643,1,0,0:0:0:60:snare.wav
64,192,111643,1,0,0:0:0:0:
192,192,111801,1,0,0:0:0:50:kick.wav
320,192,111801,1,0,0:0:0:60:snare.wav
192,192,111959,1,0,0:0:0:50:kick.wav
320,192,111959,1,0,0:0:0:60:snare.wav
64,192,112117,1,0,0:0:0:60:snare.wav
448,192,112117,1,0,0:0:0:0:
64,192,112275,1,0,0:0:0:50:kick.wav
192,192,112275,1,0,0:0:0:60:snare.wav
320,192,112433,1,0,0:0:0:60:snare.wav
192,192,112512,1,0,0:0:0:0:
448,192,112591,1,0,0:0:0:50:kick.wav
64,192,112591,1,0,0:0:0:60:snare.wav
320,192,112749,1,0,0:0:0:60:snare.wav
192,192,112907,1,0,0:0:0:50:kick.wav
64,192,112907,1,0,0:0:0:40:snare.wav
320,192,113064,1,0,0:0:0:50:kick.wav
448,192,113064,1,0,0:0:0:40:snare.wav
192,192,113222,1,0,0:0:0:50:kick.wav
448,192,113222,1,0,0:0:0:40:snare.wav
320,192,113380,1,0,0:0:0:50:kick.wav
64,192,113380,1,0,0:0:0:40:snare.wav
448,192,113538,1,0,0:0:0:50:kick.wav
64,192,113538,1,0,0:0:0:40:snare.wav
192,192,113617,1,0,0:0:0:50:kick.wav
320,192,113696,1,0,0:0:0:50:kick.wav
448,192,113696,1,0,0:0:0:40:snare.wav
64,192,113775,1,0,0:0:0:50:kick.wav
320,192,113854,1,0,0:0:0:50:kick.wav
192,192,113854,1,0,0:0:0:40:snare.wav
448,192,113933,1,0,0:0:0:40:snare.wav
192,192,114012,1,0,0:0:0:50:kick.wav
64,192,114012,1,0,0:0:0:40:snare.wav
320,192,114091,1,0,0:0:0:40:snare.wav
448,192,114091,1,0,0:0:0:50:kick.wav
64,192,114170,1,0,0:0:0:50:kick.wav
192,192,114209,1,0,0:0:0:45:drum.wav
320,192,114249,1,0,0:0:0:50:kick.wav
448,192,114288,1,0,0:0:0:45:drum.wav
64,192,114328,1,0,0:0:0:50:kick.wav
192,192,114328,1,0,0:0:0:45:drum.wav
320,192,114407,1,0,0:0:0:50:kick.wav
448,192,114407,1,0,0:0:0:0:
64,192,114486,1,0,0:0:0:50:kick.wav
192,192,114525,1,0,0:0:0:45:drum.wav
320,192,114564,1,0,0:0:0:50:kick.wav
448,192,114604,1,0,0:0:0:45:drum.wav
64,192,114643,1,0,0:0:0:50:kick.wav
192,192,114643,1,0,0:0:0:45:drum.wav
320,192,114722,1,0,0:0:0:50:kick.wav
448,192,114722,1,0,0:0:0:0:
192,192,114801,1,0,0:0:0:50:kick.wav
64,192,114801,1,0,0:0:0:0:
320,192,114959,1,0,0:0:0:0:
192,192,115038,1,0,0:0:0:0:
64,192,115117,1,0,0:0:0:50:clap.wav
448,192,115117,1,0,0:0:0:60:boom.wav
320,192,115196,1,0,0:0:0:0:
64,192,115275,1,0,0:0:0:0:
192,192,115354,1,0,0:0:0:0:
320,192,115433,1,0,0:0:0:50:kick.wav
448,192,115433,1,0,0:0:0:0:
