osu file format v13

[General]
AudioFilename: T+Pazolite - Of course you need and need and need and need Me.mp3
AudioLeadIn: 0
PreviewTime: 102775
Countdown: 0
SampleSet: Normal
StackLeniency: 0.7
Mode: 0
LetterboxInBreaks: 1
WidescreenStoryboard: 1

[Editor]
DistanceSpacing: 0.6
BeatDivisor: 4
GridSize: 4
TimelineZoom: 3

[Metadata]
Title:Ofcourse You Need and nEed and neEd and neeD and NEED ME?
TitleUnicode:Ofcourse You Need and nEed and neEd and neeD and NEED ME?
Artist:t+pazolite
ArtistUnicode:t+pazolite
Creator:Pagno
Version:Extreme
Source:
Tags:
BeatmapID:389818
BeatmapSetID:157373

[Difficulty]
HPDrainRate:4.5
CircleSize:4
OverallDifficulty:8
ApproachRate:9.5
SliderMultiplier:1.8
SliderTickRate:1

[Events]
//Background and Video events
0,0,"BG.jpg",0,0
//Break Periods
2,136025,143250
//Storyboard Layer 0 (Background)
//Storyboard Layer 1 (Fail)
//Storyboard Layer 2 (Pass)
//Storyboard Layer 3 (Foreground)
//Storyboard Sound Samples
//Background Colour Transformations
3,100,163,162,255

[TimingPoints]
14775,250,4,1,1,70,1,0
29775,-57.1428571428571,4,1,1,50,0,0
30275,-100,4,1,1,70,0,0
31275,-57.1428571428571,4,1,1,50,0,0
31525,-100,4,1,1,70,0,0
32275,-57.1428571428571,4,1,1,50,0,0
32525,-100,4,1,1,70,0,0
33275,-57.1428571428571,4,1,1,50,0,0
33525,-100,4,1,1,70,0,0
34275,-57.1428571428571,4,1,1,50,0,0
34525,-100,4,1,1,70,0,0
38275,-57.1428571428571,4,1,1,50,0,0
38525,-50,4,1,1,50,0,0
38775,-90.9090909090909,4,1,1,70,0,1
38900,-90.9090909090909,4,1,1,70,0,0
52775,-57.1428571428571,4,2,1,50,0,0
53275,-90.9090909090909,4,1,1,75,0,0
53525,-80,4,1,1,75,0,0
53775,-90.9090909090909,4,1,1,75,0,0
54775,-90.9090909090909,4,1,1,75,0,1
56775,-90.9090909090909,4,1,1,75,0,0
70775,-90.9090909090909,4,1,1,75,0,1
70837,-90.9090909090909,4,1,1,75,0,0
78275,-57.1428571428571,4,1,1,50,0,0
78525,-90.9090909090909,4,1,1,75,0,0
82525,-111.111111111111,4,1,1,75,0,0
82775,-90.9090909090909,4,1,1,75,0,0
83775,-90.9090909090909,4,1,1,65,0,0
85775,-57.1428571428571,4,1,1,50,0,0
86025,-83.3333333333333,4,1,1,50,0,0
86275,-90.9090909090909,4,1,1,50,0,0
86525,-50,4,1,1,50,0,0
87275,-100,4,1,1,50,0,0
87775,-100,4,1,1,70,0,1
87806,-117.647058823529,4,2,1,55,0,0
95775,-117.647058823529,4,2,0,55,0,0
96025,-117.647058823529,4,2,1,55,0,0
98775,-111.111111111111,4,2,1,55,0,0
100775,-105.263157894737,4,2,1,55,0,0
101712,-100,4,1,1,35,0,0
101900,-100,4,1,1,40,0,0
102025,-100,4,1,1,45,0,0
102150,-100,4,1,1,50,0,0
102275,-100,4,1,1,55,0,0
102400,-100,4,1,1,60,0,0
102525,-100,4,1,1,65,0,0
102650,-100,4,1,1,70,0,0
102743,-100,4,1,1,70,0,0
103775,-90.9090909090909,4,1,1,70,0,1
104025,-57.1428571428571,4,1,1,50,0,1
104400,-90.9090909090909,4,1,1,70,0,1
104775,-83.3333333333333,4,1,1,70,0,1
105275,-50,4,1,1,50,0,1
105525,-90.9090909090909,4,1,1,55,0,1
105775,-90.9090909090909,4,1,1,70,0,1
106525,-66.6666666666667,4,1,1,50,0,1
106775,-90.9090909090909,4,1,1,70,0,1
107525,-50,4,1,1,50,0,1
107775,-90.9090909090909,4,1,1,70,0,1
108275,-50,4,1,1,50,0,1
108525,-90.9090909090909,4,1,1,70,0,1
109275,-57.1428571428571,4,1,1,50,0,1
109525,-90.9090909090909,4,1,1,70,0,1
110400,-50,4,1,1,50,0,1
110650,-100,4,1,1,80,0,1
110712,-100,4,1,1,70,0,1
111650,-100,4,1,1,70,0,0
111775,-100,4,1,1,70,0,1
112025,-62.5,4,1,1,50,0,1
112275,-100,4,1,1,70,0,1
113275,-62.5,4,1,1,50,0,1
113775,-100,4,1,1,70,0,1
114525,-62.5,4,1,1,50,0,1
114775,-100,4,1,1,70,0,1
115525,-62.5,4,1,1,50,0,1
115775,-100,4,1,1,70,0,1
116025,-86.9565217391304,4,1,1,70,0,1
116150,-100,4,1,1,70,0,1
117275,-62.5,4,1,1,50,0,1
117525,-100,4,1,1,70,0,1
118275,-86.9565217391304,4,1,1,70,0,1
118400,-62.5,4,1,1,70,0,1
118431,-62.5,4,1,1,50,0,1
118650,-100,4,1,1,70,0,1
118900,-86.9565217391304,4,1,1,70,0,1
120275,-100,4,1,1,70,0,1
120775,-100,4,1,1,70,0,0
121775,-80,4,1,1,70,0,1
122525,-62.5,4,1,1,50,0,1
122775,-90.9090909090909,4,1,1,70,0,0
123462,-90.9090909090909,4,2,1,5,0,0
123525,-90.9090909090909,4,1,0,50,0,0
123712,-90.9090909090909,4,1,1,70,0,0
123775,-90.9090909090909,4,1,1,70,0,1
124775,-90.9090909090909,4,1,1,70,0,0
125087,-90.9090909090909,4,2,1,5,0,0
125150,-90.9090909090909,4,1,1,70,0,0
125337,-90.9090909090909,4,1,1,5,0,0
125400,-90.9090909090909,4,1,1,70,0,0
125775,-90.9090909090909,4,1,1,70,0,1
126400,-62.5,4,1,1,50,0,1
126525,-100,4,1,1,50,0,1
126775,-90.9090909090909,4,1,2,70,0,1
127775,-100,4,1,1,70,0,0
134775,-83.3333333333333,4,1,1,70,0,0
143775,-100,4,1,1,70,0,0
150775,-62.5,4,1,1,50,0,0
151025,-86.9565217391304,4,1,1,70,0,0
151275,-62.5,4,1,1,50,0,0
151525,-100,4,1,1,70,0,0
151775,-90.9090909090909,4,1,1,70,0,1
152775,-90.9090909090909,4,1,1,70,0,0
159775,-86.9565217391304,4,1,1,70,0,0
167462,-86.9565217391304,4,1,1,5,0,0
167525,-86.9565217391304,4,1,1,70,0,0
167775,-86.9565217391304,4,1,1,70,0,1
183650,-86.9565217391304,4,1,1,70,0,0
183775,-86.9565217391304,4,1,1,70,0,1
183837,-86.9565217391304,4,1,1,70,0,0

[Colours]
Combo1 : 106,106,106
Combo2 : 227,157,87
Combo3 : 215,81,81
Combo4 : 191,191,191

[HitObjects]
168,80,14775,6,0,L|72:64,1,90,8|0,0:0|0:0,0:0:0:0:
248,96,15025,1,0,0:0:0:0:
425,63,15150,2,0,B|327:73|327:73|340:131|291:168,1,180
160,264,15525,1,0,0:0:0:0:
247,296,15650,2,0,P|234:206|140:172,1,180
336,320,16025,5,0,0:0:0:0:
424,348,16150,1,0,0:0:0:0:
395,171,16275,2,0,L|412:260,1,90
380,84,16525,1,0,0:0:0:0:
468,64,16650,1,0,0:0:0:0:
292,108,16775,5,8,0:0:0:0:
204,84,16900,1,0,0:0:0:0:
116,60,17025,1,0,0:0:0:0:
64,229,17150,2,0,B|101:197|138:191|138:191|156:208|156:208|200:208|232:176,1,180
140,336,17525,1,0,0:0:0:0:
258,350,17650,2,0,B|240:324|240:324|236:288|211:264|211:264|222:184,1,180
244,96,18025,5,0,0:0:0:0:
264,8,18150,1,0,0:0:0:0:
307,154,18275,2,0,P|283:116|244:96,1,90
328,248,18525,1,0,0:0:0:0:
408,284,18650,1,0,0:0:0:0:
140,336,18775,5,8,0:0:0:0:
100,245,18900,1,0,0:0:0:0:
190,205,19025,1,0,0:0:0:0:
231,296,19150,2,0,P|288:204|256:132,1,180
408,284,19525,1,0,0:0:0:0:
432,148,19650,2,0,P|344:161|285:227,1,180
472,32,20025,6,0,P|474:87|462:127,1,90
424,220,20275,1,0,0:0:0:0:
304,72,20400,2,0,P|244:108|212:160,2,90
128,44,20775,5,8,0:0:0:0:
60,140,20900,1,0,0:0:0:0:
132,232,21025,1,0,0:0:0:0:
96,344,21150,2,0,B|152:360|204:324|204:324|240:308|344:324,1,180
274,132,21525,1,0,0:0:0:0:
274,132,21650,2,0,P|214:198|131:232,1,180
54,71,22025,6,0,P|64:136|88:184,1,90
205,84,22275,1,8,0:0:0:0:
298,212,22400,1,8,0:0:0:0:
298,53,22525,1,8,0:0:0:0:
205,182,22650,1,8,0:0:0:0:
356,133,22775,6,0,P|384:248|320:312,1,180,4|8,0:0|0:0,0:0:0:0:
264,312,23150,1,0,0:0:0:0:
188,260,23275,1,0,0:0:0:0:
104,288,23400,1,0,0:0:0:0:
128,192,23525,1,8,0:0:0:0:
104,96,23650,1,0,0:0:0:0:
188,124,23775,1,0,0:0:0:0:
323,152,23900,6,0,P|291:182|248:192,2,90,0|8|0,0:0|0:0|0:0,0:0:0:0:
448,64,24275,1,0,0:0:0:0:
416,148,24400,1,0,0:0:0:0:
455,315,24525,2,0,B|439:279|439:279|434:277|434:277|416:236,1,90,8|8,0:0|0:0,0:0:0:0:
251,171,24775,6,0,P|295:177|339:191,1,90,0|0,0:0|0:0,0:0:0:0:
204,248,25025,1,8,0:0:0:0:
281,77,25150,2,0,P|196:93|160:172,1,180
340,192,25525,1,8,0:0:0:0:
225,332,25650,2,0,P|271:257|252:172,1,180
368,61,26025,6,0,P|325:75|281:76,1,90,8|0,0:0|0:0,0:0:0:0:
480,180,26275,2,0,L|504:80,1,90,0|0,0:0|0:0,0:0:0:0:
296,208,26525,1,8,0:0:0:0:
376,152,26650,1,8,0:0:0:0:
296,208,26775,6,0,L|208:224,1,90,4|0,0:0|0:0,0:0:0:0:
4,212,27025,1,8,0:0:0:0:
4,212,27150,2,0,B|88:231|88:231|96:227|96:227|180:243,1,180
179,242,27525,1,8,0:0:0:0:
214,117,27650,2,0,P|291:158|312:244,1,180
400,180,28025,6,0,P|386:136|352:92,1,90,8|0,0:0|0:0,0:0:0:0:
152,24,28275,2,0,P|165:66|191:103,1,90,0|0,0:0|0:0,0:0:0:0:
32,193,28525,1,8,0:0:0:0:
136,228,28650,1,0,0:0:0:0:
184,324,28775,6,0,L|260:352,3,45,0|0|0|0,0:0|0:0|0:0|0:0,0:0:0:0:
260,357,29025,2,0,L|340:341,3,45,8|0|0|0,0:0|0:0|0:0|0:0,0:0:0:0:
327,320,29275,1,0,0:0:0:0:
333,284,29337,1,0,0:0:0:0:
339,248,29400,1,0,0:0:0:0:
345,212,29462,1,0,0:0:0:0:
352,176,29525,2,0,L|362:114,1,45,8|0,0:0|0:0,0:0:0:0:
287,142,29650,2,0,L|297:80,1,45,0|0,0:0|0:0,0:0:0:0:
220,111,29775,6,8,L|232:38,6,39.3750003755093
153,88,30025,2,8,L|166:14,6,39.3750003755093
146,119,30275,1,0,0:0:0:0:
139,149,30337,1,0,0:0:0:0:
132,180,30400,1,0,0:0:0:0:
125,210,30462,1,0,0:0:0:0:
119,241,30525,2,0,L|48:264,1,45,8|0,0:0|0:0,0:0:0:0:
80,344,30650,1,8,0:0:0:0:
112,348,30712,1,0,0:0:0:0:
144,352,30775,6,0,L|276:369,1,90,4|0,0:0|0:0,0:0:0:0:
433,306,31025,2,0,L|301:289,1,90,8|0,0:0|0:0,0:0:0:0:
176,220,31275,2,0,L|144:152,6,39.3750003755093,0|0|0|0|0|0|0,0:0|0:0|0:0|0:0|0:0|0:0|0:0,0:0:0:0:
200,240,31525,1,0,0:0:0:0:
230,245,31587,1,0,0:0:0:0:
261,250,31650,1,0,0:0:0:0:
291,255,31712,1,0,0:0:0:0:
322,261,31775,6,0,P|381:252|411:172,1,90
453,60,32025,2,0,L|432:148,1,90,8|0,0:0|0:0,0:0:0:0:
256,60,32275,2,0,L|268:124,6,39.3750003755093,0|0|0|0|0|0|0,0:0|0:0|0:0|0:0|0:0|0:0|0:0,0:0:0:0:
256,132,32525,1,0,0:0:0:0:
248,162,32587,1,0,0:0:0:0:
240,192,32650,1,0,0:0:0:0:
231,222,32712,1,0,0:0:0:0:
223,252,32775,6,0,L|199:346,1,90
24,188,33025,2,0,L|48:94,1,90,8|0,0:0|0:0,0:0:0:0:
263,98,33275,2,0,L|282:25,6,39.3750003755093,0|0|0|0|0|0|0,0:0|0:0|0:0|0:0|0:0|0:0|0:0,0:0:0:0:
286,134,33525,1,0,0:0:0:0:
315,143,33587,1,0,0:0:0:0:
345,152,33650,1,0,0:0:0:0:
374,161,33712,1,0,0:0:0:0:
403,185,33775,6,0,P|438:212|467:280,1,90
190,131,34025,2,0,P|155:104|126:36,1,90,8|0,0:0|0:0,0:0:0:0:
348,293,34275,2,0,L|406:303,6,39.3750003755093,0|0|0|0|0|0|0,0:0|0:0|0:0|0:0|0:0|0:0|0:0,0:0:0:0:
316,287,34525,1,0,0:0:0:0:
285,281,34587,1,0,0:0:0:0:
253,275,34650,1,0,0:0:0:0:
222,269,34712,1,0,0:0:0:0:
190,264,34775,6,0,L|102:250,1,90
296,192,35025,1,8,0:0:0:0:
296,192,35087,1,0,0:0:0:0:
296,192,35150,1,0,0:0:0:0:
160,166,35275,2,0,P|115:155|72:136,1,90,0|0,0:0|0:0,0:0:0:0:
384,144,35525,1,8,0:0:0:0:
384,144,35587,1,0,0:0:0:0:
384,144,35650,1,0,0:0:0:0:
212,248,35775,6,0,P|180:280|144:356,1,90
468,92,36025,1,8,0:0:0:0:
468,92,36087,1,0,0:0:0:0:
468,92,36150,1,0,0:0:0:0:
449,269,36275,2,0,L|456:180,1,90
444,360,36525,1,8,0:0:0:0:
444,360,36587,1,0,0:0:0:0:
444,360,36650,1,0,0:0:0:0:
340,292,36775,1,0,0:0:0:0:
224,252,36900,5,8,0:0:0:0:
198,240,36962,1,0,0:0:0:0:
170,228,37025,1,0,0:0:0:0:
216,160,37150,5,8,0:0:0:0:
196,137,37212,1,0,0:0:0:0:
176,115,37275,1,0,0:0:0:0:
253,88,37400,5,8,0:0:0:0:
247,59,37462,1,0,0:0:0:0:
240,29,37525,1,0,0:0:0:0:
362,63,37650,2,0,L|403:-6,1,45,8|0,0:0|0:0,0:0:0:0:
367,107,37775,6,0,L|374:151,3,45,0|0|0|0,0:0|0:0|0:0|0:0,0:0:0:0:
379,182,38025,1,0,0:0:0:0:
384,212,38087,1,0,0:0:0:0:
388,243,38150,1,0,0:0:0:0:
392,273,38212,1,0,0:0:0:0:
372,302,38275,6,0,L|305:331,6,39.3750003755093,8|0|0|0|0|0|0,0:0|0:0|0:0|0:0|0:0|0:0|0:0,0:0:0:0:
293,309,38525,2,0,L|206:292,6,45,8|0|0|0|0|0|0,0:0|0:0|0:0|0:0|0:0|0:0|0:0,0:0:0:0:
217,319,38775,6,0,P|163:326|93:314,1,99.0000030212403
171,162,39025,2,0,P|224:154|295:167,1,99.0000030212403,8|0,0:0|0:0,0:0:0:0:
388,176,39275,1,0,0:0:0:0:
444,280,39400,1,0,0:0:0:0:
434,99,39525,2,0,P|467:135|476:184,1,99.0000030212403,8|0,0:0|0:0,0:0:0:0:
336,252,39775,2,0,P|303:215|294:167,1,99.0000030212403
260,52,40025,5,8,0:0:0:0:
168,124,40150,1,0,0:0:0:0:
120,272,40275,2,0,P|76:254|32:204,1,99.0000030212403
340,296,40525,1,8,0:0:0:0:
224,328,40650,1,8,0:0:0:0:
436,232,40775,6,0,L|468:100,1,99.0000030212403,0|0,0:0|0:0,0:0:0:0:
224,328,41025,2,0,L|256:196,1,99.0000030212403,8|0,0:0|0:0,0:0:0:0:
168,40,41275,2,0,L|136:172,1,99.0000030212403
120,272,41525,1,8,0:0:0:0:
276,140,41650,1,0,0:0:0:0:
461,253,41775,6,0,P|414:236|372:211,1,99.0000030212403
104,24,42025,2,0,P|150:40|193:65,1,99.0000030212403,8|0,0:0|0:0,0:0:0:0:
400,88,42275,1,8,0:0:0:0:
432,80,42337,1,8,0:0:0:0:
464,72,42400,1,8,0:0:0:0:
360,168,42525,1,8,0:0:0:0:
496,64,42650,1,8,0:0:0:0:
480,274,42775,6,0,P|475:225|480:176,1,99.0000030212403
468,308,43025,2,0,P|416:340|344:344,1,99.0000030212403,8|0,0:0|0:0,0:0:0:0:
256,312,43275,1,0,0:0:0:0:
128,336,43400,1,0,0:0:0:0:
4,296,43525,2,0,P|18:238|80:156,1,99.0000030212403,8|0,0:0|0:0,0:0:0:0:
289,219,43775,2,0,P|278:267|256:312,1,99.0000030212403
476,188,44025,5,8,0:0:0:0:
388,96,44150,1,0,0:0:0:0:
256,136,44275,1,0,0:0:0:0:
124,96,44400,1,0,0:0:0:0:
36,188,44525,1,8,0:0:0:0:
36,188,44587,1,0,0:0:0:0:
36,188,44650,1,8,0:0:0:0:
24,304,44775,5,0,0:0:0:0:
152,348,44900,1,0,0:0:0:0:
228,244,45025,1,8,0:0:0:0:
356,228,45150,2,0,B|400:226|400:226|406:222|406:222|497:217,2,99.0000030212403
272,128,45525,1,8,0:0:0:0:
228,244,45650,2,0,B|210:289|210:289|211:293|211:293|206:292|206:292|207:296|207:296|189:341,2,99.0000030212403
272,128,46025,2,0,P|223:121|176:132,1,99.0000030212403,8|0,0:0|0:0,0:0:0:0:
312,148,46275,5,8,0:0:0:0:
319,161,46337,1,8,0:0:0:0:
327,174,46400,1,8,0:0:0:0:
335,187,46462,1,0,0:0:0:0:
343,200,46525,2,0,L|384:272,1,49.5000015106202,8|0,0:0|0:0,0:0:0:0:
473,193,46650,1,8,0:0:0:0:
459,186,46712,1,0,0:0:0:0:
445,179,46775,6,0,B|395:153|395:153|369:110,1,99.0000030212403
132,156,47025,2,0,L|184:264,1,99.0000030212403,8|0,0:0|0:0,0:0:0:0:
344,352,47275,1,0,0:0:0:0:
396,188,47400,1,0,0:0:0:0:
396,188,47462,1,0,0:0:0:0:
396,188,47525,1,8,0:0:0:0:
436,280,47650,1,0,0:0:0:0:
280,284,47775,6,0,L|160:288,1,99.0000030212403
396,188,48025,2,0,L|516:192,1,99.0000030212403,8|0,0:0|0:0,0:0:0:0:
296,116,48275,1,0,0:0:0:0:
228,44,48400,1,0,0:0:0:0:
164,132,48525,1,8,0:0:0:0:
80,48,48650,1,8,0:0:0:0:
68,80,48712,1,0,0:0:0:0:
56,112,48775,6,0,L|16:208,1,99.0000030212403
84,316,49025,2,0,P|68:268|28:226,1,99.0000030212403,8|0,0:0|0:0,0:0:0:0:
268,129,49275,2,0,P|239:168|196:192,1,99.0000030212403
392,188,49525,1,8,0:0:0:0:
436,308,49650,1,0,0:0:0:0:
316,264,49775,6,0,P|246:243|200:172,1,99.0000030212403
312,152,50025,2,0,P|270:92|277:8,1,99.0000030212403,8|0,0:0|0:0,0:0:0:0:
396,60,50275,1,8,0:0:0:0:
428,47,50337,1,8,0:0:0:0:
460,34,50400,1,8,0:0:0:0:
448,152,50525,1,8,0:0:0:0:
488,264,50650,1,8,0:0:0:0:
360,332,50775,6,0,P|304:352|244:352,1,99.0000030212403
184,192,51025,2,0,P|240:212|300:212,1,99.0000030212403,8|0,0:0|0:0,0:0:0:0:
92,116,51275,2,0,P|67:175|84:248,1,99.0000030212403
376,292,51525,2,0,P|400:232|384:160,1,99.0000030212403,8|0,0:0|0:0,0:0:0:0:
384,80,51775,5,0,0:0:0:0:
276,128,51900,1,0,0:0:0:0:
168,80,52025,1,8,0:0:0:0:
60,128,52150,1,0,0:0:0:0:
168,176,52275,2,0,P|152:240|120:284,1,99.0000030212403
276,128,52525,1,8,0:0:0:0:
384,180,52650,1,0,0:0:0:0:
436,284,52775,6,0,L|460:332,14,39.3750003755093,0|0|0|0|0|0|0|0|0|0|0|0|0|0|0,0:0|0:0|0:0|0:0|0:0|0:0|0:0|0:0|0:0|0:0|0:0|0:0|0:0|0:0|0:0,0:0:0:0:
396,268,53275,2,0,L|336:248,3,49.5000015106202
304,260,53525,2,0,L|236:280,3,56.25,0|0|0|0,0:0|0:0|0:0|0:0,0:0:0:0:
212,260,53775,1,8,0:0:0:0:
199,244,53837,1,8,0:0:0:0:
186,228,53900,1,8,0:0:0:0:
173,212,53962,1,8,0:0:0:0:
160,196,54025,1,8,0:0:0:0:
147,181,54087,1,8,0:0:0:0:
134,165,54150,1,8,0:0:0:0:
121,150,54212,1,8,0:0:0:0:
108,134,54275,6,0,L|75:96,3,49.5000015106202,8|0|0|0,0:0|0:0|0:0|0:0,0:0:0:0:
156,80,54525,2,0,L|207:46,1,49.5000015106202,8|0,0:0|0:0,0:0:0:0:
220,121,54650,2,0,L|271:87,1,49.5000015106202,8|0,0:0|0:0,0:0:0:0:
289,163,54775,6,0,L|184:228,1,99.0000030212403,8|0,0:0|0:0,0:0:0:0:
426,199,55025,2,0,L|532:138,1,99.0000030212403,8|0,0:0|0:0,0:0:0:0:
472,304,55275,1,8,0:0:0:0:
348,272,55400,1,0,0:0:0:0:
256,364,55525,1,8,0:0:0:0:
172,268,55650,1,0,0:0:0:0:
44,252,55775,6,0,P|62:209|136:152,1,99.0000030212403,8|0,0:0|0:0,0:0:0:0:
352,44,56025,2,0,P|305:46|226:96,1,99.0000030212403,8|0,0:0|0:0,0:0:0:0:
424,204,56275,1,8,0:0:0:0:
432,232,56337,1,8,0:0:0:0:
440,260,56400,1,8,0:0:0:0:
256,236,56525,1,8,0:0:0:0:
256,236,56650,1,8,0:0:0:0:
88,204,56775,6,0,L|48:328,1,99.0000030212403,8|0,0:0|0:0,0:0:0:0:
256,236,57025,2,0,P|253:186|245:137,1,99.0000030212403,8|0,0:0|0:0,0:0:0:0:
352,44,57275,1,8,0:0:0:0:
424,204,57400,1,0,0:0:0:0:
314,352,57525,2,0,P|280:316|260:272,1,99.0000030212403,8|0,0:0|0:0,0:0:0:0:
448,180,57775,6,0,P|476:144|508:80,1,99.0000030212403,8|0,0:0|0:0,0:0:0:0:
248,140,58025,1,8,0:0:0:0:
127,95,58150,1,0,0:0:0:0:
149,222,58275,1,8,0:0:0:0:
149,222,58337,1,8,0:0:0:0:
149,222,58400,1,8,0:0:0:0:
248,140,58525,1,8,0:0:0:0:
184,252,58650,1,8,0:0:0:0:
208,124,58775,6,0,P|207:75|184:20,1,99.0000030212403,8|0,0:0|0:0,0:0:0:0:
216,276,59025,2,0,P|224:324|255:374,1,99.0000030212403,8|0,0:0|0:0,0:0:0:0:
176,115,59275,2,0,P|154:62|107:12,1,99.0000030212403,8|0,0:0|0:0,0:0:0:0:
248,276,59525,2,0,P|276:324|330:365,1,99.0000030212403,8|0,0:0|0:0,0:0:0:0:
96,172,59775,5,8,0:0:0:0:
4,136,59900,1,0,0:0:0:0:
152,248,60025,1,8,0:0:0:0:
36,244,60150,1,0,0:0:0:0:
212,176,60275,2,0,B|254:160|254:160|269:158|269:158|320:140,1,99.0000030212403,8|0,0:0|0:0,0:0:0:0:
496,80,60525,1,8,0:0:0:0:
404,112,60650,1,8,0:0:0:0:
428,268,60775,6,0,P|437:219|454:173,1,99.0000030212403,8|0,0:0|0:0,0:0:0:0:
496,80,61025,1,8,0:0:0:0:
328,160,61150,2,0,P|276:180|180:180,1,99.0000030212403,0|8,0:0|0:0,0:0:0:0:
491,204,61400,2,0,P|499:155|488:108,1,99.0000030212403,0|8,0:0|0:0,0:0:0:0:
360,300,61650,1,0,0:0:0:0:
236,324,61775,6,0,B|191:329|191:329|185:333|185:333|139:340,1,99.0000030212403,8|0,0:0|0:0,0:0:0:0:
116,192,62025,1,8,0:0:0:0:
40,296,62150,1,0,0:0:0:0:
132,176,62275,1,8,0:0:0:0:
149,157,62337,1,8,0:0:0:0:
166,138,62400,1,8,0:0:0:0:
265,69,62525,1,8,0:0:0:0:
382,67,62650,1,8,0:0:0:0:
488,124,62775,6,0,P|514:175|524:264,1,99.0000030212403,4|0,0:0|0:0,0:0:0:0:
360,300,63025,1,8,0:0:0:0:
360,300,63087,1,0,0:0:0:0:
360,300,63150,1,0,0:0:0:0:
200,220,63275,2,0,P|148:200|64:180,1,99.0000030212403
271,102,63525,1,8,0:0:0:0:
296,96,63587,1,0,0:0:0:0:
320,89,63650,1,0,0:0:0:0:
308,242,63775,6,0,P|259:247|212:236,1,99.0000030212403
16,176,64025,1,8,0:0:0:0:
16,176,64087,1,0,0:0:0:0:
16,176,64150,1,0,0:0:0:0:
240,36,64275,2,0,L|208:168,1,99.0000030212403,8|0,0:0|0:0,0:0:0:0:
272,348,64525,2,0,L|304:216,1,99.0000030212403,8|0,0:0|0:0,0:0:0:0:
152,168,64775,6,0,P|181:128|221:100,1,99.0000030212403
460,226,65025,1,8,0:0:0:0:
440,242,65087,1,0,0:0:0:0:
420,257,65150,1,0,0:0:0:0:
296,192,65275,2,0,P|272:244|280:312,1,99.0000030212403
120,282,65525,1,8,0:0:0:0:
124,308,65587,1,0,0:0:0:0:
127,333,65650,1,0,0:0:0:0:
60,160,65775,6,0,B|80:96|80:96|140:68,1,99.0000030212403
243,39,66025,1,8,0:0:0:0:
268,32,66087,1,0,0:0:0:0:
292,24,66150,1,0,0:0:0:0:
296,192,66275,2,0,L|196:224,1,99.0000030212403,0|0,0:0|0:0,0:0:0:0:
472,272,66525,1,8,0:0:0:0:
332,324,66650,1,8,0:0:0:0:
336,196,66775,1,0,0:0:0:0:
424,76,66900,1,8,0:0:0:0:
424,76,66962,1,0,0:0:0:0:
424,76,67025,1,0,0:0:0:0:
320,56,67150,1,8,0:0:0:0:
320,56,67212,1,0,0:0:0:0:
320,56,67275,1,0,0:0:0:0:
216,88,67400,1,8,0:0:0:0:
216,88,67462,1,0,0:0:0:0:
216,88,67525,1,0,0:0:0:0:
108,112,67650,6,0,P|84:92|48:84,2,49.5000015106202,8|0|0,0:0|0:0|0:0,0:0:0:0:
60,216,67900,2,0,P|84:236|120:244,2,49.5000015106202,8|0|0,0:0|0:0|0:0,0:0:0:0:
32,320,68150,1,8,0:0:0:0:
60,332,68212,1,0,0:0:0:0:
88,344,68275,1,0,0:0:0:0:
204,332,68400,6,0,P|236:316|256:272,2,49.5000015106202,8|0|8,0:0|0:0|0:0,0:0:0:0:
176,236,68650,1,8,0:0:0:0:
176,236,68775,2,0,P|193:218|216:209,3,49.5000015106202,8|0|0|0,0:0|0:0|0:0|0:0,0:0:0:0:
240,192,69025,2,0,L|272:108,3,49.5000015106202,8|0|0|0,0:0|0:0|0:0|0:0,0:0:0:0:
284,116,69275,2,0,L|304:24,3,49.5000015106202,8|0|0|0,0:0|0:0|0:0|0:0,0:0:0:0:
324,44,69525,2,0,L|364:-4,3,49.5000015106202,8|0|0|0,0:0|0:0|0:0|0:0,0:0:0:0:
392,20,69775,5,8,0:0:0:0:
401,37,69837,1,0,0:0:0:0:
410,54,69900,1,0,0:0:0:0:
419,71,69962,1,0,0:0:0:0:
428,88,70025,1,8,0:0:0:0:
437,105,70087,1,0,0:0:0:0:
446,122,70150,1,0,0:0:0:0:
455,139,70212,1,0,0:0:0:0:
464,156,70275,2,0,L|506:238,3,49.5000015106202,8|0|8|0,0:0|0:0|0:0|0:0,0:0:0:0:
411,227,70525,2,0,L|453:309,1,49.5000015106202,8|0,0:0|0:0,0:0:0:0:
358,301,70650,2,0,L|400:383,1,49.5000015106202,8|0,0:0|0:0,0:0:0:0:
260,333,70775,5,4,0:0:0:0:
160,348,70900,1,0,0:0:0:0:
56,332,71025,2,0,P|74:287|128:248,1,99.0000030212403,8|0,0:0|0:0,0:0:0:0:
272,96,71275,2,0,P|252:140|200:180,1,99.0000030212403
54,76,71525,6,0,B|84:70|84:70|87:66|87:66|153:59,1,99.0000030212403,8|0,0:0|0:0,0:0:0:0:
384,80,71775,1,0,0:0:0:0:
268,56,71900,1,0,0:0:0:0:
100,176,72025,2,0,B|108:144|92:108|92:108|116:60,1,99.0000030212403,8|0,0:0|0:0,0:0:0:0:
124,204,72275,2,0,B|144:256|208:344|336:320,1,198.000006042481,0|8,0:0|0:0,0:0:0:0:
416,264,72650,1,8,0:0:0:0:
292,144,72775,6,0,P|252:112|220:44,1,99.0000030212403,4|0,0:0|0:0,0:0:0:0:
20,144,73025,1,8,0:0:0:0:
116,76,73150,1,0,0:0:0:0:
156,300,73275,2,0,P|153:251|128:208,1,99.0000030212403
228,72,73525,2,0,P|230:120|255:163,1,99.0000030212403,8|0,0:0|0:0,0:0:0:0:
356,288,73775,5,8,0:0:0:0:
432,144,73900,1,8,0:0:0:0:
445,123,73962,1,8,0:0:0:0:
458,101,74025,1,8,0:0:0:0:
292,144,74150,1,8,0:0:0:0:
356,288,74275,2,0,P|368:308|380:348,2,49.5000015106202,8|0|8,0:0|0:0|0:0,0:0:0:0:
260,360,74525,1,8,0:0:0:0:
136,328,74650,1,8,0:0:0:0:
32,224,74775,6,0,P|40:175|67:134,1,99.0000030212403,4|0,0:0|0:0,0:0:0:0:
288,96,75025,2,0,P|231:117|140:124,1,99.0000030212403,8|0,0:0|0:0,0:0:0:0:
457,101,75275,2,0,P|453:52|432:8,1,99.0000030212403
432,220,75525,1,8,0:0:0:0:
280,292,75650,1,0,0:0:0:0:
304,140,75775,6,0,B|256:112|208:112,1,99.0000030212403
0,140,76025,2,0,B|40:112|103:109,1,99.0000030212403,8|0,0:0|0:0,0:0:0:0:
152,280,76275,1,0,0:0:0:0:
152,140,76400,2,0,B|152:96|152:96|148:88|148:88|156:88|156:88|152:80|152:80|152:40,1,99.0000030212403,0|8,0:0|0:0,0:0:0:0:
152,352,76650,1,8,0:0:0:0:
280,292,76775,5,0,0:0:0:0:
360,232,76900,1,0,0:0:0:0:
316,144,77025,1,8,0:0:0:0:
404,96,77150,1,0,0:0:0:0:
500,120,77275,2,0,B|491:78|491:78|492:71|492:71|479:4,1,99.0000030212403
468,208,77525,1,8,0:0:0:0:
463,242,77587,1,0,0:0:0:0:
458,276,77650,1,8,0:0:0:0:
357,345,77775,6,0,P|265:283|225:160,1,198.000006042481,0|8,0:0|0:0,0:0:0:0:
392,184,78150,1,0,0:0:0:0:
408,64,78275,2,0,L|416:0,6,39.3750003755093,0|0|0|0|0|0|0,0:0|0:0|0:0|0:0|0:0|0:0|0:0,3:0:0:0:
380,75,78525,1,8,0:0:0:0:
272,104,78650,1,8,0:0:0:0:
326,188,78775,5,4,0:0:0:0:
248,252,78900,1,0,0:0:0:0:
200,340,79025,1,8,0:0:0:0:
156,252,79150,1,0,0:0:0:0:
84,184,79275,2,0,P|40:152|-16:144,1,99.0000030212403
114,162,79525,6,0,L|200:112,1,99.0000030212403,8|0,0:0|0:0,0:0:0:0:
333,201,79775,2,0,L|248:252,1,99.0000030212403
208,100,80025,1,8,0:0:0:0:
328,64,80150,1,0,0:0:0:0:
376,220,80275,2,0,P|396:176|400:112,1,99.0000030212403
400,256,80525,2,0,P|444:271|481:311,2,99.0000030212403,8|8|0,0:0|0:0|0:0,0:0:0:0:
304,248,80900,5,0,0:0:0:0:
208,232,81025,1,8,0:0:0:0:
112,216,81150,1,0,0:0:0:0:
16,200,81275,2,0,L|-4:84,1,99.0000030212403
191,134,81525,2,0,L|208:232,1,99.0000030212403,8|0,0:0|0:0,0:0:0:0:
304,248,81775,5,8,0:0:0:0:
444,176,81900,1,8,0:0:0:0:
444,176,81962,1,8,0:0:0:0:
444,176,82025,1,8,0:0:0:0:
340,80,82150,1,8,0:0:0:0:
192,76,82275,1,8,0:0:0:0:
162,79,82337,1,8,0:0:0:0:
132,82,82400,1,8,0:0:0:0:
102,85,82462,1,0,0:0:0:0:
72,88,82525,2,0,L|-17:100,1,80.9999975280763,8|0,0:0|0:0,0:0:0:0:
152,328,82775,6,0,P|148:272|176:196,1,99.0000030212403,4|0,0:0|0:0,0:0:0:0:
212,144,83025,2,0,P|248:115|380:92,1,99.0000030212403,8|0,0:0|0:0,0:0:0:0:
396,88,83275,2,0,P|460:108|520:176,1,99.0000030212403
364,300,83525,1,8,0:0:0:0:
364,300,83650,1,0,0:0:0:0:
264,200,83775,6,0,L|208:180,3,49.5000015106202
200,260,84025,2,0,L|150:256,3,49.5000015106202,8|0|0|0,0:0|0:0|0:0|0:0,0:0:0:0:
168,344,84275,2,0,L|121:361,3,49.5000015106202
78,327,84525,1,8,0:0:0:0:
70,298,84587,1,0,0:0:0:0:
60,264,84650,1,8,0:0:0:0:
51,230,84712,1,0,0:0:0:0:
42,196,84775,6,0,L|17:102,3,49.5000015106202,8|0|0|0,0:0|0:0|0:0|0:0,0:0:0:0:
73,130,85025,1,8,0:0:0:0:
107,134,85087,1,0,0:0:0:0:
141,138,85150,1,0,0:0:0:0:
175,142,85212,1,0,0:0:0:0:
209,146,85275,2,0,L|296:159,1,49.5000015106202,8|0,0:0|0:0,0:0:0:0:
228,221,85400,2,0,L|141:208,1,49.5000015106202
248,289,85525,1,8,0:0:0:0:
253,302,85587,1,0,0:0:0:0:
258,315,85650,1,0,0:0:0:0:
263,328,85712,1,0,0:0:0:0:
292,348,85775,6,0,L|356:352,6,39.3750003755093,8|0|0|0|0|0|0,0:0|0:0|0:0|0:0|0:0|0:0|0:0,0:0:0:0:
365,322,86025,2,0,P|384:304|389:246,1,53.9999983520508,8|0,0:0|0:0,0:0:0:0:
353,218,86150,2,0,P|334:236|329:294,1,53.9999983520508
426,216,86275,2,0,P|413:175|329:147,1,99.0000030212403,8|0,0:0|0:0,0:0:0:0:
343,145,86462,1,0,0:0:0:0:
318,151,86525,2,0,P|287:182|276:216,6,45,10|0|0|0|0|0|0,0:0|0:0|0:0|0:0|0:0|0:0|0:0,0:0:0:0:
353,218,86775,5,4,0:0:0:0:
140,16,87275,6,0,P|84:85|64:181,1,180
353,218,87775,5,4,0:0:0:0:
292,96,88025,1,4,0:0:0:0:
276,329,88275,2,0,P|223:275|214:201,1,153.000002918243,12|4,0:0|0:0,0:0:0:0:
196,128,88650,1,8,0:0:0:0:
148,68,88775,5,2,0:0:0:0:
56,192,89025,1,8,0:0:0:0:
148,316,89275,1,4,0:0:0:0:
352,184,89525,1,8,0:0:0:0:
284,148,89650,1,0,0:0:0:0:
216,108,89775,6,0,B|132:68|132:68|52:48,1,153.000002918243,0|8,0:0|0:0,0:0:0:0:
149,201,90275,2,0,B|184:181|184:181|252:198|284:148,1,153.000002918243,12|4,0:0|0:0,0:0:0:0:
316,76,90650,1,0,0:0:0:0:
394,69,90775,2,0,P|388:107|364:136,2,76.5000014591217,0|0|12,0:0|0:0|0:0,0:0:0:0:
368,312,91275,2,0,B|372:244|372:244|378:232|378:232|384:144,1,153.000002918243,8|0,0:0|0:0,0:0:0:0:
128,288,91775,5,6,0:0:0:0:
266,223,92025,1,0,0:0:0:0:
202,84,92275,1,12,0:0:0:0:
63,149,92525,1,4,0:0:0:0:
63,149,92650,1,4,0:0:0:0:
63,149,92775,1,4,0:0:0:0:
266,223,93025,1,12,0:0:0:0:
77,327,93275,2,0,P|43:259|48:184,1,153.000002918243,2|4,0:0|0:0,0:0:0:0:
84,116,93650,1,4,0:0:0:0:
140,64,93775,6,0,P|156:140|48:184,1,153.000002918243,0|8,0:0|0:0,0:0:0:0:
274,221,94275,2,0,P|228:160|160:128,1,153.000002918243,8|0,0:0|0:0,0:0:0:0:
76,116,94650,1,0,0:0:0:0:
8,168,94775,1,0,0:0:0:0:
140,272,95025,1,12,0:0:0:0:
292,204,95275,2,0,B|321:186|368:192|368:192|372:188|372:188|404:192|472:164,1,153.000002918243,12|0,0:0|0:0,0:0:0:0:
344,308,95775,5,4,0:0:0:0:
140,272,96025,1,4,0:0:0:0:
364,272,96275,2,0,P|440:248|504:192,1,153.000002918243,8|4,0:0|0:0,0:0:0:0:
480,112,96650,1,4,0:0:0:0:
408,52,96775,5,6,0:0:0:0:
320,84,96900,1,0,0:0:0:0:
233,118,97025,2,0,B|177:106|177:106|145:82|145:82|92:68,1,153.000002918243,12|4,0:0|0:0,0:0:0:0:
16,132,97400,1,0,0:0:0:0:
40,228,97525,2,0,P|64:272|132:340,1,76.5000014591217,6|4,0:0|0:0,0:0:0:0:
80,204,97775,6,0,P|115:138|92:68,1,153.000002918243,2|12,0:0|0:0,0:0:0:0:
408,52,98275,2,0,B|388:84|353:99|353:99|353:107|353:107|326:120|300:168,1,153.000002918243,12|4,0:0|0:0,0:0:0:0:
272,252,98650,1,4,0:0:0:0:
160,268,98775,6,0,P|115:277|50:282,1,80.9999975280763,8|0,0:0|0:0,0:0:0:0:
184,160,99025,2,0,P|228:151|293:127,1,80.9999975280763,12|0,0:0|0:0,0:0:0:0:
160,72,99275,2,0,P|158:153|142:233,1,161.999995056153,12|0,0:0|0:0,0:0:0:0:
408,56,99775,6,0,P|360:48|272:64,1,80.9999975280763,2|0,0:0|0:0,0:0:0:0:
160,72,100025,2,0,P|176:130|252:176,1,80.9999975280763
188,364,100275,2,0,P|231:294|224:140,1,161.999995056153,12|4,0:0|0:0,0:0:0:0:
296,116,100650,1,6,0:0:0:0:
392,180,100775,2,0,P|440:200|532:184,1,85.4999977169037,2|0,0:0|0:0,0:0:0:0:
200,44,101025,2,0,P|152:24|60:40,1,85.4999977169037,12|0,0:0|0:0,0:0:0:0:
12,76,101275,5,6,0:0:0:0:
48,180,101400,1,0,0:0:0:0:
148,132,101525,1,4,0:0:0:0:
236,200,101650,1,0,0:0:0:0:
340,156,101775,6,0,L|404:96,3,45
432,76,102025,2,0,P|446:98|440:156,3,45,2|0|0|0,0:0|0:0|0:0|0:0,0:0:0:0:
452,192,102275,2,0,L|452:268,3,45,2|0|0|0,0:0|0:0|0:0|0:0,0:0:0:0:
452,316,102525,2,0,B|452:324|452:324|452:352|432:380,3,45,2|0|0|0,0:0|0:0|0:0|0:0,0:0:0:0:
376,324,102775,5,10,0:0:0:0:
354,317,102837,1,0,0:0:0:0:
332,310,102900,1,0,0:0:0:0:
310,303,102962,1,0,0:0:0:0:
288,297,103025,2,0,L|207:271,1,45,0|0,0:0|0:0,0:0:0:0:
287,215,103150,5,10,0:0:0:0:
276,190,103212,1,0,0:0:0:0:
265,164,103275,1,0,0:0:0:0:
254,139,103337,1,0,0:0:0:0:
233,111,103400,5,0,0:0:0:0:
207,126,103462,1,0,0:0:0:0:
179,137,103525,1,10,0:0:0:0:
148,140,103587,1,2,0:0:0:0:
116,139,103650,1,8,0:0:0:0:
90,132,103712,1,0,0:0:0:0:
61,122,103775,6,0,P|41:182|58:252,1,99.0000030212403,4|0,0:0|0:0,0:0:0:0:
188,288,104025,2,0,P|176:320|156:348,2,39.3750003755093,8|0|0,0:0|0:0|0:0,0:0:0:0:
252,248,104150,2,0,P|260:265|262:296,2,39.3750003755093,8|0|0,0:0|0:0|0:0,0:0:0:0:
320,216,104275,2,0,L|384:212,2,39.3750003755093,0|0|0,0:0|0:0|0:0,0:0:0:0:
291,148,104400,2,0,P|269:157|252:176,1,49.5000015106202,0|0,0:0|0:0,0:0:0:0:
268,80,104525,2,0,P|270:59|285:32,1,49.5000015106202,10|0,0:0|0:0,0:0:0:0:
343,80,104650,5,0,0:0:0:0:
359,98,104712,1,0,0:0:0:0:
375,116,104775,2,0,P|406:134|458:133,1,53.9999983520508,10|0,0:0|0:0,0:0:0:0:
494,143,104900,2,0,P|481:177|424:201,1,53.9999983520508
454,71,105025,1,10,0:0:0:0:
426,45,105087,1,0,0:0:0:0:
392,26,105150,1,10,0:0:0:0:
355,17,105212,1,0,0:0:0:0:
316,15,105275,6,0,L|240:14,2,45,10|0|0,0:0|0:0|0:0,0:0:0:0:
292,48,105400,2,0,L|216:47,2,45,10|0|0,0:0|0:0|0:0,0:0:0:0:
268,81,105525,2,0,L|184:80,1,49.5000015106202,10|0,0:0|0:0,0:0:0:0:
248,112,105650,2,0,L|164:111,1,49.5000015106202,10|0,0:0|0:0,0:0:0:0:
232,151,105775,6,0,P|204:192|196:244,1,99.0000030212403,4|0,0:0|0:0,0:0:0:0:
360,260,106025,2,0,P|336:252|317:236,1,49.5000015106202,10|0,0:0|0:0,0:0:0:0:
388,184,106150,2,0,P|416:197|429:210,1,49.5000015106202,10|0,0:0|0:0,0:0:0:0:
424,112,106275,1,10,0:0:0:0:
356,72,106400,1,10,0:0:0:0:
280,40,106525,2,0,L|288:7,2,33.7500012874604,10|0|0,0:0|0:0|0:0,0:0:0:0:
234,58,106650,2,0,L|246:11,2,33.7500012874604,8|0|0,0:0|0:0|0:0,0:0:0:0:
228,88,106775,5,8,0:0:0:0:
221,121,106837,1,0,0:0:0:0:
214,155,106900,1,8,0:0:0:0:
208,188,106962,1,0,0:0:0:0:
202,222,107025,2,0,L|184:313,1,49.5000015106202,8|0,0:0|0:0,0:0:0:0:
267,258,107150,2,0,L|277:210,1,49.5000015106202
336,291,107275,5,8,0:0:0:0:
372,306,107337,1,0,0:0:0:0:
411,311,107400,1,8,0:0:0:0:
449,306,107462,1,0,0:0:0:0:
486,292,107525,2,0,P|512:280|532:236,6,45,8|0|0|0|0|0|0,0:0|0:0|0:0|0:0|0:0|0:0|0:0,0:0:0:0:
456,216,107775,5,8,0:0:0:0:
442,201,107837,1,0,0:0:0:0:
428,186,107900,1,8,0:0:0:0:
414,171,107962,1,0,0:0:0:0:
400,156,108025,2,0,P|376:140|320:152,1,49.5000015106202
308,188,108150,2,0,P|332:204|388:192,1,49.5000015106202
232,200,108275,2,0,P|233:168|256:130,2,45,8|0|0,0:0|0:0|0:0,0:0:0:0:
276,256,108400,2,0,P|252:269|205:267,2,45,8|0|0,0:0|0:0|0:0,0:0:0:0:
344,300,108525,5,2,0:0:0:0:
412,260,108650,1,2,0:0:0:0:
432,184,108775,1,10,0:0:0:0:
384,128,108900,2,0,B|332:104|332:104|276:84,1,99.0000030212403
208,60,109150,1,0,0:0:0:0:
179,51,109212,1,0,0:0:0:0:
150,42,109275,2,0,L|88:25,2,39.3750003755093,8|0|0,0:0|0:0|0:0,0:0:0:0:
112,104,109400,2,0,L|149:114,2,39.3750003755093,8|0|0,0:0|0:0|0:0,0:0:0:0:
80,168,109525,5,10,0:0:0:0:
69,198,109587,1,2,0:0:0:0:
63,230,109650,1,2,0:0:0:0:
60,262,109712,1,2,0:0:0:0:
64,294,109775,2,0,B|111:314|111:314|201:323,1,99.0000030212403,4|0,0:0|0:0,0:0:0:0:
284,320,110025,5,10,0:0:0:0:
316,316,110087,1,0,0:0:0:0:
348,312,110150,1,0,0:0:0:0:
380,308,110212,1,0,0:0:0:0:
412,304,110275,2,0,P|440:297|464:268,1,49.5000015106202
404,232,110400,2,0,P|386:212|388:164,6,45,10|0|0|0|0|0|0,0:0|0:0|0:0|0:0|0:0|0:0|0:0,0:0:0:0:
456,176,110650,5,8,0:0:0:0:
461,147,110712,1,0,0:0:0:0:
466,117,110775,1,2,0:0:0:0:
472,88,110837,1,0,0:0:0:0:
478,58,110900,2,0,L|488:0,1,45,0|0,0:0|0:0,0:0:0:0:
392,88,111025,1,0,0:0:0:0:
313,110,111150,5,10,0:0:0:0:
288,120,111212,1,0,0:0:0:0:
263,131,111275,2,0,L|241:205,1,45
172,144,111400,1,0,0:0:0:0:
124,208,111525,2,0,L|114:286,1,45,10|0,0:0|0:0,0:0:0:0:
200,248,111650,2,0,L|200:316,1,45,10|0,0:0|0:0,0:0:0:0:
280,280,111775,5,4,0:0:0:0:
360,308,111900,1,2,0:0:0:0:
448,336,112025,2,0,L|438:302,2,36,8|0|0,0:0|0:0|0:0,0:0:0:0:
484,304,112150,2,0,L|474:270,2,36,8|0|0,0:0|0:0|0:0,0:0:0:0:
508,256,112275,2,0,P|499:206|460:149,1,90,10|0,0:0|0:0,0:0:0:0:
380,251,112525,2,0,P|370:294|348:336,1,90,2|8,0:0|0:0,0:0:0:0:
236,252,112775,5,10,0:0:0:0:
201,241,112837,1,0,0:0:0:0:
166,230,112900,1,10,0:0:0:0:
131,219,112962,1,0,0:0:0:0:
96,207,113025,2,0,L|9:197,1,45,2|0,0:0|0:0,0:0:0:0:
38,135,113150,2,0,P|16:141|0:156,1,45
30,61,113275,2,0,L|39:12,2,36,8|0|0,0:0|0:0|0:0,0:0:0:0:
74,61,113400,2,0,L|83:12,2,36,8|0|0,0:0|0:0|0:0,0:0:0:0:
120,55,113525,2,0,L|129:6,2,36,8|0|0,0:0|0:0|0:0,0:0:0:0:
162,52,113650,2,0,L|171:3,2,36,8|0|0,0:0|0:0|0:0,0:0:0:0:
200,76,113775,5,4,0:0:0:0:
264,116,113900,1,0,0:0:0:0:
332,156,114025,2,0,L|348:224,1,45,10|0,0:0|0:0,0:0:0:0:
416,196,114150,2,0,L|405:152,1,45,10|0,0:0|0:0,0:0:0:0:
492,228,114275,1,0,0:0:0:0:
440,288,114400,1,0,0:0:0:0:
364,288,114525,2,0,L|344:348,2,36,10|0|0,0:0|0:0|0:0,0:0:0:0:
340,256,114650,2,0,L|324:192,2,36,10|0|0,0:0|0:0|0:0,0:0:0:0:
312,280,114775,5,0,0:0:0:0:
282,289,114837,1,0,0:0:0:0:
251,297,114900,1,0,0:0:0:0:
220,304,114962,1,0,0:0:0:0:
188,310,115025,2,0,L|94:296,1,90,0|2,0:0|0:0,0:0:0:0:
134,156,115275,2,0,P|139:134|152:116,1,45,2|0,0:0|0:0,0:0:0:0:
204,164,115400,2,0,P|201:192|220:228,1,45,2|0,0:0|0:0,0:0:0:0:
272,180,115525,2,0,L|336:190,6,36,10|0|0|0|0|0|0,0:0|0:0|0:0|0:0|0:0|0:0|0:0,0:0:0:0:
340,178,115775,5,4,0:0:0:0:
366,161,115837,1,0,0:0:0:0:
392,143,115900,1,0,0:0:0:0:
418,126,115962,1,0,0:0:0:0:
445,109,116025,2,0,L|468:42,1,51.7500009870529,10|0,0:0|0:0,0:0:0:0:
478,181,116150,5,2,0:0:0:0:
469,269,116275,2,0,P|449:308|410:336,1,90,2|0,0:0|0:0,0:0:0:0:
324,356,116525,1,8,0:0:0:0:
240,324,116650,1,0,0:0:0:0:
67,282,116775,6,0,P|112:278|156:288,1,90
304,212,117025,2,0,P|259:215|215:206,1,90,2|0,0:0|0:0,0:0:0:0:
104,175,117275,2,0,L|112:140,2,36,8|0|0,0:0|0:0|0:0,0:0:0:0:
64,188,117400,2,0,L|71:152,2,36,8|0|0,0:0|0:0|0:0,0:0:0:0:
28,200,117525,2,0,L|0:316,1,90,10|0,0:0|0:0,0:0:0:0:
144,204,117775,6,0,L|160:140,1,45,4|0,0:0|0:0,0:0:0:0:
173,83,117900,2,0,L|184:40,1,45,0|0,0:0|0:0,0:0:0:0:
183,130,118025,1,8,0:0:0:0:
211,143,118087,1,0,0:0:0:0:
242,154,118150,1,8,0:0:0:0:
275,160,118212,1,0,0:0:0:0:
310,161,118275,2,0,P|339:159|386:142,1,51.7500009870529
369,225,118400,2,0,P|387:221|404:215,6,36,8|0|0|0|0|0|0,0:0|0:0|0:0|0:0|0:0|0:0|0:0,0:0:0:0:
408,292,118650,2,0,L|384:336,1,45,10|0,0:0|0:0,0:0:0:0:
327,293,118775,2,0,L|293:351,1,45,8|0,0:0|0:0,0:0:0:0:
264,256,118900,6,0,P|282:224|280:176,1,51.7500009870529
252,128,119025,1,0,0:0:0:0:
186,198,119150,2,0,P|168:230|170:278,1,51.7500009870529,10|0,0:0|0:0,0:0:0:0:
232,344,119275,1,0,0:0:0:0:
219,316,119337,1,0,0:0:0:0:
194,296,119400,1,0,0:0:0:0:
168,278,119462,1,0,0:0:0:0:
140,272,119525,2,0,P|116:288|60:292,1,51.7500009870529,10|0,0:0|0:0,0:0:0:0:
88,208,119650,2,0,P|56:209|25:191,1,51.7500009870529,10|0,0:0|0:0,0:0:0:0:
80,132,119775,5,4,0:0:0:0:
64,52,119900,1,0,0:0:0:0:
144,80,120025,1,8,0:0:0:0:
172,92,120087,1,0,0:0:0:0:
202,100,120150,1,8,0:0:0:0:
232,104,120212,1,0,0:0:0:0:
263,105,120275,2,0,P|308:101|375:84,1,90
501,57,120525,2,0,P|505:100|476:175,1,90,8|8,0:0|0:0,0:0:0:0:
377,250,120775,6,0,B|337:285|304:285|304:285|298:291|298:291|258:294|223:343,2,180,4|0|8,0:0|0:0|0:0,0:0:0:0:
124,133,121525,1,10,0:0:0:0:
183,53,121650,1,10,0:0:0:0:
223,143,121775,5,4,0:0:0:0:
248,128,121837,1,0,0:0:0:0:
265,103,121900,1,0,0:0:0:0:
278,76,121962,1,0,0:0:0:0:
285,47,122025,2,0,P|313:22|347:12,1,56.25,10|0,0:0|0:0,0:0:0:0:
399,54,122150,2,0,P|380:73|355:85,1,56.25,10|0,0:0|0:0,0:0:0:0:
484,64,122275,5,10,0:0:0:0:
440,136,122400,1,8,0:0:0:0:
488,208,122525,2,0,L|496:252,2,36,8|0|0,0:0|0:0|0:0,0:0:0:0:
452,240,122650,2,0,L|460:284,2,36,8|0|0,0:0|0:0|0:0,0:0:0:0:
416,260,122775,6,0,P|368:282|324:296,2,99.0000030212403,0|0|0,0:0|0:0|0:0,0:0:0:0:
440,136,123150,1,0,0:0:0:0:
327,170,123275,2,0,P|254:180|180:171,1,148.50000453186,0|0,0:0|0:0,0:0:0:0:
142,152,123525,2,2,B|147:218|147:218|155:242|155:242|158:299,1,148.50000453186,2|0,0:0|0:0,0:0:0:0:
184,332,123775,5,4,0:0:0:0:
214,315,123837,1,0,0:0:0:0:
244,298,123900,1,0,0:0:0:0:
274,281,123962,1,0,0:0:0:0:
304,264,124025,2,0,P|343:223|365:161,1,99.0000030212403,10|10,0:0|0:0,0:0:0:0:
219,145,124275,2,0,P|231:89|218:25,2,99.0000030212403,0|2|10,0:0|0:0|0:0,0:0:0:0:
174,234,124650,1,8,0:0:0:0:
114,313,124775,5,0,0:0:0:0:
210,335,124900,2,0,P|285:344|372:330,1,148.50000453186,0|0,0:0|0:0,0:0:0:0:
392,315,125150,2,0,B|389:272|377:248|377:248|383:239|383:239|374:208|368:159,1,148.50000453186,8|0,0:0|0:0,0:0:0:0:
361,132,125400,2,0,P|328:92|276:72,1,99.0000030212403,8|0,0:0|0:0,0:0:0:0:
179,57,125650,1,0,0:0:0:0:
81,74,125775,6,0,P|48:104|47:149,1,49.5000015106202,4|0,0:0|0:0,0:0:0:0:
122,147,125900,1,0,0:0:0:0:
184,204,126025,1,10,0:0:0:0:
205,183,126087,1,0,0:0:0:0:
214,155,126150,1,10,0:0:0:0:
214,125,126212,1,0,0:0:0:0:
219,96,126275,2,0,L|244:49,1,49.5000015106202
312,102,126400,2,0,L|343:42,6,36,8|0|0|0|0|0|0,0:0|0:0|0:0|0:0|0:0|0:0|0:0,0:0:0:0:
381,150,126650,2,0,L|337:222,1,45,0|0,0:0|0:0,0:0:0:0:
321,265,126775,6,0,P|276:290|226:285,1,99.0000030212403,8|8,0:0|0:0,0:0:0:0:
152,220,127025,1,8,0:0:0:0:
131,119,127150,1,8,0:0:0:0:
60,48,127275,2,0,P|107:21|179:28,1,99.0000030212403,8|8,0:0|0:0,0:0:0:0:
216,171,127525,1,2,0:0:0:0:
216,171,127650,1,2,0:0:0:0:
361,246,127775,6,0,P|403:266|474:274,1,90,4|0,0:0|0:0,0:0:0:0:
408,128,128025,2,0,B|424:123|444:123|444:123|449:119|449:119|475:119|518:107,1,90,0|0,0:0|0:0,0:0:0:0:
300,20,128275,2,0,P|277:49|253:99,1,90
228,320,128525,2,0,B|232:280|232:280|234:277|234:277|230:277|230:277|232:272|232:272|240:188,1,90
88,180,128775,6,0,P|33:189|-24:220,1,90
272,160,129025,2,0,B|226:168|226:168|180:172,1,90
384,144,129275,1,0,0:0:0:0:
80,56,129775,6,0,L|64:160,1,90,4|0,0:0|0:0,0:0:0:0:
188,100,130025,2,0,L|176:248,1,90
312,160,130275,2,0,L|312:292,1,90
440,224,130525,2,0,L|448:344,1,90
296,124,130775,6,0,P|251:124|208:136,1,90
448,187,131025,2,0,P|459:144|461:99,1,90
348,280,131275,1,0,0:0:0:0:
56,224,131775,6,0,P|66:178|104:116,2,90,6|0|0,0:0|0:0|0:0,0:0:0:0:
144,56,132150,1,0,0:0:0:0:
256,104,132275,2,0,B|298:125|298:125|303:123|303:123|372:155,2,90,2|0|0,0:0|0:0|0:0,0:0:0:0:
144,56,132650,1,0,0:0:0:0:
176,256,132775,6,0,P|177:209|152:116,1,90,2|0,0:0|0:0,0:0:0:0:
204,292,133025,2,0,P|248:304|356:296,1,90,2|0,0:0|0:0,0:0:0:0:
380,296,133275,1,2,0:0:0:0:
312,160,133400,1,0,0:0:0:0:
48,104,133775,6,0,L|16:180,3,45,14|0|0|0,0:0|0:0|0:0|0:0,0:0:0:0:
112,172,134025,2,0,L|100:256,3,45,10|0|0|0,0:0|0:0|0:0|0:0,0:0:0:0:
192,232,134275,2,0,L|196:288,3,45,10|0|0|0,0:0|0:0|0:0|0:0,0:0:0:0:
280,276,134525,2,0,L|296:340,3,45,10|0|0|0,0:0|0:0|0:0|0:0,0:0:0:0:
368,224,134775,6,0,L|440:184,3,53.9999983520508,10|0|0|0,0:0|0:0|0:0|0:0,0:0:0:0:
268,188,135025,2,0,L|196:228,3,53.9999983520508,10|0|0|0,0:0|0:0|0:0|0:0,0:0:0:0:
340,128,135275,2,0,L|313:80,3,53.9999983520508,10|0|0|0,0:0|0:0|0:0|0:0,0:0:0:0:
436,128,135525,2,0,L|483:101,1,53.9999983520508,10|0,0:0|0:0,0:0:0:0:
452,204,135650,2,0,L|499:177,1,53.9999983520508,10|0,0:0|0:0,0:0:0:0:
472,280,135775,5,12,0:0:0:0:
88,156,143775,6,0,P|148:88|276:48,1,180,4|8,0:0|0:0,0:0:0:0:
336,72,144150,1,0,0:0:0:0:
444,60,144275,1,0,0:0:0:0:
408,160,144400,2,0,P|472:168|552:196,1,90,0|8,0:0|0:0,0:0:0:0:
300,188,144650,1,0,0:0:0:0:
224,108,144775,2,0,B|239:77|239:77|243:55|243:55|264:17,1,90
88,156,145025,5,8,0:0:0:0:
176,220,145150,1,0,0:0:0:0:
284,204,145275,2,0,L|248:76,1,90
272,288,145525,1,8,0:0:0:0:
364,348,145650,1,8,0:0:0:0:
408,224,145775,6,0,P|365:205|296:204,1,90
208,208,146025,1,8,0:0:0:0:
188,92,146150,2,0,P|192:140|156:220,2,90
296,48,146525,1,8,0:0:0:0:
379,136,146650,2,0,P|293:163|204:164,1,180
136,252,147025,6,0,B|128:296|128:296|148:376,1,90,8|0,0:0|0:0,0:0:0:0:
252,296,147275,1,0,0:0:0:0:
252,296,147400,1,0,0:0:0:0:
328,220,147525,2,0,P|344:180|352:80,1,90,8|8,0:0|0:0,0:0:0:0:
194,177,147775,6,0,P|210:219|216:264,2,90,4|0|8,0:0|0:0|0:0,0:0:0:0:
36,48,148150,2,0,P|92:100|212:148,1,180
344,56,148525,1,8,0:0:0:0:
304,248,148650,2,0,P|236:176|208:56,1,180
127,255,149025,2,0,B|168:236|168:236|196:200,1,90,8|0,0:0|0:0,0:0:0:0:
376,144,149275,2,0,P|337:141|268:160,1,90
452,236,149525,1,8,0:0:0:0:
484,132,149650,1,8,0:0:0:0:
448,32,149775,5,4,0:0:0:0:
420,46,149837,1,0,0:0:0:0:
395,66,149900,1,0,0:0:0:0:
367,80,149962,1,0,0:0:0:0:
335,85,150025,1,8,0:0:0:0:
303,82,150087,1,0,0:0:0:0:
272,73,150150,1,0,0:0:0:0:
240,75,150212,1,0,0:0:0:0:
209,83,150275,6,0,L|145:106,3,45
146,123,150525,2,0,L|110:180,3,45,8|0|0|0,0:0|0:0|0:0|0:0,0:0:0:0:
113,199,150775,2,8,L|105:261,6,36,0|0|8|8|8|8|8,0:0|0:0|0:0|0:0|0:0|0:0|0:0,0:0:0:0:
122,271,151025,6,0,P|137:314|131:369,1,51.7500009870529,4|0,0:0|0:0,0:0:0:0:
236,306,151150,2,0,P|236:331|231:357,1,51.7500009870529
349,321,151275,2,0,P|346:343|338:369,6,36,8|0|8|0|0|0|0,0:0|0:0|0:0|0:0|0:0|0:0|0:0,0:0:0:0:
369,297,151525,1,10,0:0:0:0:
388,272,151587,1,0,0:0:0:0:
408,247,151650,1,10,0:0:0:0:
427,222,151712,1,2,0:0:0:0:
447,197,151775,6,0,P|462:137|460:81,1,99.0000030212403,4|0,0:0|0:0,0:0:0:0:
275,211,152025,2,0,P|301:253|340:284,1,99.0000030212403,8|0,0:0|0:0,0:0:0:0:
160,96,152275,2,0,L|148:256,1,99.0000030212403
128,340,152525,1,8,0:0:0:0:
264,256,152650,1,0,0:0:0:0:
278,117,152775,6,0,P|232:136|184:144,1,99.0000030212403
448,196,153025,2,0,P|488:232|536:292,1,99.0000030212403,8|0,0:0|0:0,0:0:0:0:
264,256,153275,2,0,B|304:289|304:289|416:312,2,99.0000030212403,0|0|8,0:0|0:0|0:0,0:0:0:0:
112,120,153650,1,8,0:0:0:0:
432,40,153775,6,0,L|268:80,1,99.0000030212403
24,188,154025,2,0,L|188:148,1,99.0000030212403,8|0,0:0|0:0,0:0:0:0:
496,112,154275,1,0,0:0:0:0:
432,212,154400,1,0,0:0:0:0:
464,328,154525,2,0,L|300:368,1,99.0000030212403,8|0,0:0|0:0,0:0:0:0:
204,100,154775,6,0,P|216:156|260:244,1,99.0000030212403
135,310,155025,2,0,P|88:296|48:268,1,99.0000030212403,8|0,0:0|0:0,0:0:0:0:
80,104,155275,1,8,0:0:0:0:
105,73,155337,1,8,0:0:0:0:
131,42,155400,1,8,0:0:0:0:
228,108,155525,1,8,0:0:0:0:
344,84,155650,1,8,0:0:0:0:
460,116,155775,6,0,P|488:168|492:220,1,99.0000030212403,4|0,0:0|0:0,0:0:0:0:
346,304,156025,2,0,P|358:256|352:208,1,99.0000030212403,8|0,0:0|0:0,0:0:0:0:
105,265,156275,2,0,B|153:258|153:258|157:254|157:254|206:247,1,99.0000030212403
132,144,156525,1,8,0:0:0:0:
132,144,156650,1,0,0:0:0:0:
232,80,156775,6,0,B|276:56|276:56|380:44,1,99.0000030212403
316,176,157025,2,0,P|322:237|304:312,1,99.0000030212403,8|0,0:0|0:0,0:0:0:0:
20,216,157275,2,0,L|208:228,1,99.0000030212403
468,256,157525,1,8,0:0:0:0:
364,180,157650,1,8,0:0:0:0:
220,192,157775,6,0,P|171:168|128:124,2,99.0000030212403,0|0|8,0:0|0:0|0:0,0:0:0:0:
400,360,158150,2,0,P|432:318|456:240,1,99.0000030212403
436,144,158400,1,0,0:0:0:0:
256,136,158525,2,0,P|304:172|404:212,2,99.0000030212403,8|0|0,0:0|0:0|0:0,0:0:0:0:
116,96,158900,1,0,0:0:0:0:
300,24,159025,2,0,L|280:148,1,99.0000030212403,8|0,0:0|0:0,0:0:0:0:
260,268,159275,5,10,0:0:0:0:
255,307,159337,1,10,0:0:0:0:
249,346,159400,1,10,0:0:0:0:
156,296,159525,1,8,0:0:0:0:
356,280,159650,1,8,0:0:0:0:
184,212,159775,6,0,P|136:186|84:134,1,103.500001974106,4|0,0:0|0:0,0:0:0:0:
408,160,160025,2,0,B|401:207|401:207|373:255,1,103.500001974106,8|0,0:0|0:0,0:0:0:0:
480,192,160275,2,0,L|496:44,1,103.500001974106
468,276,160525,1,8,0:0:0:0:
308,180,160650,1,0,0:0:0:0:
476,60,160775,6,0,P|429:43|356:36,1,103.500001974106
192,248,161025,2,0,B|229:212|229:212|277:192,1,103.500001974106,8|0,0:0|0:0,0:0:0:0:
184,336,161275,2,0,P|132:316|104:252,1,103.500001974106
96,24,161525,1,8,0:0:0:0:
56,136,161650,1,8,0:0:0:0:
116,260,161775,6,0,P|172:252|218:243,1,103.500001974106
432,76,162025,2,0,B|408:124|408:124|396:192,2,103.500001974106,8|0|0,0:0|0:0|0:0,0:0:0:0:
308,40,162400,1,0,0:0:0:0:
204,116,162525,2,0,P|256:156|368:152,1,103.500001974106,8|0,0:0|0:0,0:0:0:0:
512,248,162775,6,0,P|504:202|480:144,1,103.500001974106
298,190,163025,2,0,L|280:292,1,103.500001974106,8|0,0:0|0:0,0:0:0:0:
112,204,163275,1,8,0:0:0:0:
112,204,163337,1,8,0:0:0:0:
112,204,163400,1,8,0:0:0:0:
216,96,163525,1,8,0:0:0:0:
64,136,163650,1,8,0:0:0:0:
256,224,163775,6,0,P|302:268|332:316,1,103.500001974106,4|0,0:0|0:0,0:0:0:0:
360,108,164025,2,0,P|384:152|408:224,1,103.500001974106,8|0,0:0|0:0,0:0:0:0:
480,16,164275,2,0,P|486:57|488:136,2,103.500001974106,0|0|8,0:0|0:0|0:0,0:0:0:0:
512,248,164650,6,0,P|468:251|380:212,1,103.500001974106
304,176,164900,1,0,0:0:0:0:
180,180,165025,2,0,L|52:204,1,103.500001974106,8|0,0:0|0:0,0:0:0:0:
344,80,165275,2,0,L|472:56,1,103.500001974106,0|0,0:0|0:0,0:0:0:0:
168,56,165525,1,8,0:0:0:0:
52,76,165650,1,8,0:0:0:0:
148,180,165775,6,0,B|163:206|163:206|180:228,3,51.7500009870529,4|0|0|0,0:0|0:0|0:0|0:0,0:0:0:0:
262,233,166025,2,0,P|262:207|252:184,3,51.7500009870529,8|0|0|0,0:0|0:0|0:0|0:0,0:0:0:0:
352,260,166275,2,0,L|328:356,3,51.7500009870529
400,188,166525,2,0,L|436:108,1,51.7500009870529,8|0,0:0|0:0,0:0:0:0:
344,120,166650,2,0,L|372:48,1,51.7500009870529
264,68,166775,5,8,0:0:0:0:
224,56,166837,1,8,0:0:0:0:
182,51,166900,1,8,0:0:0:0:
141,53,166962,1,8,0:0:0:0:
101,66,167025,2,0,L|4:99,3,51.7500009870529,8|0|8|0,0:0|0:0|0:0|0:0,0:0:0:0:
40,164,167275,2,0,P|75:244|176:311,1,155.250002961159,8|0,0:0|0:0,0:0:0:0:
167,300,167525,1,8,0:0:0:0:
184,281,167587,1,0,0:0:0:0:
202,262,167650,1,2,0:0:0:0:
219,243,167712,1,2,0:0:0:0:
237,224,167775,6,0,L|247:90,1,103.500001974106,12|0,0:0|0:0,0:0:0:0:
480,159,168025,2,0,L|437:284,1,103.500001974106,8|0,0:0|0:0,0:0:0:0:
350,53,168275,2,0,P|300:66|257:94,1,103.500001974106,8|0,0:0|0:0,0:0:0:0:
60,72,168525,1,8,0:0:0:0:
160,108,168650,1,0,0:0:0:0:
296,232,168775,6,0,L|272:131,1,103.500001974106,8|0,0:0|0:0,0:0:0:0:
512,256,169025,2,0,P|497:321|444:368,1,103.500001974106,8|0,0:0|0:0,0:0:0:0:
188,296,169275,2,0,B|229:266|229:266|280:253,1,103.500001974106,8|0,0:0|0:0,0:0:0:0:
488,208,169525,1,8,0:0:0:0:
384,232,169650,1,8,0:0:0:0:
512,65,169775,6,0,L|504:168,1,103.500001974106,12|0,0:0|0:0,0:0:0:0:
360,336,170025,2,0,B|312:312|312:312|252:216,1,103.500001974106,8|0,0:0|0:0,0:0:0:0:
416,135,170275,2,0,P|407:186|384:232,1,103.500001974106,8|0,0:0|0:0,0:0:0:0:
156,176,170525,6,0,L|32:184,2,103.500001974106,8|0|8,0:0|0:0|0:0,0:0:0:0:
348,104,170900,1,0,0:0:0:0:
284,220,171025,2,0,L|188:184,1,103.500001974106,8|0,0:0|0:0,0:0:0:0:
404,272,171275,1,8,0:0:0:0:
440,253,171337,1,8,0:0:0:0:
477,234,171400,1,8,0:0:0:0:
316,112,171525,1,8,0:0:0:0:
408,156,171650,1,8,0:0:0:0:
260,24,171775,6,0,L|120:88,1,103.500001974106,12|0,0:0|0:0,0:0:0:0:
510,106,172025,2,0,L|408:124,1,103.500001974106,8|0,0:0|0:0,0:0:0:0:
56,88,172275,2,0,P|77:131|204:176,2,103.500001974106,8|0|8,0:0|0:0|0:0,0:0:0:0:
160,304,172650,2,8,B|152:266|152:266|151:235|151:235|144:189,1,103.500001974106,0|8,0:0|0:0,0:0:0:0:
276,88,172900,1,0,0:0:0:0:
420,108,173025,2,0,L|292:116,1,103.500001974106,8|0,0:0|0:0,0:0:0:0:
44,168,173275,2,0,L|172:176,1,103.500001974106,8|0,0:0|0:0,0:0:0:0:
439,195,173525,5,8,0:0:0:0:
296,284,173650,1,8,0:0:0:0:
355,114,173775,1,12,0:0:0:0:
402,305,173900,1,0,0:0:0:0:
272,184,174025,2,0,L|260:336,2,103.500001974106,8|0|8,0:0|0:0|0:0,0:0:0:0:
424,280,174400,1,0,0:0:0:0:
272,144,174525,2,0,P|228:119|152:96,1,103.500001974106,8|0,0:0|0:0,0:0:0:0:
416,132,174775,6,0,L|500:112,3,51.7500009870529,8|0|0|0,0:0|0:0|0:0|0:0,0:0:0:0:
368,196,175025,2,0,L|284:216,3,51.7500009870529,8|0|0|0,0:0|0:0|0:0|0:0,0:0:0:0:
436,240,175275,1,8,0:0:0:0:
443,269,175337,1,8,0:0:0:0:
451,299,175400,1,8,0:0:0:0:
292,236,175525,1,8,0:0:0:0:
372,140,175650,1,8,0:0:0:0:
288,276,175775,6,0,P|272:322|265:377,1,103.500001974106,4|0,0:0|0:0,0:0:0:0:
156,184,176025,1,8,0:0:0:0:
159,215,176087,1,0,0:0:0:0:
159,246,176150,1,0,0:0:0:0:
298,41,176275,2,0,P|281:98|244:157,1,103.500001974106
385,236,176525,1,8,0:0:0:0:
383,204,176587,1,0,0:0:0:0:
387,171,176650,1,0,0:0:0:0:
253,126,176775,6,0,B|200:128|200:128|132:154,1,103.500001974106
238,265,177025,1,8,0:0:0:0:
246,291,177087,1,0,0:0:0:0:
253,316,177150,1,0,0:0:0:0:
438,240,177275,2,0,P|393:220|303:216,1,103.500001974106
272,104,177525,1,8,0:0:0:0:
228,228,177650,1,8,0:0:0:0:
405,87,177775,6,0,P|365:78|304:87,1,103.500001974106,4|0,0:0|0:0,0:0:0:0:
140,156,178025,1,8,0:0:0:0:
114,161,178087,1,0,0:0:0:0:
87,162,178150,1,0,0:0:0:0:
108,288,178275,2,0,P|148:278|209:288,1,103.500001974106
373,356,178525,1,8,0:0:0:0:
403,360,178587,1,0,0:0:0:0:
434,358,178650,1,0,0:0:0:0:
432,144,178775,6,0,L|409:282,1,103.500001974106
445,40,179025,1,8,0:0:0:0:
419,44,179087,1,0,0:0:0:0:
392,47,179150,1,0,0:0:0:0:
283,198,179275,2,0,P|325:227|375:237,1,103.500001974106
248,88,179525,1,8,0:0:0:0:
372,52,179650,1,8,0:0:0:0:
172,192,179775,5,4,0:0:0:0:
224,300,179900,2,0,L|240:356,2,51.7500009870529,8|0|0,0:0|0:0|0:0,0:0:0:0:
328,276,180150,2,0,L|355:320,2,51.7500009870529,8|0|0,0:0|0:0|0:0,0:0:0:0:
416,224,180400,1,8,0:0:0:0:
416,224,180462,1,0,0:0:0:0:
416,224,180525,1,0,0:0:0:0:
496,176,180650,1,8,0:0:0:0:
496,176,180712,1,0,0:0:0:0:
496,176,180775,1,0,0:0:0:0:
428,96,180900,6,0,L|384:64,2,51.7500009870529,8|0|0,0:0|0:0|0:0,0:0:0:0:
288,156,181150,2,0,L|212:132,2,51.7500009870529,8|0|0,0:0|0:0|0:0,0:0:0:0:
160,244,181400,2,0,L|72:232,2,51.7500009870529,8|0|8,0:0|0:0|0:0,0:0:0:0:
328,260,181650,1,8,0:0:0:0:
80,216,181775,5,10,0:0:0:0:
73,191,181837,1,0,0:0:0:0:
69,165,181900,1,0,0:0:0:0:
72,139,181962,1,0,0:0:0:0:
96,115,182025,1,10,0:0:0:0:
133,131,182087,1,0,0:0:0:0:
173,141,182150,1,0,0:0:0:0:
214,142,182212,1,0,0:0:0:0:
255,137,182275,6,0,L|331:116,1,51.7500009870529,10|0,0:0|0:0,0:0:0:0:
363,173,182400,2,0,L|400:210,1,51.7500009870529,0|0,0:0|0:0,0:0:0:0:
300,248,182525,2,0,L|292:299,3,51.7500009870529,10|0|0|0,0:0|0:0|0:0|0:0,0:0:0:0:
396,328,182775,1,10,0:0:0:0:
395,307,182837,1,0,0:0:0:0:
393,285,182900,1,0,0:0:0:0:
390,262,182962,1,0,0:0:0:0:
387,238,183025,1,10,0:0:0:0:
383,213,183087,1,0,0:0:0:0:
377,187,183150,1,0,0:0:0:0:
370,161,183212,1,0,0:0:0:0:
361,134,183275,6,0,L|336:44,1,51.7500009870529,10|0,0:0|0:0,0:0:0:0:
269,96,183400,2,0,L|256:47,1,51.7500009870529,10|0,0:0|0:0,0:0:0:0:
204,164,183525,1,10,0:0:0:0:
198,199,183587,1,0,0:0:0:0:
183,232,183650,2,0,P|167:263|133:313,1,51.7500009870529,10|0,0:0|0:0,0:0:0:0:
284,192,183775,5,14,0:0:0:0:
