osu file format v14

[General]
AudioFilename: OS.mp3
AudioLeadIn: 0
PreviewTime: 74627
Countdown: 0
SampleSet: Normal
StackLeniency: 0.7
Mode: 1
LetterboxInBreaks: 0
WidescreenStoryboard: 0

[Editor]
DistanceSpacing: 0.5
BeatDivisor: 1
GridSize: 32
TimelineZoom: 1.590002

[Metadata]
Title:OMAKENO Stroke
TitleUnicode:OMAKENO Stroke
Artist:t+pazolite
ArtistUnicode:t+pazolite
Creator:JUDYDANNY
Version:Muzukashii
Source:GROOVE COASTER EX
Tags:グルーヴコースター AC タイトー TAITO TKSalt TKS
BeatmapID:815993
BeatmapSetID:371857

[Difficulty]
HPDrainRate:6
CircleSize:5
OverallDifficulty:5
ApproachRate:5
SliderMultiplier:1.3
SliderTickRate:1

[Events]
//Background and Video events
0,0,"bg.jpg",0,0
//Break Periods
//Storyboard Layer 0 (Background)
//Storyboard Layer 1 (Fail)
//Storyboard Layer 2 (Pass)
//Storyboard Layer 3 (Foreground)
//Storyboard Sound Samples

[TimingPoints]
-310,250,4,1,0,60,1,0
2627,-100,4,1,0,80,0,0
10690,-100,4,1,0,85,0,0
18627,-100,4,1,0,40,0,0
22127,-100,4,1,0,60,0,0
22627,-100,4,1,0,70,0,0
34690,-100,4,1,0,75,0,0
49690,-100,4,1,0,65,0,0
49940,-100,4,1,0,55,0,0
50190,-100,4,1,0,45,0,0
50440,-100,4,1,0,40,0,0
58565,-100,4,1,0,55,0,0
66565,-100,4,1,0,60,0,0
74690,-100,4,1,0,85,0,1
89690,-100,4,1,0,85,0,0
90690,-100,4,1,0,88,0,1
105690,-100,4,1,0,88,0,0
105815,-100,4,1,0,45,0,0

[HitObjects]
224,160,2690,5,4,0:0:0:0:
160,96,2940,1,4,0:0:0:0:
224,160,3190,1,2,0:0:0:0:
224,160,3690,1,4,0:0:0:0:
224,160,3940,1,4,0:0:0:0:
160,96,4190,1,2,0:0:0:0:
160,96,4690,1,4,0:0:0:0:
160,96,4940,1,4,0:0:0:0:
160,96,5190,1,2,0:0:0:0:
160,96,5690,1,0,0:0:0:0:
160,64,5940,1,2,0:0:0:0:
160,32,6065,1,2,0:0:0:0:
160,96,6190,1,0,0:0:0:0:
192,32,6440,1,8,0:0:0:0:
160,64,6690,5,4,0:0:0:0:
160,64,6940,1,4,0:0:0:0:
160,64,7190,1,2,0:0:0:0:
160,64,7690,1,4,0:0:0:0:
160,64,7940,1,4,0:0:0:0:
160,64,8190,1,2,0:0:0:0:
160,64,8440,1,2,0:0:0:0:
160,64,8690,1,4,0:0:0:0:
160,64,8940,1,4,0:0:0:0:
160,64,9190,1,4,0:0:0:0:
160,64,9440,1,4,0:0:0:0:
160,64,9940,1,2,0:0:0:0:
160,64,10190,1,0,0:0:0:0:
160,64,10315,1,0,0:0:0:0:
128,96,10440,1,2,0:0:0:0:
128,96,10690,5,4,0:0:0:0:
128,96,10940,1,2,0:0:0:0:
128,96,11065,1,2,0:0:0:0:
160,64,11190,1,0,0:0:0:0:
128,96,11440,1,2,0:0:0:0:
128,96,11690,1,0,0:0:0:0:
128,96,11940,1,2,0:0:0:0:
160,64,12190,1,0,0:0:0:0:
128,96,12315,1,2,0:0:0:0:
128,96,12440,1,0,0:0:0:0:
160,64,12565,1,2,0:0:0:0:
128,96,12690,1,0,0:0:0:0:
128,128,12940,1,2,0:0:0:0:
128,128,13065,1,0,0:0:0:0:
128,128,13190,1,0,0:0:0:0:
128,128,13440,1,2,0:0:0:0:
128,128,13690,1,0,0:0:0:0:
128,128,13940,1,2,0:0:0:0:
128,128,14190,1,0,0:0:0:0:
128,32,14315,1,2,0:0:0:0:
96,96,14690,5,0,0:0:0:0:
96,96,14940,1,2,0:0:0:0:
96,96,15065,1,0,0:0:0:0:
160,64,15315,1,2,0:0:0:0:
96,96,15440,1,0,0:0:0:0:
96,96,15690,1,2,0:0:0:0:
96,96,15815,1,0,0:0:0:0:
96,96,15940,1,2,0:0:0:0:
96,96,16190,1,0,0:0:0:0:
128,96,16315,1,2,0:0:0:0:
192,128,16565,1,4,0:0:0:0:
192,128,16815,1,0,0:0:0:0:
192,128,16940,1,0,0:0:0:0:
192,128,17065,1,0,0:0:0:0:
192,128,17190,1,0,0:0:0:0:
192,128,17315,1,0,0:0:0:0:
192,128,17440,1,0,0:0:0:0:
192,128,17565,1,0,0:0:0:0:
96,128,18690,5,2,0:0:0:0:
160,64,19065,1,2,0:0:0:0:
160,64,19440,1,2,0:0:0:0:
160,64,19815,1,0,0:0:0:0:
160,32,20065,1,0,0:0:0:0:
160,32,20440,1,2,0:0:0:0:
160,64,20690,1,2,0:0:0:0:
160,64,21065,1,2,0:0:0:0:
160,64,21440,1,2,0:0:0:0:
160,32,21815,1,0,0:0:0:0:
160,32,22065,1,0,0:0:0:0:
160,64,22190,1,2,0:0:0:0:
192,64,22440,1,2,0:0:0:0:
160,32,22690,5,0,0:0:0:0:
192,32,23065,1,0,0:0:0:0:
192,32,23190,1,2,0:0:0:0:
192,64,23440,1,2,0:0:0:0:
192,32,23940,1,0,0:0:0:0:
192,32,24190,1,2,0:0:0:0:
192,32,24690,1,0,0:0:0:0:
192,32,25065,1,0,0:0:0:0:
192,32,25190,1,2,0:0:0:0:
160,64,25440,1,2,0:0:0:0:
192,32,25940,1,0,0:0:0:0:
192,32,26190,1,2,0:0:0:0:
192,32,26440,1,2,0:0:0:0:
192,32,26690,5,0,0:0:0:0:
224,32,27065,1,0,0:0:0:0:
224,32,27190,1,2,0:0:0:0:
192,32,27440,1,2,0:0:0:0:
224,32,27940,1,0,0:0:0:0:
224,32,28190,1,2,0:0:0:0:
224,32,28440,1,2,0:0:0:0:
224,32,28690,1,0,0:0:0:0:
224,32,29065,1,0,0:0:0:0:
224,32,29190,1,2,0:0:0:0:
160,64,29440,1,2,0:0:0:0:
224,32,29940,1,0,0:0:0:0:
224,32,30190,1,2,0:0:0:0:
192,64,30315,1,2,0:0:0:0:
224,32,30440,1,2,0:0:0:0:
224,32,30690,5,0,0:0:0:0:
224,32,31190,1,0,0:0:0:0:
192,32,31440,1,8,0:0:0:0:
224,32,31690,1,0,0:0:0:0:
224,32,32190,1,0,0:0:0:0:
211,17,32440,1,2,0:0:0:0:
224,32,32690,1,0,0:0:0:0:
224,32,32940,1,0,0:0:0:0:
224,32,33065,1,2,0:0:0:0:
224,32,33190,1,0,0:0:0:0:
224,32,33440,1,2,0:0:0:0:
224,32,33565,1,2,0:0:0:0:
224,32,34190,1,2,0:0:0:0:
224,32,34440,1,2,0:0:0:0:
224,32,34690,5,4,0:0:0:0:
224,64,34940,1,0,0:0:0:0:
224,64,35065,1,2,0:0:0:0:
224,32,35440,1,2,0:0:0:0:
224,32,35690,1,0,0:0:0:0:
224,32,35815,1,2,0:0:0:0:
224,32,36065,1,0,0:0:0:0:
224,32,36190,1,2,0:0:0:0:
224,32,36315,1,2,0:0:0:0:
224,32,36440,1,0,0:0:0:0:
224,32,36690,1,0,0:0:0:0:
224,32,36940,1,0,0:0:0:0:
224,32,37065,1,2,0:0:0:0:
224,32,37440,1,2,0:0:0:0:
224,32,37690,1,0,0:0:0:0:
224,32,37815,1,0,0:0:0:0:
224,32,37940,1,2,0:0:0:0:
224,32,38065,1,0,0:0:0:0:
224,32,38190,1,2,0:0:0:0:
224,192,38440,1,6,0:0:0:0:
224,0,38690,5,0,0:0:0:0:
192,0,38940,1,0,0:0:0:0:
224,32,39065,1,2,0:0:0:0:
224,32,39440,1,2,0:0:0:0:
224,32,39690,1,0,0:0:0:0:
192,32,39815,1,2,0:0:0:0:
192,32,40065,1,0,0:0:0:0:
224,32,40190,1,2,0:0:0:0:
224,32,40315,1,2,0:0:0:0:
192,32,40440,1,0,0:0:0:0:
224,32,40690,1,0,0:0:0:0:
224,32,40940,1,0,0:0:0:0:
192,32,41065,1,2,0:0:0:0:
224,32,41440,1,0,0:0:0:0:
224,32,41690,1,2,0:0:0:0:
201,23,41940,1,2,0:0:0:0:
224,32,42190,1,2,0:0:0:0:
205,74,42440,1,2,0:0:0:0:
224,0,42690,5,4,0:0:0:0:
224,32,42940,1,0,0:0:0:0:
224,32,43065,1,2,0:0:0:0:
224,32,43190,1,0,0:0:0:0:
224,32,43440,1,2,0:0:0:0:
224,32,43690,1,0,0:0:0:0:
192,32,43815,1,2,0:0:0:0:
224,32,44065,1,0,0:0:0:0:
224,32,44190,1,2,0:0:0:0:
224,32,44315,1,2,0:0:0:0:
224,32,44440,1,0,0:0:0:0:
224,32,44690,1,0,0:0:0:0:
224,32,44940,1,0,0:0:0:0:
224,32,45065,1,2,0:0:0:0:
192,0,45190,1,0,0:0:0:0:
224,0,45440,1,2,0:0:0:0:
192,32,45690,1,0,0:0:0:0:
192,32,45815,1,0,0:0:0:0:
192,32,45940,1,2,0:0:0:0:
224,0,46065,1,0,0:0:0:0:
224,0,46190,1,2,0:0:0:0:
224,0,46690,5,0,0:0:0:0:
192,0,46940,1,2,0:0:0:0:
224,0,47065,1,0,0:0:0:0:
192,32,47315,1,0,0:0:0:0:
192,32,47440,1,2,0:0:0:0:
192,32,47690,1,2,0:0:0:0:
192,32,47815,1,0,0:0:0:0:
192,0,48065,1,0,0:0:0:0:
192,32,48190,1,2,0:0:0:0:
192,32,48440,1,2,0:0:0:0:
224,32,48690,1,0,0:0:0:0:
192,0,48815,1,0,0:0:0:0:
192,0,48940,1,2,0:0:0:0:
192,0,49065,1,0,0:0:0:0:
192,32,49315,1,0,0:0:0:0:
192,0,49440,1,2,0:0:0:0:
256,192,49565,12,0,50440,0:0:0:0:
192,0,50690,5,4,0:0:0:0:
160,32,51690,1,2,0:0:0:0:
192,32,52190,1,2,0:0:0:0:
192,32,52690,1,2,0:0:0:0:
192,32,53690,1,2,0:0:0:0:
192,0,54190,1,2,0:0:0:0:
192,0,54690,1,0,0:0:0:0:
192,32,55690,1,2,0:0:0:0:
192,0,56190,1,2,0:0:0:0:
192,32,56690,1,6,0:0:0:0:
192,64,58690,5,0,0:0:0:0:
192,64,59065,1,0,0:0:0:0:
192,64,59190,1,2,0:0:0:0:
192,64,59940,1,0,0:0:0:0:
192,64,60190,1,2,0:0:0:0:
192,64,60690,1,0,0:0:0:0:
192,64,61065,1,0,0:0:0:0:
192,64,61190,1,2,0:0:0:0:
192,64,61440,1,0,0:0:0:0:
192,64,61940,1,0,0:0:0:0:
224,32,62190,1,2,0:0:0:0:
174,87,62315,1,0,0:0:0:0:
192,64,62440,1,2,0:0:0:0:
192,64,62690,1,0,0:0:0:0:
192,64,63065,1,0,0:0:0:0:
192,64,63190,1,2,0:0:0:0:
192,64,63940,1,0,0:0:0:0:
192,64,64190,1,2,0:0:0:0:
192,64,64690,1,0,0:0:0:0:
192,64,65065,1,0,0:0:0:0:
192,64,65190,1,2,0:0:0:0:
192,64,65440,1,0,0:0:0:0:
192,64,65940,1,0,0:0:0:0:
192,64,66190,1,2,0:0:0:0:
192,64,66315,1,0,0:0:0:0:
192,64,66440,1,2,0:0:0:0:
192,64,66690,5,4,0:0:0:0:
192,64,67065,1,2,0:0:0:0:
192,64,67440,1,2,0:0:0:0:
192,64,67940,1,0,0:0:0:0:
192,64,68190,1,2,0:0:0:0:
192,64,68315,1,0,0:0:0:0:
192,64,68440,1,2,0:0:0:0:
192,64,68690,1,0,0:0:0:0:
192,64,69065,1,2,0:0:0:0:
192,64,69440,1,2,0:0:0:0:
192,64,69940,1,0,0:0:0:0:
192,64,70190,1,2,0:0:0:0:
192,64,70315,1,0,0:0:0:0:
192,64,70440,1,2,0:0:0:0:
192,64,70690,5,0,0:0:0:0:
192,64,71065,1,2,0:0:0:0:
192,64,71440,1,2,0:0:0:0:
192,64,71690,1,0,0:0:0:0:
192,64,71940,1,2,0:0:0:0:
192,64,72190,1,2,0:0:0:0:
191,37,72315,1,2,0:0:0:0:
192,64,72565,1,2,0:0:0:0:
192,64,72690,1,0,0:0:0:0:
192,64,72940,1,2,0:0:0:0:
192,64,73065,1,2,0:0:0:0:
192,64,73190,1,0,0:0:0:0:
192,64,73440,1,2,0:0:0:0:
192,64,73690,1,0,0:0:0:0:
192,64,74690,5,4,0:0:0:0:
192,64,74940,1,0,0:0:0:0:
192,64,75190,1,0,0:0:0:0:
192,32,75315,1,2,0:0:0:0:
192,64,75440,1,0,0:0:0:0:
192,64,75565,1,2,0:0:0:0:
192,64,75690,1,0,0:0:0:0:
192,64,75940,1,2,0:0:0:0:
192,64,76190,1,0,0:0:0:0:
192,64,76315,1,0,0:0:0:0:
192,64,76440,1,2,0:0:0:0:
192,32,76565,1,0,0:0:0:0:
192,64,76690,1,2,0:0:0:0:
192,64,76940,1,2,0:0:0:0:
192,64,77190,1,0,0:0:0:0:
192,64,77315,1,2,0:0:0:0:
160,64,77440,1,2,0:0:0:0:
192,64,77565,1,0,0:0:0:0:
192,64,78190,1,2,0:0:0:0:
160,64,78440,1,8,0:0:0:0:
192,64,78690,5,0,0:0:0:0:
192,64,78815,1,0,0:0:0:0:
192,64,78940,1,0,0:0:0:0:
192,32,79190,1,2,0:0:0:0:
192,64,79440,1,0,0:0:0:0:
192,64,79565,1,2,0:0:0:0:
192,32,79690,1,0,0:0:0:0:
192,64,79940,1,2,0:0:0:0:
192,64,80190,1,2,0:0:0:0:
192,64,80315,1,0,0:0:0:0:
192,64,80440,1,2,0:0:0:0:
192,64,80565,1,2,0:0:0:0:
192,64,80690,1,0,0:0:0:0:
160,64,80940,1,2,0:0:0:0:
192,64,81190,1,0,0:0:0:0:
192,32,81315,1,2,0:0:0:0:
192,32,81440,1,0,0:0:0:0:
192,32,81565,1,2,0:0:0:0:
128,64,81940,1,2,0:0:0:0:
160,32,82190,1,0,0:0:0:0:
192,0,82440,1,2,0:0:0:0:
192,32,82690,5,4,0:0:0:0:
192,64,82940,1,0,0:0:0:0:
192,64,83190,1,0,0:0:0:0:
192,64,83315,1,2,0:0:0:0:
192,64,83440,1,0,0:0:0:0:
192,32,83565,1,10,0:0:0:0:
192,64,83690,1,0,0:0:0:0:
160,32,83940,1,2,0:0:0:0:
192,64,84190,1,0,0:0:0:0:
192,32,84315,1,0,0:0:0:0:
192,64,84440,1,8,0:0:0:0:
192,32,84565,1,8,0:0:0:0:
192,64,84690,1,0,0:0:0:0:
192,64,84940,1,8,0:0:0:0:
192,32,85190,1,0,0:0:0:0:
160,32,85315,1,8,0:0:0:0:
192,64,85440,1,2,0:0:0:0:
192,64,85565,1,0,0:0:0:0:
192,64,86190,1,2,0:0:0:0:
192,64,86440,1,2,0:0:0:0:
192,64,86690,5,0,0:0:0:0:
192,32,86815,1,0,0:0:0:0:
192,64,86940,1,0,0:0:0:0:
192,64,87190,1,2,0:0:0:0:
192,64,87440,1,0,0:0:0:0:
192,64,87565,1,2,0:0:0:0:
192,64,87690,1,0,0:0:0:0:
192,64,87815,1,0,0:0:0:0:
192,64,87940,1,2,0:0:0:0:
192,64,88190,1,2,0:0:0:0:
192,64,88440,1,2,0:0:0:0:
192,64,88565,1,2,0:0:0:0:
192,64,88690,1,0,0:0:0:0:
192,64,88940,1,2,0:0:0:0:
192,64,89190,1,0,0:0:0:0:
192,64,89315,1,2,0:0:0:0:
192,32,89440,1,0,0:0:0:0:
192,32,89565,1,2,0:0:0:0:
192,64,89690,1,0,0:0:0:0:
192,64,90190,1,0,0:0:0:0:
192,64,90440,1,6,0:0:0:0:
192,64,90690,5,4,0:0:0:0:
192,64,90940,1,2,0:0:0:0:
192,32,91065,1,2,0:0:0:0:
192,64,91190,1,0,0:0:0:0:
192,64,91440,1,2,0:0:0:0:
192,64,91690,1,0,0:0:0:0:
192,64,91940,1,8,0:0:0:0:
192,64,92190,1,0,0:0:0:0:
192,64,92315,1,8,0:0:0:0:
192,64,92440,1,0,0:0:0:0:
192,64,92565,1,2,0:0:0:0:
192,64,92690,1,0,0:0:0:0:
192,64,92940,1,2,0:0:0:0:
192,32,93065,1,0,0:0:0:0:
160,0,93190,1,0,0:0:0:0:
192,64,93440,1,2,0:0:0:0:
192,64,93565,1,0,0:0:0:0:
192,32,93815,1,0,0:0:0:0:
192,96,93940,1,2,0:0:0:0:
192,32,94190,1,2,0:0:0:0:
192,64,94690,5,0,0:0:0:0:
192,64,94940,1,0,0:0:0:0:
192,64,95065,1,2,0:0:0:0:
160,32,95190,1,0,0:0:0:0:
192,64,95440,1,2,0:0:0:0:
192,64,95690,1,0,0:0:0:0:
192,64,95940,1,2,0:0:0:0:
192,64,96190,1,0,0:0:0:0:
192,64,96315,1,2,0:0:0:0:
192,64,96440,1,0,0:0:0:0:
192,64,96565,1,2,0:0:0:0:
192,64,96690,1,0,0:0:0:0:
192,64,96940,1,2,0:0:0:0:
192,64,97190,1,0,0:0:0:0:
192,64,97440,1,2,0:0:0:0:
160,32,97565,1,2,0:0:0:0:
192,64,97690,1,0,0:0:0:0:
192,64,98440,1,2,0:0:0:0:
192,64,98690,5,4,0:0:0:0:
192,64,98940,1,2,0:0:0:0:
192,64,99065,1,2,0:0:0:0:
192,64,99190,1,0,0:0:0:0:
192,64,99440,1,2,0:0:0:0:
192,64,99690,1,0,0:0:0:0:
192,64,99815,1,8,0:0:0:0:
192,64,99940,1,0,0:0:0:0:
192,32,100190,1,0,0:0:0:0:
192,32,100315,1,0,0:0:0:0:
192,64,100440,1,2,0:0:0:0:
192,64,100565,1,2,0:0:0:0:
192,64,100690,1,0,0:0:0:0:
192,64,100940,1,2,0:0:0:0:
192,32,101065,1,0,0:0:0:0:
192,32,101190,1,0,0:0:0:0:
192,32,101440,1,2,0:0:0:0:
192,64,101565,1,0,0:0:0:0:
192,64,101815,1,0,0:0:0:0:
192,32,101940,1,2,0:0:0:0:
192,64,102190,1,2,0:0:0:0:
192,64,102690,5,0,0:0:0:0:
192,64,102815,1,0,0:0:0:0:
192,64,102940,1,2,0:0:0:0:
192,64,103065,1,0,0:0:0:0:
192,64,103190,1,0,0:0:0:0:
192,64,103315,1,0,0:0:0:0:
192,64,103440,1,2,0:0:0:0:
192,64,103690,1,0,0:0:0:0:
192,64,103815,1,0,0:0:0:0:
192,64,103940,1,2,0:0:0:0:
192,0,104065,1,2,0:0:0:0:
192,32,104190,1,0,0:0:0:0:
192,32,104315,1,2,0:0:0:0:
192,32,104440,1,2,0:0:0:0:
192,32,104565,1,0,0:0:0:0:
256,192,104690,12,0,105690,0:0:0:0:
192,64,106690,5,0,0:0:0:0:
192,64,107690,1,2,0:0:0:0:
192,64,108190,1,2,0:0:0:0:
192,64,108690,1,2,0:0:0:0:
192,64,109690,1,2,0:0:0:0:
192,64,110190,1,2,0:0:0:0:
192,64,110690,1,0,0:0:0:0:
192,64,111690,1,2,0:0:0:0:
192,64,112190,1,2,0:0:0:0:
192,64,112690,1,6,0:0:0:0:
