osu file format v14

[General]
AudioFilename: OS.mp3
AudioLeadIn: 0
PreviewTime: 74627
Countdown: 0
SampleSet: Normal
StackLeniency: 0.7
Mode: 1
LetterboxInBreaks: 0
WidescreenStoryboard: 0

[Editor]
DistanceSpacing: 0.5
BeatDivisor: 1
GridSize: 32
TimelineZoom: 0.7900017

[Metadata]
Title:OMAKENO Stroke
TitleUnicode:OMAKENO Stroke
Artist:t+pazolite
ArtistUnicode:t+pazolite
Creator:JUDYDANNY
Version:Kantan
Source:GROOVE COASTER EX
Tags:グルーヴコースター AC タイトー TAITO TKSalt TKS
BeatmapID:816690
BeatmapSetID:371857

[Difficulty]
HPDrainRate:8
CircleSize:5
OverallDifficulty:4
ApproachRate:5
SliderMultiplier:1
SliderTickRate:1

[Events]
//Background and Video events
0,0,"bg.jpg",0,0
//Break Periods
//Storyboard Layer 0 (Background)
//Storyboard Layer 1 (Fail)
//Storyboard Layer 2 (Pass)
//Storyboard Layer 3 (Foreground)
//Storyboard Sound Samples

[TimingPoints]
-310,250,4,1,0,60,1,0
2627,-100,4,1,0,80,0,0
10690,-100,4,1,0,85,0,0
18627,-100,4,1,0,40,0,0
22127,-100,4,1,0,60,0,0
22627,-100,4,1,0,70,0,0
34690,-100,4,1,0,75,0,0
49690,-100,4,1,0,65,0,0
49940,-100,4,1,0,55,0,0
50190,-100,4,1,0,45,0,0
50440,-100,4,1,0,40,0,0
58565,-100,4,1,0,55,0,0
66565,-100,4,1,0,60,0,0
74690,-100,4,1,0,85,0,1
89690,-100,4,1,0,85,0,0
90690,-100,4,1,0,88,0,1
105690,-100,4,1,0,88,0,0
105815,-100,4,1,0,45,0,0

[HitObjects]
224,160,2690,5,4,0:0:0:0:
224,160,3690,1,4,0:0:0:0:
160,96,4690,1,4,0:0:0:0:
160,96,5690,1,4,0:0:0:0:
160,96,6190,1,4,0:0:0:0:
160,64,6690,5,12,0:0:0:0:
160,64,7690,1,12,0:0:0:0:
160,64,8690,1,12,0:0:0:0:
160,64,9190,1,12,0:0:0:0:
128,96,10690,5,4,0:0:0:0:
128,96,11190,1,0,0:0:0:0:
128,96,11690,1,0,0:0:0:0:
128,96,11940,1,0,0:0:0:0:
128,96,12190,1,0,0:0:0:0:
128,96,12690,1,8,0:0:0:0:
128,128,13190,1,8,0:0:0:0:
128,128,13690,1,8,0:0:0:0:
128,96,13940,1,8,0:0:0:0:
128,128,14190,1,8,0:0:0:0:
96,96,14690,5,0,0:0:0:0:
96,96,15440,1,0,0:0:0:0:
128,32,16190,1,0,0:0:0:0:
256,192,16565,12,0,17565,0:0:0:0:
160,64,19190,5,2,0:0:0:0:
160,32,20190,1,2,0:0:0:0:
160,32,21190,1,2,0:0:0:0:
160,32,22190,1,2,0:0:0:0:
160,64,22690,5,0,0:0:0:0:
160,64,23940,1,0,0:0:0:0:
192,32,24690,1,0,0:0:0:0:
192,32,25940,1,0,0:0:0:0:
192,32,26690,5,0,0:0:0:0:
224,32,27940,1,8,0:0:0:0:
224,32,28690,1,0,0:0:0:0:
224,32,29940,1,8,0:0:0:0:
224,32,30690,5,0,0:0:0:0:
192,32,31690,1,8,0:0:0:0:
224,32,32690,1,0,0:0:0:0:
192,32,33190,1,0,0:0:0:0:
192,32,33690,1,8,0:0:0:0:
224,32,34690,5,4,0:0:0:0:
224,32,35690,1,0,0:0:0:0:
224,32,36190,1,0,0:0:0:0:
224,32,36690,1,0,0:0:0:0:
224,32,37690,1,0,0:0:0:0:
224,32,37940,1,0,0:0:0:0:
224,32,38190,1,0,0:0:0:0:
224,0,38690,5,8,0:0:0:0:
224,32,39690,1,8,0:0:0:0:
224,32,40190,1,8,0:0:0:0:
224,32,40690,1,8,0:0:0:0:
224,32,41690,1,8,0:0:0:0:
224,0,41940,1,8,0:0:0:0:
224,0,42190,1,8,0:0:0:0:
224,0,42690,5,4,0:0:0:0:
224,32,43690,1,0,0:0:0:0:
192,32,44190,1,8,0:0:0:0:
224,32,44690,1,0,0:0:0:0:
192,32,45690,1,0,0:0:0:0:
192,32,45940,1,0,0:0:0:0:
192,32,46190,1,8,0:0:0:0:
224,0,46690,5,0,0:0:0:0:
192,32,47440,1,8,0:0:0:0:
192,32,48190,1,0,0:0:0:0:
192,64,48690,1,2,0:0:0:0:
192,0,48940,1,2,0:0:0:0:
192,0,49190,1,8,0:0:0:0:
256,192,49565,12,0,50690,0:0:0:0:
192,32,52690,5,2,0:0:0:0:
192,0,54690,1,0,0:0:0:0:
192,0,55690,1,8,0:0:0:0:
192,32,56690,1,6,0:0:0:0:
192,64,58690,5,0,0:0:0:0:
192,32,59940,1,0,0:0:0:0:
192,64,60690,1,2,0:0:0:0:
192,32,61940,1,2,0:0:0:0:
192,64,62690,1,0,0:0:0:0:
192,64,63940,1,2,0:0:0:0:
192,64,64690,1,0,0:0:0:0:
192,64,65940,1,2,0:0:0:0:
192,64,66690,5,4,0:0:0:0:
192,64,67190,1,2,0:0:0:0:
192,64,67940,1,0,0:0:0:0:
192,64,68690,1,0,0:0:0:0:
192,64,69190,1,2,0:0:0:0:
192,64,69940,1,2,0:0:0:0:
192,64,70690,5,0,0:0:0:0:
192,64,71690,1,2,0:0:0:0:
192,64,72190,1,8,0:0:0:0:
192,64,72690,1,0,0:0:0:0:
192,32,73190,1,0,0:0:0:0:
192,64,73690,1,0,0:0:0:0:
192,64,74690,5,4,0:0:0:0:
192,64,75190,1,0,0:0:0:0:
192,64,75690,1,0,0:0:0:0:
192,64,75940,1,0,0:0:0:0:
192,64,76190,1,0,0:0:0:0:
192,64,76690,1,2,0:0:0:0:
192,64,77190,1,2,0:0:0:0:
192,64,77690,1,0,0:0:0:0:
192,64,78690,5,0,0:0:0:0:
192,64,79190,1,0,0:0:0:0:
192,32,79690,1,0,0:0:0:0:
192,64,79940,1,0,0:0:0:0:
192,0,80190,1,2,0:0:0:0:
192,64,80690,1,2,0:0:0:0:
192,64,81190,1,0,0:0:0:0:
192,64,81690,1,2,0:0:0:0:
192,32,82690,5,4,0:0:0:0:
192,64,83190,1,0,0:0:0:0:
192,64,83690,1,0,0:0:0:0:
160,32,83940,1,0,0:0:0:0:
192,64,84190,1,0,0:0:0:0:
192,64,84690,1,2,0:0:0:0:
192,32,85190,1,2,0:0:0:0:
192,64,85690,1,0,1:0:0:0:
192,64,86690,5,0,0:0:0:0:
192,64,87190,1,0,0:0:0:0:
192,64,87690,1,0,0:0:0:0:
192,64,87940,1,0,0:0:0:0:
192,64,88190,1,2,0:0:0:0:
192,64,88690,1,2,0:0:0:0:
192,64,89190,1,0,0:0:0:0:
192,64,89690,1,2,0:0:0:0:
192,64,90690,5,4,0:0:0:0:
160,32,91190,1,2,0:0:0:0:
192,64,91690,1,0,0:0:0:0:
192,64,91940,1,0,0:0:0:0:
192,64,92190,1,0,0:0:0:0:
160,32,92690,1,8,0:0:0:0:
160,32,93190,1,0,0:0:0:0:
160,32,93690,1,8,0:0:0:0:
160,32,93940,1,8,0:0:0:0:
160,32,94190,1,8,0:0:0:0:
192,64,94690,5,0,0:0:0:0:
160,0,95190,1,2,0:0:0:0:
192,64,95690,1,0,0:0:0:0:
192,32,95940,1,0,0:0:0:0:
192,32,96190,1,8,0:0:0:0:
192,32,96690,1,0,0:0:0:0:
192,32,97190,1,0,0:0:0:0:
192,64,97690,1,0,0:0:0:0:
192,64,98690,5,4,0:0:0:0:
192,64,99190,1,2,0:0:0:0:
192,64,99690,1,0,0:0:0:0:
192,64,99940,1,0,0:0:0:0:
192,32,100190,1,8,0:0:0:0:
192,64,100690,1,8,0:0:0:0:
192,32,101190,1,0,0:0:0:0:
192,64,101690,1,8,0:0:0:0:
192,32,101940,1,8,0:0:0:0:
192,64,102190,1,0,0:0:0:0:
192,64,102690,5,0,0:0:0:0:
192,64,103190,1,2,0:0:0:0:
192,64,103690,1,8,0:0:0:0:
192,32,103940,1,0,0:0:0:0:
192,64,104190,1,2,0:0:0:0:
256,192,104565,12,0,105690,0:0:0:0:
192,64,106690,5,0,0:0:0:0:
192,64,108690,1,2,0:0:0:0:
192,64,110690,1,0,0:0:0:0:
192,64,111690,1,8,0:0:0:0:
192,64,112690,1,6,0:0:0:0:
