osu file format v9

[General]
AudioFilename: t+pazolite - Nous.mp3
AudioLeadIn: 1000
PreviewTime: 133247
Countdown: 0
SampleSet: Normal
StackLeniency: 0.7
Mode: 1
LetterboxInBreaks: 0
SkinPreference:taiko

[Editor]
Bookmarks: 85033,174760
DistanceSpacing: 1
BeatDivisor: 4
GridSize: 32

[Metadata]
Title:Nous
Artist:t+pazolite
Creator:Chocopikel
Version:Taiko Collab
Source:
Tags:j-core hardcore speedcore OnosakiHito Backfire

[Difficulty]
HPDrainRate:6
CircleSize:5
OverallDifficulty:6
ApproachRate:5
SliderMultiplier:1.4
SliderTickRate:2

[Events]
//Background and Video events
0,0,"bg_taiko.jpg"
//Break Periods
//Storyboard Layer 0 (Background)
Sprite,Background,Centre,"bg_taiko.jpg",320,240 M,0,-1885,,319,371 S,0,-1885,,0.622 F,0,61141,,1 M,0,351198,,319,363
//Storyboard Layer 1 (Fail)
//Storyboard Layer 2 (Pass)
//Storyboard Layer 3 (Foreground)
Sprite,Foreground,Centre,"backfire.png",320,240 M,0,174760,,44,275 S,0,174760,,0.603 F,0,174760,175085,0,1 F,0,175085,340822,1 F,0,340822,342119,1,0
Sprite,Foreground,Centre,"onosaki.png",320,240 M,0,0,,55,275 S,0,0,,0.6006402 F,0,0,709,0,1 F,0,709,174436,1 F,0,174436,174760,1,0
//Storyboard Sound Samples
//Background Colour Transformations
3,100,0,0,0

[TimingPoints]
709,324.324324324324,4,1,0,80,1,0
62989,648.648648648649,4,1,0,80,1,0
62989,-50,4,1,0,80,0,0
63637,-50,4,1,0,20,0,0
91195,-50,4,1,0,30,0,0
93951,-50,4,1,0,35,0,0
96870,-50,4,1,0,40,0,0
104502,631.578947368421,4,1,0,50,1,0
104502,-50,4,1,0,50,0,0
104817,-100,4,1,0,50,0,0
107028,600,4,1,0,50,1,0
108228,585.365853658537,4,1,0,50,1,0
109398,571.428571428571,4,1,0,50,1,0
110540,545.454545454546,4,1,0,55,1,0
111630,533.333333333333,4,1,0,55,1,0
112696,521.739130434783,4,1,0,55,1,0
113739,510.63829787234,4,1,0,55,1,0
114760,500,4,1,0,60,1,0
115760,489.795918367347,4,1,0,60,1,0
116739,480,4,1,0,60,1,0
117699,470.588235294118,4,1,0,60,1,0
118640,461.538461538462,4,1,0,65,1,0
119563,452.830188679245,4,1,0,65,1,0
120468,436.363636363636,4,1,0,65,1,0
121340,421.052631578947,4,1,0,65,1,0
122182,413.793103448276,4,1,0,70,1,0
123009,406.779661016949,4,1,0,70,1,0
123822,400,4,1,0,70,1,0
124622,393.44262295082,4,1,0,70,1,0
125408,387.096774193548,4,1,0,75,1,0
126182,380.952380952381,4,1,0,75,1,0
126943,375,4,1,0,75,1,0
127693,369.230769230769,4,1,0,75,1,0
128431,363.636363636364,4,1,0,80,1,0
129158,358.208955223881,4,1,0,80,1,0
129874,352.941176470588,4,1,0,80,1,0
130579,347.826086956522,4,1,0,80,1,0
131274,342.857142857143,4,1,0,80,1,0
131959,324.324324324324,4,1,0,80,1,0
133256,-100,4,1,0,80,0,1
174769,-100,4,1,0,80,0,0
238661,-133.333333333333,4,1,0,40,0,0
257634,-100,4,1,0,80,0,0
259742,328.767123287671,4,1,0,80,1,0
260399,324.324324324324,4,1,0,80,1,1
299317,324.324324324324,4,1,0,80,1,0
299317,-100,4,1,0,80,0,0

[HitObjects]
256,192,709,1,4
256,192,1195,1,0
256,192,1357,5,8
256,192,1681,1,8
256,192,2006,5,0
256,192,2249,1,0
256,192,2492,1,0
256,192,2654,5,8
256,192,3303,5,4
256,192,3790,1,0
256,192,3952,5,8
256,192,4276,5,0
256,192,4600,1,0
256,192,4844,1,0
256,192,5087,1,0
256,192,5249,5,8
256,192,5411,5,0
256,192,5654,1,0
256,192,5736,5,8
256,192,5898,5,4
256,192,6222,5,8
256,192,6384,5,0
256,192,6546,5,8
256,192,6871,1,8
256,192,7195,5,0
256,192,7438,1,0
256,192,7681,1,0
256,192,7844,5,8
256,192,8168,1,8
256,192,8492,5,4
256,192,8817,5,8
256,192,8979,5,0
256,192,9141,5,8
256,192,9465,5,0
256,192,9790,1,0
256,192,10033,1,0
256,192,10276,1,0
256,192,10438,5,8
256,192,10600,5,0
256,192,10681,5,8
256,192,10844,5,0
256,192,10925,5,8
256,192,11087,5,4
256,192,11249,5,8
256,192,11573,5,0
256,192,11736,5,8
256,192,12222,1,8
256,192,12384,5,0
256,192,12546,5,8
256,192,12627,5,0
256,192,12871,1,0
256,192,13033,5,8
256,192,13195,1,8
256,192,13276,1,8
256,192,13357,1,8
256,192,13438,1,8
256,192,13519,1,8
256,192,13681,5,4
256,192,13844,5,8
256,192,14168,5,0
256,192,14330,5,8
256,192,14492,1,8
256,192,14654,5,0
256,192,14979,1,0
256,192,15141,5,8
256,192,15222,5,0
256,192,15465,1,0
256,192,15627,5,8
256,192,15790,5,0
256,192,15952,5,8
256,192,16033,5,0
256,192,16114,5,8
256,192,16195,1,8
256,192,16276,5,0
256,192,16438,5,8
256,192,16763,5,0
256,192,16925,5,8
256,192,17249,1,8
256,192,17411,1,8
256,192,17573,5,0
256,192,17736,5,8
256,192,17817,5,0
256,192,17979,5,8
256,192,18060,5,0
256,192,18222,5,8
256,192,18384,1,8
256,192,18465,1,8
256,192,18546,1,8
256,192,18708,1,8
256,192,18790,1,8
256,192,18871,5,0
256,192,19033,5,8
256,192,19195,1,8
256,192,19276,1,8
256,192,19357,5,0
256,192,19519,5,8
256,192,19681,1,8
256,192,19763,1,8
256,192,19844,5,0
256,192,19925,5,8
256,192,20006,1,8
256,192,20168,5,0
256,192,20330,5,8
256,192,20411,1,8
256,192,20573,1,8
256,192,20654,1,8
256,192,20817,1,8
256,192,20898,1,8
256,192,20979,1,8
256,192,21141,1,8
256,192,21222,1,8
256,192,21303,1,8
256,192,21384,1,8
256,192,21465,5,0
256,192,21627,5,8
256,192,21790,5,0
256,192,21952,5,8
256,192,22114,5,0
256,192,22276,5,8
256,192,22438,5,0
256,192,22600,5,8
256,192,22763,5,0
256,192,22925,1,0
256,192,23249,1,0
256,192,23330,1,0
256,192,23411,1,0
256,192,23573,5,8
256,192,23654,1,8
256,192,23736,5,0
256,192,23898,5,8
256,192,24060,5,0
256,192,24222,5,8
256,192,24384,5,0
256,192,24546,5,8
256,192,24708,5,0
256,192,24871,5,8
256,192,25033,5,0
256,192,25195,5,8
256,192,25357,5,0
256,192,25519,1,0
256,192,25844,1,0
256,192,25925,1,0
256,192,26006,1,0
256,192,26168,5,8
256,192,26222,1,8
256,192,26276,1,8
256,192,26330,1,8
256,192,26492,1,8
256,192,26654,5,0
256,192,26817,5,8
256,192,26979,5,0
256,192,27141,5,8
256,192,27303,5,0
256,192,27465,5,8
256,192,27627,5,0
256,192,27790,5,8
256,192,27952,5,0
256,192,28114,1,0
256,192,28438,1,0
256,192,28600,1,0
256,192,28763,5,8
256,192,28844,1,8
256,192,28925,5,0
256,192,29006,1,0
256,192,29087,5,8
256,192,29168,1,8
256,192,29249,5,0
256,192,29411,5,8
256,192,29573,5,0
256,192,29736,5,8
256,192,29898,5,0
256,192,30060,5,8
256,192,30222,5,0
256,192,30384,5,8
256,192,30546,5,0
256,192,30708,5,8
256,192,30790,1,8
256,192,30871,1,8
256,192,31033,1,8
256,192,31195,5,0
256,192,31357,5,8
256,192,31411,1,8
256,192,31465,1,8
256,192,31519,1,8
256,192,31681,1,8
256,192,31844,5,4
256,192,32006,5,8
256,192,32168,5,0
256,192,32330,5,8
256,192,32492,5,0
256,192,32654,5,8
256,192,32817,5,0
256,192,32979,5,8
256,192,33141,5,0
256,192,33303,1,0
256,192,33627,1,0
256,192,33790,1,0
256,192,33952,5,8
256,192,34033,1,8
256,192,34114,5,0
256,192,34195,5,8
256,192,34276,1,8
256,192,34438,5,0
256,192,34600,5,8
256,192,34762,5,0
256,192,34924,5,8
256,192,35086,5,0
256,192,35248,5,8
256,192,35411,5,0
256,192,35573,5,8
256,192,35736,5,0
256,192,35898,1,0
256,192,35979,1,0
256,192,36060,5,8
256,192,36222,5,0
256,192,36303,1,0
256,192,36384,5,8
256,192,36546,1,8
256,192,36600,1,8
256,192,36654,1,8
256,192,36708,1,8
256,192,36871,1,8
256,192,37033,5,0
256,192,37195,5,8
256,192,37357,5,0
256,192,37519,5,8
256,192,37681,5,0
256,192,37843,5,8
256,192,38006,5,0
256,192,38168,5,8
256,192,38330,5,0
256,192,38492,1,0
256,192,38654,5,8
256,192,38817,5,0
256,192,38898,1,0
256,192,38979,5,8
256,192,39141,5,0
256,192,39222,5,8
256,192,39384,1,8
256,192,39465,1,8
256,192,39627,5,0
256,192,39789,5,8
256,192,39951,5,0
256,192,40113,5,8
256,192,40275,5,0
256,192,40437,5,8
256,192,40600,5,0
256,192,40762,5,8
256,192,40925,5,0
256,192,41087,5,8
256,192,41168,5,0
256,192,41249,5,8
256,192,41411,1,8
256,192,41573,5,0
256,192,41736,1,0
256,192,41817,1,0
256,192,41898,5,8
256,192,41979,1,8
256,192,42060,5,0
256,192,42222,1,4
256,192,42384,1,0
256,192,42465,5,8
256,192,42708,5,0
256,192,42871,1,0
256,192,43033,1,0
256,192,43114,5,8
256,192,43357,5,0
256,192,43519,1,0
256,192,43681,1,0
256,192,43763,1,0
256,192,43844,1,0
256,192,43925,1,0
256,192,44006,5,8
256,192,44087,1,8
256,192,44168,5,0
256,192,44249,5,8
256,192,44411,1,8
256,192,44492,5,0
256,192,44573,5,8
256,192,44654,1,8
256,192,44817,5,0
256,192,44979,1,0
256,192,45060,5,8
256,192,45303,1,8
256,192,45465,5,4
256,192,45708,5,12
256,192,45952,5,0
256,192,46114,1,0
256,192,46276,1,0
256,192,46357,1,0
256,192,46438,5,8
256,192,46492,1,8
256,192,46546,1,8
256,192,46600,1,8
256,192,46763,5,0
256,192,46925,5,8
256,192,46979,1,8
256,192,47033,1,8
256,192,47087,5,0
256,192,47249,1,0
256,192,47411,5,8
256,192,47573,1,8
256,192,47736,1,8
256,192,47817,1,8
256,192,47898,1,8
256,192,47979,1,8
256,192,48060,1,8
256,192,48384,5,0
256,192,48438,1,0
256,192,48492,1,0
256,192,48546,5,8
256,192,48708,5,0
256,192,48871,5,8
256,192,49033,5,0
256,192,49114,5,8
256,192,49195,5,0
256,192,49276,1,0
256,192,49357,5,8
256,192,49519,1,8
256,192,49681,1,8
256,192,49763,1,8
256,192,49844,1,8
256,192,49925,1,8
256,192,50006,5,0
256,192,50168,5,8
256,192,50330,5,0
256,192,50384,1,0
256,192,50438,1,0
256,192,50492,5,8
256,192,50654,5,0
256,192,50736,5,8
256,192,50817,5,0
256,192,50898,5,8
256,192,50979,5,0
256,192,51141,1,0
256,192,51222,1,0
256,192,51303,5,8
256,192,51465,1,8
256,192,51546,1,8
256,192,51627,5,0
256,192,51790,5,8
256,192,51871,1,8
256,192,51952,5,0
256,192,52033,5,8
256,192,52114,5,0
256,192,52195,5,8
256,192,52276,1,8
256,192,52357,1,8
256,192,52438,1,8
256,192,52600,5,4
256,192,52844,5,8
256,192,52925,1,8
256,192,53087,1,8
256,192,53168,1,8
256,192,53249,5,0
256,192,53411,5,8
256,192,53492,1,8
256,192,53573,5,0
256,192,53654,1,0
256,192,53817,5,8
256,192,53898,5,0
256,192,54060,1,0
256,192,54141,1,0
256,192,54222,5,8
256,192,54384,5,0
256,192,54465,1,0
256,192,54546,5,8
256,192,54708,1,8
256,192,54871,5,0
256,192,54952,5,8
256,192,55033,5,0
256,192,55195,1,4
256,192,55438,5,12
256,192,55681,1,12
256,192,55844,5,0
256,192,56087,1,0
256,192,56168,1,0
256,192,56249,1,0
256,192,56330,1,0
256,192,56411,1,0
256,192,56492,5,8
256,192,56654,5,0
256,192,56736,1,0
256,192,56817,5,8
256,192,56979,1,8
256,192,57141,5,0
256,192,57303,5,8
256,192,57357,1,8
256,192,57411,1,8
256,192,57465,5,0
256,192,57627,1,0
256,192,57790,1,0
256,192,57871,1,0
256,192,57952,5,8
256,192,58114,5,0
256,192,58276,5,8
256,192,58357,1,8
256,192,58438,5,0
256,192,58600,5,8
256,192,58763,5,0
256,192,58844,5,8
256,192,58925,5,0
256,192,59087,1,0
256,192,59249,5,8
256,192,59330,1,8
256,192,59411,5,0
256,192,59573,5,8
256,192,59736,1,8
256,192,59898,1,8
256,192,59979,1,8
256,192,60060,5,0
256,192,60141,1,0
256,192,60222,5,8
256,192,60303,1,8
256,192,60384,5,0
256,192,60546,1,0
256,192,60627,1,0
256,192,60708,5,8
256,192,60871,1,8
256,192,61033,5,0
256,192,61195,5,8
256,192,61357,1,8
256,192,61519,1,8
256,192,61681,5,0
256,192,61763,1,0
256,192,61844,1,0
256,192,61925,1,0
256,192,62006,5,8
256,192,62087,1,8
256,192,62168,1,8
256,192,62249,1,8
256,192,62330,5,0
256,192,62411,5,8
256,192,62492,1,8
256,192,62573,5,0
256,192,62654,5,8
256,192,62817,1,8
256,192,62989,5,4
256,192,64286,12,0,68827
256,192,71421,12,0,76610
256,192,78880,12,0,83097
256,192,83745,5,0
256,192,84070,5,0
256,192,84394,5,8
256,192,84880,5,0
256,192,85367,1,0
256,192,85691,5,8
256,192,86340,5,0
256,192,86664,1,0
256,192,86989,5,8
256,192,87475,5,0
256,192,87961,1,0
256,192,88286,5,8
256,192,88448,5,0
256,192,88934,1,0
256,192,89259,1,0
256,192,89583,5,8
256,192,90070,5,0
256,192,90556,1,0
256,192,90880,5,8
256,192,91529,5,0
256,192,91853,1,0
256,192,92178,5,8
256,192,92502,1,8
256,192,92664,1,8
256,192,92826,1,8
256,192,92989,5,0
256,192,93151,1,0
256,192,93475,5,8
256,192,93799,5,0
256,192,94124,1,0
256,192,94448,1,0
256,192,94772,5,8
256,192,95097,1,8
256,192,95259,5,0
256,192,95421,5,8
256,192,95583,1,8
256,192,95907,5,0
256,192,96070,5,8
256,192,96394,1,8
256,192,96556,5,0
256,192,96718,1,0
256,192,97043,1,0
256,192,97205,5,8
256,192,97529,1,8
256,192,97691,5,0
256,192,97853,5,8
256,192,98016,5,0
256,192,98340,5,8
256,192,98502,1,8
256,192,98826,5,0
256,192,98989,5,8
256,192,99151,5,0
256,192,99313,5,8
256,192,99637,5,0
256,192,99799,1,0
256,192,100124,1,0
256,192,100286,5,8
256,192,100448,5,0
256,192,100610,5,8
256,192,100934,5,0
256,192,101097,5,8
256,192,101421,5,0
256,192,101583,5,8
256,192,101745,5,0
256,192,101907,5,8
256,192,102232,5,0
256,192,102394,5,8
256,192,102718,5,0
256,192,102880,5,8
256,192,103043,5,0
256,192,103205,5,8
256,192,103529,5,0
256,192,103691,5,8
256,192,104016,5,0
256,192,104178,5,8
256,192,104502,1,12
256,192,104975,5,0
256,192,105449,1,0
256,192,105765,1,0
256,192,106238,5,8
256,192,106712,5,0
256,192,107028,1,0
256,192,107478,5,8
256,192,107778,5,0
256,192,107928,1,0
256,192,108228,1,0
256,192,108667,5,8
256,192,108959,5,0
256,192,109106,5,8
256,192,109398,1,8
256,192,109826,5,0
256,192,110112,1,0
256,192,110255,5,8
256,192,110540,5,4
256,192,110949,1,0
256,192,111221,5,8
256,192,111358,5,0
256,192,111630,1,0
256,192,112030,1,0
256,192,112296,1,0
256,192,112430,5,8
256,192,112563,5,0
256,192,112696,1,0
256,192,113087,5,12
256,192,113348,1,8
256,192,113478,5,0
256,192,113609,1,0
256,192,113739,5,8
256,192,114121,5,0
256,192,114504,1,0
256,192,114760,1,0
256,192,115135,1,0
256,192,115510,1,0
256,192,115760,1,0
256,192,116127,1,0
256,192,116372,1,0
256,192,116494,5,8
256,192,116617,5,0
256,192,116739,1,0
256,192,117099,1,0
256,192,117219,5,8
256,192,117459,5,0
256,192,117699,5,8
256,192,117934,5,0
256,192,118169,1,0
256,192,118404,1,0
256,192,118640,5,8
256,192,118870,5,0
256,192,119101,1,0
256,192,119332,1,0
256,192,119563,5,8
256,192,119789,5,0
256,192,119902,1,0
256,192,120015,5,8
256,192,120242,1,8
256,192,120468,5,0
256,192,120686,5,8
256,192,120795,5,0
256,192,120904,5,8
256,192,121122,5,4
256,192,121340,5,12
256,192,121550,5,0
256,192,121655,1,0
256,192,121761,5,8
256,192,121971,5,0
256,192,122182,5,8
256,192,122388,5,0
256,192,122492,1,0
256,192,122595,5,8
256,192,122802,1,8
256,192,122906,1,8
256,192,123009,1,8
256,192,123212,5,0
256,192,123314,1,0
256,192,123415,5,8
256,192,123619,5,0
256,192,123720,5,8
256,192,123822,5,0
256,192,124022,1,0
256,192,124122,1,0
256,192,124222,5,8
256,192,124422,1,8
256,192,124522,5,0
256,192,124622,5,8
256,192,124818,1,8
256,192,124917,1,8
256,192,125015,5,0
256,192,125113,5,8
256,192,125212,5,0
256,192,125408,1,0
256,192,125601,1,0
256,192,125698,1,0
256,192,125795,5,8
256,192,125891,5,0
256,192,125988,5,8
256,192,126085,1,8
256,192,126182,5,0
256,192,126372,1,0
256,192,126467,1,0
256,192,126562,5,8
256,192,126753,1,8
256,192,126943,5,0
256,192,127036,1,0
256,192,127130,1,0
256,192,127224,5,8
256,192,127318,5,0
256,192,127505,1,0
256,192,127599,1,0
256,192,127693,5,8
256,192,127785,1,8
256,192,127877,1,8
256,192,127969,1,8
256,192,128062,5,0
256,192,128246,1,0
256,192,128339,1,0
256,192,128431,5,8
256,192,128521,1,8
256,192,128612,1,8
256,192,128703,1,8
256,192,128794,5,0
256,192,128976,1,0
256,192,129067,1,0
256,192,129158,5,8
256,192,129247,1,8
256,192,129337,1,8
256,192,129426,1,8
256,192,129516,5,0
256,192,129695,1,0
256,192,129874,5,8
256,192,129962,1,8
256,192,130050,1,8
256,192,130138,1,8
256,192,130226,5,0
256,192,130403,1,0
256,192,130579,5,8
256,192,130752,5,0
256,192,130839,1,0
256,192,130926,5,8
256,192,131100,5,0
256,192,131187,1,0
256,192,131274,5,8
256,192,131445,5,0
256,192,131531,1,0
256,192,131616,5,8
256,192,131788,5,0
256,192,131959,5,12
256,192,132121,5,0
256,192,132202,5,8
256,192,132364,1,8
256,192,132445,5,0
256,192,132526,1,0
256,192,132607,5,8
256,192,132769,5,0
256,192,132850,1,0
256,192,132931,5,8
256,192,133013,1,8
256,192,133094,5,0
256,192,133256,1,4
256,192,133499,5,8
256,192,133580,5,0
256,192,133742,5,8
256,192,133904,5,0
256,192,133986,5,8
256,192,134148,1,8
256,192,134229,5,0
256,192,134391,5,8
256,192,134553,5,0
256,192,134634,1,0
256,192,134715,5,8
256,192,134796,1,8
256,192,134877,5,0
256,192,135040,5,8
256,192,135202,5,0
256,192,135364,5,8
256,192,135445,5,0
256,192,135607,1,0
256,192,135688,5,8
256,192,135850,5,0
256,192,136013,5,8
256,192,136094,1,8
256,192,136175,5,0
256,192,136256,5,8
256,192,136418,1,8
256,192,136499,5,0
256,192,136661,5,8
256,192,136742,1,8
256,192,136823,5,0
256,192,136904,1,0
256,192,136986,5,8
256,192,137148,5,0
256,192,137310,5,8
256,192,137391,5,0
256,192,137553,1,0
256,192,137634,5,8
256,192,137796,5,0
256,192,137959,5,8
256,192,138040,1,8
256,192,138121,1,8
256,192,138283,5,0
256,192,138364,5,8
256,192,138445,5,0
256,192,138688,5,8
256,192,138769,5,0
256,192,138931,5,8
256,192,139013,1,8
256,192,139094,5,0
256,192,139256,1,0
256,192,139337,5,8
256,192,139499,1,8
256,192,139580,5,0
256,192,139742,1,0
256,192,139904,5,8
256,192,139986,5,0
256,192,140148,1,0
256,192,140229,5,8
256,192,140391,5,0
256,192,140472,1,0
256,192,140553,5,8
256,192,140634,1,8
256,192,140715,5,0
256,192,140796,1,0
256,192,140877,1,0
256,192,140959,5,8
256,192,141040,1,8
256,192,141202,1,8
256,192,141283,5,0
256,192,141445,1,0
256,192,141526,5,8
256,192,141688,5,0
256,192,141850,5,8
256,192,141931,1,8
256,192,142013,5,0
256,192,142175,5,8
256,192,142337,5,0
256,192,142499,5,8
256,192,142580,5,0
256,192,142742,1,0
256,192,142823,5,8
256,192,142986,5,0
256,192,143148,5,8
256,192,143229,1,8
256,192,143310,1,8
256,192,143472,5,4
256,192,143634,5,12
256,192,143877,1,8
256,192,143959,5,0
256,192,144121,5,8
256,192,144283,5,0
256,192,144364,5,8
256,192,144526,1,8
256,192,144607,5,0
256,192,144769,5,8
256,192,144931,5,0
256,192,145094,5,8
256,192,145175,1,8
256,192,145256,5,0
256,192,145418,5,8
256,192,145580,5,0
256,192,145661,1,0
256,192,145742,5,8
256,192,145823,1,8
256,192,145904,5,0
256,192,145986,5,8
256,192,146067,5,0
256,192,146229,5,8
256,192,146391,1,8
256,192,146472,5,0
256,192,146634,1,0
256,192,146715,5,8
256,192,146796,1,8
256,192,146877,5,0
256,192,147040,1,0
256,192,147121,5,8
256,192,147283,1,8
256,192,147364,1,8
256,192,147526,5,0
256,192,147688,5,8
256,192,147769,5,0
256,192,147931,1,0
256,192,148013,5,8
256,192,148175,5,0
256,192,148337,5,8
256,192,148418,1,8
256,192,148499,5,0
256,192,148661,1,0
256,192,148823,1,0
256,192,148986,5,8
256,192,149067,5,0
256,192,149229,1,0
256,192,149310,5,8
256,192,149391,1,8
256,192,149472,5,0
256,192,149634,5,8
256,192,149715,5,0
256,192,149877,1,0
256,192,149958,5,8
256,192,150121,5,0
256,192,150202,1,0
256,192,150283,5,8
256,192,150364,1,8
256,192,150445,5,0
256,192,150607,5,8
256,192,150769,5,0
256,192,150931,1,0
256,192,151013,5,8
256,192,151094,1,8
256,192,151256,1,8
256,192,151418,5,0
256,192,151580,5,8
256,192,151661,5,0
256,192,151823,1,0
256,192,151904,5,8
256,192,151986,5,0
256,192,152067,1,0
256,192,152229,1,0
256,192,152310,5,8
256,192,152472,1,8
256,192,152553,5,0
256,192,152715,5,8
256,192,152796,1,8
256,192,152877,5,0
256,192,152958,1,0
256,192,153040,5,8
256,192,153121,1,8
256,192,153202,5,0
256,192,153283,1,0
256,192,153364,5,8
256,192,153526,1,8
256,192,153580,1,8
256,192,153634,1,8
256,192,153688,1,8
256,192,153850,1,8
256,192,154013,5,0
256,192,154175,1,0
256,192,154256,5,8
256,192,154418,5,0
256,192,154499,1,0
256,192,154661,1,0
256,192,154742,5,8
256,192,154904,1,8
256,192,154986,1,8
256,192,155148,5,0
256,192,155310,5,8
256,192,155391,5,0
256,192,155553,1,0
256,192,155634,5,8
256,192,155796,1,8
256,192,155958,5,0
256,192,156040,5,8
256,192,156202,1,8
256,192,156283,5,0
256,192,156445,5,8
256,192,156607,5,0
256,192,156688,1,0
256,192,156850,1,0
256,192,156931,5,8
256,192,157094,1,8
256,192,157256,1,8
256,192,157337,5,0
256,192,157499,1,0
256,192,157580,5,8
256,192,157742,1,8
256,192,157904,1,8
256,192,157986,5,0
256,192,158148,1,0
256,192,158229,5,8
256,192,158391,5,0
256,192,158553,1,0
256,192,158634,5,8
256,192,158796,1,8
256,192,158877,1,8
256,192,158958,1,8
256,192,159040,5,0
256,192,159202,5,8
256,192,159283,5,0
256,192,159364,5,8
256,192,159445,5,0
256,192,159526,5,8
256,192,159688,5,0
256,192,159769,5,8
256,192,159850,5,0
256,192,159931,5,8
256,192,160094,1,8
256,192,160175,1,8
256,192,160337,5,0
256,192,160499,1,0
256,192,160580,5,8
256,192,160742,1,8
256,192,160823,1,8
256,192,160986,1,8
256,192,161148,5,0
256,192,161229,5,8
256,192,161391,1,8
256,192,161472,5,0
256,192,161634,5,8
256,192,161796,5,0
256,192,161958,5,8
256,192,162040,1,8
256,192,162202,1,8
256,192,162283,1,8
256,192,162445,5,0
256,192,162526,5,8
256,192,162688,1,8
256,192,162769,1,8
256,192,162931,1,8
256,192,163094,5,0
256,192,163175,5,8
256,192,163337,5,0
256,192,163418,5,8
256,192,163580,1,8
256,192,163742,1,8
256,192,163823,1,8
256,192,163904,1,8
256,192,163958,1,8
256,192,164013,1,8
256,192,164067,1,8
256,192,164229,5,0
256,192,164391,5,12
256,192,164634,1,8
256,192,164715,5,0
256,192,164796,1,0
256,192,164877,5,8
256,192,165040,5,0
256,192,165121,5,8
256,192,165283,1,8
256,192,165364,5,0
256,192,165526,5,8
256,192,165688,5,0
256,192,165769,1,0
256,192,165931,1,0
256,192,166013,5,8
256,192,166175,1,8
256,192,166337,5,0
256,192,166418,5,8
256,192,166580,1,8
256,192,166661,5,0
256,192,166742,1,0
256,192,166823,5,8
256,192,166986,1,8
256,192,167067,5,0
256,192,167229,5,8
256,192,167310,5,0
256,192,167472,1,0
256,192,167634,1,0
256,192,167715,5,8
256,192,167877,1,8
256,192,167958,5,0
256,192,168121,5,8
256,192,168283,5,0
256,192,168364,1,0
256,192,168445,5,8
256,192,168526,1,8
256,192,168607,5,0
256,192,168769,5,8
256,192,168931,1,8
256,192,169013,5,0
256,192,169175,5,8
256,192,169256,5,0
256,192,169337,5,8
256,192,169418,5,0
256,192,169580,1,0
256,192,169742,1,0
256,192,169823,5,8
256,192,169986,1,8
256,192,170067,5,0
256,192,170229,1,0
256,192,170310,5,8
256,192,170472,1,8
256,192,170553,5,0
256,192,170715,5,8
256,192,170877,5,0
256,192,170958,5,8
256,192,171040,1,8
256,192,171121,5,0
256,192,171202,5,8
256,192,171364,1,8
256,192,171526,1,8
256,192,171607,5,0
256,192,171769,1,0
256,192,171850,5,8
256,192,172013,1,8
256,192,172175,5,0
256,192,172337,1,0
256,192,172418,5,8
256,192,172499,5,0
256,192,172661,5,8
256,192,172823,5,0
256,192,172904,5,8
256,192,173067,1,8
256,192,173148,1,8
256,192,173310,1,8
256,192,173472,5,0
256,192,173634,5,8
256,192,173715,1,8
256,192,173796,5,0
256,192,173958,5,8
256,192,174040,1,8
256,192,174121,5,0
256,192,174202,5,8
256,192,174364,1,8
256,192,174445,5,0
256,192,174607,5,8
256,192,174769,5,4
256,192,175256,1,0
256,192,175418,1,8
256,192,175742,1,0
160,288,176067,1,0
160,288,176148,1,0
160,288,176229,1,0
160,288,176391,1,8
256,192,176553,1,0
256,192,176634,1,0
256,192,176715,1,0
256,192,176877,1,8
256,192,177040,1,0
224,96,177121,1,0
224,96,177202,1,8
224,96,177364,1,0
224,96,177688,1,0
224,96,177850,1,0
224,96,178013,1,8
224,96,178337,1,0
224,96,178661,1,0
224,96,178904,1,0
224,96,178986,1,0
224,96,179148,1,8
224,96,179310,1,0
224,96,179391,1,0
224,96,179472,1,0
224,96,179634,1,8
224,96,179715,1,8
224,96,179796,1,8
224,224,179958,1,0
256,192,180283,1,0
256,192,180445,1,0
256,192,180607,1,8
256,192,180931,1,0
256,192,181256,1,0
256,192,181418,1,8
256,192,181499,1,0
256,192,181742,1,0
256,192,181904,1,8
256,192,182067,1,0
256,192,182148,1,0
256,192,182229,1,0
256,192,182391,1,8
224,64,182553,1,0
224,96,182877,1,0
224,96,183040,1,0
224,96,183202,1,8
224,96,183526,1,0
224,96,183850,1,0
224,96,184013,1,0
224,96,184094,1,8
224,96,184337,1,0
224,96,184499,1,8
224,96,184661,1,8
192,96,184742,1,0
224,96,184823,1,8
224,96,184904,1,8
192,96,184986,1,0
224,96,185148,1,4
224,96,185472,1,8
224,96,185634,1,0
224,96,185796,1,8
224,96,186121,1,0
224,96,186283,1,0
224,96,186445,1,8
224,96,186607,1,0
224,96,186688,1,0
192,96,186850,1,0
192,96,186931,1,8
192,96,187094,1,8
192,96,187256,1,0
192,96,187337,1,0
192,96,187499,1,8
192,96,187580,1,8
192,96,187742,1,8
192,96,188067,1,0
192,96,188229,1,0
192,96,188391,1,8
192,96,188715,1,0
224,160,189040,1,8
224,160,189283,1,0
224,160,189526,1,0
224,160,189688,1,8
192,96,189850,1,0
192,96,189931,1,8
192,96,190013,1,0
192,96,190094,1,0
192,96,190175,1,8
192,96,190337,1,0
224,96,190661,1,0
224,96,190823,1,0
224,96,190986,1,8
224,96,191310,1,0
256,192,191634,12,0,193904
224,192,194229,5,8
256,192,194391,1,0
256,192,194472,1,0
256,192,194634,1,0
256,192,194715,1,0
256,288,194877,2,0,B|256:192,3,70
224,128,195526,1,8
224,128,195688,1,0
224,128,195769,1,0
224,128,195931,1,0
224,128,196013,1,0
224,128,196175,1,0
192,128,196256,1,0
192,128,196337,1,8
192,128,196418,1,0
192,128,196499,1,8
224,96,196580,1,0
224,96,196661,1,0
224,96,196823,1,8
256,160,196986,1,0
256,160,197067,1,0
256,160,197229,1,0
224,96,197310,1,0
224,96,197472,1,8
224,96,197553,1,0
224,96,197634,1,8
224,96,197715,1,0
224,96,197796,1,8
192,32,197877,1,8
192,32,197958,1,0
224,64,198121,1,8
224,64,198202,1,8
224,64,198283,1,0
224,64,198445,1,8
224,64,198607,1,0
224,64,198688,1,0
224,64,198769,1,8
224,64,198850,1,8
224,64,198931,1,0
192,64,199094,1,8
224,64,199175,1,0
192,64,199256,1,8
224,64,199418,1,0
192,64,199580,1,0
192,64,199661,1,0
192,64,199742,1,8
192,64,199904,1,0
224,64,200067,1,8
192,64,200148,1,0
224,64,200229,1,0
192,64,200310,1,8
192,64,200391,1,0
192,64,200472,1,0
192,64,200553,1,8
192,64,200634,1,0
192,64,200715,1,8
192,64,200877,1,0
192,64,200958,1,0
192,64,201121,1,0
192,64,201202,1,0
192,64,201364,1,8
192,64,201445,1,0
192,64,201526,1,8
192,64,201607,1,8
192,64,201688,1,0
192,64,201769,1,0
192,64,201850,1,8
192,0,202013,1,8
224,128,202175,1,0
224,128,202256,1,0
224,128,202418,1,0
224,128,202499,1,0
224,128,202661,1,8
224,128,202742,1,8
224,128,202823,1,0
192,96,202986,1,8
192,96,203067,1,8
192,96,203148,1,0
192,96,203310,1,8
224,128,203472,1,0
224,128,203553,1,0
192,128,203715,1,0
224,128,203796,1,0
192,128,203958,1,8
192,128,204040,1,0
192,96,204121,1,8
192,96,204202,1,8
192,128,204283,1,0
224,96,204445,1,0
224,96,204607,1,8
224,96,204769,1,0
224,96,204850,1,8
224,96,205013,1,8
224,96,205094,1,0
224,96,205256,1,8
224,96,205418,1,0
192,96,205499,1,8
192,96,205661,1,8
192,96,205742,1,0
224,128,205904,1,12
224,128,206066,1,0
224,128,206147,1,0
224,128,206309,1,0
224,128,206391,1,0
224,128,206553,1,8
192,128,206634,1,0
192,128,206715,1,0
192,128,206796,1,8
192,128,206877,1,0
224,96,206958,1,0
224,96,207039,1,8
224,96,207201,1,8
256,160,207364,1,0
256,160,207445,1,0
256,160,207607,1,0
224,96,207688,1,0
224,96,207850,1,8
224,96,207931,1,8
224,96,208012,1,8
224,96,208093,1,0
224,96,208174,1,8
192,32,208255,1,8
192,32,208336,1,0
224,64,208499,1,8
224,64,208580,1,0
224,64,208661,1,8
224,64,208823,1,0
224,64,208985,1,8
224,64,209066,1,8
224,64,209147,1,0
224,64,209228,1,0
224,64,209309,1,8
192,64,209472,1,8
224,64,209553,1,8
192,64,209634,1,0
224,64,209796,1,8
192,64,209958,1,0
192,64,210039,1,0
192,64,210120,1,8
192,64,210282,1,0
224,64,210445,1,8
192,64,210526,1,0
224,64,210607,1,0
192,64,210688,1,0
192,64,210769,1,8
192,64,210850,1,0
192,64,210931,1,0
192,64,211012,1,8
192,64,211094,1,8
192,64,211255,1,0
192,64,211336,1,8
192,64,211499,1,8
192,64,211580,1,8
192,64,211742,1,0
192,64,211823,1,0
192,64,211904,1,8
192,64,211985,1,8
192,64,212066,1,0
192,64,212147,1,0
192,64,212228,1,8
192,0,212391,1,8
224,128,212553,1,0
224,128,212634,1,0
224,128,212796,1,0
224,128,212877,1,0
224,128,213039,1,8
224,128,213120,1,8
224,128,213201,1,0
192,96,213364,1,0
192,96,213445,1,0
192,96,213526,1,0
192,96,213688,1,8
224,128,213850,1,0
224,128,213931,1,8
192,128,214094,1,8
224,128,214174,1,0
192,128,214337,1,8
192,128,214418,1,0
192,96,214499,1,0
192,96,214580,1,8
192,128,214661,1,0
224,96,214823,1,8
224,96,214985,1,0
224,96,215147,1,0
224,96,215228,1,8
224,96,215391,1,0
224,96,215472,1,0
224,96,215634,1,8
224,96,215796,1,0
192,96,215877,1,8
192,96,216039,1,0
192,96,216120,1,0
224,128,216283,1,8
192,128,216364,1,0
224,128,216445,1,8
224,128,216607,1,0
224,128,216688,1,8
224,128,216770,1,0
224,128,216932,1,8
192,128,217013,1,0
192,128,217094,1,8
192,128,217175,1,8
192,128,217256,1,0
224,96,217337,1,0
224,96,217418,1,8
224,96,217580,1,8
192,32,217661,1,0
256,160,217743,1,8
256,160,217904,1,0
256,160,217986,1,8
224,96,218067,1,0
224,96,218229,1,8
224,96,218310,1,0
224,96,218391,1,8
224,96,218472,1,8
192,32,218634,1,8
192,32,218715,1,0
224,64,218878,1,8
224,64,218958,1,8
224,64,219040,1,0
224,64,219202,1,0
224,64,219283,1,8
224,64,219364,1,8
224,64,219526,1,8
224,64,219607,1,8
224,64,219688,1,0
192,32,219769,1,8
192,64,219851,1,0
224,64,219932,1,8
192,64,220013,1,8
224,64,220175,1,8
192,64,220337,1,0
192,64,220418,1,0
192,64,220499,1,8
192,64,220661,1,8
224,64,220824,1,0
192,64,220905,1,8
224,64,220986,1,0
192,64,221067,1,0
192,64,221148,1,8
192,64,221229,1,0
192,64,221310,1,8
192,64,221391,1,8
192,64,221472,1,8
192,64,221634,1,0
192,64,221715,1,0
192,64,221796,1,8
192,64,221959,1,8
192,64,222040,1,0
192,64,222121,1,8
192,64,222283,1,0
192,64,222364,1,8
192,64,222445,1,0
192,64,222526,1,0
192,64,222607,1,8
192,0,222770,1,8
224,128,222932,1,0
224,128,223013,1,8
224,128,223175,1,8
224,128,223256,1,0
224,128,223418,1,8
224,128,223499,1,8
224,128,223580,1,0
192,96,223742,1,8
192,96,223824,1,0
192,96,223904,1,8
192,96,224067,1,8
224,128,224229,1,0
224,128,224310,1,0
192,128,224472,1,8
224,128,224553,1,8
192,128,224715,1,0
192,128,224797,1,0
192,96,224878,1,8
192,96,224959,1,0
192,128,225040,1,8
224,96,225202,1,0
224,96,225364,1,8
224,96,225526,1,0
224,96,225607,1,8
224,96,225769,1,8
224,96,225851,1,0
224,96,226013,1,8
224,96,226175,1,0
192,96,226256,1,8
192,96,226418,1,8
192,96,226499,1,0
160,64,226661,1,8
160,64,226742,1,0
160,64,226823,1,8
160,64,226986,1,0
160,64,227067,1,8
160,64,227148,1,0
160,64,227310,1,8
160,64,227391,1,0
160,32,227472,1,8
192,64,227553,1,8
160,64,227634,1,0
160,64,227715,1,8
160,64,227796,1,8
160,64,227958,1,8
160,64,228040,1,8
160,64,228121,1,0
160,64,228283,1,8
160,64,228445,1,0
160,64,228526,1,0
128,64,228607,1,8
160,64,228769,1,0
160,64,228850,1,8
160,64,229013,1,0
224,64,229094,1,8
224,64,229256,1,8
256,160,229337,1,8
288,160,229418,1,0
256,160,229580,1,8
256,160,229661,1,8
256,192,229742,1,0
256,192,229904,1,8
256,192,229986,1,8
256,192,230067,1,0
256,192,230148,1,8
256,192,230229,1,8
256,192,230310,1,8
256,192,230391,1,0
256,192,230553,1,8
256,192,230634,1,8
256,192,230715,1,0
256,192,230877,1,0
256,192,230958,1,8
256,192,231040,1,0
256,192,231121,1,0
256,192,231202,1,8
256,192,231283,1,0
256,192,231364,1,8
224,192,231445,1,8
224,64,231607,1,0
224,64,231688,1,8
256,192,231850,5,0
256,192,231931,1,0
256,192,232013,1,0
256,192,232094,1,0
256,192,232175,5,8
256,192,232337,1,8
256,192,232499,5,0
256,192,232580,1,0
256,192,232661,1,0
256,192,232742,1,0
256,192,232823,5,8
256,192,232904,1,8
256,192,232986,1,8
256,192,233067,1,8
256,192,233148,5,0
256,192,233310,1,0
256,192,233472,5,8
256,192,233553,1,8
256,192,233634,5,0
256,192,233715,1,0
256,192,233796,5,8
256,192,233958,5,0
256,192,234121,5,8
256,192,234202,5,0
256,192,234283,5,8
256,192,234364,5,0
256,192,234445,5,8
256,192,234607,1,8
256,192,234769,5,0
256,192,234850,1,0
256,192,234931,1,0
256,192,235013,1,0
256,192,235094,5,8
256,192,235256,1,8
256,192,235418,5,0
256,192,235499,1,0
256,192,235580,5,8
256,192,235661,1,8
160,96,235742,1,8
160,96,235904,1,0
160,96,235986,1,0
160,64,236148,1,0
160,64,236229,1,0
160,64,236391,1,8
160,64,236553,1,0
160,64,236634,1,0
160,64,236796,1,0
160,96,236877,1,0
256,192,237040,12,0,238337
288,192,242229,5,0
288,192,244823,1,0
288,192,247418,1,4
224,96,247742,1,8
288,192,248391,1,8
288,128,249040,1,8
256,128,249688,1,8
256,128,250013,1,0
256,128,250337,1,8
224,64,250986,1,8
256,96,251634,1,8
256,32,252283,1,8
224,128,252607,1,0
256,64,252931,1,8
256,96,253580,1,8
256,96,254229,1,8
256,96,254877,1,8
256,96,255202,1,0
256,96,255526,1,8
256,96,256175,1,8
224,64,256499,1,4
224,64,256823,1,4
224,64,257148,1,4
224,64,257472,1,4
224,96,257796,5,0
224,96,257958,1,0
192,32,258040,1,8
192,32,258202,1,8
224,96,258283,1,0
192,32,258364,1,0
192,32,258445,1,8
192,32,258607,1,0
160,32,258688,1,8
192,32,258850,1,0
256,192,258931,5,0
256,192,259013,1,0
256,192,259094,5,8
256,192,259175,1,0
256,192,259256,1,0
256,192,259337,1,0
256,192,259418,1,8
256,192,259499,1,0
256,192,259580,1,0
256,192,259661,1,0
256,192,259742,1,8
256,192,260070,5,4
256,192,260399,5,12
256,192,260561,1,0
256,192,260642,1,8
256,192,260804,1,0
256,192,260885,1,0
256,192,260966,1,0
256,192,261048,1,8
288,192,261210,1,0
288,192,261291,1,8
288,192,261453,1,0
288,192,261534,1,0
288,192,261615,1,0
288,192,261696,1,8
288,192,261858,1,0
288,192,261939,1,8
288,96,262101,1,8
288,96,262182,5,0
288,96,262263,1,0
288,96,262344,5,8
288,96,262426,5,0
288,96,262507,5,8
288,96,262588,1,8
288,96,262669,5,0
288,96,262831,1,0
224,128,262994,5,8
224,128,263156,5,0
224,128,263237,1,0
224,128,263318,1,8
224,128,263480,1,0
224,128,263642,1,8
224,128,263723,1,8
224,128,263804,1,0
224,128,263966,1,8
224,128,264048,1,8
224,128,264129,1,0
224,128,264291,1,0
224,128,264453,1,0
224,128,264534,1,0
224,128,264615,1,8
256,160,264777,1,0
256,160,264939,1,8
256,160,265021,1,0
256,160,265102,1,8
256,160,265183,1,8
256,160,265264,1,0
256,160,265426,1,0
256,160,265588,1,8
224,64,265750,1,0
224,96,265831,1,0
224,96,265994,1,0
224,192,266075,1,8
224,192,266156,1,0
224,192,266237,1,0
224,192,266399,1,0
224,192,266480,1,0
224,192,266642,1,0
224,192,266723,1,8
224,192,266804,1,0
224,96,266885,1,0
224,96,267048,1,0
224,96,267129,1,8
224,96,267291,1,8
224,96,267372,1,0
224,96,267534,1,8
224,96,267696,1,0
224,96,267777,1,0
224,96,267858,1,8
224,96,268021,1,8
256,192,268183,5,4
256,192,268345,1,0
256,192,268426,1,8
256,192,268588,1,0
256,192,268669,1,0
256,192,268750,1,0
256,192,268832,1,8
288,192,268994,1,0
288,192,269075,1,8
288,192,269237,1,0
288,192,269318,1,0
288,192,269399,1,0
288,192,269480,1,8
288,192,269642,1,0
288,192,269723,1,8
288,192,269886,1,0
288,192,269967,1,0
288,192,270048,1,0
288,192,270129,1,8
224,128,270210,1,0
224,128,270291,1,0
224,128,270372,1,0
224,128,270453,1,8
224,128,270534,1,0
224,128,270615,1,8
224,128,270777,1,8
224,128,270940,1,0
224,128,271021,1,8
224,128,271183,1,8
224,128,271264,1,0
224,128,271345,1,0
224,128,271426,1,8
224,128,271588,1,0
224,128,271669,1,8
224,128,271832,1,8
224,128,271913,1,0
224,128,271994,1,0
256,64,272075,1,8
224,128,272237,1,0
224,128,272318,1,8
224,128,272399,1,0
256,160,272561,1,8
256,160,272723,1,0
256,160,272805,1,0
256,160,272886,1,0
256,160,272967,1,0
256,160,273048,1,8
224,64,273129,1,8
256,160,273210,1,0
256,160,273372,1,0
224,64,273534,1,0
224,96,273615,1,8
224,96,273778,1,0
224,192,273859,1,0
224,192,273940,1,8
224,192,274021,1,0
224,192,274183,1,0
224,192,274264,1,8
224,192,274426,1,0
224,192,274507,1,0
224,192,274588,1,8
224,96,274669,1,0
224,96,274832,1,0
224,96,274912,1,8
224,96,275075,1,0
224,96,275156,1,8
224,96,275318,1,8
224,96,275480,1,0
224,96,275561,1,0
224,96,275642,1,8
224,96,275805,1,0
224,96,275967,1,8
256,128,276129,1,0
256,128,276210,1,8
256,128,276372,1,0
256,128,276453,1,8
256,128,276534,1,8
256,128,276615,1,0
256,128,276777,1,0
256,128,276858,1,8
256,128,277021,1,8
224,128,277102,1,0
192,64,277264,1,8
224,96,277426,1,0
192,96,277588,1,8
224,96,277750,1,0
256,288,277912,2,0,B|256:64,1,210
256,192,278561,5,8
256,192,278642,1,0
256,192,278723,1,0
256,192,278804,1,8
256,192,278885,1,8
256,192,279048,1,0
256,192,279129,1,0
256,192,279210,1,8
256,192,279372,1,0
256,192,279453,1,8
256,192,279534,1,0
256,192,279615,1,0
256,192,279696,1,0
256,192,279858,1,0
256,192,279939,1,0
256,192,280021,1,0
256,192,280102,1,8
256,192,280183,1,0
256,192,280264,1,0
256,192,280345,1,8
256,192,280507,1,8
256,192,280588,1,0
256,192,280669,1,0
256,192,280750,1,0
256,192,280831,1,8
256,192,280994,5,8
256,192,281156,5,8
256,128,281237,1,0
256,192,281318,1,0
256,192,281399,1,8
256,192,281480,1,0
256,160,281642,1,8
256,160,281723,1,8
224,160,281804,1,0
224,160,281885,1,0
224,160,281966,1,8
224,160,282129,1,0
224,160,282210,1,0
224,160,282291,1,8
224,160,282453,1,0
224,160,282534,1,8
224,160,282615,1,8
224,160,282696,1,8
224,160,282777,1,0
224,160,282939,1,0
224,160,283021,1,0
224,160,283102,1,8
224,160,283183,1,8
224,160,283264,1,8
224,160,283345,1,0
224,160,283426,1,8
192,96,283588,5,0
256,192,283750,5,8
256,192,283831,1,0
256,192,283912,1,0
256,192,283993,1,8
256,192,284074,1,0
256,192,284237,1,0
256,192,284318,1,0
256,192,284399,1,8
256,192,284561,1,0
256,192,284723,1,0
256,192,284804,1,0
256,192,284885,1,0
256,192,284966,1,0
256,192,285047,1,8
256,192,285210,1,0
256,192,285372,1,0
256,192,285453,1,0
256,192,285534,1,0
256,192,285696,1,8
256,192,285777,1,0
256,192,285858,1,0
256,192,285939,1,8
256,192,286020,1,0
288,192,286183,1,8
256,192,286345,5,8
256,192,286426,1,0
256,192,286507,1,0
256,192,286588,1,8
256,192,286669,1,8
256,192,286832,1,0
256,192,286913,1,0
256,192,286994,1,8
256,192,287156,1,0
256,192,287237,1,8
256,192,287318,1,8
256,192,287480,1,0
256,192,287561,1,0
256,192,287642,1,8
256,192,287805,1,0
256,192,287967,1,8
256,192,288129,1,0
256,192,288291,1,8
256,192,288453,1,0
256,192,288615,5,8
256,192,288777,1,8
256,192,288939,1,8
256,192,289020,1,0
256,192,289102,1,0
256,192,289183,1,8
256,192,289263,1,0
256,192,289345,1,0
256,192,289426,1,8
256,192,289588,1,0
256,192,289669,1,0
256,192,289750,1,0
256,192,289831,1,8
256,192,289912,1,0
256,192,289993,1,0
256,192,290075,1,8
256,192,290237,1,0
256,192,290318,1,0
256,192,290399,1,0
256,192,290480,1,0
256,192,290561,1,8
256,192,290723,1,0
256,192,290804,1,0
256,192,290885,1,8
256,160,290966,1,8
256,64,291048,1,0
256,160,291129,1,0
256,160,291210,1,8
256,160,291372,1,8
256,192,291534,1,8
256,192,291615,1,0
256,192,291697,1,8
256,192,291778,1,0
256,192,291859,1,0
256,192,291940,1,0
256,192,292021,1,8
256,192,292183,1,0
256,192,292264,1,0
256,192,292345,1,8
256,192,292426,1,0
256,192,292507,1,0
256,192,292588,1,0
256,192,292670,1,8
256,192,292832,1,0
256,192,292913,1,0
256,192,292994,1,8
256,192,293075,1,0
256,192,293156,1,8
256,192,293237,1,0
256,192,293318,1,8
256,192,293399,1,0
256,192,293480,1,8
256,160,293561,1,8
256,64,293643,1,0
256,160,293724,1,0
256,160,293804,1,8
256,192,293966,1,8
256,192,294129,1,0
256,192,294210,1,0
256,192,294290,1,8
256,192,294371,1,8
256,192,294452,1,0
256,192,294533,1,0
256,192,294614,1,8
256,192,294776,1,0
256,192,294857,1,0
256,192,294938,1,8
256,192,295019,1,8
256,192,295100,1,0
256,192,295181,1,0
256,192,295262,1,8
256,192,295425,1,8
256,192,295506,1,0
256,192,295587,1,0
256,192,295669,1,8
256,192,295749,1,0
256,192,295830,1,0
256,192,295912,1,8
256,192,296074,1,8
256,160,296154,1,8
256,64,296236,1,8
256,160,296317,1,8
256,160,296398,1,0
256,160,296561,1,8
256,192,296722,1,8
256,192,296803,1,0
256,192,296885,1,0
256,192,297047,1,0
256,192,297209,1,8
256,192,297290,1,8
256,192,297371,1,0
256,192,297533,1,8
256,192,297614,1,0
256,192,297695,1,8
256,192,297776,1,0
256,192,297858,1,8
256,192,297939,1,8
256,192,298020,1,0
256,192,298182,1,0
256,192,298344,1,8
256,192,298506,1,0
256,192,298668,1,0
256,64,298831,1,8
256,160,298911,1,8
224,32,298993,1,0
256,192,299155,1,8
224,64,299317,1,4
224,96,299479,1,0
224,96,299560,1,8
224,96,299803,1,0
224,64,299965,1,8
192,32,300127,1,0
192,32,300208,1,8
192,32,300452,1,0
224,64,300614,1,8
224,64,300776,1,0
224,64,300857,1,0
352,96,300938,1,8
352,96,300992,1,8
352,96,301046,1,8
352,96,301100,1,8
288,96,301262,1,0
288,96,301344,1,8
288,96,301506,1,0
224,32,301668,1,8
224,32,301749,1,0
224,32,301911,1,8
224,32,302073,1,0
224,32,302154,1,0
224,32,302317,1,0
224,32,302398,1,8
224,32,302560,1,0
224,32,302722,1,8
224,32,302803,1,0
192,32,303046,1,8
224,32,303208,1,8
224,32,303289,1,0
224,32,303371,1,8
224,32,303452,1,8
192,32,303533,1,0
192,32,303614,1,0
192,32,303695,1,8
192,32,303776,1,8
192,32,303857,1,0
224,64,304019,1,8
224,64,304181,1,0
224,64,304344,1,8
224,64,304506,1,4
224,64,304668,1,8
224,64,304830,1,8
224,64,304911,1,0
224,64,304992,1,8
224,64,305073,1,8
224,64,305154,1,8
320,96,305208,1,8
320,96,305262,1,8
320,96,305317,1,8
192,32,305479,1,8
192,32,305641,1,0
192,32,305803,1,8
256,128,305965,1,8
256,128,306127,1,0
256,128,306208,1,0
256,128,306289,1,8
256,128,306371,1,8
256,128,306452,1,0
256,128,306614,1,8
256,128,306776,1,8
256,128,306857,1,0
256,128,306938,1,8
256,128,307019,1,8
256,128,307100,1,0
256,96,307262,1,8
256,96,307425,1,8
384,96,307479,1,8
384,96,307533,1,8
384,96,307587,1,8
384,64,307749,1,8
352,96,307830,1,0
352,96,307911,1,8
352,96,307992,1,8
352,96,308073,1,0
352,96,308154,1,0
352,96,308235,1,8
352,96,308317,1,0
352,96,308398,1,0
352,96,308560,1,0
352,96,308641,1,8
352,96,308803,1,0
352,96,308884,1,8
352,96,308965,1,0
352,96,309046,1,8
352,96,309127,1,0
352,96,309208,1,0
352,96,309289,1,8
352,96,309371,1,8
352,96,309452,1,0
320,96,309533,1,8
320,96,309695,1,4
288,160,309857,1,0
288,192,309938,1,0
288,192,310019,1,8
288,192,310181,1,0
288,128,310262,1,8
288,128,310344,1,0
288,128,310506,1,8
288,128,310587,1,0
288,128,310749,1,8
256,128,310830,1,0
256,128,310992,1,8
256,128,311154,1,0
256,128,311235,1,0
384,96,311317,1,8
352,96,311371,1,8
352,96,311425,1,8
352,96,311479,1,8
384,96,311641,1,8
384,96,311803,1,8
384,96,311965,1,0
384,96,312046,1,0
384,96,312127,1,0
224,64,312289,1,8
256,64,312452,1,0
256,64,312533,1,8
224,64,312695,1,8
224,64,312776,1,0
224,64,312938,1,0
224,64,313019,1,0
224,64,313181,1,0
224,64,313262,1,8
224,64,313344,1,0
224,64,313425,1,0
224,64,313506,1,0
224,64,313587,1,8
224,64,313668,1,8
224,64,313749,1,8
192,64,313830,1,8
224,64,313911,1,0
224,96,313992,1,0
224,96,314073,1,8
192,64,314235,1,0
192,64,314317,1,8
192,64,314398,5,0
192,64,314479,1,0
192,64,314560,1,8
192,64,314722,1,0
192,64,314884,1,8
192,64,315046,1,0
384,64,315100,1,0
384,64,315154,1,0
192,0,315208,1,0
192,0,315371,1,0
256,64,315452,1,0
256,64,315533,1,8
256,64,315695,1,8
256,64,315857,1,0
256,64,315938,1,0
256,64,316019,1,0
256,96,316181,1,8
256,128,316344,1,8
256,128,316506,1,0
256,128,316587,1,0
256,128,316668,1,0
256,128,316830,1,8
192,64,316911,1,0
256,128,316992,1,8
256,128,317073,1,8
256,128,317154,1,0
192,64,317235,1,8
192,64,317317,1,0
192,64,317398,1,0
192,64,317479,1,8
192,64,317641,1,0
224,32,317722,1,0
192,32,317803,1,8
192,32,317965,1,0
192,32,318046,1,8
192,32,318127,1,0
192,32,318208,1,0
192,32,318289,1,8
192,32,318452,1,0
256,192,318614,5,8
256,192,318776,12,0,319992
224,160,320073,5,4
224,160,320398,1,0
224,160,320722,1,0
224,160,321046,1,0
224,128,321371,1,8
224,128,321695,1,8
192,32,322019,1,8
192,64,322344,1,8
192,64,322668,1,0
192,64,322992,1,0
192,64,323317,1,0
192,64,323641,1,0
192,64,323965,1,8
192,64,324289,1,8
192,64,324614,1,8
192,128,324857,1,8
192,64,324938,1,8
192,128,325100,1,8
192,64,325262,1,0
192,64,325587,1,0
192,64,325911,1,0
192,64,326235,1,0
192,64,326560,1,8
192,64,326884,1,8
192,64,327208,1,8
192,64,327533,1,8
192,64,327857,1,0
192,64,328181,1,0
192,64,328506,1,0
192,64,328830,1,0
192,64,329154,1,8
192,64,329479,1,8
192,64,329803,1,8
192,160,330046,1,8
192,64,330289,1,8
192,64,330452,1,4
192,64,330776,1,0
192,64,331100,1,0
224,160,331425,1,0
224,160,331749,1,8
224,160,332073,1,8
224,160,332398,1,8
224,160,332722,1,8
224,160,332884,1,8
224,160,333046,1,0
224,160,333371,1,0
224,160,333695,1,0
224,160,334019,1,0
224,160,334344,1,8
224,160,334668,1,8
224,160,334992,1,8
224,160,335316,1,8
224,64,335479,1,8
224,160,335641,1,0
224,160,335965,1,0
224,160,336289,1,0
224,160,336614,1,0
224,160,336938,1,8
224,160,337262,1,8
192,128,337425,1,8
224,160,337587,1,8
256,128,337668,1,8
256,128,337749,1,8
224,160,337911,1,8
256,128,337992,1,8
224,160,338073,1,8
224,160,338235,1,0
256,128,338316,1,0
256,128,338398,1,0
224,160,338560,1,0
256,128,338641,1,0
256,128,338722,1,0
256,128,338884,1,8
256,128,338965,1,8
256,128,339046,1,8
256,128,339127,1,8
224,160,339208,5,8
256,160,339289,1,8
256,160,339371,1,8
256,160,339452,1,8
256,192,339533,12,0,340506
160,160,340668,5,4
288,128,340830,5,4
