osu file format v6

[General]
AudioFilename: Luv-Lab-Poison 22ate!.mp3
AudioLeadIn: 0
PreviewTime: 34613
Countdown: 3
SampleSet: Normal
StackLeniency: 0.5
Mode: 0
LetterboxInBreaks: 1
SkinPreference:Default

[Editor]
Bookmarks: 18026,34876,51710,68552,79210,100301,108722,109774,117143
DistanceSpacing: 0.800000011920929
BeatDivisor: 1
GridSize: 8

[Metadata]
Title:Luv-Lab-Poison 22ate!
Artist:t+pazolite
Creator:Xgor
Version:Xtreme
Source:
Tags:Touhou 9 Phantasmagoria of Flower View Crazy Remix Medicine Melancholy Poison Body ~ Forsaken Doll

[Difficulty]
HPDrainRate:6
CircleSize:5
OverallDifficulty:8
SliderMultiplier:1.7
SliderTickRate:4

[Events]
//Background and Video events
0,0,"background.jpg"
//Break Periods
2,68496,78490
//Storyboard Layer 0 (Background)
//Storyboard Layer 1 (Fail)
//Storyboard Layer 2 (Pass)
//Storyboard Layer 3 (Foreground)
Sprite,Foreground,Centre,"cooltext438551900.png",320,240 F,0,107673,108726,0,1 S,0,108726,109248,1,1.1408 M,0,107673,109511,350,360,320,83 M,0,107673,109511,318,364,320,83 F,0,108726,109511,1 M,0,109511,109609,320,83,289,103 M,0,109609,109628,289,103,295,105 M,0,109628,109644,295,105,299,107 M,0,109644,109659,299,107,310,108 M,0,109659,109675,310,108,341,94 M,0,109675,109693,341,94,348,65 M,0,109693,109709,348,65,342,48 M,0,109709,109727,342,48,337,34 M,0,109727,109743,337,34,330,28 M,0,109743,109759,330,28,330,43 S,0,109248,109774,1.1408,1.039454 F,0,109511,109774,1,0 M,0,109759,109775,330,43,332,56 M,0,109775,109794,332,56,336,72 M,0,109794,109809,336,72,337,75 M,0,109809,109826,337,75,336,76 M,0,109826,109843,336,76 M,0,109843,109859,336,76,335,73 M,0,109859,109876,335,73,336,71 M,0,109876,109893,336,71,338,71
//Storyboard Sound Samples
//Background Colour Transformations
3,100,163,162,255

[TimingPoints]
139,263.157894736842,4,1,0,100,1,0
68561,-200,4,2,0,100,0,0
79240,333.33703707819,4,2,0,100,1,0
99236,263.157894736842,4,2,0,100,1,0
100305,-100,4,1,0,100,0,1
108709,2105.26315789474,4,1,0,100,1,0
109761,263.157894736842,4,1,0,100,1,1
117143,-100,4,1,0,100,0,0

[Colours]
Combo1 : 187,4,9
Combo2 : 162,4,162

[HitObjects]
24,104,18033,1,0
80,64,18165,1,8
144,72,18296,1,0
208,64,18428,1,0
272,40,18560,1,0
320,80,18691,1,8
384,72,18823,1,0
448,56,18954,1,0
488,112,19086,1,0
464,176,19217,1,8
400,192,19349,1,0
336,160,19481,1,0
272,144,19612,1,0
200,144,19744,1,8
136,176,19875,2,2,B|56:208,1,85
40,272,20138,5,0
80,328,20270,1,8
136,296,20402,1,0
200,320,20533,1,0
264,336,20665,1,0
320,304,20796,1,8
384,336,20928,1,0
448,312,21060,1,0
472,248,21191,1,0
464,176,21323,1,8
400,152,21454,1,0
336,176,21586,1,0
272,208,21717,1,0
216,248,21849,1,8
152,224,21981,2,2,B|72:184,1,85
48,120,22244,5,0
88,64,22375,1,8
152,72,22507,1,0
200,120,22638,1,0
256,88,22770,1,0
312,48,22902,1,8
352,104,23033,1,0
408,64,23165,1,0
440,120,23296,1,0
432,184,23428,1,8
384,232,23560,1,0
368,296,23691,1,0
296,304,23823,1,0
232,272,23954,1,8
168,296,24086,2,2,B|112:216,1,85,2|2
104,160,24349,6,0,B|152:160,2,42.5,8|0|8
144,104,24612,2,2,B|192:104,2,42.5
184,160,24875,2,0,B|240:160,2,42.5
224,104,25138,2,2,B|272:104,2,42.5
264,160,25402,2,0,B|312:160,2,42.5,8|0|8
304,104,25665,2,2,B|360:104,2,42.5
280,40,25928,2,0,B|232:40,1,42.5,8|0
237,40,26060,2,0,B|184:40,1,42.5,8|0
195,40,26191,2,0,B|128:40,1,42.5,8|0
152,40,26323,2,0,B|96:40,1,42.5,8|0
56,72,26454,5,0
88,128,26586,1,8
152,152,26717,1,4
136,216,26849,1,0
184,264,26981,1,0
240,224,27112,1,8
280,168,27244,1,0
312,112,27375,1,0
376,88,27507,1,0
432,128,27638,1,8
440,192,27770,1,0
424,256,27902,1,0
368,296,28033,1,0
304,280,28165,1,8
240,296,28296,2,2,B|160:328,1,85
104,296,28560,5,0
64,240,28691,1,8
88,176,28823,1,0
88,104,28954,1,0
144,64,29086,1,0
200,96,29217,1,8
264,80,29349,1,0
328,64,29481,1,0
392,80,29612,1,0
448,120,29744,1,8
416,184,29875,1,0
440,248,30007,1,0
392,296,30138,1,0
320,304,30270,1,8
248,304,30402,2,2,B|168:264,1,85
216,216,30665,5,0
152,200,30796,1,8
96,160,30928,1,0
56,216,31060,1,0
72,280,31191,1,0
112,328,31323,1,8
176,352,31454,1,0
240,328,31586,1,0
288,280,31717,1,0
336,232,31849,1,8
320,168,31981,1,0
344,104,32112,1,0
288,64,32244,1,0
232,104,32375,1,8
168,72,32507,2,2,B|80:96,1,85,2|2
96,160,32770,5,8
96,160,32836,1,0
96,160,32902,1,0
160,160,33033,1,8
160,160,33099,1,0
160,160,33165,1,0
224,160,33296,1,8
224,160,33362,1,0
224,160,33428,1,0
288,160,33560,1,8
288,160,33625,1,0
288,160,33691,1,0
288,160,33823,6,2,B|288:72|352:64|408:72|416:208|416:296|360:296|160:288|112:224,1,510
48,80,34875,5,0
112,112,35007,1,2
160,64,35138,1,0
224,96,35270,1,8
280,56,35402,1,0
344,72,35533,1,2
400,32,35665,1,0
464,56,35796,1,8
464,120,35928,5,4
464,328,36125,1,0
400,136,36323,1,4
400,344,36520,1,0
320,160,36717,1,4
320,304,36849,1,0
261,318,36981,5,0
200,328,37112,1,2
144,296,37244,1,0
96,248,37375,1,8
96,184,37507,1,0
144,136,37639,1,2
200,104,37770,1,0
264,112,37902,1,8
296,40,38033,5,4
448,152,38231,1,0
264,80,38428,1,4
416,192,38625,1,0
240,152,38823,1,4
344,224,38954,1,0
296,272,39086,5,0
232,296,39217,1,2
168,272,39349,1,0
112,232,39481,1,8
72,176,39612,1,0
72,104,39744,1,2
104,48,39875,1,0
168,24,40007,1,8
232,32,40139,5,4
232,200,40336,1,0
408,200,40533,1,4
408,32,40731,1,0
232,56,40928,1,4
232,168,41060,1,0
160,168,41191,5,0
120,224,41323,1,2
120,288,41454,1,0
168,336,41586,1,8
232,336,41717,1,0
280,288,41849,1,2
280,224,41981,1,0
232,168,42112,1,8
256,208,42244,12,4,43033
48,80,43296,5,8
80,80,43362,1,0
112,80,43428,1,8
144,136,43560,1,0
208,136,43691,1,0
248,80,43823,1,8
280,80,43889,1,0
312,80,43954,1,8
352,136,44086,1,2
416,136,44217,1,0
384,192,44349,5,4
416,288,44546,1,0
320,336,44744,1,4
288,240,44941,1,0
192,256,45139,1,4
136,216,45270,1,8
112,192,45336,1,0
96,160,45402,5,8
88,128,45467,1,0
104,96,45533,1,8
168,72,45665,1,2
232,72,45796,1,0
296,64,45928,1,8
328,72,45994,1,0
360,88,46060,1,8
408,128,46191,1,2
456,168,46323,1,0
464,232,46454,5,4
360,232,46652,1,0
288,160,46849,1,4
184,160,47046,1,0
88,184,47244,1,4
56,240,47375,1,8
48,272,47441,1,0
64,304,47507,5,8
96,312,47573,1,0
128,304,47639,1,8
192,320,47770,1,2
256,304,47902,1,0
280,240,48033,1,8
304,216,48099,1,0
320,184,48165,1,8
376,152,48296,1,2
424,104,48428,1,0
384,48,48560,5,4
312,120,48757,1,0
248,40,48954,1,4
144,32,49152,1,0
112,128,49349,1,4
176,136,49481,1,8
168,168,49546,1,0
152,192,49612,5,8
120,208,49678,1,0
88,216,49744,1,8
64,280,49875,1,2
104,336,50007,1,0
176,336,50139,1,8
208,344,50204,1,0
240,336,50270,1,8
312,336,50402,1,2
368,296,50533,1,0
440,296,50665,2,0,C|480:56|176:40,1,510,0|4
112,96,51717,6,0,B|184:40|224:208|376:112,1,255
348,127,52244,1,8
348,127,52310,1,0
348,127,52375,1,0
348,127,52441,1,0
348,127,52507,1,8
112,288,52770,6,0,B|184:344|224:176|376:272,1,255
348,257,53296,1,2
348,257,53362,1,0
348,257,53428,1,0
348,257,53494,1,0
348,257,53560,1,2
48,192,53823,6,0,B|120:112|208:224|208:24,1,255
208,38,54349,1,8
208,38,54415,1,0
208,38,54481,1,0
208,38,54546,1,0
208,38,54612,1,8
464,192,54875,6,0,B|392:272|304:160|304:360,1,255
304,346,55402,1,4
304,346,55467,1,0
304,346,55533,1,0
304,346,55599,1,0
304,346,55665,1,4
144,24,55928,6,0,B|16:96|160:160|96:256,1,255
100,250,56454,1,8
100,250,56520,1,0
100,250,56586,1,0
100,250,56652,1,0
100,250,56717,1,8
368,24,56981,6,0,B|496:96|352:160|416:256,1,255
412,250,57507,1,2
412,250,57573,1,0
412,250,57639,1,0
412,250,57704,1,0
412,250,57770,1,2
120,40,58033,6,0,B|176:0|240:200|328:24,1,255
324,31,58560,1,8
324,31,58625,1,0
324,31,58691,1,0
324,31,58757,1,0
324,31,58823,1,8
120,344,59086,6,0,B|176:384|240:184|328:360,1,255
324,353,59612,1,4
324,353,59678,1,0
324,353,59744,1,0
324,353,59810,1,0
324,353,59875,1,4
200,192,60139,5,0
256,248,60270,1,8
312,192,60402,1,0
256,128,60533,1,2
256,192,60665,1,8
256,192,60731,1,0
256,192,60796,1,0
256,192,60862,1,0
256,192,60928,1,8
256,256,61191,5,0
320,192,61323,1,8
256,120,61454,1,0
192,192,61586,1,2
256,192,61717,1,2
256,192,61783,1,0
256,192,61849,1,0
256,192,61915,1,0
256,192,61981,1,2
328,192,62244,5,0
256,112,62375,1,8
184,192,62507,1,0
256,264,62639,1,2
256,192,62770,1,8
256,192,62836,1,0
256,192,62902,1,0
256,192,62967,1,0
256,192,63033,1,8
256,104,63296,5,0
336,192,63428,1,8
256,272,63560,1,0
176,192,63691,1,2
256,192,63823,1,4
256,192,63889,1,0
256,192,63954,1,0
256,192,64020,1,0
256,192,64086,1,4
344,192,64349,5,0
256,280,64481,1,8
168,192,64612,1,0
256,96,64744,1,2
256,192,64875,1,8
256,192,64941,1,0
256,192,65007,1,0
256,192,65073,1,0
256,192,65139,1,8
256,288,65402,5,0
352,192,65533,1,8
256,88,65665,1,0
160,192,65796,1,2
256,192,65928,1,2
256,192,65994,1,0
256,192,66060,1,0
256,192,66125,1,0
256,192,66191,1,2
360,192,66454,5,0
256,296,66586,1,8
152,192,66717,1,0
256,80,66849,1,2
256,192,66981,1,8
256,192,67046,1,0
256,192,67112,1,0
256,192,67178,1,0
256,192,67244,1,8
120,344,67507,5,4
120,40,67770,1,4
392,40,68033,1,4
392,344,68296,1,4
48,80,79240,5,8
40,352,79906,1,8
104,344,80073,1,0
168,328,80240,1,2
224,288,80406,1,0
256,232,80573,1,0
264,168,80740,1,0
288,104,80906,1,2
344,72,81073,1,0
408,48,81240,1,2
472,32,81406,1,0
472,104,81573,1,4
472,336,81906,5,8
472,32,82573,1,8
408,48,82740,1,0
344,72,82906,1,2
288,104,83073,1,0
264,168,83240,1,0
256,232,83406,1,0
224,288,83573,1,2
168,328,83740,1,0
104,344,83906,1,0
32,344,84073,1,0
24,280,84240,1,10
24,216,84406,1,12
24,144,84573,6,0,B|152:24,1,170,0|0
216,32,85073,1,8
256,96,85240,2,0,B|160:96,1,85
136,152,85573,2,0,B|224:152,1,85
264,208,85906,2,0,B|176:208,1,85
136,264,86240,2,0,B|232:264,1,85
264,320,86573,2,0,B|168:320,1,85
112,320,86906,1,4
256,192,87240,5,8
80,24,87906,1,8
112,80,88073,1,0
152,136,88240,1,2
184,80,88406,1,0
224,136,88573,1,0
256,192,88740,1,0
288,248,88906,1,2
320,312,89073,1,0
352,248,89240,1,0
384,312,89406,1,0
416,368,89573,1,2
448,312,89740,1,4
416,248,89906,5,8
256,48,90573,1,8
192,56,90740,1,0
144,104,90906,1,2
112,160,91073,1,0
112,232,91240,1,0
120,264,91323,1,0
136,296,91406,1,2
192,336,91573,1,0
256,352,91740,1,0
296,296,91906,1,0
320,232,92073,1,0
328,168,92240,1,6
256,48,92573,5,8
256,352,93240,1,8
320,344,93406,1,0
368,296,93573,1,2
400,240,93740,1,0
400,168,93906,1,0
392,136,93990,1,0
376,104,94073,1,2
320,64,94240,1,0
256,48,94406,1,0
216,104,94573,1,0
192,168,94740,1,0
184,232,94906,1,10
208,296,95073,1,12
256,344,95240,6,0,B|368:208,1,170
296,208,95740,1,8
232,208,95906,2,0,B|136:208,1,85
144,280,96240,2,0,B|56:280,1,85
64,208,96573,2,0,B|152:208,1,85
152,136,96906,2,0,B|240:136,1,85
232,208,97240,2,0,B|128:208,1,85
144,280,97573,1,4
48,80,97906,5,8
40,352,98573,1,8
104,336,98740,1,0
168,312,98906,1,2
224,280,99073,1,4
256,208,99236,12,4,100288
104,80,100814,5,0
96,144,100946,1,0
104,208,101078,1,8
128,272,101209,1,0
152,336,101341,1,0
224,336,101472,1,0
288,336,101604,1,8
304,272,101736,1,0
320,208,101867,1,0
336,144,101999,1,0
320,80,102130,1,2
216,168,102393,5,4
320,256,102657,1,8
432,336,102920,1,0
448,272,103051,1,0
456,208,103183,1,8
472,144,103314,1,0
424,96,103446,1,2
392,80,103512,1,0
360,96,103578,1,0
352,168,103709,1,8
320,184,103775,1,0
288,168,103841,1,0
288,96,103972,1,2
256,80,104038,1,0
224,96,104104,1,0
224,168,104236,1,8
192,184,104301,1,0
160,168,104367,1,0
184,256,104499,5,4
48,256,104762,1,8
184,256,105025,2,0,B|360:256,1,170
352,184,105420,1,8
352,112,105551,2,0,B|176:112,1,170
112,112,105946,1,8
112,184,106078,2,0,B|112:368,1,170,0|4
184,352,106472,1,2
248,352,106604,5,4
184,232,106867,1,8
104,120,107130,1,8
168,96,107262,1,0
240,96,107393,1,2
304,120,107525,1,0
256,208,107657,12,4,108446
256,184,108709,6,0,B|256:200|240:200|240:184|240:184|264:184|264:200|248:200|248:184,1,63.75,0|0
256,56,109761,5,0
312,96,109892,1,0
336,160,110024,1,8
320,224,110155,1,0
256,256,110287,1,0
200,224,110418,1,0
176,160,110550,1,2
256,56,110813,5,4
176,160,111076,1,8
72,248,111339,1,0
104,304,111471,1,0
168,328,111603,1,8
232,336,111734,1,0
296,328,111866,1,2
328,328,111932,1,0
344,296,111997,1,0
368,232,112129,1,8
360,200,112195,1,0
320,200,112261,1,0
256,200,112392,1,2
224,200,112458,1,0
200,176,112524,1,0
176,112,112655,1,8
160,80,112721,1,0
128,80,112787,1,0
56,80,112918,5,4
48,216,113182,1,8
48,352,113445,2,0,B|232:352,1,170
216,288,113839,1,8
216,216,113971,2,0,B|408:216,1,170
386,147,114366,1,8
386,80,114497,2,0,B|210:80,1,170,0|4
147,80,114892,1,2
79,80,115024,5,4
80,216,115287,1,8
112,352,115550,1,8
168,312,115682,1,0
208,256,115813,1,2
248,200,115945,1,0
256,208,116076,12,0,116866
80,312,117129,5,8
248,312,117392,1,0
400,240,117655,2,0,C|424:152,1,85,8|0
368,224,117918,2,0,C|352:136,1,85
336,224,118182,2,0,C|288:152,1,85,8|0
312,232,118445,2,0,C|232:176,1,85
288,256,118708,2,0,C|200:232,1,85,8|0
152,296,118971,1,4
40,176,119234,5,8
120,32,119497,1,0
232,160,119761,2,0,C|248:56,1,85,8|0
248,160,120024,2,0,C|304:72,1,85,0|0
264,168,120287,2,0,C|344:112,1,85,8|0
288,192,120550,2,0,C|368:160,1,85
296,208,120813,2,0,C|392:208,1,85,8|0
304,240,121076,2,0,C|388:256,1,85
312,296,121339,1,4
256,208,121471,12,4,123182
80,312,123445,5,8
248,312,123708,1,0
112,216,123971,2,0,C|56:136,1,85,8|0
120,216,124234,2,0,C|112:128,1,85
136,216,124497,2,0,C|168:136,1,85,8|0
160,224,124761,2,0,C|216:160,1,85
176,232,125024,2,0,C|280:200,1,85,8|0
216,280,125287,1,4
384,272,125550,5,8
424,104,125813,1,0
304,160,126076,2,0,C|208:160,1,85,8|0
219,74,126339,2,0,C|219:162,1,85,0|0
133,159,126603,2,0,C|221:158,1,85,8|0
218,244,126866,2,0,C|218:152,1,85
278,98,127129,2,0,C|206:170,1,85,8|0
160,216,127392,1,4
216,56,127655,5,8
384,56,127918,1,0
384,224,128182,2,0,C|312:280,1,85,8|0
231,278,128445,2,0,C|153:215,1,85
250,225,128708,2,0,C|250:136,1,85,8|0
335,140,128971,2,0,C|335:233,1,85
336,312,129234,2,0,C|232:312,1,85,8|0
296,240,129497,1,4
256,208,129761,12,0,131603
40,32,131866,5,8
176,136,132129,1,0
296,256,132392,2,0,C|384:224,1,85,8|0
296,257,132655,2,0,C|200:291,1,85
296,258,132918,2,0,C|335:338,1,85,8|0
300,256,133182,2,0,C|265:173,1,85
213,239,133445,2,0,C|297:257,1,85
376,287,133708,2,0,C|297:258,1,85,8|0
255,191,133971,6,4,B|254:142|199:143|199:191|199:191|199:251|254:251|254:251|311:247|312:192|312:192|310:106|236:101|236:101|143:105|143:188|143:188|141:305|256:307|256:307|367:303|369:183|369:183|347:40|239:39|239:39,1,1020
