osu file format v6

[General]
AudioFilename: Luv-Lab-Poison 22ate!.mp3
AudioLeadIn: 0
PreviewTime: 34613
Countdown: 3
SampleSet: Soft
StackLeniency: 0.7
Mode: 0
LetterboxInBreaks: 1
SkinPreference:Default

[Editor]
Bookmarks: 18026,34868,51710,60131,68824,79210,100301,108722,109774,117143
DistanceSpacing: 0.800000011920929
BeatDivisor: 1
GridSize: 8

[Metadata]
Title:Luv-Lab-Poison 22ate!
Artist:t+pazolite
Creator:Xgor
Version:Weak
Source:
Tags:Touhou 9 Phantasmagoria of Flower View Crazy Remix Medicine Melancholy Poison Body ~ Forsaken Doll

[Difficulty]
HPDrainRate:2
CircleSize:3
OverallDifficulty:3
SliderMultiplier:0.9
SliderTickRate:1

[Events]
//Background and Video events
0,0,"background.jpg"
//Break Periods
2,68496,77800
//Storyboard Layer 0 (Background)
//Storyboard Layer 1 (Fail)
//Storyboard Layer 2 (Pass)
//Storyboard Layer 3 (Foreground)
//Storyboard Sound Samples
//Background Colour Transformations
3,100,163,162,255

[TimingPoints]
139,263.157894736842,4,1,0,100,1,0
68824,-200,4,2,0,100,0,0
79240,333.33703707819,4,2,0,100,1,0
99236,263.157894736842,4,1,0,100,1,0
100305,-100,4,1,0,100,0,1
108709,2105.26315789474,4,1,0,100,1,0
109761,263.157894736842,4,1,0,100,1,1
117143,-100,4,1,0,100,0,0

[Colours]
Combo1 : 187,4,9
Combo2 : 162,4,162

[HitObjects]
56,112,18033,5,0
200,144,18560,1,8
312,240,19086,1,8
456,264,19612,1,4
456,120,20138,5,0
312,144,20665,1,8
200,240,21191,1,8
56,264,21717,1,4
56,120,22244,5,0
192,176,22770,1,8
328,120,23296,1,8
464,176,23823,1,4
440,320,24349,6,0,B|264:376|40:280|200:72|120:144,2,360
384,184,26981,1,8
256,120,27507,1,8
112,120,28033,1,4
112,264,28560,5,0
256,264,29086,1,8
384,184,29612,1,8
456,56,30138,1,4
312,56,30665,5,0
184,120,31191,1,8
312,184,31717,1,8
184,248,32244,1,4
48,320,32770,6,0,B|48:48|264:48|464:48|464:336,1,720,0|0
320,328,35402,1,8
176,328,35928,2,0,B|176:224,3,90
176,168,36981,5,0
280,72,37507,1,8
424,72,38033,2,0,B|424:168,3,90
424,232,39086,5,0
296,296,39612,1,8
160,344,40138,2,0,B|160:232,3,90
160,184,41191,5,0
288,120,41717,1,8
416,184,42244,2,0,B|352:344|168:288,1,270,0|4
128,272,43296,5,0
80,136,43823,1,8
216,80,44349,2,0,B|216:232,2,135
288,80,45402,5,0
424,136,45928,1,8
392,272,46454,2,0,B|224:272,2,135
432,208,47507,5,0
400,64,48033,1,8
256,40,48560,2,0,B|256:208,2,135
184,40,49612,5,0
48,88,50138,1,8
176,160,50665,2,0,B|176:312|16:112|16:320,1,270,0|4
72,312,51717,6,0,B|256:312,1,180,0|4
432,232,52770,6,4,B|248:232,1,180,0|4
72,152,53823,6,0,B|256:152,1,180,0|4
432,72,54875,6,0,B|248:72,1,180,0|4
64,72,55928,6,0,B|64:256,1,180,0|4
328,72,56981,6,0,B|328:252,1,180,0|4
200,72,58033,6,0,B|200:256,1,180,0|4
448,72,59086,6,0,B|448:256,1,180,0|4
256,344,60138,5,0
256,200,60665,5,0
184,200,60928,1,4
112,200,61191,1,0
72,104,61717,5,0
144,104,61981,1,4
216,104,62244,1,0
344,32,62770,5,0
272,32,63033,1,4
200,32,63296,1,0
168,176,63823,5,0
200,240,64086,1,4
232,304,64349,1,0
296,168,64875,5,0
320,104,65138,1,4
344,40,65402,1,0
416,168,65928,5,0
440,232,66191,1,4
464,296,66454,1,0
344,224,66981,5,0
304,280,67244,1,4
256,336,67507,2,0,B|256:66,1,270,0|8
136,72,79240,5,2
224,192,79906,2,2,B|32:192,2,180
384,312,81906,5,2
472,192,82573,2,2,B|288:192,2,180
456,40,84573,5,8
312,40,85240,2,0,B|56:40|56:344,1,450,0|0
128,336,87240,5,2
272,336,87906,2,0,B|272:144,3,180,0|0|0|2
136,128,90573,6,0,B|136:32,5,90,4|0|4|0|4|0
208,40,92573,5,2
352,40,93240,2,0,B|352:136,5,90,4|0|4|0|4|0
392,192,95240,5,2
328,320,95906,1,8
184,320,96573,1,2
120,192,97240,1,8
88,48,97906,5,2
232,48,98573,1,2
120,192,99236,6,4,C|312:192,2,180,0|0|4
88,56,100814,5,8
232,56,101341,1,0
376,56,101867,1,8
424,192,102393,5,4
320,296,102920,1,8
176,296,103446,1,0
80,192,103972,1,8
120,56,104499,6,0,B|408:296,2,360,4|0|4
120,200,107130,1,8
224,304,107657,1,0
368,280,108183,1,8
280,176,108709,1,4
280,176,109761,5,2
368,64,110287,1,0
440,184,110813,5,4
344,296,111339,1,8
200,296,111866,1,0
104,184,112392,1,8
216,96,112918,5,4
360,96,113445,2,0,B|360:8|504:8|504:160|504:240|344:240|152:240|152:344,1,540,0|4
96,176,115550,5,8
184,64,116076,1,0
328,64,116603,1,8
472,40,117129,6,0,B|472:368|48:368|48:32,2,720
320,56,121866,5,8
264,192,122392,1,0
208,56,122918,1,8
64,56,123445,5,0
64,192,123971,2,0,B|64:336|152:336|264:336|264:176,1,360
160,184,125550,6,0,B|264:8|288:16|312:32|376:368|400:376|416:368|488:40,2,720
208,320,130287,1,8
64,296,130813,1,0
160,184,131339,1,8
80,64,131866,5,0
224,64,132392,6,0,B|416:64,2,180,8|0|8
256,208,133971,12,4,135550
