osu file format v6

[General]
AudioFilename: Luv-Lab-Poison 22ate!.mp3
AudioLeadIn: 0
PreviewTime: 34613
Countdown: 3
SampleSet: Normal
StackLeniency: 0.7
Mode: 0
LetterboxInBreaks: 1
SkinPreference:Default

[Editor]
Bookmarks: 18026,34876,51710,68552,79210,100301,108722,109774,117143
DistanceSpacing: 0.800000011920929
BeatDivisor: 2
GridSize: 8

[Metadata]
Title:Luv-Lab-Poison 22ate!
Artist:t+pazolite
Creator:Xgor
Version:Strong
Source:
Tags:Touhou 9 Phantasmagoria of Flower View Crazy Remix Medicine Melancholy Poison Body ~ Forsaken Doll

[Difficulty]
HPDrainRate:3
CircleSize:4
OverallDifficulty:4
SliderMultiplier:1.2
SliderTickRate:1

[Events]
//Background and Video events
0,0,"background.jpg"
//Break Periods
2,68496,77920
//Storyboard Layer 0 (Background)
//Storyboard Layer 1 (Fail)
//Storyboard Layer 2 (Pass)
//Storyboard Layer 3 (Foreground)
//Storyboard Sound Samples
//Background Colour Transformations
3,100,163,162,255

[TimingPoints]
139,263.157894736842,4,1,0,100,1,0
68561,-200,4,2,0,100,0,0
79240,333.33703707819,4,2,0,100,1,0
99236,263.157894736842,4,2,0,100,1,0
100305,-100,4,1,0,100,0,1
108709,2105.26315789474,4,1,0,100,1,0
109761,263.157894736842,4,1,0,100,1,1
117143,-100,4,1,0,100,0,0

[Colours]
Combo1 : 187,4,9
Combo2 : 162,4,162

[HitObjects]
80,64,18033,6,0,B|216:64,1,120,0|8
296,64,18560,1,0
392,64,18823,1,8
448,152,19086,2,0,B|320:152,1,120,0|8
232,152,19612,1,0
136,152,19875,1,4
88,232,20138,6,0,B|224:232,1,120,0|8
304,232,20665,1,0
400,232,20928,1,8
456,320,21191,2,0,B|328:320,1,120,0|8
240,320,21717,1,0
144,320,21981,1,4
48,320,22244,6,0,B|48:184,1,120,0|8
144,184,22770,1,0
144,88,23033,1,8
240,72,23296,2,0,B|240:200,1,120,0|8
336,192,23823,1,0
336,288,24086,1,4
256,344,24349,5,2
168,312,24612,1,8
96,240,24875,1,2
96,144,25138,1,8
168,80,25402,1,2
256,40,25665,1,0
256,136,25928,2,8,B|256:200,2,60,8|8|8
352,152,26454,6,0,B|480:152,1,120,0|12
464,248,26981,1,0
368,248,27244,1,8
272,248,27507,2,0,B|272:120,1,120,0|8
176,144,28033,1,0
176,240,28296,1,4
176,336,28560,6,0,B|40:336,1,120,0|8
56,240,29086,1,0
56,144,29349,1,8
56,48,29612,2,0,B|184:48,1,120,0|8
176,144,30138,1,0
176,240,30402,1,4
264,192,30665,6,0,B|264:56,1,120,0|8
336,136,31191,1,0
336,232,31454,1,8
408,288,31717,2,0,B|408:168,1,120,0|8
480,232,32244,1,0
480,136,32507,1,4
400,80,32770,5,2
312,48,33033,1,8
216,32,33296,1,2
120,56,33560,1,8
40,104,33823,1,2
120,160,34086,2,0,B|176:88|272:88|352:168,1,240,0|4
368,224,34875,5,0
424,304,35138,1,8
328,304,35402,1,0
232,304,35665,1,8
160,240,35928,2,0,B|8:120,2,180,0|0|0
240,216,36981,5,0
304,288,37244,1,8
368,216,37507,1,0
304,144,37770,1,8
248,64,38033,2,0,B|32:64,2,180,0|0|0
344,64,39086,5,0
272,128,39349,1,8
344,208,39612,1,0
272,272,39875,1,8
176,272,40138,2,0,B|176:80,2,180,0|0|0
272,272,41191,5,0
368,272,41454,1,8
312,192,41717,1,0
216,192,41981,1,8
120,192,42244,2,0,B|120:56,2,120
32,240,43033,1,10
64,328,43296,6,0,B|440:328,1,360,4|0
384,240,44349,1,0
288,240,44612,1,8
192,240,44875,1,0
96,240,45138,1,8
80,144,45402,6,0,B|456:144,1,360
416,48,46454,1,0
320,48,46717,1,8
224,48,46981,1,0
128,48,47244,1,8
32,48,47507,6,0,C|48:232|224:240,1,360
160,160,48560,1,0
256,160,48823,1,8
352,160,49086,1,0
448,160,49349,1,8
456,256,49612,6,0,C|312:200|312:288|160:192,1,360
160,160,50665,1,0
240,104,50928,1,8
328,72,51191,1,0
328,72,51323,1,0
328,72,51454,1,4
432,64,51717,5,0
432,192,51981,1,0
432,320,52244,2,8,B|504:320,2,60
336,320,52770,5,0
336,192,53033,1,0
336,64,53296,2,0,B|408:64,2,60
240,64,53823,5,0
240,192,54086,1,0
240,320,54349,2,2,B|312:320|312:320|336:320,2,60
144,320,54875,5,0
144,192,55138,1,0
144,64,55402,2,0,B|288:64,1,120,0|4
360,64,55928,5,0
360,192,56191,1,0
360,320,56454,2,8,B|432:320,2,60
264,320,56981,5,0
264,192,57244,1,0
264,64,57507,2,0,B|344:64,2,60
168,64,58033,5,0
168,192,58296,1,0
168,320,58560,2,2,B|248:320,2,60
72,320,59086,5,0
72,192,59349,1,0
72,64,59612,2,0,B|32:64,4,30,0|0|0|0|4
168,64,60138,5,0
264,64,60402,1,0
360,64,60665,1,0
360,64,60796,1,0
360,64,60928,1,8
408,144,61191,5,0
312,144,61454,1,0
216,144,61717,1,0
216,144,61849,1,0
216,144,61981,1,8
152,216,62244,5,0
248,216,62507,1,0
344,216,62770,1,0
344,216,62902,1,0
344,216,63033,1,2
400,296,63296,5,0
304,296,63560,1,0
208,296,63823,1,0
208,296,63954,1,0
208,296,64086,1,2
112,320,64349,5,0
112,224,64612,1,0
112,128,64875,1,0
112,128,65007,1,0
112,128,65138,1,8
192,80,65402,5,0
192,176,65665,1,0
192,272,65928,1,0
192,272,66060,1,0
192,272,66191,1,8
280,320,66454,5,0
280,224,66717,1,0
280,128,66981,1,0
280,128,67112,1,0
280,128,67244,1,2
360,72,67507,5,4
144,72,67770,1,4
144,280,68033,1,4
360,280,68296,1,4
48,296,79240,5,2
240,296,79906,1,2
328,320,80240,1,0
416,288,80573,1,2
456,200,80906,1,0
416,112,81240,1,2
328,64,81573,1,8
232,64,81906,5,2
352,208,82573,1,2
320,296,82906,1,0
232,328,83240,1,2
144,296,83573,1,0
96,208,83906,1,2
144,128,84240,1,8
232,88,84573,5,4
192,272,85240,2,2,B|328:272,1,120,2|0
384,208,85906,2,2,B|240:208,1,120,2|0
192,144,86573,2,2,B|320:144,1,120,2|0
256,64,87240,5,2
72,104,87906,1,2
128,176,88240,1,0
208,224,88573,1,2
304,224,88906,1,0
392,176,89240,1,2
456,104,89573,1,8
360,104,89906,5,2
264,272,90573,1,2
320,192,90906,1,0
256,120,91240,1,2
160,120,91573,1,0
96,192,91906,1,2
152,272,92240,1,8
208,192,92573,5,2
312,32,93240,1,2
216,48,93573,1,0
136,104,93906,1,2
136,200,94240,1,0
216,256,94573,1,2
312,272,94906,1,8
288,176,95240,5,4
400,24,95906,2,0,B|280:176|512:176|384:368,1,360,2|0
296,344,97240,1,0
200,320,97573,1,8
248,240,97906,5,2
112,104,98573,1,2
176,176,98906,1,8
256,208,99236,12,4,100288
256,104,100814,5,8
160,96,101078,1,0
192,184,101341,1,8
288,192,101604,1,0
264,288,101867,1,8
168,272,102130,1,2
72,256,102393,5,4
160,80,102920,1,8
256,96,103183,1,0
344,128,103446,1,8
256,176,103709,1,0
344,208,103972,1,8
256,256,104236,1,2
344,288,104499,5,4
152,288,105025,2,0,B|8:160|120:48,3,240
288,72,107130,5,8
376,104,107393,1,0
376,200,107657,1,8
288,232,107920,1,0
240,152,108183,2,0,B|176:152,4,60
200,152,109761,5,8
152,232,110024,1,0
248,232,110287,1,8
200,312,110550,1,6
296,312,110813,5,4
408,160,111339,1,0
360,72,111603,1,0
264,96,111866,1,8
168,72,112129,1,0
112,152,112392,1,8
80,240,112655,1,2
104,336,112918,5,4
368,344,113445,2,0,B|368:216,1,120,8|0
304,344,113971,2,0,B|304:216,1,120,8|0
240,344,114497,2,0,B|240:200,1,120,8|0
144,240,115024,5,4
240,72,115550,1,8
336,72,115813,1,2
392,152,116076,2,0,B|472:152,7,60
432,192,117129,6,0,B|256:216|280:32|272:24|144:24|144:24|16:16|0:32|-8:264|16:336|40:336|176:336|176:336|240:336,1,840,0|4
128,248,119234,2,0,B|80:32|200:40|320:352|384:344|384:344|416:344|504:232|496:96|416:32|360:16,1,840,0|4
328,64,121339,5,8
136,64,121866,1,0
64,128,122129,1,0
136,192,122392,1,8
64,256,122655,1,0
136,320,122918,1,8
208,256,123182,1,2
264,176,123445,5,4
144,32,123971,2,0,B|400:32,2,240
48,344,125550,6,0,B|448:344|448:328|488:280|448:240|448:224|32:224,1,840,0|4
48,128,127655,2,0,B|32:0|504:0|608:88|512:168|88:160,1,840
48,224,129761,5,4
240,224,130287,1,8
304,296,130550,1,0
368,224,130813,1,8
304,152,131076,1,0
240,224,131339,1,8
304,296,131603,1,2
208,296,131866,5,4
32,296,132392,2,0,C|64:80|320:56,1,480
316,56,133708,1,4
256,208,133971,12,4,135550
