osu file format v6

[General]
AudioFilename: Luv-Lab-Poison 22ate!.mp3
AudioLeadIn: 0
PreviewTime: 34613
Countdown: 3
SampleSet: Normal
StackLeniency: 1
Mode: 0
LetterboxInBreaks: 1
SkinPreference:Default

[Editor]
Bookmarks: 18026,34876,51710,68552,79210,100301,108722,109774,117143
DistanceSpacing: 0.800000011920929
BeatDivisor: 4
GridSize: 8

[Metadata]
Title:Luv-Lab-Poison 22ate!
Artist:t+pazolite
Creator:Xgor
Version:Lethal
Source:
Tags:Touhou 9 Phantasmagoria of Flower View Crazy Remix Medicine Melancholy Poison Body ~ Forsaken Doll

[Difficulty]
HPDrainRate:3
CircleSize:5
OverallDifficulty:3
SliderMultiplier:1.4
SliderTickRate:2

[Events]
//Background and Video events
0,0,"background.jpg"
//Break Periods
2,68496,77800
//Storyboard Layer 0 (Background)
//Storyboard Layer 1 (Fail)
//Storyboard Layer 2 (Pass)
//Storyboard Layer 3 (Foreground)
Sprite,Foreground,Centre,"cooltext438551900.png",320,240 F,0,107673,108726,0,1 S,0,108726,109248,1,1.1408 M,0,107673,109511,350,360,320,83 M,0,107673,109511,318,364,320,83 F,0,108726,109511,1 M,0,109511,109609,320,83,289,103 M,0,109609,109628,289,103,295,105 M,0,109628,109644,295,105,299,107 M,0,109644,109659,299,107,310,108 M,0,109659,109675,310,108,341,94 M,0,109675,109693,341,94,348,65 M,0,109693,109709,348,65,342,48 M,0,109709,109727,342,48,337,34 M,0,109727,109743,337,34,330,28 M,0,109743,109759,330,28,330,43 S,0,109248,109774,1.1408,1.039454 F,0,109511,109774,1,0 M,0,109759,109775,330,43,332,56 M,0,109775,109794,332,56,336,72 M,0,109794,109809,336,72,337,75 M,0,109809,109826,337,75,336,76 M,0,109826,109843,336,76 M,0,109843,109859,336,76,335,73 M,0,109859,109876,335,73,336,71 M,0,109876,109893,336,71,338,71
//Storyboard Sound Samples
//Background Colour Transformations
3,100,163,162,255

[TimingPoints]
139,263.157894736842,4,1,0,100,1,0
68561,-200,4,2,0,100,0,0
79240,333.33703707819,4,2,0,100,1,0
99236,263.157894736842,4,2,0,100,1,0
100305,-100,4,1,0,100,0,1
108709,2105.26315789474,4,1,0,100,1,0
109761,263.157894736842,4,1,0,100,1,1
117143,-100,4,1,0,100,0,0

[Colours]
Combo1 : 187,4,9
Combo2 : 162,4,162

[HitObjects]
32,48,18033,5,8
152,48,18296,1,2
272,48,18560,2,0,B|360:48,1,70,8|0
272,136,18954,1,0
272,136,19086,1,8
176,192,19349,1,2
272,256,19612,1,8
272,256,19744,1,0
272,256,19875,2,0,B|352:256,1,70,0|0
384,216,20138,5,8
384,104,20402,1,2
272,72,20665,2,0,B|272:144,1,70,8|0
272,256,21060,1,0
272,256,21191,1,8
160,240,21454,1,2
88,152,21717,1,8
88,152,21849,1,0
88,152,21981,2,0,B|144:72,1,70
168,56,22244,5,8
280,32,22507,1,2
392,56,22770,2,0,B|456:96,1,70,8|0
352,144,23165,1,0
352,144,23296,1,8
248,192,23560,1,2
352,240,23823,1,8
352,240,23954,1,0
352,240,24086,2,0,B|432:240,1,70
464,192,24349,6,0,B|464:104,2,70,8|0|0
408,192,24744,2,0,B|408:112,2,70,8|0|0
352,192,25138,2,2,B|280:192,1,70,2|2
224,192,25402,2,0,B|224:264,2,70,8|0|0
168,192,25796,2,0,B|168:264,2,70,8|0|0
112,192,26191,2,2,B|32:192|32:192|40:192,1,70
40,136,26454,5,4
120,56,26717,1,0
144,56,26849,1,8
168,56,26981,1,0
232,144,27244,1,0
256,144,27375,1,8
280,144,27507,1,0
344,56,27770,1,0
368,56,27902,1,8
392,56,28033,1,0
456,144,28296,1,4
456,256,28560,5,4
376,336,28823,1,0
352,336,28954,1,8
328,336,29086,1,0
264,248,29349,1,0
240,248,29481,1,8
216,248,29612,1,0
152,336,29875,1,0
128,336,30007,1,8
104,336,30138,1,0
40,248,30402,1,4
112,160,30665,5,4
248,160,30928,1,0
224,160,31060,1,8
200,160,31191,1,0
296,96,31454,1,0
272,96,31586,1,8
248,96,31717,1,0
344,160,31981,1,0
320,160,32112,1,8
296,160,32244,1,0
264,264,32507,1,4
160,304,32770,6,2,B|112:240,1,70,2|2
173,205,33033,2,2,B|106:257,1,70,2|2
75,192,33296,2,2,B|118:248,1,70
61,290,33560,2,2,B|120:247,1,70,2|2
256,208,33823,12,4,34612
88,112,34875,5,8
88,224,35138,2,0,B|168:224,1,70
216,224,35402,1,8
216,112,35665,1,0
216,112,35796,1,0
272,112,35928,2,8,B|400:112,3,105,8|0|8|0
336,184,36717,2,2,B|424:184,1,70
400,240,36981,5,8
464,328,37244,2,0,B|368:328,1,70
336,328,37507,1,8
264,240,37770,1,0
264,240,37902,1,0
208,240,38033,2,0,B|80:240,3,105,8|0|8|0
96,320,38823,2,2,B|-8:320,1,70,2|2
24,264,39086,5,8
24,152,39349,2,0,B|24:56,1,70
24,24,39612,1,8
136,24,39875,1,0
136,24,40007,1,0
136,80,40139,2,0,B|136:200,3,105,8|0|8|0
224,192,40928,2,2,B|224:280,1,70
280,264,41191,5,8
392,264,41454,2,0,B|392:184,1,70
392,136,41717,1,8
280,136,41981,1,0
224,136,42112,1,0
256,208,42244,12,4,43033
88,112,43296,5,2
200,112,43560,1,8
256,112,43691,1,0
232,160,43823,1,0
152,240,44086,1,8
96,240,44217,1,0
128,288,44349,2,0,B|256:288,1,105,0|0
304,336,44744,2,0,B|304:216,1,105,8|0
344,152,45139,2,0,B|264:152,1,70,0|0
216,152,45402,5,2
104,152,45665,1,8
80,104,45796,1,0
136,104,45928,1,0
224,40,46191,1,8
280,40,46323,1,0
256,88,46454,2,0,B|384:88,1,105
416,152,46849,2,0,B|416:272,1,105,8|0
368,328,47244,2,0,B|288:328,1,70
240,328,47507,5,2
240,216,47770,1,8
184,216,47902,1,0
213,168,48033,1,0
328,152,48296,1,8
376,120,48428,1,0
328,96,48560,2,0,B|208:96,1,105
144,56,48954,2,0,B|144:184,1,105,8|0
112,240,49349,2,0,B|32:240,1,70
40,296,49612,5,2
152,296,49875,1,8
208,296,50007,1,0
178,343,50139,1,0
264,296,50402,1,8
232,344,50533,1,0
256,208,50665,12,4,51454
64,88,51717,6,0,B|136:64|176:104|248:144|344:80,1,280,0|0
335,86,52375,1,0
335,86,52507,1,8
448,296,52770,6,0,B|376:320|336:280|264:240|168:304,1,280
178,298,53428,1,0
178,298,53560,1,8
101,77,53823,6,0,B|37:13|-27:125|165:253,1,280
146,240,54481,1,0
146,240,54612,1,8
411,307,54875,6,0,B|475:371|539:259|347:131,1,280
365,144,55533,1,0
365,144,55665,1,2
240,32,55928,6,0,B|48:88|480:160|224:192,1,280
258,187,56586,1,0
258,187,56717,1,8
275,341,56981,6,0,B|467:285|35:213|291:181,1,280
258,187,57639,1,0
258,187,57770,1,8
208,80,58033,6,0,B|0:176|400:184|-16:264|240:320,1,280
184,303,58691,1,0
184,303,58823,1,8
304,304,59086,6,0,B|512:208|112:200|528:120|272:64,1,280
328,80,59744,1,0
328,80,59875,1,12
256,56,60139,5,8
64,56,60665,1,2
64,56,60731,1,0
64,56,60796,1,0
64,56,60862,1,0
64,56,60928,1,0
144,56,61191,5,8
144,232,61717,1,2
144,232,61783,1,0
144,232,61849,1,0
144,232,61915,1,0
144,232,61981,1,0
144,304,62244,5,8
312,304,62770,1,2
312,304,62836,1,0
312,304,62902,1,0
312,304,62967,1,0
312,304,63033,1,0
392,304,63296,5,8
392,104,63823,1,2
392,104,63889,1,0
392,104,63954,1,0
392,104,64020,1,0
392,104,64086,1,2
392,24,64349,5,4
392,224,64875,1,2
392,224,64941,1,0
392,224,65007,1,0
392,224,65073,1,0
392,224,65139,1,0
312,224,65402,5,4
216,48,65928,1,2
216,48,65994,1,0
216,48,66060,1,0
216,48,66125,1,0
216,48,66191,1,0
296,48,66454,5,4
168,224,66981,1,2
168,224,67046,1,0
168,224,67112,1,0
168,224,67178,1,0
168,224,67244,1,0
256,208,67507,12,4,68296
152,104,79240,5,2
376,112,79906,2,0,B|376:184,1,70,0|8
376,182,80240,2,0,B|340:248,1,70,0|8
342,243,80573,2,0,B|288:296,1,70,0|8
292,292,80906,2,0,B|224:312,1,70,0|8
225,313,81240,2,0,B|152:320,1,70,0|8
156,320,81573,1,4
344,304,81906,5,2
336,80,82573,2,0,B|264:80,1,70,0|8
266,80,82906,2,0,B|200:116,1,70,0|8
205,114,83240,2,0,B|152:168,1,70,0|8
156,164,83573,2,0,B|136:232,1,70,0|8
135,231,83906,2,0,B|128:304,1,70,0|8
129,301,84240,2,0,B|128:344,2,35,0|0|0
56,320,84573,5,4
456,104,85240,1,0
368,312,85573,1,10
280,104,85906,1,0
192,312,86240,1,10
120,104,86573,1,0
48,312,86906,1,10
48,200,87240,5,4
256,128,87906,2,0,B|320:72,1,70,0|2
308,81,88240,2,0,B|416:112,1,70,0|2
375,100,88573,2,0,B|448:168,1,70,0|2
426,147,88906,2,0,B|456:224|456:224|448:232,1,70,0|2
451,212,89240,2,0,B|440:288,1,70,0|2
384,296,89573,1,8
328,296,89740,1,8
272,296,89906,5,2
360,48,90573,2,0,B|328:112,1,70,0|8
304,176,90906,2,0,B|264:88,1,70,0|8
256,48,91240,2,0,B|224:112,1,70,0|8
200,176,91573,2,0,B|160:88,1,70,0|8
152,48,91906,2,0,B|120:112,1,70,0|8
120,110,92240,1,4
40,32,92573,5,2
200,192,93240,2,0,B|232:256,1,70,0|8
256,304,93573,2,0,B|296:216,1,70,0|8
312,192,93906,2,0,B|344:256,1,70,0|8
360,312,94240,2,0,B|400:224,1,70,0|8
408,184,94573,2,0,B|440:248,1,70,0|8
439,246,94906,2,0,B|488:248,2,35
384,248,95240,5,4
48,256,95906,1,0
208,168,96240,1,10
80,64,96573,1,0
256,88,96906,1,10
144,224,97240,1,0
296,320,97573,1,10
440,320,97906,5,4
256,192,98573,1,0
256,192,98740,1,2
256,192,98906,1,0
256,192,99073,1,2
256,208,99236,12,4,100288
208,80,100814,5,0
280,160,101078,1,2
360,88,101341,1,0
440,168,101604,1,2
360,248,101867,1,0
304,248,101999,1,8
248,248,102130,1,0
216,352,102393,6,0,B|72:304|72:211,1,210
72,217,102920,1,0
112,112,103183,1,2
224,96,103446,1,0
336,112,103709,1,2
424,184,103972,1,0
424,240,104104,1,8
424,296,104236,1,0
328,352,104499,5,4
120,280,105025,2,0,B|36:156,1,140
41,163,105551,2,0,B|132:51,1,140
130,54,106078,2,0,B|285:51,1,140
392,48,106604,6,0,B|472:104|464:256,1,210
464,235,107130,1,0
368,288,107393,1,2
264,328,107657,1,0
160,288,107920,1,2
144,176,108183,1,8
144,152,108314,1,0
144,128,108446,1,8
144,104,108578,1,0
144,88,108709,6,0,B|162:88|155:82|151:93|137:91|138:81|150:86|145:95|131:87|145:77|154:96|139:95|134:83|150:83|146:91|131:90|135:80|153:80|154:97|144:102|136:96|128:84|128:75|149:84,1,52.5,0|4
144,56,109761,5,2
256,56,110024,1,0
368,56,110287,1,0
384,112,110418,1,8
400,168,110550,1,0
440,272,110813,6,0,B|400:368|192:360,1,210
261,360,111339,1,0
152,344,111603,1,2
96,248,111866,1,0
112,136,112129,1,2
216,104,112392,1,0
272,96,112524,1,8
328,96,112655,1,0
440,120,112918,5,0
456,344,113445,2,0,B|304:336,1,140
316,337,113971,2,0,B|192:241,1,140
205,251,114497,2,0,B|72:193,1,140
56,80,115024,6,0,B|128:48|200:96|224:144|288:104,1,210
256,117,115550,1,0
344,48,115813,1,2
256,208,116076,12,0,117129
88,72,117655,6,0,B|80:232|96:344|288:336|464:360,1,420,0|4
352,232,118708,2,0,B|416:80|336:-16,1,140,8|0
256,48,119234,6,0,B|128:144,1,140
72,224,119761,2,0,B|128:376|472:256,1,420,0|4
424,152,120813,2,0,B|288:64|200:136,1,140,8|0
256,208,121339,12,0,122918
104,48,123445,6,0,B|40:208,1,140
56,288,123971,2,0,B|304:344|480:240,1,420,0|4
464,136,125024,2,0,B|328:40,1,140,8|0
240,56,125550,5,0
136,96,125813,1,8
88,200,126076,2,0,B|224:336|296:248,3,140,0|8|0|8
312,256,127129,1,0
408,208,127392,1,8
440,96,127655,5,0
328,80,127918,1,8
216,56,128182,2,0,B|160:184|280:216,3,140,0|8|0|8
312,248,129234,1,0
408,296,129497,1,8
464,200,129761,6,0,B|336:48|256:64,1,210,0|0
248,72,130287,2,0,B|208:216,1,140,0|0
96,200,130813,2,0,B|200:320,1,140,8|0
296,320,131339,2,0,B|336:144,1,140,0|0
424,128,131866,5,8
320,88,132129,1,0
208,88,132392,2,0,B|96:88|96:280|216:280,2,280
208,88,133576,1,8
208,88,133708,1,0
208,88,133839,1,8
256,208,133971,12,4,135550
