osu file format v14

[General]
AudioFilename: Kick-ass Kungfu (PLight Remix).mp3
AudioLeadIn: 0
PreviewTime: 71603
Countdown: 0
SampleSet: None
StackLeniency: 0.7
Mode: 3
LetterboxInBreaks: 0
EpilepsyWarning: 1
SpecialStyle: 0
WidescreenStoryboard: 1

[Editor]
DistanceSpacing: 1.2
BeatDivisor: 4
GridSize: 4
TimelineZoom: 0.8000001

[Metadata]
Title:Kick-ass Kung-fu Carnival (P*Light Remix)
TitleUnicode:Kick-ass Kung-fu Carnival (P*Light Remix)
Artist:t+pazolite
ArtistUnicode:t+pazolite
Creator:ToifAmri
Version:4K Normal
Source:
Tags:kuki Rifkymarcelio _FrEsH_ChICkEn_
BeatmapID:679973
BeatmapSetID:303046

[Difficulty]
HPDrainRate:7
CircleSize:4
OverallDifficulty:7
ApproachRate:5
SliderMultiplier:1.4
SliderTickRate:1

[Events]
//Background and Video events
0,0,"687474703a2f2f692e696d6775722e636f6d2f375770673937372e6a7067.jpg",0,0
//Break Periods
//Storyboard Layer 0 (Background)
//Storyboard Layer 1 (Fail)
//Storyboard Layer 2 (Pass)
//Storyboard Layer 3 (Foreground)
//Storyboard Sound Samples

[TimingPoints]
289.025322030856,342.857142857143,4,3,0,30,1,0
27031,-222.222222222222,4,3,0,30,0,0
27374,-100,4,3,0,30,0,0
49317,-222.222222222222,4,3,0,30,0,0
49489,-100,4,3,0,30,0,0
71260,-222.222222222222,4,3,0,30,0,0
71431,-100,4,3,0,30,0,0
71603,-100,4,3,0,30,0,1
75717,-222.222222222222,4,3,0,30,0,1
75889,-100,4,3,0,30,0,1
76060,-222.222222222222,4,3,0,30,0,1
76231,-100,4,3,0,30,0,1
76403,-222.222222222222,4,3,0,30,0,1
76574,-100,4,3,0,30,0,1
76746,-222.222222222222,4,3,0,30,0,1
76917,-100,4,3,0,30,0,1
81203,-222.222222222222,4,3,0,30,0,1
81374,-100,4,3,0,30,0,1
81546,-222.222222222222,4,3,0,30,0,1
81717,-100,4,3,0,30,0,1
81889,-222.222222222222,4,3,0,30,0,1
82060,-100,4,3,0,30,0,1
82231,-222.222222222222,4,3,0,30,0,1
82403,-100,4,3,0,30,0,1
86689,-222.222222222222,4,3,0,30,0,1
86860,-100,4,3,0,30,0,1
87031,-222.222222222222,4,3,0,30,0,1
87203,-100,4,3,0,30,0,1
87374,-222.222222222222,4,3,0,30,0,1
87546,-100,4,3,0,30,0,1
87717,-222.222222222222,4,3,0,30,0,1
87889,-100,4,3,0,30,0,1
92174,-222.222222222222,4,3,0,30,0,1
92346,-222.222222222222,4,3,0,30,0,1
92346,-100,4,3,0,30,0,1
92517,-222.222222222222,4,3,0,30,0,1
92689,-100,4,3,0,30,0,1
92860,-222.222222222222,4,3,0,30,0,1
93031,-100,4,3,0,30,0,1
93203,-222.222222222222,4,3,0,30,0,1
93374,-100,4,3,0,30,0,1
97660,-222.222222222222,4,3,0,30,0,1
97831,-100,4,3,0,30,0,1
98003,-222.222222222222,4,3,0,30,0,1
98174,-100,4,3,0,30,0,1
98346,-222.222222222222,4,3,0,30,0,1
98517,-100,4,3,0,30,0,1
98689,-222.222222222222,4,3,0,30,0,1
98860,-100,4,3,0,30,0,1
103146,-222.222222222222,4,3,0,30,0,1
103317,-100,4,3,0,30,0,1
103489,-222.222222222222,4,3,0,30,0,1
103660,-100,4,3,0,30,0,1
103831,-222.222222222222,4,3,0,30,0,1
104003,-100,4,3,0,30,0,1
104174,-222.222222222222,4,3,0,30,0,1
104346,-100,4,3,0,30,0,1
108631,-222.222222222222,4,3,0,30,0,1
108803,-100,4,3,0,30,0,1
108974,-222.222222222222,4,3,0,30,0,1
109146,-100,4,3,0,30,0,1
109317,-222.222222222222,4,3,0,30,0,1
109489,-100,4,3,0,30,0,1
114117,-222.222222222222,4,3,0,30,0,1
114289,-100,4,3,0,30,0,1
114460,-222.222222222222,4,3,0,30,0,1
114631,-100,4,3,0,30,0,1
114803,-222.222222222222,4,3,0,30,0,1
114974,-100,4,3,0,30,0,1
115146,-222.222222222222,4,3,0,30,0,1
115317,-100,4,3,0,30,0,1
115489,-100,4,3,0,30,0,0

[HitObjects]
64,192,289,5,0,0:0:0:0:
320,192,631,1,0,0:0:0:0:
448,192,631,1,0,0:0:0:0:
64,192,974,1,0,0:0:0:0:
192,192,1317,1,0,0:0:0:0:
448,192,1317,1,0,0:0:0:0:
64,192,1660,1,0,0:0:0:0:
320,192,2003,1,0,0:0:0:0:
448,192,2003,1,0,0:0:0:0:
64,192,2346,1,0,0:0:0:0:
192,192,2689,1,0,0:0:0:0:
320,192,2689,1,0,0:0:0:0:
64,192,3031,1,0,0:0:0:0:
320,192,3374,1,0,0:0:0:0:
448,192,3374,1,0,0:0:0:0:
64,192,3717,1,0,0:0:0:0:
192,192,4060,1,0,0:0:0:0:
448,192,4060,1,0,0:0:0:0:
64,192,4403,1,0,0:0:0:0:
320,192,4746,1,0,0:0:0:0:
448,192,4746,1,0,0:0:0:0:
64,192,5089,1,0,0:0:0:0:
192,192,5431,1,0,0:0:0:0:
448,192,5431,1,0,0:0:0:0:
64,192,5774,1,0,0:0:0:0:
192,192,6117,1,0,0:0:0:0:
320,192,6117,1,0,0:0:0:0:
448,192,6460,1,0,0:0:0:0:
64,192,6803,1,0,0:0:0:0:
320,192,6803,1,0,0:0:0:0:
64,192,7146,1,0,0:0:0:0:
192,192,7489,1,0,0:0:0:0:
320,192,7489,1,0,0:0:0:0:
448,192,7831,1,0,0:0:0:0:
192,192,8174,1,0,0:0:0:0:
320,192,8174,1,0,0:0:0:0:
64,192,8517,1,0,0:0:0:0:
192,192,8860,1,0,0:0:0:0:
448,192,8860,1,0,0:0:0:0:
448,192,9203,1,0,0:0:0:0:
192,192,9546,1,0,0:0:0:0:
320,192,9546,1,0,0:0:0:0:
64,192,9889,1,0,0:0:0:0:
192,192,10231,1,0,0:0:0:0:
448,192,10231,1,0,0:0:0:0:
448,192,10574,1,0,0:0:0:0:
64,192,10917,1,0,0:0:0:0:
192,192,10917,1,0,0:0:0:0:
320,192,11260,1,0,0:0:0:0:
448,192,11260,1,0,0:0:0:0:
64,192,11603,1,0,0:0:0:0:
192,192,11603,1,0,0:0:0:0:
320,192,11946,1,0,0:0:0:0:
448,192,11946,1,0,0:0:0:0:
64,192,12289,1,0,0:0:0:0:
320,192,12289,1,0,0:0:0:0:
192,192,12631,1,0,0:0:0:0:
448,192,12631,1,0,0:0:0:0:
192,192,12974,1,0,0:0:0:0:
448,192,12974,1,0,0:0:0:0:
64,192,13317,1,0,0:0:0:0:
320,192,13317,1,0,0:0:0:0:
192,192,13660,1,0,0:0:0:0:
448,192,13660,1,0,0:0:0:0:
64,192,13831,1,0,0:0:0:0:
192,192,14003,1,0,0:0:0:0:
448,192,14003,1,0,0:0:0:0:
64,192,14346,1,0,0:0:0:0:
320,192,14346,1,0,0:0:0:0:
64,192,14689,1,0,0:0:0:0:
192,192,14689,1,0,0:0:0:0:
320,192,15031,1,0,0:0:0:0:
448,192,15031,1,0,0:0:0:0:
64,192,15374,1,0,0:0:0:0:
320,192,15374,1,0,0:0:0:0:
192,192,15717,1,0,0:0:0:0:
448,192,15717,1,0,0:0:0:0:
192,192,16060,1,0,0:0:0:0:
448,192,16060,1,0,0:0:0:0:
320,192,16403,1,0,0:0:0:0:
192,192,16403,1,0,0:0:0:0:
64,192,16746,1,0,0:0:0:0:
320,192,16746,1,0,0:0:0:0:
192,192,17089,1,0,0:0:0:0:
448,192,17089,1,0,0:0:0:0:
320,192,17431,1,0,0:0:0:0:
448,192,17431,1,0,0:0:0:0:
192,192,17774,1,0,0:0:0:0:
448,192,17774,1,0,0:0:0:0:
64,192,18117,1,0,0:0:0:0:
192,192,18117,1,0,0:0:0:0:
448,192,18460,1,0,0:0:0:0:
192,192,18460,1,0,0:0:0:0:
64,192,18803,1,0,0:0:0:0:
192,192,18803,1,0,0:0:0:0:
448,192,19146,1,0,0:0:0:0:
192,192,19146,1,0,0:0:0:0:
320,192,19489,1,0,0:0:0:0:
448,192,19489,1,0,0:0:0:0:
192,192,19660,1,0,0:0:0:0:
64,192,19831,1,0,0:0:0:0:
320,192,19831,1,0,0:0:0:0:
192,192,20003,1,0,0:0:0:0:
448,192,20174,1,0,0:0:0:0:
320,192,20174,1,0,0:0:0:0:
64,192,20517,1,0,0:0:0:0:
320,192,20517,1,0,0:0:0:0:
320,192,20860,128,0,21203:0:0:0:0:
448,192,20860,1,0,0:0:0:0:
448,192,21203,1,0,0:0:0:0:
64,192,21203,128,0,21546:0:0:0:0:
192,192,21546,128,0,21889:0:0:0:0:
320,192,21546,1,0,0:0:0:0:
64,192,21889,128,0,22231:0:0:0:0:
448,192,21889,1,0,0:0:0:0:
320,192,22231,128,0,27031:0:0:0:0:
448,192,22231,128,0,27031:0:0:0:0:
192,192,27374,1,0,0:0:0:0:
448,192,27717,128,0,29089:0:0:0:0:
320,192,29089,128,0,30460:0:0:0:0:
64,192,30460,128,0,31831:0:0:0:0:
448,192,31831,128,0,33203:0:0:0:0:
320,192,33203,128,0,34574:0:0:0:0:
64,192,34574,128,0,35946:0:0:0:0:
320,192,35946,128,0,37317:0:0:0:0:
192,192,37317,128,0,38689:0:0:0:0:
320,192,38689,128,0,40060:0:0:0:0:
448,192,40060,128,0,41431:0:0:0:0:
192,192,41431,128,0,42803:0:0:0:0:
448,192,42803,128,0,44174:0:0:0:0:
64,192,44174,128,0,45546:0:0:0:0:
448,192,45546,128,0,46917:0:0:0:0:
192,192,46917,128,0,48289:0:0:0:0:
320,192,48289,128,0,49317:0:0:0:0:
64,192,49660,1,0,0:0:0:0:
320,192,49660,1,0,0:0:0:0:
192,192,50003,1,0,0:0:0:0:
448,192,50003,1,0,0:0:0:0:
192,192,50346,1,0,0:0:0:0:
448,192,50346,1,0,0:0:0:0:
64,192,50689,1,0,0:0:0:0:
320,192,50689,1,0,0:0:0:0:
192,192,51031,1,0,0:0:0:0:
448,192,51031,1,0,0:0:0:0:
64,192,51374,1,0,0:0:0:0:
320,192,51374,1,0,0:0:0:0:
192,192,51717,1,0,0:0:0:0:
64,192,51717,1,0,0:0:0:0:
320,192,52060,1,0,0:0:0:0:
448,192,52060,1,0,0:0:0:0:
192,192,52403,1,0,0:0:0:0:
64,192,52403,1,0,0:0:0:0:
320,192,52746,1,0,0:0:0:0:
448,192,52746,1,0,0:0:0:0:
64,192,53089,1,0,0:0:0:0:
192,192,53089,1,0,0:0:0:0:
64,192,53431,1,0,0:0:0:0:
192,192,53431,1,0,0:0:0:0:
64,192,53774,1,0,0:0:0:0:
448,192,53774,1,0,0:0:0:0:
448,192,54117,1,0,0:0:0:0:
320,192,54117,1,0,0:0:0:0:
320,192,54460,1,0,0:0:0:0:
448,192,54460,1,0,0:0:0:0:
64,192,54803,1,0,0:0:0:0:
192,192,54803,1,0,0:0:0:0:
320,192,54974,1,0,0:0:0:0:
64,192,55146,1,0,0:0:0:0:
192,192,55146,1,0,0:0:0:0:
320,192,55489,1,0,0:0:0:0:
448,192,55489,1,0,0:0:0:0:
192,192,55831,1,0,0:0:0:0:
448,192,55831,1,0,0:0:0:0:
320,192,56174,1,0,0:0:0:0:
448,192,56174,1,0,0:0:0:0:
64,192,56517,1,0,0:0:0:0:
320,192,56517,1,0,0:0:0:0:
320,192,56860,1,0,0:0:0:0:
448,192,56860,1,0,0:0:0:0:
192,192,57203,1,0,0:0:0:0:
448,192,57203,1,0,0:0:0:0:
64,192,57546,1,0,0:0:0:0:
192,192,57546,1,0,0:0:0:0:
64,192,57889,1,0,0:0:0:0:
320,192,57889,1,0,0:0:0:0:
64,192,58231,1,0,0:0:0:0:
192,192,58231,1,0,0:0:0:0:
448,192,58574,1,0,0:0:0:0:
192,192,58574,1,0,0:0:0:0:
320,192,58917,1,0,0:0:0:0:
64,192,58917,1,0,0:0:0:0:
448,192,59260,1,0,0:0:0:0:
320,192,59260,1,0,0:0:0:0:
64,192,59603,1,0,0:0:0:0:
192,192,59603,1,0,0:0:0:0:
448,192,59946,1,0,0:0:0:0:
192,192,59946,1,0,0:0:0:0:
448,192,60289,128,0,60631:0:0:0:0:
320,192,60631,1,0,0:0:0:0:
64,192,60974,1,0,0:0:0:0:
192,192,60974,1,0,0:0:0:0:
64,192,61317,1,0,0:0:0:0:
320,192,61317,1,0,0:0:0:0:
320,192,61660,1,0,0:0:0:0:
64,192,61660,1,0,0:0:0:0:
192,192,62003,1,0,0:0:0:0:
448,192,62003,1,0,0:0:0:0:
320,192,62346,1,0,0:0:0:0:
448,192,62346,1,0,0:0:0:0:
64,192,62689,1,0,0:0:0:0:
192,192,62689,1,0,0:0:0:0:
448,192,63031,1,0,0:0:0:0:
320,192,63031,128,0,63374:0:0:0:0:
64,192,63374,1,0,0:0:0:0:
192,192,63374,1,0,0:0:0:0:
64,192,63717,1,0,0:0:0:0:
192,192,63717,1,0,0:0:0:0:
64,192,64060,1,0,0:0:0:0:
192,192,64060,1,0,0:0:0:0:
64,192,64403,1,0,0:0:0:0:
192,192,64403,1,0,0:0:0:0:
320,192,64746,1,0,0:0:0:0:
448,192,64746,1,0,0:0:0:0:
320,192,65089,1,0,0:0:0:0:
448,192,65089,1,0,0:0:0:0:
320,192,65431,1,0,0:0:0:0:
448,192,65431,1,0,0:0:0:0:
448,192,65774,1,0,0:0:0:0:
320,192,65774,128,0,66117:0:0:0:0:
192,192,66117,1,0,0:0:0:0:
64,192,66117,1,0,0:0:0:0:
320,192,66460,1,0,0:0:0:0:
448,192,66460,1,0,0:0:0:0:
64,192,66803,1,0,0:0:0:0:
192,192,66803,1,0,0:0:0:0:
64,192,67146,1,0,0:0:0:0:
448,192,67146,128,0,67489:0:0:0:0:
192,192,67489,1,0,0:0:0:0:
320,192,67489,1,0,0:0:0:0:
64,192,67831,1,0,0:0:0:0:
448,192,67831,1,0,0:0:0:0:
192,192,68174,1,0,0:0:0:0:
320,192,68174,1,0,0:0:0:0:
192,192,68517,1,0,0:0:0:0:
320,192,68517,128,0,68860:0:0:0:0:
64,192,68860,1,0,0:0:0:0:
448,192,68860,1,0,0:0:0:0:
320,192,69203,1,0,0:0:0:0:
192,192,69203,1,0,0:0:0:0:
64,192,69546,1,0,0:0:0:0:
448,192,69546,1,0,0:0:0:0:
192,192,69889,1,0,0:0:0:0:
320,192,69889,1,0,0:0:0:0:
64,192,70231,128,0,71260:0:0:0:0:
448,192,70231,128,0,71260:0:0:0:0:
64,192,71603,1,0,0:0:0:0:
320,192,71603,1,0,0:0:0:0:
64,192,71946,1,0,0:0:0:0:
192,192,71946,1,0,0:0:0:0:
448,192,72289,1,0,0:0:0:0:
192,192,72289,1,0,0:0:0:0:
320,192,72631,1,0,0:0:0:0:
192,192,72631,1,0,0:0:0:0:
64,192,72974,1,0,0:0:0:0:
192,192,72974,1,0,0:0:0:0:
448,192,73317,1,0,0:0:0:0:
192,192,73317,1,0,0:0:0:0:
64,192,73660,1,0,0:0:0:0:
320,192,73660,1,0,0:0:0:0:
192,192,74003,1,0,0:0:0:0:
448,192,74003,1,0,0:0:0:0:
320,192,74346,1,0,0:0:0:0:
64,192,74346,1,0,0:0:0:0:
320,192,74689,1,0,0:0:0:0:
448,192,74689,1,0,0:0:0:0:
64,192,75031,1,0,0:0:0:0:
192,192,75031,1,0,0:0:0:0:
448,192,75374,1,0,0:0:0:0:
192,192,75374,1,0,0:0:0:0:
448,192,75717,1,0,0:0:0:0:
320,192,75717,1,0,0:0:0:0:
320,192,76060,1,0,0:0:0:0:
448,192,76060,1,0,0:0:0:0:
320,192,76403,1,0,0:0:0:0:
448,192,76403,1,0,0:0:0:0:
320,192,76746,1,0,0:0:0:0:
448,192,76746,1,0,0:0:0:0:
320,192,77089,1,0,0:0:0:0:
448,192,77089,1,0,0:0:0:0:
64,192,77431,1,0,0:0:0:0:
320,192,77431,1,0,0:0:0:0:
192,192,77774,1,0,0:0:0:0:
448,192,77774,1,0,0:0:0:0:
192,192,78117,1,0,0:0:0:0:
448,192,78117,1,0,0:0:0:0:
64,192,78460,1,0,0:0:0:0:
320,192,78460,1,0,0:0:0:0:
192,192,78803,1,0,0:0:0:0:
448,192,78803,1,0,0:0:0:0:
64,192,79146,1,0,0:0:0:0:
320,192,79146,1,0,0:0:0:0:
64,192,79489,1,0,0:0:0:0:
192,192,79489,1,0,0:0:0:0:
192,192,79831,1,0,0:0:0:0:
64,192,79831,1,0,0:0:0:0:
192,192,80174,1,0,0:0:0:0:
448,192,80174,1,0,0:0:0:0:
320,192,80517,1,0,0:0:0:0:
448,192,80517,1,0,0:0:0:0:
192,192,80860,1,0,0:0:0:0:
448,192,80860,1,0,0:0:0:0:
64,192,81203,1,0,0:0:0:0:
192,192,81203,1,0,0:0:0:0:
64,192,81546,1,0,0:0:0:0:
192,192,81546,1,0,0:0:0:0:
320,192,81889,1,0,0:0:0:0:
448,192,81889,1,0,0:0:0:0:
320,192,82231,1,0,0:0:0:0:
448,192,82231,1,0,0:0:0:0:
192,192,82574,1,0,0:0:0:0:
448,192,82574,1,0,0:0:0:0:
64,192,82917,1,0,0:0:0:0:
192,192,82917,1,0,0:0:0:0:
192,192,83260,1,0,0:0:0:0:
448,192,83260,1,0,0:0:0:0:
320,192,83603,1,0,0:0:0:0:
448,192,83603,1,0,0:0:0:0:
64,192,83946,1,0,0:0:0:0:
320,192,83946,1,0,0:0:0:0:
192,192,84289,1,0,0:0:0:0:
448,192,84289,1,0,0:0:0:0:
320,192,84631,1,0,0:0:0:0:
448,192,84631,1,0,0:0:0:0:
64,192,84974,1,0,0:0:0:0:
192,192,84974,1,0,0:0:0:0:
448,192,85317,1,0,0:0:0:0:
192,192,85317,1,0,0:0:0:0:
320,192,85660,1,0,0:0:0:0:
448,192,85660,1,0,0:0:0:0:
64,192,86003,1,0,0:0:0:0:
192,192,86003,1,0,0:0:0:0:
448,192,86346,1,0,0:0:0:0:
192,192,86346,1,0,0:0:0:0:
320,192,86689,1,0,0:0:0:0:
448,192,86689,1,0,0:0:0:0:
320,192,87031,1,0,0:0:0:0:
448,192,87031,1,0,0:0:0:0:
320,192,87374,1,0,0:0:0:0:
448,192,87374,1,0,0:0:0:0:
320,192,87717,1,0,0:0:0:0:
448,192,87717,1,0,0:0:0:0:
320,192,88060,1,0,0:0:0:0:
448,192,88060,1,0,0:0:0:0:
448,192,88403,1,0,0:0:0:0:
192,192,88403,1,0,0:0:0:0:
320,192,88746,1,0,0:0:0:0:
448,192,88746,1,0,0:0:0:0:
64,192,89089,1,0,0:0:0:0:
320,192,89089,1,0,0:0:0:0:
64,192,89431,1,0,0:0:0:0:
192,192,89431,1,0,0:0:0:0:
64,192,89774,1,0,0:0:0:0:
320,192,89774,1,0,0:0:0:0:
448,192,90117,1,0,0:0:0:0:
192,192,90117,1,0,0:0:0:0:
64,192,90460,1,0,0:0:0:0:
320,192,90460,1,0,0:0:0:0:
64,192,90803,1,0,0:0:0:0:
192,192,90803,1,0,0:0:0:0:
448,192,91146,1,0,0:0:0:0:
192,192,91146,1,0,0:0:0:0:
320,192,91489,1,0,0:0:0:0:
448,192,91489,1,0,0:0:0:0:
192,192,91831,1,0,0:0:0:0:
448,192,91831,1,0,0:0:0:0:
320,192,92174,1,0,0:0:0:0:
448,192,92174,1,0,0:0:0:0:
320,192,92517,1,0,0:0:0:0:
448,192,92517,1,0,0:0:0:0:
320,192,92860,1,0,0:0:0:0:
448,192,92860,1,0,0:0:0:0:
320,192,93203,1,0,0:0:0:0:
448,192,93203,1,0,0:0:0:0:
448,192,93546,1,0,0:0:0:0:
192,192,93546,1,0,0:0:0:0:
64,192,93889,1,0,0:0:0:0:
192,192,93889,1,0,0:0:0:0:
64,192,94231,1,0,0:0:0:0:
320,192,94231,1,0,0:0:0:0:
448,192,94574,1,0,0:0:0:0:
320,192,94574,1,0,0:0:0:0:
64,192,94917,1,0,0:0:0:0:
320,192,94917,1,0,0:0:0:0:
320,192,95260,1,0,0:0:0:0:
448,192,95260,1,0,0:0:0:0:
448,192,95603,1,0,0:0:0:0:
192,192,95603,1,0,0:0:0:0:
64,192,95946,1,0,0:0:0:0:
192,192,95946,1,0,0:0:0:0:
192,192,96289,1,0,0:0:0:0:
320,192,96289,1,0,0:0:0:0:
448,192,96631,1,0,0:0:0:0:
192,192,96631,1,0,0:0:0:0:
320,192,96974,1,0,0:0:0:0:
448,192,96974,1,0,0:0:0:0:
192,192,97317,1,0,0:0:0:0:
448,192,97317,1,0,0:0:0:0:
64,192,97660,1,0,0:0:0:0:
192,192,97660,1,0,0:0:0:0:
64,192,98003,1,0,0:0:0:0:
192,192,98003,1,0,0:0:0:0:
64,192,98346,1,0,0:0:0:0:
192,192,98346,1,0,0:0:0:0:
64,192,98689,1,0,0:0:0:0:
192,192,98689,1,0,0:0:0:0:
192,192,99031,1,0,0:0:0:0:
448,192,99031,1,0,0:0:0:0:
320,192,99374,1,0,0:0:0:0:
64,192,99374,1,0,0:0:0:0:
64,192,99717,1,0,0:0:0:0:
192,192,99717,1,0,0:0:0:0:
192,192,100060,1,0,0:0:0:0:
320,192,100060,1,0,0:0:0:0:
448,192,100403,1,0,0:0:0:0:
192,192,100403,1,0,0:0:0:0:
320,192,100746,1,0,0:0:0:0:
448,192,100746,1,0,0:0:0:0:
192,192,101089,1,0,0:0:0:0:
448,192,101089,1,0,0:0:0:0:
192,192,101431,1,0,0:0:0:0:
320,192,101431,1,0,0:0:0:0:
64,192,101774,1,0,0:0:0:0:
320,192,101774,1,0,0:0:0:0:
448,192,102117,1,0,0:0:0:0:
192,192,102117,1,0,0:0:0:0:
320,192,102460,1,0,0:0:0:0:
448,192,102460,1,0,0:0:0:0:
192,192,102803,1,0,0:0:0:0:
448,192,102803,1,0,0:0:0:0:
64,192,103146,1,0,0:0:0:0:
192,192,103146,1,0,0:0:0:0:
64,192,103489,1,0,0:0:0:0:
192,192,103489,1,0,0:0:0:0:
320,192,103831,1,0,0:0:0:0:
448,192,103831,1,0,0:0:0:0:
320,192,104174,1,0,0:0:0:0:
448,192,104174,1,0,0:0:0:0:
192,192,104517,1,0,0:0:0:0:
448,192,104517,1,0,0:0:0:0:
64,192,104860,1,0,0:0:0:0:
192,192,104860,1,0,0:0:0:0:
192,192,105203,1,0,0:0:0:0:
320,192,105203,1,0,0:0:0:0:
448,192,105546,1,0,0:0:0:0:
192,192,105546,1,0,0:0:0:0:
64,192,105889,1,0,0:0:0:0:
320,192,105889,1,0,0:0:0:0:
448,192,106231,1,0,0:0:0:0:
320,192,106231,1,0,0:0:0:0:
192,192,106574,1,0,0:0:0:0:
448,192,106574,1,0,0:0:0:0:
64,192,106917,1,0,0:0:0:0:
192,192,106917,1,0,0:0:0:0:
64,192,107260,1,0,0:0:0:0:
320,192,107260,1,0,0:0:0:0:
448,192,107603,1,0,0:0:0:0:
192,192,107603,1,0,0:0:0:0:
320,192,107946,1,0,0:0:0:0:
64,192,107946,1,0,0:0:0:0:
192,192,108289,1,0,0:0:0:0:
448,192,108289,1,0,0:0:0:0:
448,192,108631,1,0,0:0:0:0:
320,192,108631,1,0,0:0:0:0:
448,192,108974,1,0,0:0:0:0:
320,192,108974,1,0,0:0:0:0:
448,192,109317,1,0,0:0:0:0:
320,192,109317,1,0,0:0:0:0:
448,192,109660,1,0,0:0:0:0:
320,192,109660,1,0,0:0:0:0:
64,192,110003,1,0,0:0:0:0:
192,192,110003,1,0,0:0:0:0:
448,192,110346,1,0,0:0:0:0:
192,192,110346,1,0,0:0:0:0:
448,192,110689,1,0,0:0:0:0:
320,192,110689,1,0,0:0:0:0:
64,192,111031,1,0,0:0:0:0:
192,192,111031,1,0,0:0:0:0:
448,192,111374,1,0,0:0:0:0:
192,192,111374,1,0,0:0:0:0:
448,192,111717,1,0,0:0:0:0:
320,192,111717,1,0,0:0:0:0:
64,192,112060,1,0,0:0:0:0:
320,192,112060,1,0,0:0:0:0:
448,192,112403,1,0,0:0:0:0:
192,192,112403,1,0,0:0:0:0:
320,192,112746,1,0,0:0:0:0:
448,192,112746,1,0,0:0:0:0:
64,192,113089,1,0,0:0:0:0:
320,192,113089,1,0,0:0:0:0:
64,192,113431,1,0,0:0:0:0:
192,192,113431,1,0,0:0:0:0:
192,192,113774,1,0,0:0:0:0:
448,192,113774,1,0,0:0:0:0:
320,192,114117,1,0,0:0:0:0:
448,192,114117,1,0,0:0:0:0:
320,192,114460,1,0,0:0:0:0:
448,192,114460,1,0,0:0:0:0:
320,192,114803,1,0,0:0:0:0:
448,192,114803,1,0,0:0:0:0:
320,192,115146,1,0,0:0:0:0:
448,192,115146,1,0,0:0:0:0:
192,192,115489,1,0,0:0:0:0:
320,192,115489,1,0,0:0:0:0:
64,192,115831,1,0,0:0:0:0:
320,192,115831,1,0,0:0:0:0:
192,192,116174,1,0,0:0:0:0:
320,192,116174,1,0,0:0:0:0:
192,192,116517,1,0,0:0:0:0:
448,192,116517,1,0,0:0:0:0:
320,192,116860,1,0,0:0:0:0:
64,192,116860,1,0,0:0:0:0:
192,192,117203,1,0,0:0:0:0:
320,192,117203,1,0,0:0:0:0:
64,192,117546,1,0,0:0:0:0:
320,192,117546,1,0,0:0:0:0:
192,192,117889,1,0,0:0:0:0:
448,192,117889,1,0,0:0:0:0:
192,192,118231,1,0,0:0:0:0:
320,192,118231,1,0,0:0:0:0:
64,192,118574,1,0,0:0:0:0:
320,192,118574,1,0,0:0:0:0:
192,192,118917,1,0,0:0:0:0:
448,192,118917,1,0,0:0:0:0:
64,192,119260,1,0,0:0:0:0:
320,192,119260,1,0,0:0:0:0:
448,192,119603,1,0,0:0:0:0:
64,192,119603,1,0,0:0:0:0:
192,192,119946,1,0,0:0:0:0:
320,192,119946,1,0,0:0:0:0:
64,192,120289,1,0,0:0:0:0:
320,192,120289,1,0,0:0:0:0:
192,192,120631,1,0,0:0:0:0:
448,192,120631,1,0,0:0:0:0:
320,192,120974,1,0,0:0:0:0:
64,192,120974,1,0,0:0:0:0:
192,192,121317,1,0,0:0:0:0:
64,192,121317,1,0,0:0:0:0:
320,192,121660,1,0,0:0:0:0:
64,192,121660,1,0,0:0:0:0:
320,192,122003,1,0,0:0:0:0:
192,192,122003,1,0,0:0:0:0:
448,192,122346,1,0,0:0:0:0:
192,192,122346,1,0,0:0:0:0:
320,192,122689,1,0,0:0:0:0:
64,192,122689,1,0,0:0:0:0:
192,192,123031,1,0,0:0:0:0:
448,192,123031,1,0,0:0:0:0:
192,192,123374,1,0,0:0:0:0:
320,192,123374,1,0,0:0:0:0:
64,192,123717,1,0,0:0:0:0:
448,192,123717,1,0,0:0:0:0:
192,192,124060,1,0,0:0:0:0:
320,192,124060,1,0,0:0:0:0:
64,192,124403,1,0,0:0:0:0:
320,192,124403,1,0,0:0:0:0:
448,192,124746,1,0,0:0:0:0:
320,192,124746,1,0,0:0:0:0:
192,192,125089,1,0,0:0:0:0:
64,192,125089,1,0,0:0:0:0:
192,192,125431,1,0,0:0:0:0:
448,192,125431,1,0,0:0:0:0:
320,192,125774,1,0,0:0:0:0:
64,192,125774,1,0,0:0:0:0:
192,192,126117,1,0,0:0:0:0:
448,192,126117,1,0,0:0:0:0:
64,192,126460,1,0,0:0:0:0:
320,192,126460,1,0,0:0:0:0:
