osu file format v9

[General]
AudioFilename: kanon-kanon.mp3
AudioLeadIn: 0
PreviewTime: 70096
Countdown: 1
SampleSet: Normal
StackLeniency: 0.7
Mode: 0
LetterboxInBreaks: 1

[Editor]
Bookmarks: 12013,22680,38680,44013,73226,74269,77400,78443,81574,82617,85748,86791,103487,116009,120182,136878,153574,154617,155661,158791,159835,162965,164074,172356
DistanceSpacing: 0.5
BeatDivisor: 4
GridSize: 16

[Metadata]
Title:Kanon-Kanon
Artist:t+pazolite
Creator:Shiirn
Version:Ultimate Spark
Source:
Tags:Unlimited Spark Pachelbel canon D major rokodo

[Difficulty]
HPDrainRate:6
CircleSize:4
OverallDifficulty:7
ApproachRate:8
SliderMultiplier:1.4
SliderTickRate:2

[Events]
//Background and Video events
0,0,"bg.jpg"
//Break Periods
2,12236,21953
2,103710,115151
//Storyboard Layer 0 (Background)
//Storyboard Layer 1 (Fail)
//Storyboard Layer 2 (Pass)
//Storyboard Layer 3 (Foreground)
//Storyboard Sound Samples
//Background Colour Transformations
3,100,163,162,255

[TimingPoints]
1370,666.666666666667,4,2,0,70,1,0
1370,-66.6666666666667,4,2,0,70,0,0
70119,260.869565217391,4,1,1,70,1,0
103510,-100,4,2,0,100,0,0
115901,-100,4,1,1,70,0,0
120231,-100,4,1,1,70,0,1
128449,-100,4,1,1,70,0,0
128579,-100,4,1,1,70,0,1
136797,-100,4,1,1,70,0,0
136927,-100,4,1,1,70,0,1
145144,-100,4,1,1,70,0,0
145275,-100,4,1,1,70,0,1
153597,-100,4,2,0,10,0,0
154640,-100,4,2,0,100,0,0
155684,-100,4,1,1,70,0,0
174466,-50,4,1,0,30,0,0
175510,-50,4,2,0,100,0,0

[Colours]
Combo1 : 61,149,237
Combo2 : 21,234,234

[HitObjects]
48,192,1370,2,0,B|104:128|192:108|344:108,1,314.999990612269,2|0
464,192,2703,2,0,B|408:256|320:276|168:276,1,314.999990612269,2|0
256,36,4036,2,0,B|320:92|340:180|340:332,1,314.999990612269,2|0
256,348,5369,2,0,B|192:292|172:204|172:52,1,314.999990612269,2|0
256,40,6703,6,0,B|256:196,1,157.499995306134,2|0
320,256,7369,2,0,B|320:98,1,157.499995306134
384,144,8036,2,0,B|384:300,1,157.499995306134,2|0
448,360,8702,2,0,B|448:202,1,157.499995306134
444,124,9369,6,0,B|371:55|303:329|234:55|162:124,1,314.999990612269,2|0
36,240,10703,2,0,B|108:308|176:34|245:308|317:240,1,314.999990612269,2|0
436,60,12036,5,6
256,32,22703,5,2
445,64,23036,1,0
408,253,23369,1,0
220,216,23703,1,0
321,91,24036,5,2
427,188,24369,1,0
326,292,24702,1,0
223,192,25036,1,0
348,148,25369,5,2
392,334,25702,1,0
203,374,26035,1,0
164,186,26369,1,0
284,216,26703,5,2
217,343,27036,1,0
91,273,27369,1,0
161,147,27703,1,0
256,192,28036,6,0,B|256:88,1,104.999996870756,2|0
472,192,28703,2,0,B|456:300,1,104.999996870756
40,192,29369,2,0,B|56:84,1,104.999996870756,2|0
256,192,30036,2,0,B|256:296,1,104.999996870756
64,192,30703,5,2
64,192,31036,1,0
168,105,31369,1,0
168,284,31702,1,0
256,32,32036,5,2
256,352,32369,1,0
344,104,32703,1,0
344,283,33036,1,0
412,192,33369,6,0,B|308:192,1,104.999996870756,2|0
100,192,34036,2,0,B|204:192,1,104.999996870756
256,36,34703,2,0,B|256:140,1,104.999996870756,2|0
256,348,35369,2,0,B|256:244,1,104.999996870756,0|0
256,83,36036,5,2
192,279,36369,1,0
358,158,36703,1,0
153,158,37036,1,0
319,279,37369,1,2
256,83,37703,1,0
192,279,38036,1,0
358,158,38369,1,0
152,192,38703,5,2
256,140,39036,1,0
280,192,39203,1,0
256,244,39369,1,2
360,192,39703,1,0
416,192,39869,1,2
328,152,40203,1,2
328,232,40370,1,0
188,192,40703,1,0
188,192,41036,1,2
60,192,41369,5,2
164,140,41703,1,0
188,192,41870,1,0
164,244,42036,1,2
256,88,42369,1,0
304,192,42536,1,0
256,296,42702,1,2
424,96,43036,5,0
384,140,43203,1,0
360,192,43370,1,2
384,244,43536,1,2
424,288,43703,1,2
444,192,43869,5,0
444,192,44036,5,2
384,244,44369,1,0
360,192,44536,1,0
384,140,44702,1,2
304,35,45036,5,0
280,87,45203,1,0
256,140,45369,1,2
232,192,45536,1,0
256,244,45703,1,0
280,296,45869,1,0
304,348,46036,1,2
336,296,46203,1,0
360,244,46369,1,0
384,192,46536,1,2
316,192,46703,5,2
256,140,47036,1,0
232,192,47203,1,0
256,244,47369,1,2
176,349,47703,5,0
152,297,47870,1,0
128,244,48036,1,2
104,192,48203,1,0
128,140,48370,1,0
152,88,48536,1,0
176,36,48703,1,2
208,88,48870,1,0
232,140,49036,1,0
256,192,49203,1,2
256,276,49369,5,2
204,216,49702,1,0
256,192,49869,1,0
308,216,50035,1,2
99,136,50369,5,0
151,112,50536,1,0
204,88,50702,1,2
256,64,50869,1,0
308,88,51036,1,0
360,112,51202,1,0
412,136,51369,1,2
360,168,51536,1,0
308,192,51702,1,0
256,216,51869,1,2
256,132,52036,5,2
308,192,52369,1,0
256,216,52536,1,0
204,192,52702,1,2
99,272,53036,5,0
151,296,53203,1,0
204,320,53369,1,2
256,344,53536,1,0
308,320,53703,1,0
360,296,53869,1,0
412,272,54036,1,2
360,240,54203,1,0
308,216,54369,1,0
256,192,54536,1,2
256,268,54703,6,0,B|256:156,1,104.999996870756,2|0
256,163,55203,1,0
256,163,55369,2,0,B|240:112|188:84,1,104.999996870756,2|0
189,84,55869,5,0
189,84,56036,2,0,B|136:80,1,52.4999984353781,2|0
160,128,56369,2,0,B|148:184,1,52.4999984353781,2|0
104,148,56703,2,0,B|52:200,1,52.4999984353781,2|0
124,208,57036,2,0,B|144:260,1,52.4999984353781,2|0
100,288,57369,5,2
224,304,57703,1,0
312,304,57869,1,0
268,232,58036,1,2
84,192,58369,5,0
120,152,58536,1,0
168,128,58703,1,2
216,152,58869,1,0
252,192,59036,1,0
288,232,59203,1,0
336,256,59369,1,2
384,232,59535,1,0
424,196,59703,1,0
460,156,59870,1,0
496,196,60036,5,2
496,196,60369,1,0
444,196,60536,1,0
392,196,60703,1,2
444,196,61036,5,0
408,156,61203,1,0
360,132,61370,1,2
312,156,61536,1,0
276,196,61703,1,0
240,236,61870,1,0
192,260,62036,1,2
144,236,62202,1,0
104,200,62370,1,0
68,160,62537,1,0
16,196,62703,5,2
16,196,63036,1,0
68,196,63203,1,0
120,196,63370,1,2
68,196,63703,5,0
104,156,63870,1,0
152,132,64037,1,2
200,156,64203,1,0
236,196,64370,1,0
272,236,64537,1,0
320,260,64703,1,2
368,236,64869,1,0
408,200,65037,1,0
444,160,65204,1,2
484,124,65369,5,6
256,192,65536,12,0,69870
156,40,70119,6,0,B|156:112,1,70,6|0
224,40,70379,2,0,B|224:112,1,70,2|0
292,40,70640,2,0,B|292:112,1,70,2|0
360,40,70901,2,0,B|360:112,1,70,2|0
356,252,71162,6,0,B|356:180,1,70,0|2
288,252,71423,2,0,B|288:180,1,70,0|2
220,252,71684,2,0,B|220:180,1,70,0|2
152,252,71945,2,0,B|152:180,1,70,0|2
140,112,72205,5,0
188,60,72336,1,2
212,124,72466,2,0,B|280:152,1,70,2|2
312,88,72727,1,0
372,52,72858,1,2
440,60,72988,2,0,B|480:124,1,70,2|2
468,192,73249,5,2
408,156,73379,1,0
408,228,73510,1,2
44,192,73771,5,2
104,156,73901,1,0
104,228,74032,1,2
200,80,74292,6,0,B|270:80,1,70,2|0
310,148,74553,2,0,B|240:148,1,70,2|0
292,80,74814,2,0,B|362:80,1,70,2|0
220,148,75075,2,0,B|150:148,1,70,2|0
256,192,75336,6,0,B|314:150,1,70,0|2
256,192,75597,2,0,B|297:250,1,70,0|2
256,192,75858,2,0,B|193:235,1,70,0|2
256,192,76119,2,0,B|214:133,1,70,0|2
161,175,76379,5,0
239,286,76510,1,2
350,208,76640,1,2
272,97,76771,1,0
190,237,76901,5,2
301,257,77032,1,2
321,146,77162,1,0
210,126,77292,1,2
156,88,77423,5,2
144,100,77488,1,0
132,116,77553,1,0
124,132,77619,1,2
116,148,77684,1,0
108,164,77749,1,0
100,180,77814,1,2
96,196,77879,1,0
92,212,77945,5,2
92,228,78010,1,0
92,244,78075,1,2
96,260,78140,1,0
100,276,78205,1,2
108,292,78271,1,2
116,308,78336,1,2
128,320,78401,1,2
140,332,78466,6,0,B|208:332,1,70,6|0
278,260,78727,2,0,B|208:260,1,70,2|0
280,332,78988,2,0,B|348:332,1,70,2|0
422,260,79249,2,0,B|352:260,1,70,2|0
348,192,79510,5,0
316,128,79640,1,0
276,184,79771,2,0,B|212:220,1,70,2|2
168,168,80032,1,0
112,212,80162,1,2
56,168,80292,2,0,B|88:108,1,70,2|2
156,92,80553,6,0,B|216:132,3,70,2|0|2|0
240,196,81075,2,0,B|320:208,3,70,2|0|2|0
256,344,81597,5,2
220,284,81727,1,0
292,284,81858,1,2
256,40,82119,5,2
220,100,82249,1,0
292,100,82379,1,2
292,192,82640,6,0,B|356:160,1,70,2|0
220,192,82901,2,0,B|156:224,1,70,2|0
352,184,83162,2,0,B|416:216,1,70,2|0
176,208,83423,2,0,B|112:176,1,70,2|0
60,192,83684,5,0
112,136,83814,1,2
180,96,83945,1,0
256,116,84075,1,2
332,96,84205,1,0
400,136,84336,1,2
452,192,84466,1,0
400,248,84597,1,2
360,192,84727,5,2
284,192,84858,1,2
208,192,84988,2,0,B|183:126,1,70,2|0
124,176,85249,1,2
80,116,85379,1,2
124,52,85510,2,0,B|188:24,1,70,2|0
256,48,85771,5,6
253,63,85836,1,0
250,79,85901,1,0
247,95,85966,1,2
244,111,86032,1,0
242,126,86097,1,0
239,142,86162,1,2
236,158,86227,1,0
252,168,86292,5,2
254,183,86358,1,0
257,199,86423,1,2
260,215,86488,1,0
263,231,86553,1,2
265,246,86619,1,0
268,262,86684,1,2
271,278,86749,1,2
256,292,86814,6,0,B|204:336|128:340,1,140,2|0
144,272,87205,1,2
72,276,87336,2,0,B|76:204|140:160,1,140,2|0
216,40,87858,6,0,B|256:96|340:92,1,140,2|0
372,156,88249,1,2
412,212,88379,2,0,B|356:252|360:336,2,140,2|0|2
272,188,89162,5,0
272,188,89292,1,2
272,188,89423,2,0,B|196:180|241:118|165:111,1,140,2|0
112,192,89945,2,0,B|112:260|176:312,1,140,2|0
236,280,90336,1,2
240,348,90466,2,0,B|304:376|376:348,1,140,2|0
376,204,90988,6,0,B|376:272,1,70,2|0
308,208,91249,2,0,B|308:276,1,70,2|0
240,212,91510,2,0,B|240:280,1,70,2|0
172,216,91771,2,0,B|172:284,1,70,2|0
136,180,92032,6,0,B|136:110,1,70,2|0
204,176,92292,2,0,B|204:106,1,70,2|0
272,172,92553,2,0,B|272:102,1,70,2|0
340,168,92814,2,0,B|340:98,1,70,2|0
408,124,93075,6,0,B|436:192|408:260,1,140,2|0
336,252,93466,1,2
367,315,93597,2,0,B|311:363|238:357,1,140,2|0
104,260,94119,6,0,B|76:192|104:124,1,140,2|0
176,132,94510,1,2
144,68,94640,2,0,B|200:20|273:26,1,140,2|0
288,192,95162,6,0,B|340:256|288:320,1,140,6|0
256,192,95553,1,2
224,192,95684,2,0,B|172:128|224:64,1,140,2|0
448,192,96205,5,2
120,192,96466,2,0,B|192:192,2,70,0|2|2
300,304,96988,1,0
300,304,97119,1,0
368,344,97249,6,0,B|408:288|408:212,1,140,2|0
404,136,97640,1,2
328,136,97771,2,0,B|252:135|196:95,1,140,2|0
102,159,98292,6,0,B|68:222,1,70,2|0
114,274,98553,2,0,B|146:212,1,70,2|0
216,220,98814,2,0,B|182:283,1,70,2|0
223,332,99075,2,0,B|255:270,1,70,2|0
288,208,99336,6,0,B|332:336|440:328,1,210,2|2
440,256,99858,1,0
440,180,99988,1,2
436,104,100119,2,0,B|364:98|335:183,1,140,2|2
288,112,100640,5,0
152,300,100901,1,2
112,120,101162,1,0
224,176,101423,6,0,B|180:48|72:56,1,210,2|2
72,128,101945,1,0
72,204,102075,1,0
76,280,102205,2,0,B|147:285|176:200,1,140,2|6
224,272,102727,5,4
360,84,102988,1,2
400,264,103249,1,2
88,44,103510,5,4
116,88,115901,5,0
180,44,116032,1,6
220,168,116292,1,2
360,192,116553,1,2
312,260,116684,1,0
256,320,116814,1,2
152,208,117075,5,6
272,112,117336,1,2
328,164,117466,1,0
328,240,117597,1,2
276,296,117727,1,2
200,296,117858,1,2
132,160,118119,5,6
348,76,118510,1,0
396,136,118640,1,6
348,196,118771,1,0
136,104,119162,5,6
136,180,119292,1,2
256,84,119553,1,2
256,160,119684,1,6
284,236,119814,1,0
256,312,119945,1,6
228,236,120075,1,2
180,156,120205,6,0,B|180:228,1,70,6|0
332,228,120466,2,0,B|332:156,1,70,2|0
149,141,120727,2,0,B|149:242,1,70,2|0
362,242,120988,2,0,B|362:141,1,70,2|0
332,74,121249,6,0,B|286:145,1,70,2|0
256,192,121510,1,2
179,309,121640,2,0,B|225:238,1,70,0|2
256,192,121901,1,0
256,192,122032,1,2
256,192,122162,1,2
224,96,122292,6,0,B|284:132,1,70,2|0
288,288,122553,2,0,B|228:252,1,70,2|0
296,69,122814,2,0,B|220:115,1,70,2|0
215,314,123075,2,0,B|291:268,1,70,2|0
258,192,123336,6,0,B|188:192,1,70
256,194,123597,2,0,B|256:124,1,70,2|0
254,192,123858,2,0,B|324:192,1,70,0|0
256,190,124119,2,0,B|256:260,1,70,2|0
256,192,124379,6,0,B|324:160|392:192,1,140,2|0
320,248,124771,1,2
388,304,124901,2,0,B|320:336|252:304,1,140,2|0
320,248,125292,1,2
316,122,125423,6,0,B|316:192,1,70,2|0
196,120,125684,2,0,B|266:120,1,70
196,262,125945,2,0,B|196:192,1,70,2|0
316,264,126205,2,0,B|248:264,1,70
256,192,126466,6,0,B|188:224|120:192,1,140,2|0
192,140,126858,1,2
124,80,126988,2,0,B|192:48|260:80,1,140,2|0
192,140,127379,1,2
140,192,127510,5,2
188,240,127640,1,0
256,264,127771,1,0
324,240,127901,1,2
372,192,128032,1,0
324,144,128162,1,0
256,120,128292,1,2
188,144,128423,1,2
332,228,128553,6,0,B|332:156,1,70,6|0
180,156,128814,2,0,B|180:228,1,70,2|0
363,243,129075,2,0,B|363:142,1,70,2|0
150,142,129336,2,0,B|150:243,1,70,2|0
218,251,129597,6,0,B|180:310,1,70,2|0
256,192,129858,1,2
294,133,129988,2,0,B|333:75,1,70,0|2
256,192,130249,1,0
256,192,130379,1,2
256,192,130510,1,2
288,288,130640,6,0,B|228:252,1,70,2|0
224,96,130901,2,0,B|284:132,1,70,2|0
275,278,131162,2,0,B|216:315,1,70,2|0
237,106,131423,2,0,B|297:70,1,70,2|0
324,192,131684,6,0,B|254:192,1,70
256,260,131945,2,0,B|256:190,1,70,2|0
188,192,132205,2,0,B|258:192,1,70,0|0
256,124,132466,2,0,B|256:194,1,70,2|0
255,193,132727,6,0,B|187:225|119:193,1,140,2|0
192,136,133119,1,2
124,80,133249,2,0,B|192:48|260:80,1,140,2|0
192,136,133640,1,2
196,262,133771,6,0,B|196:192,1,70,2|0
316,122,134032,2,0,B|316:192,1,70,2|0
316,264,134292,2,0,B|246:264,1,70
196,120,134553,2,0,B|264:120,1,70
257,192,134814,6,0,B|325:160|393:192,1,140,2|0
320,244,135205,1,2
388,304,135336,2,0,B|320:336|252:304,1,140,2|0
320,244,135727,1,2
256,308,135858,5,6
208,260,135988,1,0
184,192,136119,1,4
208,124,136249,1,2
256,76,136379,1,0
304,124,136510,1,0
328,192,136640,1,2
304,260,136771,1,2
180,156,136901,6,0,B|180:228,1,70,6|0
332,228,137162,2,0,B|332:156,1,70,2|0
149,141,137423,2,0,B|149:242,1,70,2|0
362,242,137684,2,0,B|362:141,1,70,2|0
180,74,137945,6,0,B|226:145,1,70,2|0
256,192,138205,1,2
333,309,138336,2,0,B|287:238,1,70,0|2
256,192,138597,1,0
256,192,138727,1,2
256,192,138858,1,2
224,96,138988,6,0,B|284:132,1,70,2|0
288,288,139249,2,0,B|228:252,1,70,2|0
296,69,139510,2,0,B|220:115,1,70,2|0
215,314,139771,2,0,B|291:268,1,70,2|0
258,192,140032,6,0,B|188:192,1,70
256,194,140292,2,0,B|256:124,1,70,2|0
254,192,140553,2,0,B|324:192,1,70,0|0
256,190,140814,2,0,B|256:260,1,70,2|0
256,192,141075,6,0,B|224:124|256:56,1,140,2|0
312,128,141466,1,2
368,60,141597,2,0,B|400:128|368:196,1,140,2|0
312,128,141988,1,2
316,122,142119,6,0,B|316:192,1,70,2|0
196,120,142379,2,0,B|266:120,1,70
196,262,142640,2,0,B|196:192,1,70,2|0
316,264,142901,2,0,B|248:264,1,70
255,193,143162,6,0,B|287:261|255:329,1,140,2|0
204,256,143553,1,2
144,324,143684,2,0,B|112:256|144:188,1,140,2|0
204,256,144075,1,2
256,308,144205,5,2
304,260,144336,1,0
328,192,144466,1,0
304,124,144597,1,2
256,76,144727,1,0
208,124,144858,1,0
184,192,144988,1,2
208,260,145119,1,2
339,185,145249,6,0,B|314:252,1,70,6|0
172,198,145510,2,0,B|197:131,1,70,2|0
374,182,145771,2,0,B|337:277,1,70,2|0
139,200,146032,2,0,B|175:106,1,70,2|0
213,135,146292,6,0,B|173:78,1,70,2|0
256,192,146553,1,2
295,248,146684,2,0,B|337:305,1,70,0|2
256,192,146945,1,0
256,192,147075,1,2
256,192,147205,1,2
177,127,147336,6,0,B|189:196,1,70,2|0
334,256,147597,2,0,B|322:187,1,70,2|0
126,185,147858,2,0,B|197:130,1,70,2|0
384,197,148119,2,0,B|314:251,1,70,2|0
319,216,148379,6,0,B|254:191,1,70
280,128,148640,2,0,B|255:193,1,70,2|0
192,167,148901,2,0,B|257:192,1,70,0|0
231,255,149162,2,0,B|256:190,1,70,2|0
256,192,149423,6,0,B|203:137|129:143,1,140,2|0
176,221,149814,1,2
92,249,149945,2,0,B|144:303|219:297,1,140,2|0
176,221,150336,1,2
225,105,150466,6,0,B|199:170,1,70,2|0
337,146,150727,2,0,B|272:121,1,70
286,278,150988,2,0,B|312:213,1,70,2|0
174,237,151249,2,0,B|237:262,1,70
256,192,151510,6,0,B|308:246|382:240,1,140,2|0
334,166,151901,1,2
419,134,152032,2,0,B|367:80|292:86,1,140,2|0
334,166,152423,1,2
364,233,152553,5,6
302,261,152684,1,0
230,259,152814,1,4
175,212,152945,1,2
147,150,153075,1,0
209,122,153205,1,0
281,124,153336,1,2
336,171,153466,1,2
256,192,153597,5,0
224,192,154640,5,0
256,160,154901,1,0
288,192,155162,1,0
256,224,155423,1,0
356,344,155684,6,0,B|356:272,1,70,6|0
288,344,155945,2,0,B|288:272,1,70,2|0
220,344,156205,2,0,B|220:272,1,70,2|0
152,344,156466,2,0,B|152:272,1,70,2|0
156,132,156727,6,0,B|156:204,1,70,0|2
224,132,156988,2,0,B|224:204,1,70,0|2
292,132,157249,2,0,B|292:204,1,70,0|2
360,132,157510,2,0,B|360:204,1,70,0|2
372,272,157771,5,0
324,324,157901,1,2
300,260,158032,2,0,B|232:232,1,70,2|2
200,296,158292,1,0
140,332,158423,1,2
72,324,158553,2,0,B|32:260,1,70,2|2
44,192,158814,5,2
104,228,158945,1,0
104,156,159075,1,2
468,192,159336,5,2
408,228,159466,1,0
408,156,159597,1,2
312,80,159858,6,0,B|242:80,1,70,2|0
202,148,160119,2,0,B|272:148,1,70,2|0
220,80,160379,2,0,B|150:80,1,70,2|0
292,148,160640,2,0,B|362:148,1,70,2|0
256,192,160901,6,0,B|198:234,1,70,0|2
256,192,161162,2,0,B|215:134,1,70,0|2
256,192,161423,2,0,B|319:149,1,70,0|2
256,192,161684,2,0,B|298:251,1,70,0|2
351,209,161945,5,0
273,98,162075,1,2
162,176,162205,1,2
240,287,162336,1,0
322,147,162466,5,2
211,127,162597,1,2
191,238,162727,1,0
302,258,162858,1,2
352,296,162988,5,2
368,284,163053,1,0
380,268,163119,1,0
388,252,163184,1,2
396,236,163249,1,0
404,220,163314,1,0
412,204,163379,1,2
416,188,163445,1,0
420,172,163510,5,2
420,156,163575,1,0
420,140,163640,1,2
416,124,163705,1,0
412,108,163771,1,2
404,92,163836,1,2
396,76,163901,1,2
384,64,163966,1,2
372,52,164032,6,0,B|304:52,1,70,2|0
234,124,164292,2,0,B|304:124,1,70,2|0
232,52,164553,2,0,B|164:52,1,70,2|0
90,124,164814,2,0,B|160:124,1,70,2|0
164,192,165075,5,0
196,256,165205,1,0
236,200,165336,2,0,B|300:164,1,70,2|2
344,216,165597,1,0
400,172,165727,1,2
456,216,165858,2,0,B|424:276,1,70,2|2
356,292,166119,6,0,B|296:252,3,70,2|0|2|0
272,188,166640,2,0,B|192:176,3,70,2|0|2|0
256,40,167162,5,2
292,100,167292,1,0
220,100,167423,1,2
256,344,167684,5,2
292,284,167814,1,0
220,284,167945,1,2
220,192,168205,6,0,B|156:224,1,70,2|0
292,192,168466,2,0,B|356:160,1,70,2|0
160,200,168727,2,0,B|96:168,1,70,2|0
336,176,168988,2,0,B|400:208,1,70,2|0
452,192,169249,5,0
400,248,169379,1,2
332,288,169510,1,0
256,268,169640,1,2
180,288,169771,1,0
112,248,169901,1,2
60,192,170032,1,0
112,136,170162,1,2
152,192,170292,5,0
228,192,170423,1,2
304,192,170553,2,0,B|329:258,1,70,2|2
388,208,170814,1,0
432,268,170945,1,2
388,332,171075,2,0,B|352:272,1,70,2|2
256,272,171336,5,6
266,287,171401,1,0
270,307,171466,1,0
267,325,171532,1,2
256,342,171597,1,4
240,352,171662,1,0
220,356,171727,1,2
201,353,171792,1,0
185,342,171858,5,6
174,326,171923,1,0
170,307,171988,1,2
173,288,172053,1,0
184,271,172119,1,6
201,261,172184,1,2
220,257,172249,1,2
239,260,172314,1,2
256,272,172379,5,4
372,16,172901,5,4
60,87,173423,5,4
124,368,173945,5,4
436,296,174466,6,0,B|459:257,32,35,0|0|0|0|0|0|0|0|0|0|0|0|0|0|0|0|0|0|0|0|0|0|0|0|0|0|0|0|0|0|0|0|4
