osu file format v9

[General]
AudioFilename: kanon-kanon.mp3
AudioLeadIn: 0
PreviewTime: 70096
Countdown: 1
SampleSet: Soft
StackLeniency: 0.7
Mode: 0
LetterboxInBreaks: 1

[Editor]
Bookmarks: 12013,22680,38680,44013,73226,73379,74269,77400,78443,81574,82617,85748,86791,103487,116009,120182,136878,153574,154617,155661,158791,159835,162965,164074,172356
DistanceSpacing: 1
BeatDivisor: 4
GridSize: 4

[Metadata]
Title:Kanon-Kanon
Artist:t+pazolite
Creator:Shiirn
Version:Hard
Source:
Tags:Unlimited Spark Pachelbel canon D major rokodo

[Difficulty]
HPDrainRate:5
CircleSize:4
OverallDifficulty:5
ApproachRate:7
SliderMultiplier:1.2
SliderTickRate:2

[Events]
//Background and Video events
0,0,"bg.jpg"
//Break Periods
2,12236,21803
2,103710,115001
//Storyboard Layer 0 (Background)
//Storyboard Layer 1 (Fail)
//Storyboard Layer 2 (Pass)
//Storyboard Layer 3 (Foreground)
//Storyboard Sound Samples
//Background Colour Transformations
3,100,163,162,255

[TimingPoints]
1370,666.666666666667,4,2,0,85,1,0
1370,-66.6666666666667,4,2,0,85,0,0
70119,260.869565217391,4,1,1,80,1,0
103510,-100,4,2,0,100,0,0
115901,-100,4,1,1,80,0,0
120205,-100,4,1,1,80,0,1
128423,-100,4,1,1,80,0,0
128553,-100,4,1,1,80,0,1
136771,-100,4,1,1,80,0,0
136901,-100,4,1,1,80,0,1
145118,-100,4,1,1,80,0,0
145249,-100,4,1,1,80,0,1
153597,-100,4,2,0,70,0,0
154640,-100,4,2,0,80,0,0
155684,-100,4,1,1,80,0,0
174466,-66.6666666666667,4,1,0,65,0,0
175510,-100,4,2,0,100,0,0

[Colours]
Combo1 : 61,149,237
Combo2 : 21,234,234

[HitObjects]
68,192,1370,2,0,B|232:120,3,179.999994635582,2|0|2|0
444,192,4036,2,0,B|280:264,3,179.999994635582,2|0|2|0
264,40,6703,6,0,B|296:124,1,89.9999973177911,2|0
248,132,7369,2,0,B|216:216,1,89.9999973177911
316,164,8036,2,0,B|348:248,1,89.9999973177911,2|0
300,256,8702,2,0,B|268:340,1,89.9999973177911
198,314,9369,6,0,B|89:307|60:192|89:76|198:69,1,359.999989271164,2|0
256,192,11369,1,2
464,96,12036,5,4
164,80,22703,5,2
256,80,23036,1,0
256,168,23369,1,0
164,168,23703,1,0
248,140,24036,5,2
324,188,24369,1,0
277,263,24702,1,0
200,213,25036,1,0
288,224,25369,5,2
324,308,25702,1,0
242,343,26035,1,0
206,258,26369,1,0
296,260,26703,6,0,B|388:260,1,89.9999973177911,2|0
384,172,27369,2,0,B|296:172,1,89.9999973177911
220,120,28036,6,0,B|168:200,1,89.9999973177911,2|0
104,132,28703,2,0,B|168:68,1,89.9999973177911
256,52,29369,6,0,B|344:68,1,89.9999973177911,2|0
280,132,30036,1,0
360,172,30369,1,0
284,220,30703,6,0,B|324:300,1,89.9999973177911,2|0
236,296,31369,1,0
172,360,31703,1,0
128,280,32036,6,0,B|128:192,1,89.9999973177911,2|0
172,112,32703,2,0,B|252:152,1,89.9999973177911
256,60,33369,5,2
348,60,33703,1,0
424,104,34036,1,0
456,188,34369,1,0
368,160,34703,5,2
288,124,35036,1,0
200,148,35369,1,0
132,208,35703,1,0
112,296,36036,5,2
192,252,36369,1,0
268,204,36703,1,0
348,244,37036,1,0
356,332,37369,5,2
276,296,37703,1,0
188,280,38036,1,0
172,192,38369,1,0
260,192,38703,5,2
348,192,39036,2,0,B|392:192,2,44.9999986588955,0|0|2
312,124,39703,2,0,B|268:148,1,44.9999986588955,0|2
312,256,40203,2,0,B|268:232,1,44.9999986588955,2|0
188,192,40703,1,0
188,192,41036,1,2
100,192,41369,5,2
176,144,41703,2,0,B|176:96,2,44.9999986588955,0|0|2
176,232,42369,2,0,B|176:280,2,44.9999986588955,0|0|2
256,192,43036,6,0,B|288:160,1,44.9999986588955
256,192,43369,2,0,B|288:224,1,44.9999986588955,2|2
256,192,43703,2,2,B|304:192,1,44.9999986588955
256,192,44036,5,2
168,192,44369,2,0,B|124:164,2,44.9999986588955,0|0|2
216,268,45036,6,0,B|196:316,2,44.9999986588955,0|0|2
260,268,45536,2,0,B|288:316,2,44.9999986588955
292,236,46036,2,0,B|340:236,2,44.9999986588955,2|2|0
292,192,46536,2,0,B|292:144,1,44.9999986588955,0|2
220,92,47036,6,0,B|180:68,2,44.9999986588955,0|0|2
312,88,47703,6,0,B|360:88,1,44.9999986588955
392,116,48036,2,0,B|428:148,1,44.9999986588955,2|0
448,188,48370,2,0,B|448:236,1,44.9999986588955
436,276,48703,2,2,B|416:316,1,44.9999986588955
372,320,49036,2,0,B|324:348,2,44.9999986588955,0|0|2
348,232,49703,6,0,B|400:248,2,44.9999986588955,0|0|2
344,140,50370,6,0,B|316:100,1,44.9999986588955
272,104,50703,2,0,B|228:88,3,44.9999986588955,2|0|0|0
188,108,51370,2,0,B|144:132,3,44.9999986588955,2|2|0|0
132,172,52036,5,2
156,260,52370,1,0
184,296,52536,2,0,B|228:296,1,44.9999986588955,0|2
256,192,53036,6,0,B|280:232,2,44.9999986588955,0|0|2
324,188,53536,2,0,B|360:228,2,44.9999986588955
376,172,54036,2,0,B|416:152,1,44.9999986588955,2|2
400,104,54370,2,0,B|456:108,2,44.9999986588955,0|0|2
308,48,55036,5,0
276,80,55203,1,0
244,112,55370,1,2
156,128,55703,6,0,B|133:170,1,44.9999986588955
143,211,56036,2,0,B|154:257,1,44.9999986588955,2|0
180,295,56370,2,0,B|222:317,1,44.9999986588955
263,325,56703,2,2,B|307:326,1,44.9999986588955
332,289,57036,2,0,B|379:259,2,44.9999986588955,0|0|2
272,220,57703,5,0
272,176,57869,2,0,B|272:132,1,44.9999986588955,0|2
352,176,58370,6,0,B|400:156,2,44.9999986588955,0|0|2
352,220,58870,2,0,B|400:248,2,44.9999986588955
320,252,59370,2,0,B|320:300,2,44.9999986588955,2|2|0
276,252,59870,2,0,B|228:252,1,44.9999986588955,0|2
164,192,60370,5,0
196,160,60536,1,0
240,144,60703,1,2
328,160,61036,5,0
360,192,61203,2,0,B|392:228,1,44.9999986588955,0|2
372,268,61536,1,0
336,296,61703,2,0,B|292:276,1,44.9999986588955
264,244,62036,2,0,B|264:184,2,44.9999986588955,2|2|0
264,288,62536,1,0
264,332,62703,5,2
408,328,63036,1,0
428,288,63203,1,0
428,244,63370,1,2
404,156,63703,6,0,B|372:124,1,44.9999986588955
328,112,64036,1,2
284,104,64203,1,0
252,136,64370,2,0,B|220:176,1,44.9999986588955
192,204,64703,1,2
160,236,64870,1,2
128,268,65036,1,0
96,300,65203,1,2
64,332,65370,5,4
256,192,65536,12,0,69870
200,192,70119,6,0,B|188:132|232:80,1,120,6|0
256,136,70640,2,0,B|316:124|368:168,1,120,2|0
312,192,71162,2,0,B|324:252|280:304,1,120,2|2
256,248,71684,2,0,B|196:260|144:216,1,120,0|2
208,192,72205,6,0,B|208:132,1,60,2|0
248,88,72466,2,0,B|188:68,1,60,2|0
132,88,72727,2,0,B|80:124,1,60,2|0
72,180,72988,2,0,B|72:244,1,60,2|0
128,192,73249,6,0,B|188:192,2,60,2|0|2
384,192,73771,6,0,B|324:192,2,60,2|0|2
256,192,74292,5,2
332,100,74553,1,0
432,168,74814,1,2
360,264,75075,1,0
256,324,75336,6,0,B|256:256,1,60,2|0
256,204,75597,2,0,B|292:152,1,60,2|2
264,100,75858,2,0,B|212:60,1,60,2|0
180,112,76119,2,0,B|148:168,1,60,2|0
184,212,76379,6,0,B|140:256|140:320,1,120,2|0
260,340,76901,2,0,B|308:304|320:236,1,120,2|0
392,168,77423,6,0,B|352:124,1,60,2|2
352,123,77684,2,0,B|312:172,1,60,0|2
314,170,77945,2,0,B|260:144,1,60,0|2
260,143,78205,2,0,B|212:188,1,60,2|0
168,148,78466,6,0,B|136:200|136:264,1,120,2|0
256,284,78988,2,0,B|316:284|364:236,1,120,2|0
352,116,79510,2,0,B|296:136|240:88,1,120,2|2
124,120,80032,2,0,B|152:176|144:240,1,120,2|0
256,192,80553,6,0,B|316:192,1,60,2|0
256,192,80814,2,0,B|256:132,1,60,2|0
256,192,81075,2,0,B|196:192,1,60,2|0
256,192,81336,2,0,B|256:252,1,60,2|0
256,312,81597,6,0,B|316:312,2,60,2|0|2
256,312,82119,2,0,B|196:312,2,60,2|0|2
376,296,82640,6,0,B|424:260|424:192,1,120,2|0
424,72,83162,2,0,B|364:92|336:152,1,120,2|0
296,264,83684,2,0,B|236:280|184:236,1,120,2|2
260,144,84205,2,0,B|244:88|184:52,1,120,2|0
160,172,84727,6,0,B|76:192|88:284|140:308,1,180,2|2
192,244,85249,2,0,B|276:224|264:132|212:108,1,180,2|2
256,48,85771,6,0,B|308:76,3,60,2|0|2|0
312,112,86292,2,0,B|360:148,3,60,2|0|2|0
320,192,86814,6,0,B|312:284|208:320,1,180,2|0
196,260,87336,2,0,B|256:232|316:260,1,120,2|0
256,364,87858,2,0,B|256:184,1,180,2|2
170,192,88379,2,0,B|188:285|321:285|340:192,1,240,2|2
276,92,89162,6,0,B|276:160,2,60,0|0|2
372,100,89684,1,2
457,192,89945,2,0,B|387:306|256:332|124:306|54:192,1,480,2|2
172,208,91249,2,0,B|196:224|228:228,1,60,0|2
288,228,91510,2,0,B|352:216|392:164,2,120,2|0|2
184,168,92292,6,0,B|140:56,2,120,0|2|2
68,192,93075,2,0,B|100:308|264:296,1,240,0|2
204,188,93858,1,2
184,72,94118,2,0,B|344:60|376:176,1,240,0|2
368,296,94901,1,2
256,256,95162,6,0,B|348:248|384:144,1,180,2|0
324,132,95684,2,0,B|296:192|324:252,1,120,2|0
428,192,96206,2,0,B|248:192,1,180,2|0
256,106,96727,2,0,B|349:124|349:257|256:276,1,240,2|2
124,192,97510,6,0,B|192:192,2,60,0|0|2
164,308,98032,1,2
256,346,98293,2,0,B|516:281|288:244|516:192|288:139|516:102|256:37,1,480,0|2
272,116,99597,2,0,B|312:124|344:148,1,60,0|2
332,204,99858,2,0,B|332:268|248:272,2,120,2|0|2
280,120,100640,6,0,B|392:76,2,120,0|2|2
256,4,101423,2,0,B|140:36|152:200,1,240,0|2
264,148,102206,1,2
376,120,102466,2,0,B|387:280|271:312,1,240,0|2
176,244,103249,1,2
260,68,103510,5,4
256,44,115901,6,0,B|256:104,1,60,0|6
256,224,116292,1,2
152,284,116553,2,0,B|104:336,2,60,2|0|2
116,168,117075,5,6
152,52,117336,2,0,B|204:92,1,60,0|2
316,52,117727,2,0,B|296:124,1,60,0|2
240,212,118118,5,4
356,188,118379,2,0,B|408:216,3,60,2|0|6|0
252,124,119162,6,0,B|180:160,1,60,4|2
256,256,119553,2,0,B|256:324,2,60,2|4|2
256,196,119945,2,0,B|256:128,1,60,4|2
192,192,120205,6,0,B|132:192|100:260,1,120,6|0
216,288,120727,2,0,B|232:340|316:340,1,120,2|0
340,264,121249,6,0,B|392:236|396:236,1,60,0|2
444,204,121510,2,0,B|464:148|436:88,1,120,0|2
392,44,121901,2,0,B|372:104,2,60,2|0|2
332,40,122292,6,0,B|240:40|160:108,1,180,2|2
220,140,122814,2,0,B|220:200|176:252|108:268,1,180,2|2
152,312,123336,6,0,B|208:328,1,60,0|2
244,280,123597,2,0,B|304:272,1,60,0|2
352,304,123858,2,0,B|396:264,1,60,2|0
452,244,124118,2,0,B|448:180,1,60,2|2
432,128,124379,5,0
336,200,124640,2,0,B|400:200,2,60,2|0|2
216,192,125162,2,0,B|180:240,1,60,0|2
124,220,125423,2,0,B|104:276,2,60,2|0|2
80,180,125814,1,0
56,124,125945,2,0,B|84:72,1,60,2|0
136,100,126205,6,0,B|156:156,2,60,2|0|2
256,80,126727,2,0,B|288:136,2,60,0|0|2
376,92,127249,2,0,B|416:136,1,60,0|2
404,196,127510,2,0,B|464:208,2,60,2|0|2
392,256,127901,2,0,B|424:316,2,60,0|2|0
344,292,128292,2,0,B|296:252,1,60,0|2
320,192,128553,6,0,B|380:192|412:124,1,120,6|0
296,96,129075,2,0,B|280:44|196:44,1,120,2|0
172,120,129597,6,0,B|120:148|116:148,1,60,0|2
68,180,129858,2,0,B|48:236|76:296,1,120,0|2
120,340,130249,2,0,B|140:280,2,60,2|0|2
180,344,130640,6,0,B|272:344|352:276,1,180,2|2
292,244,131162,2,0,B|292:184|336:132|404:116,1,180,2|2
360,72,131684,6,0,B|304:56,1,60,0|2
268,104,131945,2,0,B|208:112,1,60,0|2
160,80,132206,2,0,B|116:120,1,60,2|0
60,140,132466,2,0,B|64:204,1,60,2|2
80,256,132727,5,0
176,184,132988,2,0,B|116:176,2,60,2|0|2
296,192,133510,2,0,B|332:240,1,60,0|2
388,220,133771,2,0,B|408:276,2,60,2|0|2
432,180,134162,1,0
456,124,134293,2,0,B|428:72,1,60,2|0
376,100,134553,6,0,B|356:156,2,60,2|0|2
368,192,135075,2,0,B|312:224,2,60,0|0|2
356,312,135597,2,0,B|312:352,1,60,0|2
256,336,135858,2,0,B|267:277,2,60,6|0|6
192,328,136249,2,0,B|132:360,2,60,0|2|0
156,280,136640,2,0,B|216:256,1,60,0|2
192,192,136901,6,0,B|132:192|100:124,1,120,6|0
216,96,137423,2,0,B|232:44|316:44,1,120,2|0
340,120,137945,6,0,B|392:148|396:148,1,60,0|2
444,180,138206,2,0,B|464:236|436:296,1,120,0|2
392,340,138597,2,0,B|372:280,2,60,2|0|2
332,344,138988,6,0,B|240:344|160:276,1,180,2|2
220,244,139510,2,0,B|220:184|176:132|108:116,1,180,2|2
152,72,140032,6,0,B|208:56,1,60,0|2
244,104,140293,2,0,B|304:112,1,60,0|2
352,80,140554,2,0,B|396:120,1,60,2|0
452,140,140814,2,0,B|448:204,1,60,2|2
432,256,141075,5,0
336,184,141336,2,0,B|392:168,2,60,2|0|2
216,192,141858,2,0,B|180:240,1,60,0|2
124,220,142119,2,0,B|104:276,2,60,2|0|2
80,180,142510,1,0
56,124,142641,2,0,B|84:72,1,60,2|0
136,100,142901,6,0,B|156:156,2,60,2|0|2
256,80,143423,2,0,B|288:136,2,60,0|0|2
376,92,143945,2,0,B|416:136,1,60,0|2
404,196,144206,2,0,B|464:208,2,60,2|0|2
392,256,144597,2,0,B|424:316,2,60,0|2|0
344,292,144988,2,0,B|296:252,1,60,0|2
320,192,145249,6,0,B|380:192|412:260,1,120,6|0
296,288,145771,2,0,B|280:340|196:340,1,120,2|0
172,264,146293,6,0,B|120:236|116:236,1,60,0|2
68,204,146554,2,0,B|48:148|76:88,1,120,0|2
120,44,146945,2,0,B|140:104,2,60,2|0|2
180,40,147336,6,0,B|272:40|352:108,1,180,2|2
292,140,147858,2,0,B|292:200|336:252|404:268,1,180,2|2
360,312,148380,6,0,B|304:328,1,60,0|2
268,280,148641,2,0,B|208:272,1,60,0|2
160,304,148902,2,0,B|116:264,1,60,2|0
60,244,149162,2,0,B|64:180,1,60,2|2
80,128,149423,5,0
176,200,149684,2,0,B|116:208,2,60,2|0|2
296,192,150206,2,0,B|332:240,1,60,0|2
388,220,150467,2,0,B|408:276,2,60,2|0|2
432,180,150858,1,0
456,124,150989,2,0,B|428:72,1,60,2|0
376,100,151249,6,0,B|356:156,2,60,2|0|2
256,80,151771,2,0,B|224:136,2,60,0|0|2
136,92,152293,2,0,B|96:136,1,60,0|2
108,196,152554,2,0,B|48:208,2,60,6|0|6
120,256,152945,2,0,B|88:316,2,60,0|2|0
168,292,153336,2,0,B|216:252,1,60,0|2
256,192,153597,5,4
256,100,154640,5,0
256,160,154901,1,0
256,220,155162,1,0
256,280,155423,1,0
312,192,155684,6,0,B|324:132|280:80,1,120,6|0
256,136,156205,2,0,B|196:124|144:168,1,120,2|0
200,192,156727,2,0,B|188:252|232:304,1,120,2|2
256,248,157249,2,0,B|316:260|368:216,1,120,0|2
304,192,157770,6,0,B|304:132,1,60,2|0
264,88,158031,2,0,B|324:68,1,60,2|0
376,88,158292,2,0,B|428:124,1,60,2|0
448,180,158553,2,0,B|448:244,1,60,2|0
384,192,158814,6,0,B|324:192,2,60,2|0|2
128,192,159336,6,0,B|188:192,2,60,2|0|2
256,192,159857,5,2
180,100,160118,1,0
80,168,160379,1,2
152,264,160640,1,0
256,324,160901,6,0,B|256:256,1,60,2|0
256,204,161162,2,0,B|292:152,1,60,2|2
264,100,161423,2,0,B|212:60,1,60,2|0
180,112,161684,2,0,B|148:168,1,60,2|0
184,212,161944,6,0,B|140:256|140:320,1,120,2|0
260,340,162466,2,0,B|308:304|320:236,1,120,2|0
392,168,162988,6,0,B|352:124,1,60,2|2
352,123,163249,2,0,B|312:172,1,60,0|2
314,170,163510,2,0,B|260:144,1,60,0|2
260,143,163770,2,0,B|212:188,1,60,2|0
168,148,164031,6,0,B|136:200|136:264,1,120,2|0
256,284,164553,2,0,B|316:284|364:236,1,120,2|0
352,116,165075,2,0,B|296:136|240:88,1,120,2|2
124,120,165597,2,0,B|152:176|144:240,1,120,2|0
256,192,166118,6,0,B|196:192,1,60,2|0
256,192,166379,2,0,B|256:252,1,60,2|0
256,192,166640,2,0,B|316:192,1,60,2|0
256,192,166901,2,0,B|256:132,1,60,2|0
256,72,167162,6,0,B|316:72,2,60,2|0|2
256,72,167684,2,0,B|196:72,2,60,2|0|2
376,88,168205,6,0,B|424:124|424:192,1,120,2|0
424,312,168727,2,0,B|364:292|336:232,1,120,2|0
296,120,169249,2,0,B|236:104|184:148,1,120,2|2
260,240,169770,2,0,B|244:296|184:332,1,120,2|0
160,212,170292,6,0,B|76:192|88:100|140:76,1,180,2|2
192,140,170814,2,0,B|276:160|264:252|212:276,1,180,2|2
256,336,171336,6,0,B|308:308,3,60,2|0|2|0
312,272,171857,2,0,B|360:236,3,60,2|0|2|0
284,216,172379,5,4
276,208,172901,1,4
268,200,173423,1,4
260,192,173945,1,4
252,184,174466,6,4,B|216:148,16,44.9999986588955,4|4|4|4|4|4|4|4|4|4|4|4|4|4|4|4|4
