osu file format v14

[General]
AudioFilename: t+pazolite - Intro - the other Side.mp3
AudioLeadIn: 0
PreviewTime: 73326
Countdown: 0
SampleSet: Normal
StackLeniency: 0.7
Mode: 1
LetterboxInBreaks: 0
WidescreenStoryboard: 0

[Editor]
Bookmarks: 36755,55041,100755
DistanceSpacing: 0.8
BeatDivisor: 4
GridSize: 32
TimelineZoom: 2.5

[Metadata]
Title:Intro - the other Side
TitleUnicode:Intro - the other Side
Artist:t+pazolite
ArtistUnicode:t+pazolite
Creator:Taikocracy
Version:Oni
Source:
Tags:異聞伝承アラカルト Ibun Denshou a La Carte C.H.S CHS CHS-0017 HARDCORE TANO*C Comiket 86 C86 tpz ayyri
BeatmapID:1154653
BeatmapSetID:544922

[Difficulty]
HPDrainRate:6
CircleSize:2
OverallDifficulty:6
ApproachRate:10
SliderMultiplier:1.4
SliderTickRate:1

[Events]
//Background and Video events
0,0,"the other side.jpg",0,75
//Break Periods
//Storyboard Layer 0 (Background)
//Storyboard Layer 1 (Fail)
//Storyboard Layer 2 (Pass)
//Storyboard Layer 3 (Foreground)
//Storyboard Sound Samples

[TimingPoints]
184,285.714285714286,4,1,0,65,1,0
9326,-100,4,1,0,80,0,0
18469,-100,4,1,0,90,0,0
55041,-100,4,1,0,85,0,0
73041,-95.2380952380952,4,1,0,85,0,0
73184,-90.9090909090909,4,1,0,85,0,0
73326,-86.9565217391305,4,1,0,100,0,1
91612,-100,4,1,0,100,0,0

[HitObjects]
256,192,184,5,0,0:0:0:0:
256,192,469,1,0,0:0:0:0:
256,192,755,1,8,0:0:0:0:
256,192,1326,1,0,0:0:0:0:
256,192,1898,1,8,0:0:0:0:
256,192,2469,1,0,0:0:0:0:
256,192,2755,1,0,0:0:0:0:
256,192,3041,1,8,0:0:0:0:
256,192,3612,1,0,0:0:0:0:
256,192,3755,1,8,0:0:0:0:
256,192,4184,1,8,0:0:0:0:
256,192,4755,1,0,0:0:0:0:
256,192,5041,1,0,0:0:0:0:
256,192,5326,1,8,0:0:0:0:
256,192,5898,1,0,0:0:0:0:
256,192,6469,1,8,0:0:0:0:
256,192,7041,1,0,0:0:0:0:
256,192,7326,1,0,0:0:0:0:
256,192,7612,1,8,0:0:0:0:
256,192,8184,1,0,0:0:0:0:
256,192,8326,1,8,0:0:0:0:
256,192,8755,1,8,0:0:0:0:
256,192,9326,1,0,0:0:0:0:
256,192,9612,1,0,0:0:0:0:
256,192,9898,1,8,0:0:0:0:
256,192,10184,1,8,0:0:0:0:
256,192,10326,1,0,0:0:0:0:
256,192,10612,1,0,0:0:0:0:
256,192,10755,1,8,0:0:0:0:
256,192,11041,1,8,0:0:0:0:
256,192,11612,1,0,0:0:0:0:
256,192,11898,1,0,0:0:0:0:
256,192,12184,1,8,0:0:0:0:
256,192,12469,1,0,0:0:0:0:
256,192,12612,1,0,0:0:0:0:
256,192,12755,1,0,0:0:0:0:
256,192,12898,1,8,0:0:0:0:
256,192,13041,1,0,0:0:0:0:
256,192,13326,1,8,0:0:0:0:
256,192,13898,1,0,0:0:0:0:
256,192,14184,1,0,0:0:0:0:
256,192,14469,1,8,0:0:0:0:
256,192,14755,1,8,0:0:0:0:
256,192,14898,1,0,0:0:0:0:
256,192,15184,1,0,0:0:0:0:
256,192,15326,1,8,0:0:0:0:
256,192,15612,1,8,0:0:0:0:
256,192,16184,1,0,0:0:0:0:
256,192,16469,1,0,0:0:0:0:
256,192,16755,1,8,0:0:0:0:
256,192,17041,1,0,0:0:0:0:
256,192,17184,1,0,0:0:0:0:
256,192,17326,1,0,0:0:0:0:
256,192,17469,1,8,0:0:0:0:
256,192,17612,1,0,0:0:0:0:
256,192,17898,1,8,0:0:0:0:
256,192,18469,1,4,0:0:0:0:
256,192,18612,1,0,0:0:0:0:
256,192,18755,1,8,0:0:0:0:
256,192,18898,1,0,0:0:0:0:
256,192,19184,1,0,0:0:0:0:
256,192,19326,1,8,0:0:0:0:
256,192,19612,1,8,0:0:0:0:
256,192,19755,1,0,0:0:0:0:
256,192,19898,1,0,0:0:0:0:
256,192,20041,1,8,0:0:0:0:
256,192,20326,1,0,0:0:0:0:
256,192,20469,1,8,0:0:0:0:
256,192,20755,1,8,0:0:0:0:
256,192,20898,1,8,0:0:0:0:
256,192,21041,1,0,0:0:0:0:
256,192,21184,1,8,0:0:0:0:
256,192,21469,1,8,0:0:0:0:
256,192,21612,1,0,0:0:0:0:
256,192,21898,1,0,0:0:0:0:
256,192,22041,1,8,0:0:0:0:
256,192,22184,1,0,0:0:0:0:
256,192,22326,1,8,0:0:0:0:
256,192,22612,1,8,0:0:0:0:
256,192,22755,1,0,0:0:0:0:
256,192,23041,1,0,0:0:0:0:
256,192,23184,1,8,0:0:0:0:
256,192,23326,1,8,0:0:0:0:
256,192,23469,1,0,0:0:0:0:
256,192,23755,1,0,0:0:0:0:
256,192,23898,1,8,0:0:0:0:
256,192,24184,1,8,0:0:0:0:
256,192,24326,1,0,0:0:0:0:
256,192,24469,1,8,0:0:0:0:
256,192,24612,1,0,0:0:0:0:
256,192,24898,1,0,0:0:0:0:
256,192,25041,1,8,0:0:0:0:
256,192,25326,1,8,0:0:0:0:
256,192,25469,1,0,0:0:0:0:
256,192,25612,1,8,0:0:0:0:
256,192,25755,1,8,0:0:0:0:
256,192,26041,1,8,0:0:0:0:
256,192,26184,1,0,0:0:0:0:
256,192,26469,1,8,0:0:0:0:
256,192,26612,1,0,0:0:0:0:
256,192,26755,1,0,0:0:0:0:
256,192,26898,1,8,0:0:0:0:
256,192,27184,1,8,0:0:0:0:
256,192,27326,1,0,0:0:0:0:
256,192,27612,1,8,0:0:0:0:
256,192,27755,1,8,0:0:0:0:
256,192,27898,1,0,0:0:0:0:
256,192,28041,1,8,0:0:0:0:
256,192,28326,1,0,0:0:0:0:
256,192,28469,1,8,0:0:0:0:
256,192,28755,1,0,0:0:0:0:
256,192,28898,1,8,0:0:0:0:
256,192,29041,1,0,0:0:0:0:
256,192,29184,1,8,0:0:0:0:
256,192,29469,1,0,0:0:0:0:
256,192,29612,1,8,0:0:0:0:
256,192,29898,1,0,0:0:0:0:
256,192,30041,1,8,0:0:0:0:
256,192,30184,1,8,0:0:0:0:
256,192,30326,1,0,0:0:0:0:
256,192,30612,1,0,0:0:0:0:
256,192,30755,1,8,0:0:0:0:
256,192,30898,1,0,0:0:0:0:
256,192,31041,1,8,0:0:0:0:
256,192,31184,1,8,0:0:0:0:
256,192,31326,1,0,0:0:0:0:
256,192,31469,1,8,0:0:0:0:
256,192,31755,1,8,0:0:0:0:
256,192,31898,1,0,0:0:0:0:
256,192,32184,1,8,0:0:0:0:
256,192,32326,1,8,0:0:0:0:
256,192,32469,1,0,0:0:0:0:
256,192,32612,1,0,0:0:0:0:
256,192,32898,1,0,0:0:0:0:
256,192,33041,1,8,0:0:0:0:
256,192,33184,1,0,0:0:0:0:
256,192,33326,1,8,0:0:0:0:
256,192,33469,1,0,0:0:0:0:
256,192,33612,1,0,0:0:0:0:
256,192,33755,1,8,0:0:0:0:
256,192,34041,1,8,0:0:0:0:
256,192,34184,1,0,0:0:0:0:
256,192,34469,12,0,36184,0:0:0:0:
256,192,36755,5,12,0:0:0:0:
256,192,36898,1,8,0:0:0:0:
256,192,37041,1,0,0:0:0:0:
256,192,37184,1,8,0:0:0:0:
256,192,37326,1,8,0:0:0:0:
256,192,37469,1,0,0:0:0:0:
256,192,37755,1,0,0:0:0:0:
256,192,38041,1,0,0:0:0:0:
256,192,38184,1,8,0:0:0:0:
256,192,38469,1,8,0:0:0:0:
256,192,38755,1,0,0:0:0:0:
256,192,39041,1,0,0:0:0:0:
256,192,39184,1,8,0:0:0:0:
256,192,39326,1,8,0:0:0:0:
256,192,39469,1,8,0:0:0:0:
256,192,39612,1,0,0:0:0:0:
256,192,39755,1,8,0:0:0:0:
256,192,40041,1,0,0:0:0:0:
256,192,40326,1,0,0:0:0:0:
256,192,40469,1,8,0:0:0:0:
256,192,40755,1,8,0:0:0:0:
256,192,41041,1,0,0:0:0:0:
256,192,41326,1,8,0:0:0:0:
256,192,41469,1,0,0:0:0:0:
256,192,41612,1,8,0:0:0:0:
256,192,41755,1,0,0:0:0:0:
256,192,41898,1,8,0:0:0:0:
256,192,42041,1,8,0:0:0:0:
256,192,42326,1,0,0:0:0:0:
256,192,42612,1,0,0:0:0:0:
256,192,42755,1,8,0:0:0:0:
256,192,43041,1,8,0:0:0:0:
256,192,43326,1,0,0:0:0:0:
256,192,43612,1,0,0:0:0:0:
256,192,43755,1,8,0:0:0:0:
256,192,43898,1,8,0:0:0:0:
256,192,44041,1,0,0:0:0:0:
256,192,44184,1,8,0:0:0:0:
256,192,44326,1,0,0:0:0:0:
256,192,44612,1,8,0:0:0:0:
256,192,44898,1,0,0:0:0:0:
256,192,45041,1,8,0:0:0:0:
256,192,45326,1,8,0:0:0:0:
256,192,45612,1,0,0:0:0:0:
256,192,45898,1,0,0:0:0:0:
256,192,46041,1,0,0:0:0:0:
256,192,46184,1,0,0:0:0:0:
256,192,46326,1,8,0:0:0:0:
256,192,46469,1,8,0:0:0:0:
256,192,46612,1,0,0:0:0:0:
256,192,46755,1,8,0:0:0:0:
256,192,46898,1,0,0:0:0:0:
256,192,47184,1,0,0:0:0:0:
256,192,47326,1,8,0:0:0:0:
256,192,47612,1,8,0:0:0:0:
256,192,47898,1,0,0:0:0:0:
256,192,48184,1,0,0:0:0:0:
256,192,48326,1,8,0:0:0:0:
256,192,48469,1,0,0:0:0:0:
256,192,48612,1,8,0:0:0:0:
256,192,48755,1,8,0:0:0:0:
256,192,48898,1,0,0:0:0:0:
256,192,49041,1,8,0:0:0:0:
256,192,49184,1,0,0:0:0:0:
256,192,49469,1,0,0:0:0:0:
256,192,49612,1,8,0:0:0:0:
256,192,49898,1,8,0:0:0:0:
256,192,50184,1,0,0:0:0:0:
256,192,50469,1,8,0:0:0:0:
256,192,50612,1,0,0:0:0:0:
256,192,50755,1,8,0:0:0:0:
256,192,50898,1,0,0:0:0:0:
256,192,51041,1,8,0:0:0:0:
256,192,51184,1,8,0:0:0:0:
256,192,51326,1,0,0:0:0:0:
256,192,51469,1,8,0:0:0:0:
256,192,51755,1,0,0:0:0:0:
256,192,51898,1,8,0:0:0:0:
256,192,52184,1,8,0:0:0:0:
256,192,52469,1,0,0:0:0:0:
256,192,52755,1,0,0:0:0:0:
256,192,52898,1,8,0:0:0:0:
256,192,53041,1,8,0:0:0:0:
256,192,53184,1,8,0:0:0:0:
256,192,53326,1,0,0:0:0:0:
256,192,53469,1,0,0:0:0:0:
256,192,53612,1,8,0:0:0:0:
256,192,53755,1,0,0:0:0:0:
256,192,54041,1,8,0:0:0:0:
256,192,54184,1,0,0:0:0:0:
256,192,54469,1,8,0:0:0:0:
256,192,54755,1,8,0:0:0:0:
256,192,55041,1,4,0:0:0:0:
256,192,55184,1,0,0:0:0:0:
256,192,55326,1,8,0:0:0:0:
256,192,55469,1,0,0:0:0:0:
256,192,55541,1,0,0:0:0:0:
256,192,55612,1,8,0:0:0:0:
256,192,55755,1,0,0:0:0:0:
256,192,55898,1,8,0:0:0:0:
256,192,56184,1,0,0:0:0:0:
256,192,56326,1,0,0:0:0:0:
256,192,56469,1,8,0:0:0:0:
256,192,56612,1,8,0:0:0:0:
256,192,56684,1,8,0:0:0:0:
256,192,56755,1,0,0:0:0:0:
256,192,56898,1,0,0:0:0:0:
256,192,57041,1,8,0:0:0:0:
256,192,57326,1,8,0:0:0:0:
256,192,57469,1,0,0:0:0:0:
256,192,57612,1,8,0:0:0:0:
256,192,57755,1,0,0:0:0:0:
256,192,57826,1,0,0:0:0:0:
256,192,57898,1,8,0:0:0:0:
256,192,58041,1,0,0:0:0:0:
256,192,58184,1,8,0:0:0:0:
256,192,58469,1,8,0:0:0:0:
256,192,58612,1,8,0:0:0:0:
256,192,58755,1,0,0:0:0:0:
256,192,58898,1,8,0:0:0:0:
256,192,58969,1,0,0:0:0:0:
256,192,59041,1,8,0:0:0:0:
256,192,59184,1,0,0:0:0:0:
256,192,59326,1,8,0:0:0:0:
256,192,59612,1,0,0:0:0:0:
256,192,59755,1,0,0:0:0:0:
256,192,59898,1,8,0:0:0:0:
256,192,60041,1,0,0:0:0:0:
256,192,60112,1,0,0:0:0:0:
256,192,60184,1,8,0:0:0:0:
256,192,60326,1,0,0:0:0:0:
256,192,60469,1,8,0:0:0:0:
256,192,60755,1,8,0:0:0:0:
256,192,60898,1,0,0:0:0:0:
256,192,61041,1,8,0:0:0:0:
256,192,61184,1,8,0:0:0:0:
256,192,61255,1,8,0:0:0:0:
256,192,61326,1,0,0:0:0:0:
256,192,61469,1,0,0:0:0:0:
256,192,61612,1,8,0:0:0:0:
256,192,61898,1,0,0:0:0:0:
256,192,62041,1,8,0:0:0:0:
256,192,62184,1,8,0:0:0:0:
256,192,62326,1,0,0:0:0:0:
256,192,62398,1,0,0:0:0:0:
256,192,62469,1,8,0:0:0:0:
256,192,62612,1,0,0:0:0:0:
256,192,62755,1,8,0:0:0:0:
256,192,63041,1,8,0:0:0:0:
256,192,63184,1,8,0:0:0:0:
256,192,63326,1,0,0:0:0:0:
256,192,63469,1,8,0:0:0:0:
256,192,63541,1,0,0:0:0:0:
256,192,63612,1,8,0:0:0:0:
256,192,63755,1,0,0:0:0:0:
256,192,63898,1,8,0:0:0:0:
256,192,64184,1,4,0:0:0:0:
256,192,64469,1,8,0:0:0:0:
256,192,64755,1,8,0:0:0:0:
256,192,65041,1,8,0:0:0:0:
256,192,65326,1,8,0:0:0:0:
256,192,65612,1,8,0:0:0:0:
256,192,65898,1,8,0:0:0:0:
256,192,66184,1,8,0:0:0:0:
256,192,66326,1,8,0:0:0:0:
256,192,66469,1,4,0:0:0:0:
256,192,66755,1,8,0:0:0:0:
256,192,67041,1,8,0:0:0:0:
256,192,67326,1,8,0:0:0:0:
256,192,67612,1,8,0:0:0:0:
256,192,67898,1,8,0:0:0:0:
256,192,68184,1,8,0:0:0:0:
256,192,68469,1,8,0:0:0:0:
256,192,68612,1,8,0:0:0:0:
256,192,68755,1,4,0:0:0:0:
256,192,68898,1,8,0:0:0:0:
256,192,69041,1,8,0:0:0:0:
256,192,69184,1,8,0:0:0:0:
256,192,69326,1,12,0:0:0:0:
256,192,69469,1,8,0:0:0:0:
256,192,69612,1,8,0:0:0:0:
256,192,69755,1,8,0:0:0:0:
256,192,69898,1,4,0:0:0:0:
256,192,70041,1,8,0:0:0:0:
256,192,70184,1,8,0:0:0:0:
256,192,70326,1,8,0:0:0:0:
256,192,70469,1,12,0:0:0:0:
256,192,70612,1,8,0:0:0:0:
256,192,70755,1,8,0:0:0:0:
256,192,70898,1,8,0:0:0:0:
256,192,71041,1,0,0:0:0:0:
256,192,71112,1,0,0:0:0:0:
256,192,71184,1,8,0:0:0:0:
256,192,71326,1,0,0:0:0:0:
256,192,71398,1,0,0:0:0:0:
256,192,71469,1,8,0:0:0:0:
256,192,71612,1,8,0:0:0:0:
256,192,71684,1,0,0:0:0:0:
256,192,71755,1,0,0:0:0:0:
256,192,71826,1,0,0:0:0:0:
256,192,71898,1,8,0:0:0:0:
256,192,72041,1,0,0:0:0:0:
256,192,72184,1,8,0:0:0:0:
256,192,72469,1,8,0:0:0:0:
256,192,72612,1,8,0:0:0:0:
256,192,72684,1,8,0:0:0:0:
256,192,72755,1,0,0:0:0:0:
256,192,72898,1,0,0:0:0:0:
256,192,73041,1,8,0:0:0:0:
256,192,73184,1,0,0:0:0:0:
256,192,73326,5,12,0:0:0:0:
256,192,73469,1,8,0:0:0:0:
256,192,73541,1,8,0:0:0:0:
256,192,73612,1,0,0:0:0:0:
256,192,73755,1,0,0:0:0:0:
256,192,73898,1,8,0:0:0:0:
256,192,74041,1,0,0:0:0:0:
256,192,74112,1,0,0:0:0:0:
256,192,74184,1,8,0:0:0:0:
256,192,74326,1,0,0:0:0:0:
256,192,74469,1,0,0:0:0:0:
256,192,74612,1,8,0:0:0:0:
256,192,74755,1,0,0:0:0:0:
256,192,74898,1,8,0:0:0:0:
256,192,75041,1,8,0:0:0:0:
256,192,75326,1,8,0:0:0:0:
256,192,75612,1,8,0:0:0:0:
256,192,75755,1,0,0:0:0:0:
256,192,75826,1,0,0:0:0:0:
256,192,75898,1,8,0:0:0:0:
256,192,76041,1,0,0:0:0:0:
256,192,76184,1,8,0:0:0:0:
256,192,76326,1,0,0:0:0:0:
256,192,76398,1,8,0:0:0:0:
256,192,76469,1,0,0:0:0:0:
256,192,76612,1,8,0:0:0:0:
256,192,76755,1,0,0:0:0:0:
256,192,76898,1,8,0:0:0:0:
256,192,77041,1,8,0:0:0:0:
256,192,77184,1,0,0:0:0:0:
256,192,77326,1,8,0:0:0:0:
256,192,77612,1,8,0:0:0:0:
256,192,77898,1,8,0:0:0:0:
256,192,78041,1,8,0:0:0:0:
256,192,78112,1,8,0:0:0:0:
256,192,78184,1,0,0:0:0:0:
256,192,78326,1,8,0:0:0:0:
256,192,78469,1,0,0:0:0:0:
256,192,78612,1,0,0:0:0:0:
256,192,78684,1,0,0:0:0:0:
256,192,78755,1,8,0:0:0:0:
256,192,78898,1,8,0:0:0:0:
256,192,79041,1,0,0:0:0:0:
256,192,79184,1,0,0:0:0:0:
256,192,79326,1,8,0:0:0:0:
256,192,79469,1,8,0:0:0:0:
256,192,79612,1,0,0:0:0:0:
256,192,79898,1,8,0:0:0:0:
256,192,80184,1,8,0:0:0:0:
256,192,80326,1,0,0:0:0:0:
256,192,80398,1,0,0:0:0:0:
256,192,80469,1,8,0:0:0:0:
256,192,80612,1,8,0:0:0:0:
256,192,80755,1,0,0:0:0:0:
256,192,80898,1,8,0:0:0:0:
256,192,80969,1,8,0:0:0:0:
256,192,81041,1,0,0:0:0:0:
256,192,81184,1,8,0:0:0:0:
256,192,81326,1,0,0:0:0:0:
256,192,81469,1,0,0:0:0:0:
256,192,81612,1,8,0:0:0:0:
256,192,81755,1,8,0:0:0:0:
256,192,81898,1,0,0:0:0:0:
256,192,82184,1,8,0:0:0:0:
256,192,82469,1,0,0:0:0:0:
256,192,82612,1,0,0:0:0:0:
256,192,82684,1,0,0:0:0:0:
256,192,82755,1,8,0:0:0:0:
256,192,82898,1,0,0:0:0:0:
256,192,83041,1,8,0:0:0:0:
256,192,83184,1,0,0:0:0:0:
256,192,83255,1,0,0:0:0:0:
256,192,83326,1,8,0:0:0:0:
256,192,83469,1,0,0:0:0:0:
256,192,83612,1,8,0:0:0:0:
256,192,83755,1,8,0:0:0:0:
256,192,83826,1,8,0:0:0:0:
256,192,83898,1,0,0:0:0:0:
256,192,84041,1,0,0:0:0:0:
256,192,84184,1,8,0:0:0:0:
256,192,84469,1,8,0:0:0:0:
256,192,84755,1,8,0:0:0:0:
256,192,84898,1,8,0:0:0:0:
256,192,84969,1,8,0:0:0:0:
256,192,85041,1,0,0:0:0:0:
256,192,85184,1,0,0:0:0:0:
256,192,85326,1,8,0:0:0:0:
256,192,85469,1,0,0:0:0:0:
256,192,85541,1,0,0:0:0:0:
256,192,85612,1,8,0:0:0:0:
256,192,85755,1,0,0:0:0:0:
256,192,85898,1,8,0:0:0:0:
256,192,86041,1,0,0:0:0:0:
256,192,86184,1,8,0:0:0:0:
256,192,86469,1,0,0:0:0:0:
256,192,86755,1,0,0:0:0:0:
256,192,87041,1,0,0:0:0:0:
256,192,87184,1,0,0:0:0:0:
256,192,87255,1,0,0:0:0:0:
256,192,87326,1,8,0:0:0:0:
256,192,87469,1,8,0:0:0:0:
256,192,87612,1,0,0:0:0:0:
256,192,87755,1,8,0:0:0:0:
256,192,87826,1,8,0:0:0:0:
256,192,87898,1,0,0:0:0:0:
256,192,88041,1,8,0:0:0:0:
256,192,88184,1,0,0:0:0:0:
256,192,88326,1,8,0:0:0:0:
256,192,88398,1,8,0:0:0:0:
256,192,88469,1,0,0:0:0:0:
256,192,88612,1,0,0:0:0:0:
256,192,88755,1,8,0:0:0:0:
256,192,89041,1,8,0:0:0:0:
256,192,89326,1,8,0:0:0:0:
256,192,89469,1,8,0:0:0:0:
256,192,89541,1,8,0:0:0:0:
256,192,89612,1,0,0:0:0:0:
256,192,89755,1,0,0:0:0:0:
256,192,89898,1,8,0:0:0:0:
256,192,90041,1,0,0:0:0:0:
256,192,90112,1,0,0:0:0:0:
256,192,90184,1,8,0:0:0:0:
256,192,90326,1,0,0:0:0:0:
256,192,90469,1,8,0:0:0:0:
256,192,90612,1,0,0:0:0:0:
256,192,90755,1,8,0:0:0:0:
256,192,91041,1,8,0:0:0:0:
256,192,91326,1,8,0:0:0:0:
256,192,91612,5,4,0:0:0:0:
256,192,91898,1,8,0:0:0:0:
256,192,92184,1,8,0:0:0:0:
256,192,92326,1,8,0:0:0:0:
256,192,92469,1,0,0:0:0:0:
256,192,92755,1,8,0:0:0:0:
256,192,92898,1,8,0:0:0:0:
256,192,93041,1,0,0:0:0:0:
256,192,93184,1,8,0:0:0:0:
256,192,93326,1,0,0:0:0:0:
256,192,93612,1,8,0:0:0:0:
256,192,93898,1,0,0:0:0:0:
256,192,94184,1,8,0:0:0:0:
256,192,94469,1,0,0:0:0:0:
256,192,94612,1,0,0:0:0:0:
256,192,94755,1,8,0:0:0:0:
256,192,95041,1,8,0:0:0:0:
256,192,95184,1,0,0:0:0:0:
256,192,95326,1,0,0:0:0:0:
256,192,95469,1,8,0:0:0:0:
256,192,95612,1,0,0:0:0:0:
256,192,95898,1,8,0:0:0:0:
256,192,96184,1,0,0:0:0:0:
256,192,96469,1,8,0:0:0:0:
256,192,96755,1,8,0:0:0:0:
256,192,96898,1,8,0:0:0:0:
256,192,97041,1,0,0:0:0:0:
256,192,97326,1,8,0:0:0:0:
256,192,97469,1,8,0:0:0:0:
256,192,97612,1,0,0:0:0:0:
256,192,97755,1,8,0:0:0:0:
256,192,97898,1,0,0:0:0:0:
256,192,98184,1,8,0:0:0:0:
256,192,98469,1,0,0:0:0:0:
256,192,98755,1,8,0:0:0:0:
256,192,99041,1,0,0:0:0:0:
256,192,99184,1,0,0:0:0:0:
256,192,99326,1,8,0:0:0:0:
256,192,99612,1,8,0:0:0:0:
256,192,99755,1,0,0:0:0:0:
256,192,99898,1,8,0:0:0:0:
256,192,100041,1,0,0:0:0:0:
256,192,100184,1,0,0:0:0:0:
256,192,100469,1,8,0:0:0:0:
256,192,100755,5,0,0:0:0:0:
256,192,101184,1,0,0:0:0:0:
256,192,101326,1,8,0:0:0:0:
256,192,101612,1,8,0:0:0:0:
256,192,101898,1,0,0:0:0:0:
256,192,102326,1,0,0:0:0:0:
256,192,102469,1,8,0:0:0:0:
256,192,102755,1,0,0:0:0:0:
256,192,103041,1,8,0:0:0:0:
256,192,103469,1,0,0:0:0:0:
256,192,103612,1,8,0:0:0:0:
256,192,103898,1,8,0:0:0:0:
256,192,104184,1,0,0:0:0:0:
256,192,104612,1,0,0:0:0:0:
256,192,104755,1,8,0:0:0:0:
256,192,105041,1,0,0:0:0:0:
256,192,105326,1,0,0:0:0:0:
256,192,105755,1,0,0:0:0:0:
256,192,105898,1,8,0:0:0:0:
256,192,106184,1,0,0:0:0:0:
256,192,106469,1,8,0:0:0:0:
256,192,106898,1,0,0:0:0:0:
256,192,107041,1,8,0:0:0:0:
256,192,107326,1,8,0:0:0:0:
256,192,107612,1,0,0:0:0:0:
256,192,108041,1,0,0:0:0:0:
256,192,108184,1,8,0:0:0:0:
256,192,108469,1,8,0:0:0:0:
256,192,108755,1,0,0:0:0:0:
256,192,109041,1,8,0:0:0:0:
256,192,109326,1,0,0:0:0:0:
256,192,109612,1,0,0:0:0:0:
256,192,109898,1,8,0:0:0:0:
