osu file format v14

[General]
AudioFilename: t+pazolite - Intro - the other Side.mp3
AudioLeadIn: 0
PreviewTime: 73326
Countdown: 0
SampleSet: Normal
StackLeniency: 0.7
Mode: 1
LetterboxInBreaks: 0
WidescreenStoryboard: 1

[Editor]
Bookmarks: 36755,55041,100755
DistanceSpacing: 0.8
BeatDivisor: 2
GridSize: 32
TimelineZoom: 0.9

[Metadata]
Title:Intro - the other Side
TitleUnicode:Intro - the other Side
Artist:t+pazolite
ArtistUnicode:t+pazolite
Creator:Taikocracy
Version:Kantan
Source:
Tags:異聞伝承アラカルト Ibun Denshou a La Carte C.H.S CHS CHS-0017 HARDCORE TANO*C Comiket 86 C86 tpz ayyri
BeatmapID:1155167
BeatmapSetID:544922

[Difficulty]
HPDrainRate:7
CircleSize:2
OverallDifficulty:3.5
ApproachRate:10
SliderMultiplier:1.4
SliderTickRate:1

[Events]
//Background and Video events
0,0,"the other side.jpg",0,75
//Break Periods
//Storyboard Layer 0 (Background)
//Storyboard Layer 1 (Fail)
//Storyboard Layer 2 (Pass)
//Storyboard Layer 3 (Foreground)
//Storyboard Sound Samples

[TimingPoints]
184,285.714285714286,4,1,0,65,1,0
9326,-100,4,1,0,80,0,0
18469,-100,4,1,0,90,0,0
55041,-100,4,1,0,85,0,0
73326,-100,4,1,0,100,0,1
91612,-100,4,1,0,100,0,0

[HitObjects]
256,192,184,5,0,0:0:0:0:
256,192,1898,1,8,0:0:0:0:
256,192,2469,1,0,0:0:0:0:
256,192,3041,1,8,0:0:0:0:
256,192,4755,1,0,0:0:0:0:
256,192,6469,1,8,0:0:0:0:
256,192,7041,1,0,0:0:0:0:
256,192,7612,1,8,0:0:0:0:
256,192,9326,1,0,0:0:0:0:
256,192,9898,1,8,0:0:0:0:
256,192,11041,1,8,0:0:0:0:
256,192,11612,1,0,0:0:0:0:
256,192,12184,1,8,0:0:0:0:
256,192,13326,1,8,0:0:0:0:
256,192,13898,1,0,0:0:0:0:
256,192,14469,1,8,0:0:0:0:
256,192,15612,1,8,0:0:0:0:
256,192,16184,1,0,0:0:0:0:
256,192,16755,1,8,0:0:0:0:
256,192,17898,1,8,0:0:0:0:
256,192,18469,1,0,0:0:0:0:
256,192,19041,1,8,0:0:0:0:
256,192,20184,1,8,0:0:0:0:
256,192,20755,1,0,0:0:0:0:
256,192,21326,1,8,0:0:0:0:
256,192,22184,1,0,0:0:0:0:
256,192,22469,1,8,0:0:0:0:
256,192,23041,1,0,0:0:0:0:
256,192,23612,1,8,0:0:0:0:
256,192,24755,1,8,0:0:0:0:
256,192,25326,1,0,0:0:0:0:
256,192,25898,1,8,0:0:0:0:
256,192,26755,1,0,0:0:0:0:
256,192,27041,1,8,0:0:0:0:
256,192,27612,1,0,0:0:0:0:
256,192,28184,1,8,0:0:0:0:
256,192,29326,1,8,0:0:0:0:
256,192,29898,1,0,0:0:0:0:
256,192,30469,1,8,0:0:0:0:
256,192,31326,1,0,0:0:0:0:
256,192,31612,1,8,0:0:0:0:
256,192,32184,1,0,0:0:0:0:
256,192,32755,1,8,0:0:0:0:
256,192,33898,1,8,0:0:0:0:
256,192,34469,1,0,0:0:0:0:
256,192,36755,1,0,0:0:0:0:
256,192,37326,1,8,0:0:0:0:
256,192,38469,1,8,0:0:0:0:
256,192,39041,1,0,0:0:0:0:
256,192,39326,1,0,0:0:0:0:
256,192,39612,1,8,0:0:0:0:
256,192,40469,1,0,0:0:0:0:
256,192,40755,1,8,0:0:0:0:
256,192,41326,1,0,0:0:0:0:
256,192,41898,1,8,0:0:0:0:
256,192,43041,1,8,0:0:0:0:
256,192,43612,1,0,0:0:0:0:
256,192,43898,1,0,0:0:0:0:
256,192,44184,1,8,0:0:0:0:
256,192,45041,1,0,0:0:0:0:
256,192,45326,1,8,0:0:0:0:
256,192,45898,1,0,0:0:0:0:
256,192,46469,1,8,0:0:0:0:
256,192,47612,1,8,0:0:0:0:
256,192,48184,1,8,0:0:0:0:
256,192,48469,1,8,0:0:0:0:
256,192,48755,1,0,0:0:0:0:
256,192,49612,1,0,0:0:0:0:
256,192,49898,1,8,0:0:0:0:
256,192,50469,1,0,0:0:0:0:
256,192,51041,1,8,0:0:0:0:
256,192,52184,1,8,0:0:0:0:
256,192,52755,1,8,0:0:0:0:
256,192,53041,1,8,0:0:0:0:
256,192,53326,1,0,0:0:0:0:
256,192,54184,1,0,0:0:0:0:
256,192,54469,1,8,0:0:0:0:
256,192,55041,1,12,0:0:0:0:
256,192,55612,1,8,0:0:0:0:
256,192,56755,1,8,0:0:0:0:
256,192,57898,1,8,0:0:0:0:
256,192,59041,1,8,0:0:0:0:
256,192,59612,1,0,0:0:0:0:
256,192,60184,1,8,0:0:0:0:
256,192,61326,1,8,0:0:0:0:
256,192,62469,1,8,0:0:0:0:
256,192,63612,1,8,0:0:0:0:
256,192,64184,1,0,0:0:0:0:
256,192,65326,1,0,0:0:0:0:
256,192,66184,1,0,0:0:0:0:
256,192,66469,1,4,0:0:0:0:
256,192,67612,1,0,0:0:0:0:
256,192,68469,1,0,0:0:0:0:
256,192,68755,1,4,0:0:0:0:
256,192,69612,1,0,0:0:0:0:
256,192,69898,1,4,0:0:0:0:
256,192,70755,1,0,0:0:0:0:
256,192,71041,2,0,L|416:192,3,140
256,192,72184,1,0,0:0:0:0:
256,192,73326,5,4,0:0:0:0:
256,192,74041,1,8,0:0:0:0:
256,192,74326,1,8,0:0:0:0:
256,192,75041,1,0,0:0:0:0:
256,192,75612,1,0,0:0:0:0:
256,192,76326,1,8,0:0:0:0:
256,192,76612,1,8,0:0:0:0:
256,192,77326,1,0,0:0:0:0:
256,192,77898,1,0,0:0:0:0:
256,192,78612,1,8,0:0:0:0:
256,192,78898,1,8,0:0:0:0:
256,192,79612,1,0,0:0:0:0:
256,192,80184,1,0,0:0:0:0:
256,192,80898,1,8,0:0:0:0:
256,192,81184,1,8,0:0:0:0:
256,192,81898,1,0,0:0:0:0:
256,192,82469,5,4,0:0:0:0:
256,192,83184,1,8,0:0:0:0:
256,192,83469,1,8,0:0:0:0:
256,192,84184,1,0,0:0:0:0:
256,192,84755,1,8,0:0:0:0:
256,192,85469,1,8,0:0:0:0:
256,192,85755,1,8,0:0:0:0:
256,192,86469,1,8,0:0:0:0:
256,192,87041,1,0,0:0:0:0:
256,192,87755,1,8,0:0:0:0:
256,192,88041,1,8,0:0:0:0:
256,192,88755,1,0,0:0:0:0:
256,192,89326,1,8,0:0:0:0:
256,192,90041,1,8,0:0:0:0:
256,192,90326,1,8,0:0:0:0:
256,192,91041,1,8,0:0:0:0:
256,192,91612,1,4,0:0:0:0:
256,192,92755,1,0,0:0:0:0:
256,192,93326,1,8,0:0:0:0:
256,192,93612,1,8,0:0:0:0:
256,192,93898,1,0,0:0:0:0:
256,192,94469,1,8,0:0:0:0:
256,192,95041,1,0,0:0:0:0:
256,192,95612,1,8,0:0:0:0:
256,192,95898,1,8,0:0:0:0:
256,192,96184,1,0,0:0:0:0:
256,192,97326,1,0,0:0:0:0:
256,192,97898,1,8,0:0:0:0:
256,192,98184,1,8,0:0:0:0:
256,192,98469,1,0,0:0:0:0:
256,192,99041,1,8,0:0:0:0:
256,192,99612,1,0,0:0:0:0:
256,192,100184,1,8,0:0:0:0:
256,192,100469,1,8,0:0:0:0:
256,192,100755,1,0,0:0:0:0:
256,192,101898,1,0,0:0:0:0:
256,192,103041,1,8,0:0:0:0:
256,192,104184,1,8,0:0:0:0:
256,192,105326,1,0,0:0:0:0:
256,192,106469,1,0,0:0:0:0:
256,192,107612,1,8,0:0:0:0:
256,192,108755,1,0,0:0:0:0:
256,192,109326,1,0,0:0:0:0:
256,192,109898,1,8,0:0:0:0:
