osu file format v14

[General]
AudioFilename: [C.H.S] 01. Intro - Dockaaaahhhnnn!!.mp3
AudioLeadIn: 0
PreviewTime: 43303
Countdown: 0
SampleSet: Soft
StackLeniency: 0.7
Mode: 0
LetterboxInBreaks: 0
WidescreenStoryboard: 0

[Editor]
DistanceSpacing: 1.1
BeatDivisor: 4
GridSize: 4
TimelineZoom: 2.799999

[Metadata]
Title:Intro - Dockaaaahhhnnn!!
TitleUnicode:Intro - Dockaaaahhhnnn!!
Artist:t+pazolite
ArtistUnicode:t+pazolite
Creator:DeRandom Otaku
Version:Insane
Source:
Tags:Kenran Kensou Orient C.H.S 絢爛喧騒オリエント tpaz tpz
BeatmapID:997650
BeatmapSetID:466104

[Difficulty]
HPDrainRate:6
CircleSize:3.8
OverallDifficulty:7
ApproachRate:9
SliderMultiplier:1.6
SliderTickRate:1

[Events]
//Background and Video events
0,0,"BG lol.jpg",0,0
//Break Periods
2,32837,37370
//Storyboard Layer 0 (Background)
//Storyboard Layer 1 (Fail)
//Storyboard Layer 2 (Pass)
//Storyboard Layer 3 (Foreground)
//Storyboard Sound Samples

[TimingPoints]
11304,333.333333333333,4,2,2,45,1,0
11970,-166.666666666667,4,2,2,30,0,0
37970,-111.111111111111,4,2,2,35,0,0
39303,-111.111111111111,4,2,2,40,0,0
40637,-111.111111111111,4,2,2,50,0,0
41970,-68.9655172413793,4,2,2,60,0,0
42220,-68.9655172413793,4,2,2,5,0,0
42303,-68.9655172413793,4,2,2,60,0,0
42553,-68.9655172413793,4,2,2,5,0,0
42637,-68.9655172413793,4,2,2,60,0,0
42887,-68.9655172413793,4,2,2,5,0,0
42970,-68.9655172413793,4,2,2,60,0,0
43220,-68.9655172413793,4,2,2,5,0,0
43303,-76.9230769230769,4,1,1,60,0,1
53637,-76.9230769230769,4,1,1,60,0,0
53970,-76.9230769230769,4,1,1,60,0,1
64637,-100,4,1,1,60,0,0
64720,-100,4,1,1,5,0,0

[Colours]
Combo1 : 156,78,78
Combo2 : 255,119,119
Combo3 : 255,34,34
Combo4 : 215,223,57

[HitObjects]
128,100,11345,5,4,0:0:0:0:
128,100,11970,1,0,0:0:0:0:
202,174,12304,1,0,0:0:0:0:
127,248,12637,6,0,B|120:296|120:296|128:352,1,95.9999970703126,0|0,1:0|0:0,0:0:0:0:
204,304,13137,1,0,0:0:0:0:
204,304,13304,2,0,P|256:296|304:300,1,95.9999970703126,8|0,0:0|0:0,0:0:0:0:
372,344,13804,1,0,0:0:0:0:
372,344,13887,1,0,0:0:0:0:
372,344,13970,6,0,P|380:296|360:236,1,95.9999970703126,0|0,1:0|1:0,0:0:0:0:
302,202,14470,1,0,0:0:0:0:
212,228,14637,2,0,L|104:228,1,95.9999970703126,8|0,0:0|1:0,0:0:0:0:
233,114,15304,6,0,L|341:114,2,95.9999970703126,0|0|8,0:0|0:0|0:0,0:0:0:0:
74,75,16304,1,0,0:0:0:0:
116,228,16637,6,0,P|116:252|124:280,1,47.9999985351563
183,336,16970,1,0,1:0:0:0:
244,274,17137,1,0,1:0:0:0:
305,335,17304,2,0,P|356:328|400:328,1,95.9999970703126,8|0,0:0|0:0,0:0:0:0:
440,252,17804,1,0,0:0:0:0:
440,252,17970,6,0,B|424:208|424:208|424:152,1,95.9999970703126,0|0,1:0|0:0,0:0:0:0:
436,84,18470,1,0,0:0:0:0:
364,48,18637,2,0,L|256:64,1,95.9999970703126,8|0,0:0|0:0,0:0:0:0:
199,106,19137,1,0,0:0:0:0:
199,106,19220,1,0,0:0:0:0:
199,106,19304,6,0,B|211:154|211:154|211:206,1,95.9999970703126,0|0,1:0|1:0,0:0:0:0:
151,255,19803,1,0,0:0:0:0:
212,316,19970,2,0,L|276:316,1,47.9999985351563,8|0,0:0|0:0,0:0:0:0:
321,254,20303,2,0,L|373:254,1,47.9999985351563,0|0,1:0|0:0,0:0:0:0:
430,192,20637,6,0,P|432:144|424:88,2,95.9999970703126,0|0|8,0:0|0:0|0:0,0:0:0:0:
256,180,21637,1,0,0:0:0:0:
82,192,21970,6,0,P|80:144|88:88,1,95.9999970703126,0|0,0:0|1:0,0:0:0:0:
147,35,22470,1,0,1:0:0:0:
204,100,22637,2,0,P|248:100|300:85,1,95.9999970703126,8|0,0:0|0:0,0:0:0:0:
342,160,23137,1,0,0:0:0:0:
302,236,23303,6,0,B|307:285|307:285|295:340,1,95.9999970703126,0|0,1:0|0:0,0:0:0:0:
225,282,23803,1,0,0:0:0:0:
225,282,23970,2,0,L|125:282,1,95.9999970703126,8|0,0:0|0:0,0:0:0:0:
57,232,24470,1,0,0:0:0:0:
57,232,24553,1,0,0:0:0:0:
57,232,24637,6,0,P|53:188|57:136,1,95.9999970703126,0|0,1:0|1:0,0:0:0:0:
120,68,25137,1,0,0:0:0:0:
196,32,25303,2,0,L|296:32,1,95.9999970703126,8|0,0:0|1:0,0:0:0:0:
421,143,25970,6,0,L|425:191,1,47.9999985351563
341,191,26303,2,0,L|345:239,1,47.9999985351563
257,238,26637,2,0,P|212:244|152:240,1,95.9999970703126,8|0,0:0|0:0,0:0:0:0:
124,72,27303,6,0,P|169:66|229:70,1,95.9999970703126,0|0,0:0|1:0,0:0:0:0:
276,132,27803,1,0,1:0:0:0:
348,84,27970,2,0,L|404:84,1,47.9999985351563,8|0,0:0|0:0,0:0:0:0:
396,170,28303,2,0,L|435:209,1,47.9999985351563
368,265,28637,6,0,L|256:265,1,95.9999970703126,0|0,1:0|0:0,0:0:0:0:
188,238,29137,1,0,0:0:0:0:
250,175,29303,2,0,P|274:223|266:279,1,95.9999970703126,8|0,0:0|0:0,0:0:0:0:
236,344,29803,1,0,0:0:0:0:
236,344,29887,1,0,0:0:0:0:
236,344,29970,6,0,B|188:336|188:352|136:344,1,95.9999970703126,0|0,1:0|1:0,0:0:0:0:
64,300,30470,1,0,0:0:0:0:
108,224,30637,2,0,P|111:180|82:133,1,95.9999970703126,8|0,0:0|1:0,0:0:0:0:
30,196,31137,1,0,0:0:0:0:
180,272,31303,5,0,0:0:0:0:
302,149,31637,1,0,0:0:0:0:
287,335,31970,1,8,0:0:0:0:
201,130,32303,1,0,0:0:0:0:
438,233,32637,5,4,0:1:0:0:
256,80,37970,5,0,1:0:0:0:
342,159,38137,1,0,0:0:0:0:
342,159,38220,1,0,0:0:0:0:
342,159,38303,2,0,P|352:196|352:232,1,71.9999978027344,8|0,0:0|0:0,0:0:0:0:
231,330,38637,2,0,P|221:293|226:253,1,71.9999978027344,0|0,1:0|0:0,0:0:0:0:
259,160,38970,1,8,0:0:0:0:
297,287,39137,1,0,0:0:0:0:
169,192,39303,6,0,P|134:192|93:209,1,71.9999978027344,0|0,1:0|0:0,0:0:0:0:
76,216,39553,1,0,0:0:0:0:
54,228,39637,2,0,P|18:242|-19:242,1,71.9999978027344,8|0,1:2|0:0,0:0:0:0:
85,114,39970,2,0,P|121:100|158:100,1,71.9999978027344,0|0,1:0|0:0,0:0:0:0:
258,173,40303,1,8,1:2:0:0:
258,173,40470,1,0,0:0:0:0:
322,78,40637,6,0,P|325:51|319:5,1,71.9999978027344
400,120,40970,2,0,P|397:147|403:193,1,71.9999978027344,8|0,0:0|0:0,0:0:0:0:
499,155,41303,1,0,1:0:0:0:
445,305,41470,1,0,0:0:0:0:
318,229,41637,2,0,L|238:229,1,71.9999978027344,8|0,0:0|0:0,0:0:0:0:
204,168,41887,1,0,0:0:0:0:
204,168,41970,6,0,P|204:96|304:44,1,174.000005310059,2|0,0:1|0:0,0:0:0:0:
291,135,42303,6,0,P|363:135|415:235,1,174.000005310059,2|0,0:1|0:0,0:0:0:0:
325,222,42637,6,0,P|325:294|225:346,1,174.000005310059,2|0,0:1|0:0,0:0:0:0:
238,255,42970,6,0,P|166:255|114:155,1,174.000005310059,2|0,0:1|0:0,0:0:0:0:
204,168,43303,6,0,B|212:120|212:120|200:8,1,155.999992858887,6|0,0:0|0:0,0:0:0:0:
128,56,43637,2,0,P|84:68|24:68,1,103.999995239258,8|0,0:0|0:0,0:0:0:0:
288,128,43970,2,0,P|352:104|432:148,1,155.999992858887,2|0,0:0|0:0,0:0:0:0:
352,199,44303,2,0,P|352:239|372:299,1,103.999995239258,8|0,0:0|0:0,0:0:0:0:
492,224,44637,5,2,0:0:0:0:
268,216,44803,1,0,0:0:0:0:
268,216,44887,1,0,0:0:0:0:
268,216,44970,2,0,P|272:264|264:324,1,103.999995239258,8|0,0:0|0:0,0:0:0:0:
188,340,45220,1,0,0:0:0:0:
188,340,45303,2,0,L|84:340,1,103.999995239258,2|0,0:0|0:0,0:0:0:0:
32,280,45553,1,0,0:0:0:0:
32,280,45636,2,0,P|28:232|36:172,1,103.999995239258,8|0,0:0|0:0,0:0:0:0:
200,76,45970,6,0,B|308:76|308:76|352:94,1,155.999992858887,2|0,0:0|0:0,0:0:0:0:
348,172,46303,1,8,0:0:0:0:
160,172,46470,1,0,0:0:0:0:
352,94,46637,2,0,P|409:125|410:214,1,155.999992858887,2|0,0:0|0:0,0:0:0:0:
348,264,46970,1,8,0:0:0:0:
164,264,47137,1,0,0:0:0:0:
348,172,47303,5,2,0:0:0:0:
164,172,47469,1,0,0:0:0:0:
164,172,47553,1,0,0:0:0:0:
164,172,47637,1,8,0:0:0:0:
284,88,47803,2,0,L|336:88,2,51.999997619629,0|0|2,0:0|0:0|0:0,0:0:0:0:
240,228,48137,1,0,0:0:0:0:
240,228,48220,1,0,0:0:0:0:
240,228,48303,1,8,0:0:0:0:
176,88,48470,1,0,0:0:0:0:
316,192,48637,6,0,P|360:192|412:156,1,103.999995239258,2|2,0:0|0:3,0:0:0:0:
440,92,48887,1,0,0:0:0:0:
440,92,48970,1,8,0:0:0:0:
428,248,49137,1,2,0:3:0:0:
336,116,49303,2,0,P|284:100|224:100,1,103.999995239258,2|2,0:0|0:3,0:0:0:0:
234,98,49553,1,0,0:0:0:0:
234,98,49637,1,8,0:0:0:0:
112,212,49803,1,2,0:3:0:0:
96,28,49970,6,0,P|80:80|100:136,1,103.999995239258,2|2,0:0|0:3,0:0:0:0:
156,80,50220,1,0,0:0:0:0:
156,80,50303,1,8,0:0:0:0:
28,196,50470,2,0,P|28:224|40:256,1,51.999997619629,2|0,0:3|0:0,0:0:0:0:
112,336,50637,1,2,0:0:0:0:
196,196,50803,2,0,P|196:224|184:256,1,51.999997619629,2|0,0:3|0:0,0:0:0:0:
112,336,50970,1,8,0:0:0:0:
112,212,51137,1,2,0:3:0:0:
292,320,51303,6,0,B|368:320|368:320|348:300,1,103.999995239258,2|2,0:0|0:3,0:0:0:0:
288,244,51553,1,0,0:0:0:0:
288,244,51637,2,0,P|284:200|300:140,1,103.999995239258,8|2,0:0|0:3,0:0:0:0:
428,80,51970,1,2,0:0:0:0:
496,204,52137,1,2,0:3:0:0:
496,204,52220,1,0,0:0:0:0:
496,204,52303,1,8,0:0:0:0:
360,204,52470,1,2,0:3:0:0:
428,80,52637,5,2,0:0:0:0:
428,252,52803,1,2,0:3:0:0:
428,252,52887,1,0,0:0:0:0:
428,252,52970,1,8,0:0:0:0:
288,132,53137,1,2,0:3:0:0:
288,132,53221,1,0,0:0:0:0:
288,132,53304,1,2,0:0:0:0:
208,240,53470,2,0,L|256:272,1,51.999997619629,2|0,0:3|0:0,0:0:0:0:
340,324,53637,1,6,0:2:0:0:
340,324,53970,6,0,B|456:324|456:324|428:288,1,155.999992858887,6|0,0:0|0:0,0:0:0:0:
368,241,54303,1,8,0:0:0:0:
494,165,54470,1,2,0:3:0:0:
392,48,54637,2,0,B|336:44|336:44|292:64|224:48,1,155.999992858887,2|0,0:0|0:0,0:0:0:0:
148,36,54970,1,8,0:0:0:0:
288,144,55137,1,2,0:3:0:0:
100,144,55303,5,2,0:0:0:0:
208,252,55470,2,0,L|144:260,1,51.999997619629,2|0,0:3|0:0,0:0:0:0:
44,280,55637,2,0,P|36:332|56:384,1,103.999995239258,8|2,0:0|0:3,0:0:0:0:
128,348,55887,1,0,0:0:0:0:
152,348,55970,2,0,B|200:336|212:356|264:336,1,103.999995239258,2|2,0:0|0:3,0:0:0:0:
268,310,56220,1,0,0:0:0:0:
276,280,56303,2,0,P|272:228|284:168,1,103.999995239258,8|2,0:0|0:3,0:0:0:0:
368,56,56637,5,2,0:0:0:0:
368,224,56803,1,2,0:3:0:0:
368,224,56887,1,0,0:0:0:0:
368,224,56970,2,0,P|420:224|472:192,1,103.999995239258,8|2,0:0|0:3,0:0:0:0:
268,80,57303,2,0,B|200:80|200:80|112:112,1,155.999992858887,2|0,0:0|0:0,0:0:0:0:
72,173,57637,2,0,P|44:129|56:65,1,103.999995239258,8|2,0:0|0:3,0:0:0:0:
220,216,57970,6,0,P|248:260|236:324,1,103.999995239258,2|2,0:0|0:3,0:0:0:0:
176,280,58220,1,0,0:0:0:0:
176,280,58303,1,8,0:0:0:0:
328,204,58470,1,2,0:3:0:0:
328,204,58553,1,0,0:0:0:0:
327,203,58637,2,0,P|377:192|425:214,1,103.999995239258,2|2,0:0|0:3,0:0:0:0:
369,271,58887,1,0,0:0:0:0:
369,271,58970,1,8,0:0:0:0:
279,101,59137,1,2,0:3:0:0:
200,248,59303,6,0,B|84:248|84:248|116:216,1,155.999992858887,2|0,0:0|0:0,0:0:0:0:
236,184,59637,2,0,P|268:220|258:292,1,103.999995239258,8|2,0:0|0:3,0:0:0:0:
149,145,59970,2,0,P|181:105|285:105,1,155.999992858887,2|0,0:0|0:0,0:0:0:0:
340,160,60303,2,0,L|456:160,1,103.999995239258,8|2,0:0|0:3,0:0:0:0:
480,248,60637,5,2,0:0:0:0:
388,84,60803,1,2,0:3:0:0:
388,84,60887,1,0,0:0:0:0:
388,84,60970,1,8,0:0:0:0:
312,236,61137,1,2,0:3:0:0:
312,236,61220,1,0,0:0:0:0:
312,236,61303,2,0,B|272:236|272:236|258:241|258:241|206:241,1,103.999995239258,0|2,0:0|0:3,0:0:0:0:
152,196,61553,1,0,0:0:0:0:
152,196,61637,2,0,P|152:144|175:99,1,103.999995239258,8|2,0:0|0:3,0:0:0:0:
312,236,61970,5,2,0:0:0:0:
400,116,62137,1,2,0:3:0:0:
400,116,62220,1,0,0:0:0:0:
400,116,62303,1,8,0:0:0:0:
488,236,62470,1,2,0:3:0:0:
312,116,62637,5,2,0:0:0:0:
400,236,62804,1,2,0:3:0:0:
400,236,62887,1,0,0:0:0:0:
400,236,62970,1,8,0:0:0:0:
488,116,63137,1,2,0:3:0:0:
312,236,63303,6,0,L|260:236,3,51.999997619629,2|0|2|0,0:0|0:0|0:3|0:0,0:0:0:0:
252,316,63637,2,0,L|200:316,3,51.999997619629,8|0|2|0,0:0|0:0|0:3|0:0,0:0:0:0:
132,270,63970,5,2,0:0:0:0:
112,222,64053,1,0,0:0:0:0:
117,171,64136,1,2,0:3:0:0:
147,129,64220,1,0,0:0:0:0:
193,107,64303,1,8,0:0:0:0:
245,110,64386,1,0,0:0:0:0:
288,138,64470,1,2,0:3:0:0:
312,184,64553,1,0,0:0:0:0:
311,235,64636,5,4,0:2:0:0:
256,192,64720,12,0,70387,0:0:0:0:
