osu file format v14

[General]
AudioFilename: [C.H.S] 01. Intro - Dockaaaahhhnnn!!.mp3
AudioLeadIn: 0
PreviewTime: 43303
Countdown: 0
SampleSet: Soft
StackLeniency: 0.7
Mode: 0
LetterboxInBreaks: 0
WidescreenStoryboard: 0

[Editor]
DistanceSpacing: 1.4
BeatDivisor: 4
GridSize: 4
TimelineZoom: 2.799999

[Metadata]
Title:Intro - Dockaaaahhhnnn!!
TitleUnicode:Intro - Dockaaaahhhnnn!!
Artist:t+pazolite
ArtistUnicode:t+pazolite
Creator:DeRandom Otaku
Version:Easy
Source:
Tags:Kenran Kensou Orient C.H.S 絢爛喧騒オリエント tpaz tpz
BeatmapID:997647
BeatmapSetID:466104

[Difficulty]
HPDrainRate:2.5
CircleSize:2.5
OverallDifficulty:2
ApproachRate:3
SliderMultiplier:0.6
SliderTickRate:1

[Events]
//Background and Video events
0,0,"BG lol.jpg",0,0
//Break Periods
2,32837,36530
//Storyboard Layer 0 (Background)
//Storyboard Layer 1 (Fail)
//Storyboard Layer 2 (Pass)
//Storyboard Layer 3 (Foreground)
//Storyboard Sound Samples

[TimingPoints]
11304,333.333333333333,4,2,2,45,1,0
11970,-100,4,2,2,30,0,0
37970,-100,4,2,2,35,0,0
39303,-100,4,2,2,40,0,0
40637,-100,4,2,2,50,0,0
41970,-100,4,2,2,60,0,0
43303,-100,4,1,1,60,0,1
53637,-100,4,1,1,60,0,0
53970,-100,4,1,1,60,0,1
64637,-100,4,1,1,5,0,0

[Colours]
Combo1 : 156,78,78
Combo2 : 255,119,119
Combo3 : 255,34,34
Combo4 : 215,223,57

[HitObjects]
116,192,11345,5,4,0:1:0:0:
258,123,11970,2,0,P|286:123|325:139,1,60
372,196,12637,6,0,B|388:256|388:256|388:316,1,120,0|8,1:0|0:0,0:0:0:0:
219,313,13970,2,0,B|219:255|219:255|235:195,1,120,0|8,1:0|0:0,0:0:0:0:
372,100,15304,6,0,P|400:92|432:92,2,60,0|0|8,0:0|0:0|0:0,0:0:0:0:
296,140,16304,1,0,0:0:0:0:
216,168,16637,2,0,P|156:178|89:166,1,120,0|8,0:0|0:0,0:0:0:0:
228,64,17970,5,0,1:0:0:0:
346,182,18637,1,8,0:0:0:0:
215,288,19304,2,0,P|159:300|91:288,1,120,0|8,1:0|0:0,0:0:0:0:
220,176,20637,5,0,0:0:0:0:
281,236,20970,2,0,L|345:236,2,60,0|8|0,0:0|0:0|0:0,0:0:0:0:
215,288,21970,2,0,B|163:288|163:288|147:292|147:292|95:292,1,120,0|8,0:0|0:0,0:0:0:0:
35,232,22970,1,0,0:0:0:0:
94,172,23303,6,0,B|146:172|146:172|162:168|162:168|214:168,1,120,0|8,1:0|0:0,0:0:0:0:
267,232,24303,1,0,0:0:0:0:
316,299,24637,2,0,P|361:299|402:362,1,120,0|8,1:0|0:0,0:0:0:0:
456,196,25970,6,0,L|456:136,1,60
371,136,26637,2,0,L|371:76,1,60,8|0,0:0|0:0,0:0:0:0:
287,76,27303,2,0,P|227:82|174:121,1,120,0|8,0:0|0:0,0:0:0:0:
284,246,28637,5,0,1:0:0:0:
432,164,29303,2,0,P|452:228|452:292,2,120,8|0|8,0:0|1:0|0:0,0:0:0:0:
287,76,31303,6,0,P|251:76|221:87,2,60,0|0|8,0:0|0:0|0:0,0:0:0:0:
360,117,32303,1,0,0:0:0:0:
432,164,32637,5,4,0:1:0:0:
256,192,37970,12,2,41970,0:1:0:0:
356,100,43303,6,0,P|373:158|364:218,2,120,6|2|2,0:0|0:0|0:0,0:0:0:0:
280,60,44970,1,8,0:0:0:0:
236,132,45303,2,0,L|168:132,1,60,2|8,0:0|0:0,0:0:0:0:
115,73,45970,6,0,P|91:125|112:188,2,120,2|2|2,0:0|0:0|0:0,0:0:0:0:
188,32,47637,2,0,L|252:32,2,60,8|2|8,0:0|0:0|0:0,0:0:0:0:
115,73,48637,5,2,0:0:0:0:
233,191,49303,1,2,0:0:0:0:
114,309,49970,2,0,P|80:316|52:316,1,60,2|8,0:0|0:0,0:0:0:0:
54,232,50637,2,0,P|88:225|116:225,1,60,2|8,0:0|0:0,0:0:0:0:
186,266,51303,6,0,L|310:266,1,120,2|2,0:0|0:0,0:0:0:0:
412,140,52637,2,0,P|380:128|352:128,1,60,2|8,0:0|0:0,0:0:0:0:
276,160,53303,1,2,0:0:0:0:
192,144,53637,1,6,0:2:0:0:
112,176,53970,6,0,P|108:124|157:65,1,120,6|2,0:0|0:0,0:0:0:0:
207,13,54970,1,8,0:0:0:0:
263,75,55303,2,0,L|323:75,1,60,2|8,0:0|0:0,0:0:0:0:
405,93,55970,2,0,L|389:157,1,60,2|8,0:0|0:0,0:0:0:0:
365,232,56637,6,0,B|372:292|372:292|368:351,1,120,2|2,0:0|0:0,0:0:0:0:
285,333,57637,1,8,0:0:0:0:
206,301,57970,2,0,L|142:301,1,60,2|8,0:0|0:0,0:0:0:0:
146,216,58637,2,0,L|210:216,1,60,2|8,0:0|0:0,0:0:0:0:
206,132,59303,6,0,L|83:131,1,120,2|2,0:0|0:0,0:0:0:0:
35,64,60303,1,8,0:0:0:0:
112,32,60637,2,0,L|184:32,1,60,2|8,0:0|0:0,0:0:0:0:
252,52,61303,1,2,0:0:0:0:
332,72,61637,1,8,0:0:0:0:
412,92,61970,6,0,L|422:151,1,60,2|8,0:0|0:0,0:0:0:0:
422,235,62637,2,0,L|411:294,1,60,2|8,0:0|0:0,0:0:0:0:
327,293,63303,2,0,L|316:234,1,60,2|8,0:0|0:0,0:0:0:0:
316,149,63970,2,0,L|327:90,1,60,2|8,0:0|0:0,0:0:0:0:
256,192,64637,12,0,70387,0:0:0:0:
