osu file format v13

[General]
AudioFilename: 10 - GLITCH MANIAXXXX.mp3
AudioLeadIn: 0
PreviewTime: 97970
Countdown: 0
SampleSet: Normal
StackLeniency: 0.2
Mode: 1
LetterboxInBreaks: 1
WidescreenStoryboard: 1

[Editor]
Bookmarks: 1989,11589,21189,40389,59570,69170,78770,97970,107570,117170,126770,145970,150770,155570,160370,165170,174770,179570,184370,203570,213170,222770,241970
DistanceSpacing: 0.8
BeatDivisor: 4
GridSize: 32
TimelineZoom: 2.099999

[Metadata]
Title:GLITCH MANIAXXXX
TitleUnicode:GLITCH MANIAXXXX
Artist:t+pazolite
ArtistUnicode:t+pazolite
Creator:Jinyan
Version:TaikoJi
Source:
Tags:
BeatmapID:488709
BeatmapSetID:207413

[Difficulty]
HPDrainRate:5
CircleSize:4
OverallDifficulty:6
ApproachRate:5
SliderMultiplier:1.4
SliderTickRate:1

[Events]
//Background and Video events
0,0,"34919001.jpg",0,0
//Break Periods
//Storyboard Layer 0 (Background)
//Storyboard Layer 1 (Fail)
//Storyboard Layer 2 (Pass)
//Storyboard Layer 3 (Foreground)
//Storyboard Sound Samples
//Background Colour Transformations
3,100,163,162,255

[TimingPoints]
1989,300,4,1,1,80,1,0
20889,150,4,1,1,80,1,1
20889,-50,4,1,1,80,0,1
21189,300,4,1,1,80,1,0
21189,-100,4,1,1,80,0,0
50889,150,4,1,1,80,1,0
50889,-100,4,1,1,80,0,0
51189,-66.6666666666667,4,1,1,80,0,0
51789,300,4,1,1,80,1,0
59289,150,4,1,1,80,1,0
59289,-66.6666666666667,4,1,1,80,0,0
59589,300,4,2,1,70,1,0
59589,-50,4,2,1,70,0,0
59889,-52.6315789473684,4,2,1,70,0,0
60189,-55.5555555555556,4,2,1,70,0,0
60489,-58.8235294117647,4,2,1,70,0,0
60789,-62.5,4,2,1,70,0,0
61089,-66.6666666666667,4,2,1,70,0,0
61389,-71.4285714285714,4,2,1,70,0,0
61689,-76.9230769230769,4,2,1,70,0,0
61989,-83.3333333333333,4,2,1,70,0,0
62289,-90.9090909090909,4,2,1,70,0,0
62589,-100,4,2,1,70,0,0
62889,-111.111111111111,4,2,1,70,0,0
63189,-125,4,2,1,70,0,0
63489,-142.857142857143,4,2,1,70,0,0
63789,-166.666666666667,4,2,1,70,0,0
64089,-200,4,2,1,70,0,0
64389,-100,4,2,1,70,0,0
70089,150,4,1,1,80,1,0
70089,-83.3333333333333,4,1,1,80,0,0
70989,300,4,1,1,80,1,0
72789,-83.3333333333333,4,1,1,80,0,0
72939,-71.4285714285714,4,1,1,80,0,0
73164,-62.5,4,1,1,80,0,0
73389,-55.5555555555556,4,1,1,80,0,0
73614,-50,4,1,1,80,0,0
73989,150,4,1,1,80,1,0
73989,-200,4,1,1,80,0,0
74289,-166.666666666667,4,1,1,80,0,0
74589,-142.857142857143,4,1,1,80,0,0
74889,-125,4,1,1,80,0,0
75039,-117.647058823529,4,1,1,80,0,0
75189,-111.111111111111,4,1,1,80,0,0
75489,-100,4,1,1,80,0,0
75639,-95.2380952380952,4,1,1,80,0,0
75789,-90.9090909090909,4,1,1,80,0,0
76089,-83.3333333333333,4,1,1,80,0,0
76239,-80,4,1,1,80,0,0
76389,-76.9230769230769,4,1,1,80,0,0
76539,-74.0740740740741,4,1,1,80,0,0
76689,-71.4285714285714,4,1,1,80,0,0
76839,-68.9655172413793,4,1,1,80,0,0
76989,-66.6666666666667,4,1,1,80,0,0
77139,-64.5161290322581,4,1,1,80,0,0
77289,-62.5,4,1,1,80,0,0
77439,-60.6060606060606,4,1,1,80,0,0
77589,-58.8235294117647,4,1,1,80,0,0
77739,-57.1428571428571,4,1,1,80,0,0
77889,-55.5555555555556,4,1,1,80,0,0
78039,-54.054054054054,4,1,1,80,0,0
78189,-52.6315789473684,4,1,1,80,0,0
78489,-50,4,1,1,80,0,0
78789,300,4,1,1,90,1,1
78789,-80,4,1,1,90,0,1
81189,-66.6666666666667,4,1,1,90,0,1
81489,-80,4,1,1,90,0,1
81789,-50,4,1,1,90,0,1
82089,-80,4,1,1,90,0,1
82389,-68.9655172413793,4,1,1,90,0,1
82989,-80,4,1,1,90,0,1
84189,-66.6666666666667,4,1,1,90,0,1
84489,-80,4,1,1,90,0,1
85689,-100,4,2,1,70,0,0
88089,-80,4,2,1,70,0,0
88389,-80,4,1,1,90,0,1
90789,-66.6666666666667,4,1,1,90,0,1
91089,-80,4,1,1,90,0,1
91389,-50,4,1,1,90,0,1
91689,-80,4,1,1,90,0,1
91989,-68.9655172413793,4,1,1,90,0,1
92889,-80,4,1,1,90,0,1
93789,-66.6666666666667,4,1,1,90,0,1
94089,-80,4,1,1,90,0,1
95289,-100,4,2,1,70,0,0
97089,-90.9090909090909,4,2,1,70,0,0
97389,-83.3333333333333,4,2,1,70,0,0
97689,-76.9230769230769,4,2,1,70,0,0
97989,-100,4,2,1,50,0,0
107589,-100,4,2,1,80,0,0
121989,-95.2380952380952,4,2,1,70,0,0
122289,-90.9090909090909,4,2,1,70,0,0
122589,-86.9565217391304,4,2,1,70,0,0
122889,-80,4,2,1,70,0,0
123189,-76.9230769230769,4,2,1,70,0,0
123489,-74.0740740740741,4,2,1,70,0,0
123789,-71.4285714285714,4,2,1,70,0,0
124089,-68.9655172413793,4,2,1,70,0,0
124389,-66.6666666666667,4,2,1,70,0,0
124539,-62.5,4,2,1,70,0,0
124689,-58.8235294117647,4,2,1,70,0,0
124839,-55.5555555555556,4,2,1,70,0,0
124989,-52.6315789473684,4,2,1,70,0,0
125289,-50,4,2,1,70,0,0
125589,-200,4,2,1,70,0,0
126039,-200,4,2,1,90,0,0
126489,150,4,2,1,70,1,0
126489,-50,4,2,1,70,0,0
126789,300,4,2,1,70,1,1
126789,-80,4,1,1,80,0,1
135189,-66.6666666666667,4,1,1,100,0,0
136389,-80,4,1,1,80,0,1
145089,-74.0740740740741,4,1,1,83,0,1
145239,-68.9655172413793,4,1,1,86,0,1
145389,-64.5161290322581,4,1,1,89,0,1
145539,-60.6060606060606,4,1,1,92,0,1
145689,-57.1428571428571,4,1,1,95,0,1
145839,-54.054054054054,4,1,1,100,0,1
145989,-100,4,2,1,80,0,0
149439,-66.6666666666667,4,1,1,100,0,0
150489,-50,4,1,1,80,0,0
150789,-100,4,2,1,80,0,0
159039,-66.6666666666667,4,1,1,100,0,0
160089,-50,4,1,1,80,0,0
160389,-95.2380952380952,4,1,1,80,0,0
160689,-90.9090909090909,4,1,1,80,0,0
160989,-86.9565217391304,4,1,1,80,0,0
161289,-83.3333333333333,4,1,1,80,0,0
161589,-80,4,1,1,80,0,0
161889,-76.9230769230769,4,1,1,80,0,0
162189,-80,4,1,1,80,0,0
162489,-71.4285714285714,4,1,1,80,0,0
162789,-66.6666666666667,4,1,1,80,0,0
162939,-62.5,4,1,1,80,0,0
163089,-58.8235294117647,4,1,1,80,0,0
163239,-55.5555555555556,4,1,1,80,0,0
163389,-52.6315789473684,4,1,1,80,0,0
163689,-50,4,1,1,80,0,0
163989,-200,4,1,1,80,0,0
165189,-100,4,1,1,70,0,0
165789,-66.6666666666667,4,1,1,70,0,0
166089,-100,4,1,1,70,0,0
168189,-66.6666666666667,4,1,1,70,0,0
168489,-100,4,1,1,70,0,0
170589,-66.6666666666667,4,1,1,70,0,0
170889,-100,4,1,1,70,0,0
172989,-66.6666666666667,4,1,1,70,0,0
173289,-100,4,1,1,70,0,0
174789,-90.9090909090909,4,1,1,70,0,0
175089,-66.6666666666667,4,1,1,70,0,0
175389,-90.9090909090909,4,1,1,70,0,0
175989,-83.3333333333333,4,1,1,70,0,0
176289,-62.5,4,1,1,70,0,0
176589,-83.3333333333333,4,1,1,70,0,0
177184,-76.9230769230769,4,1,1,70,0,0
177489,-58.8235294117647,4,1,1,70,0,0
177789,-76.9230769230769,4,1,1,70,0,0
178389,-71.4285714285714,4,1,1,70,0,0
178689,-55.5555555555556,4,1,1,70,0,0
178989,-71.4285714285714,4,1,1,70,0,0
179589,-66.6666666666667,4,1,1,70,0,0
179589,-64.5161290322581,4,1,1,70,0,0
180039,-66.6666666666667,4,1,1,70,0,0
180189,-60.6060606060606,4,1,1,70,0,0
180639,-64.5161290322581,4,1,1,70,0,0
180789,-57.1428571428571,4,1,1,70,0,0
181239,-62.5,4,1,1,70,0,0
181389,-54.054054054054,4,1,1,70,0,0
181839,-58.8235294117647,4,1,1,70,0,0
181989,-52.6315789473684,4,1,1,70,0,0
182289,-51.2820512820513,4,1,1,70,0,0
182589,150,4,1,1,70,1,0
182589,-100,4,1,1,70,0,0
182889,-95.2380952380952,4,1,1,70,0,0
183151,-100,4,2,1,70,0,0
183189,300,4,1,1,70,1,0
184389,-80,4,1,1,90,0,1
184989,-66.6666666666667,4,1,1,90,0,1
185289,-80,4,1,1,90,0,1
186789,-66.6666666666667,4,1,1,90,0,1
187089,-80,4,1,1,90,0,1
187389,-50,4,1,1,90,0,1
187689,-80,4,1,1,90,0,1
187989,-66.6666666666667,4,1,1,90,0,1
188589,-80,4,1,1,90,0,1
189789,-66.6666666666667,4,1,1,90,0,1
190089,-80,4,1,1,90,0,1
191289,-100,4,1,1,70,0,0
193689,-50,4,2,1,70,0,0
193989,-80,4,1,1,90,0,1
194589,-66.6666666666667,4,1,1,90,0,1
194889,-80,4,1,1,90,0,1
196389,-66.6666666666667,4,1,1,90,0,1
196689,-80,4,1,1,90,0,1
196989,-50,4,1,1,90,0,1
197289,-80,4,1,1,90,0,1
197589,-66.6666666666667,4,1,1,90,0,1
198189,-80,4,1,1,90,0,1
199389,-66.6666666666667,4,1,1,90,0,1
199689,-80,4,1,1,90,0,1
200889,-100,4,1,1,80,0,0
203589,-111.111111111111,4,1,1,80,0,0
204789,-125,4,1,1,80,0,0
205689,-100,4,1,1,80,0,0
206289,-125,4,1,1,80,0,0
207189,-142.857142857143,4,1,1,80,0,0
208089,-100,4,1,1,80,0,0
221589,-83.3333333333333,4,2,1,50,0,0
221739,-90.9090909090909,4,2,1,50,0,0
221889,-100,4,2,1,50,0,0
222039,-111.111111111111,4,2,1,50,0,0
222189,-125,4,2,1,50,0,0
222339,-142.857142857143,4,2,1,70,0,0
222489,-166.666666666667,4,2,1,90,0,0
222639,-200,4,2,1,70,0,0
222789,-100,4,1,1,80,0,0
233289,150,4,1,1,80,1,0
233589,-66.6666666666667,4,1,1,80,0,0
234189,300,4,1,1,80,1,0
241989,-100,4,1,1,70,0,0
262989,3000,4,2,1,5,1,0

[Colours]
Combo1 : 62,62,62
Combo2 : 234,187,0
Combo3 : 192,192,192
Combo4 : 251,13,36
Combo5 : 0,128,255

[HitObjects]
256,192,1989,5,4,0:0:0:0:
256,192,2139,1,2,0:0:0:0:
256,192,2214,1,0,0:0:0:0:
256,192,2439,1,0,0:0:0:0:
256,192,2489,1,0,0:0:0:0:
256,192,2539,1,0,0:0:0:0:
256,192,2589,1,2,0:0:0:0:
256,192,2814,1,2,0:0:0:0:
256,192,3039,1,0,0:0:0:0:
256,192,3189,1,0,0:0:0:0:
256,192,3339,1,2,0:0:0:0:
256,192,3489,1,2,0:0:0:0:
256,192,3564,1,0,0:0:0:0:
256,192,3639,1,2,0:0:0:0:
256,192,3789,1,12,0:0:0:0:
256,192,3939,1,12,0:0:0:0:
256,192,4089,1,2,0:0:0:0:
256,192,4164,1,0,0:0:0:0:
256,192,4239,1,2,0:0:0:0:
256,192,4389,1,0,0:0:0:0:
256,192,4539,1,0,0:0:0:0:
256,192,4689,1,8,0:0:0:0:
256,192,4764,1,0,0:0:0:0:
256,192,4839,1,8,0:0:0:0:
256,192,4914,1,0,0:0:0:0:
256,192,4989,1,0,0:0:0:0:
256,192,5139,1,0,0:0:0:0:
256,192,5439,1,0,0:0:0:0:
256,192,5589,1,0,0:0:0:0:
256,192,5664,1,0,0:0:0:0:
256,192,5739,1,2,0:0:0:0:
256,192,5889,1,2,0:0:0:0:
256,192,5964,1,0,0:0:0:0:
256,192,6039,1,0,0:0:0:0:
256,192,6114,1,0,0:0:0:0:
256,192,6189,1,8,0:0:0:0:
256,192,6339,1,12,0:0:0:0:
256,192,6489,1,0,0:0:0:0:
256,192,6789,1,2,0:0:0:0:
256,192,6939,1,2,0:0:0:0:
256,192,7039,1,2,0:0:0:0:
256,192,7139,1,0,0:0:0:0:
256,192,7239,1,2,0:0:0:0:
256,192,7389,1,0,0:0:0:0:
256,192,7614,1,0,0:0:0:0:
256,192,7839,1,8,0:0:0:0:
256,192,7889,1,8,0:0:0:0:
256,192,7939,1,8,0:0:0:0:
256,192,7989,1,0,0:0:0:0:
256,192,8139,1,2,0:0:0:0:
256,192,8289,1,2,0:0:0:0:
256,192,8364,1,0,0:0:0:0:
256,192,8439,1,2,0:0:0:0:
256,192,8589,1,12,0:0:0:0:
256,192,8739,1,12,0:0:0:0:
256,192,8889,1,2,0:0:0:0:
256,192,8964,1,0,0:0:0:0:
256,192,9039,1,2,0:0:0:0:
256,192,9189,1,0,0:0:0:0:
256,192,9339,1,12,0:0:0:0:
256,192,9489,1,8,0:0:0:0:
256,192,9564,1,0,0:0:0:0:
256,192,9639,1,8,0:0:0:0:
256,192,9714,1,0,0:0:0:0:
256,192,9789,1,0,0:0:0:0:
256,192,9939,1,0,0:0:0:0:
256,192,10089,1,8,0:0:0:0:
256,192,10239,1,0,0:0:0:0:
256,192,10389,1,0,0:0:0:0:
256,192,10539,1,2,0:0:0:0:
256,192,10614,1,0,0:0:0:0:
256,192,10689,1,2,0:0:0:0:
256,192,10764,1,0,0:0:0:0:
256,192,10839,1,0,0:0:0:0:
256,192,10914,1,0,0:0:0:0:
256,192,10989,1,8,0:0:0:0:
256,192,11139,1,0,0:0:0:0:
256,192,11214,1,8,0:0:0:0:
256,192,11289,1,0,0:0:0:0:
256,192,11439,1,2,0:0:0:0:
256,192,11489,1,2,0:0:0:0:
256,192,11539,1,2,0:0:0:0:
256,192,11589,1,0,0:0:0:0:
256,192,11889,1,2,0:0:0:0:
256,192,12189,1,2,0:0:0:0:
256,192,12789,1,2,0:0:0:0:
256,192,12939,1,2,0:0:0:0:
256,192,13239,1,2,0:0:0:0:
256,192,13389,1,0,0:0:0:0:
256,192,13689,1,2,0:0:0:0:
256,192,13989,1,0,0:0:0:0:
256,192,14289,1,2,0:0:0:0:
256,192,14589,1,2,0:0:0:0:
256,192,15189,1,0,0:0:0:0:
256,192,15339,1,2,0:0:0:0:
256,192,15639,1,2,0:0:0:0:
256,192,15789,1,12,0:0:0:0:
256,192,16089,1,2,0:0:0:0:
256,192,16239,1,8,0:0:0:0:
256,192,16289,1,8,0:0:0:0:
256,192,16339,1,0,0:0:0:0:
256,192,16389,1,0,0:0:0:0:
256,192,16539,1,0,0:0:0:0:
256,192,16689,1,2,0:0:0:0:
256,192,16989,1,2,0:0:0:0:
256,192,17139,1,0,0:0:0:0:
256,192,17214,1,8,0:0:0:0:
256,192,17439,1,2,0:0:0:0:
256,192,17489,1,2,0:0:0:0:
256,192,17539,1,2,0:0:0:0:
256,192,17589,1,2,0:0:0:0:
256,192,17739,1,2,0:0:0:0:
256,192,18039,1,2,0:0:0:0:
256,192,18189,1,0,0:0:0:0:
256,192,18489,1,2,0:0:0:0:
256,192,18789,1,0,0:0:0:0:
256,192,19089,1,2,0:0:0:0:
256,192,19389,1,2,0:0:0:0:
256,192,19439,1,2,0:0:0:0:
256,192,19489,1,2,0:0:0:0:
256,192,19539,1,0,0:0:0:0:
256,192,19689,1,0,0:0:0:0:
256,192,19739,1,0,0:0:0:0:
256,192,19789,1,0,0:0:0:0:
256,192,19839,1,0,0:0:0:0:
256,192,19889,1,0,0:0:0:0:
256,192,19939,1,0,0:0:0:0:
256,192,19989,1,2,0:0:0:0:
256,192,20289,1,2,0:0:0:0:
256,192,20364,1,2,0:0:0:0:
256,192,20439,1,2,0:0:0:0:
256,192,20514,1,2,0:0:0:0:
256,192,20589,1,0,0:0:0:0:
32,192,20889,2,0,L|480:192,1,420
256,192,21189,1,4,0:0:0:0:
256,192,21339,1,2,0:0:0:0:
256,192,21489,1,0,0:0:0:0:
256,192,21639,1,2,0:0:0:0:
256,192,21789,1,0,0:0:0:0:
256,192,21939,1,2,0:0:0:0:
256,192,22089,1,0,0:0:0:0:
256,192,22314,1,2,0:0:0:0:
256,192,22389,1,0,0:0:0:0:
256,192,22539,1,2,0:0:0:0:
256,192,22689,1,0,0:0:0:0:
256,192,22839,1,2,0:0:0:0:
256,192,22989,1,0,0:0:0:0:
256,192,23139,1,2,0:0:0:0:
256,192,23289,1,0,0:0:0:0:
256,192,23514,1,2,0:0:0:0:
256,192,23589,1,0,0:0:0:0:
256,192,23739,1,2,0:0:0:0:
256,192,23889,1,0,0:0:0:0:
256,192,23964,1,0,0:0:0:0:
256,192,24039,1,2,0:0:0:0:
256,192,24189,1,0,0:0:0:0:
256,192,24339,1,2,0:0:0:0:
256,192,24489,1,2,0:0:0:0:
256,192,24639,1,0,0:0:0:0:
256,192,24714,1,2,0:0:0:0:
256,192,24789,1,0,0:0:0:0:
256,192,24939,1,2,0:0:0:0:
256,192,25089,1,2,0:0:0:0:
256,192,25239,1,2,0:0:0:0:
256,192,25314,1,0,0:0:0:0:
256,192,25389,1,0,0:0:0:0:
256,192,25539,1,2,0:0:0:0:
256,192,25689,1,2,0:0:0:0:
256,192,25914,1,2,0:0:0:0:
256,192,25989,1,0,0:0:0:0:
256,192,26139,1,2,0:0:0:0:
256,192,26289,1,0,0:0:0:0:
256,192,26364,1,0,0:0:0:0:
256,192,26439,1,2,0:0:0:0:
256,192,26589,1,0,0:0:0:0:
256,192,26739,1,2,0:0:0:0:
256,192,26889,1,0,0:0:0:0:
256,192,27114,1,2,0:0:0:0:
256,192,27189,1,0,0:0:0:0:
256,192,27339,1,2,0:0:0:0:
256,192,27489,1,0,0:0:0:0:
256,192,27639,1,2,0:0:0:0:
256,192,27789,1,0,0:0:0:0:
256,192,27864,1,0,0:0:0:0:
256,192,27939,1,2,0:0:0:0:
256,192,28089,1,2,0:0:0:0:
256,192,28314,1,2,0:0:0:0:
256,192,28389,1,0,0:0:0:0:
256,192,28539,1,2,0:0:0:0:
256,192,28689,1,0,0:0:0:0:
256,192,28764,1,0,0:0:0:0:
256,192,28839,1,2,0:0:0:0:
256,192,28989,1,0,0:0:0:0:
256,192,29139,1,2,0:0:0:0:
256,192,29289,1,2,0:0:0:0:
256,192,29439,1,0,0:0:0:0:
256,192,29514,1,2,0:0:0:0:
256,192,29589,1,0,0:0:0:0:
256,192,29739,1,2,0:0:0:0:
256,192,29889,1,2,0:0:0:0:
256,192,30039,1,2,0:0:0:0:
256,192,30114,1,0,0:0:0:0:
256,192,30189,1,0,0:0:0:0:
256,192,30339,1,2,0:0:0:0:
256,192,30489,1,2,0:0:0:0:
256,192,30714,1,0,0:0:0:0:
256,192,30789,1,8,0:0:0:0:
256,192,30839,1,0,0:0:0:0:
256,192,30889,1,0,0:0:0:0:
256,192,30939,1,0,0:0:0:0:
256,192,31089,1,12,0:0:0:0:
256,192,31239,1,0,0:0:0:0:
256,192,31314,1,0,0:0:0:0:
256,192,31389,1,2,0:0:0:0:
256,192,31689,1,0,0:0:0:0:
256,192,31839,1,0,0:0:0:0:
256,192,31914,1,2,0:0:0:0:
256,192,31989,1,0,0:0:0:0:
256,192,32139,1,2,0:0:0:0:
256,192,32289,1,0,0:0:0:0:
256,192,32439,1,2,0:0:0:0:
256,192,32589,1,0,0:0:0:0:
256,192,32739,1,2,0:0:0:0:
256,192,32889,1,2,0:0:0:0:
256,192,33039,1,0,0:0:0:0:
256,192,33114,1,2,0:0:0:0:
256,192,33189,1,0,0:0:0:0:
256,192,33339,1,2,0:0:0:0:
256,192,33489,1,0,0:0:0:0:
256,192,33639,1,2,0:0:0:0:
256,192,33789,1,0,0:0:0:0:
256,192,33939,1,2,0:0:0:0:
256,192,34089,1,2,0:0:0:0:
256,192,34239,1,0,0:0:0:0:
256,192,34314,1,2,0:0:0:0:
256,192,34389,1,0,0:0:0:0:
256,192,34539,1,2,0:0:0:0:
256,192,34689,1,2,0:0:0:0:
256,192,34839,1,2,0:0:0:0:
256,192,34914,1,0,0:0:0:0:
256,192,34989,1,0,0:0:0:0:
256,192,35139,1,2,0:0:0:0:
256,192,35289,1,0,0:0:0:0:
256,192,35364,1,0,0:0:0:0:
256,192,35514,1,2,0:0:0:0:
256,192,35589,1,0,0:0:0:0:
256,192,35739,1,2,0:0:0:0:
256,192,35889,1,0,0:0:0:0:
256,192,36039,1,2,0:0:0:0:
256,192,36189,1,0,0:0:0:0:
256,192,36339,1,2,0:0:0:0:
256,192,36489,1,0,0:0:0:0:
256,192,36639,1,0,0:0:0:0:
256,192,36714,1,2,0:0:0:0:
256,192,36789,1,0,0:0:0:0:
256,192,36939,1,2,0:0:0:0:
256,192,37089,1,0,0:0:0:0:
256,192,37239,1,2,0:0:0:0:
256,192,37389,1,0,0:0:0:0:
256,192,37539,1,2,0:0:0:0:
256,192,37689,1,2,0:0:0:0:
256,192,37764,1,0,0:0:0:0:
256,192,37914,1,2,0:0:0:0:
256,192,37989,1,0,0:0:0:0:
256,192,38139,1,2,0:0:0:0:
256,192,38289,1,8,0:0:0:0:
256,192,38339,1,0,0:0:0:0:
256,192,38389,1,0,0:0:0:0:
256,192,38439,1,0,0:0:0:0:
256,192,38739,1,0,0:0:0:0:
256,192,38814,1,0,0:0:0:0:
256,192,38889,1,2,0:0:0:0:
256,192,39039,1,8,0:0:0:0:
256,192,39089,1,0,0:0:0:0:
256,192,39139,1,0,0:0:0:0:
256,192,39189,1,0,0:0:0:0:
256,192,39339,1,0,0:0:0:0:
256,192,39414,1,2,0:2:0:0:
256,192,39564,1,0,0:2:0:0:
256,192,39639,1,2,0:2:0:0:
256,192,39789,1,2,0:2:0:0:
256,192,39939,1,0,0:2:0:0:
256,192,40014,1,0,0:2:0:0:
256,192,40089,1,2,0:2:0:0:
256,192,40239,1,8,0:2:0:0:
256,192,40314,1,0,0:2:0:0:
256,192,40389,1,0,0:2:0:0:
256,192,40614,1,2,0:2:0:0:
256,192,40839,1,0,0:2:0:0:
256,192,40914,1,0,0:2:0:0:
256,192,40989,1,2,0:2:0:0:
256,192,41139,1,0,0:2:0:0:
256,192,41214,1,2,0:2:0:0:
256,192,41439,1,2,0:2:0:0:
256,192,41514,1,2,0:2:0:0:
256,192,41589,1,0,0:2:0:0:
256,192,41739,1,0,0:2:0:0:
256,192,41814,1,2,0:2:0:0:
256,192,42039,1,2,0:2:0:0:
256,192,42114,1,2,0:2:0:0:
256,192,42189,1,0,0:2:0:0:
256,192,42339,1,0,0:2:0:0:
256,192,42414,1,2,0:2:0:0:
256,192,42639,1,2,0:2:0:0:
256,192,42714,1,0,0:2:0:0:
256,192,42789,1,0,0:2:0:0:
256,192,42939,1,0,0:2:0:0:
256,192,43014,1,2,0:2:0:0:
256,192,43089,1,0,0:2:0:0:
256,192,43239,1,2,0:2:0:0:
256,192,43314,1,0,0:2:0:0:
256,192,43389,1,0,0:2:0:0:
256,192,43539,1,0,0:2:0:0:
256,192,43614,1,2,0:2:0:0:
256,192,43689,1,0,0:2:0:0:
256,192,43839,1,2,0:2:0:0:
256,192,43989,1,0,0:2:0:0:
256,192,44139,1,2,0:2:0:0:
256,192,44289,1,2,0:2:0:0:
256,192,44364,1,2,0:2:0:0:
256,192,44439,1,2,0:2:0:0:
256,192,44514,1,0,0:2:0:0:
256,192,44589,1,2,0:2:0:0:
256,192,44739,1,0,0:2:0:0:
256,192,44814,1,2,0:2:0:0:
256,192,44889,1,2,0:2:0:0:
256,192,45039,1,0,0:2:0:0:
256,192,45114,1,2,0:2:0:0:
256,192,45189,1,0,0:2:0:0:
256,192,45414,1,2,0:2:0:0:
256,192,45639,1,0,0:0:0:0:
256,192,45714,1,0,0:0:0:0:
256,192,45789,1,2,0:0:0:0:
256,192,45939,1,0,0:0:0:0:
256,192,46014,1,2,0:0:0:0:
256,192,46239,1,2,0:0:0:0:
256,192,46389,1,0,0:0:0:0:
256,192,46614,1,2,0:0:0:0:
256,192,46839,1,0,0:0:0:0:
256,192,46914,1,2,0:0:0:0:
256,192,46989,1,2,0:0:0:0:
256,192,47139,1,0,0:0:0:0:
256,192,47214,1,2,0:0:0:0:
256,192,47439,1,2,0:0:0:0:
256,192,47514,1,2,0:0:0:0:
256,192,47589,1,0,0:0:0:0:
256,192,47739,1,2,0:0:0:0:
256,192,47814,1,0,0:0:0:0:
256,192,47889,1,0,0:0:0:0:
256,192,48039,1,2,0:0:0:0:
256,192,48114,1,0,0:0:0:0:
256,192,48189,1,0,0:0:0:0:
256,192,48339,1,0,0:0:0:0:
256,192,48414,1,2,0:0:0:0:
256,192,48489,1,2,0:0:0:0:
256,192,48639,1,0,0:0:0:0:
256,192,48789,1,2,0:0:0:0:
256,192,48939,1,0,0:0:0:0:
256,192,49014,1,2,0:0:0:0:
256,192,49164,1,0,0:0:0:0:
256,192,49239,1,2,0:0:0:0:
256,192,49389,1,2,0:0:0:0:
256,192,49539,1,0,0:0:0:0:
256,192,49614,1,0,0:0:0:0:
256,192,49689,1,0,0:0:0:0:
256,192,49839,1,4,0:0:0:0:
256,192,49989,1,2,0:0:0:0:
256,192,50039,1,0,0:0:0:0:
256,192,50289,1,2,0:0:0:0:
256,192,50339,1,0,0:0:0:0:
256,192,50589,1,2,0:0:0:0:
256,192,50739,1,0,0:0:0:0:
256,192,50814,1,2,0:0:0:0:
256,192,50889,1,2,0:0:0:0:
53,65,51189,2,0,L|432:67,2,367.500014019013,0|0|0,0:0|0:0|0:0,0:0:0:0:
256,192,51789,1,2,0:0:0:0:
256,192,51939,1,0,0:0:0:0:
256,192,52014,1,2,0:0:0:0:
256,192,52239,1,2,0:0:0:0:
256,192,52314,1,2,0:0:0:0:
256,192,52389,1,0,0:0:0:0:
256,192,52539,1,0,0:0:0:0:
256,192,52614,1,2,0:0:0:0:
256,192,52839,1,0,0:0:0:0:
256,192,52914,1,2,0:0:0:0:
256,192,52989,1,0,0:0:0:0:
256,192,53139,1,0,0:0:0:0:
256,192,53214,1,2,0:0:0:0:
256,192,53439,1,2,0:0:0:0:
256,192,53589,1,0,0:0:0:0:
256,192,53739,1,2,0:0:0:0:
256,192,53889,1,2,0:0:0:0:
256,192,53964,1,2,0:0:0:0:
256,192,54039,1,2,0:0:0:0:
256,192,54114,1,2,0:0:0:0:
256,192,54189,1,0,0:0:0:0:
256,192,54339,1,0,0:0:0:0:
256,192,54414,1,0,0:0:0:0:
256,192,54489,1,2,0:0:0:0:
256,192,54639,1,0,0:0:0:0:
256,192,54714,1,0,0:0:0:0:
256,192,54789,1,0,0:0:0:0:
256,192,54939,1,0,0:0:0:0:
256,192,55014,1,2,0:0:0:0:
256,192,55239,1,0,0:0:0:0:
256,192,55314,1,2,0:0:0:0:
256,192,55389,1,0,0:0:0:0:
256,192,55539,1,0,0:0:0:0:
256,192,55614,1,2,0:0:0:0:
256,192,55764,1,0,0:0:0:0:
256,192,55839,1,2,0:0:0:0:
256,192,55914,1,2,0:0:0:0:
256,192,55989,1,0,0:0:0:0:
256,192,56139,1,2,0:0:0:0:
256,192,56214,1,0,0:0:0:0:
256,192,56289,1,0,0:0:0:0:
256,192,56439,1,0,0:0:0:0:
256,192,56514,1,2,0:0:0:0:
256,192,56589,1,0,0:0:0:0:
256,192,56739,1,0,0:0:0:0:
256,192,56814,1,2,0:0:0:0:
256,192,57039,1,0,0:0:0:0:
256,192,57189,1,0,0:0:0:0:
256,192,57339,1,2,0:0:0:0:
256,192,57489,1,2,0:0:0:0:
256,192,57539,1,0,0:0:0:0:
256,192,57589,1,0,0:0:0:0:
256,192,57639,1,0,0:0:0:0:
256,192,57789,1,2,0:0:0:0:
256,192,57939,1,8,0:0:0:0:
256,192,58014,1,8,0:0:0:0:
256,192,58089,1,0,0:0:0:0:
256,192,58239,1,0,0:0:0:0:
256,192,58289,1,0,0:0:0:0:
256,192,58339,1,0,0:0:0:0:
256,192,58389,1,8,0:0:0:0:
256,192,58539,1,0,0:0:0:0:
256,192,58614,1,8,0:0:0:0:
256,192,58764,1,0,0:0:0:0:
256,192,58839,1,8,0:0:0:0:
256,192,58989,1,8,0:0:0:0:
256,192,59139,1,0,0:0:0:0:
96,192,59289,2,0,L|416:192,1,315.000012016297
256,192,59589,1,2,0:0:0:0:
256,192,59889,1,2,0:0:0:0:
256,192,60189,1,0,0:0:0:0:
256,192,60489,1,0,0:0:0:0:
256,192,60639,1,2,0:0:0:0:
256,192,60789,1,0,0:0:0:0:
256,192,60939,1,0,0:0:0:0:
256,192,61239,1,2,0:0:0:0:
256,192,61689,1,0,0:0:0:0:
256,192,61839,1,2,0:0:0:0:
256,192,61914,1,0,0:0:0:0:
256,192,61989,1,0,0:0:0:0:
256,192,62289,1,2,0:0:0:0:
256,192,62589,1,0,0:0:0:0:
256,192,62889,1,0,0:0:0:0:
256,192,63039,1,0,0:0:0:0:
256,192,63189,1,2,0:0:0:0:
256,192,63339,1,2,0:0:0:0:
256,192,63639,1,2,0:0:0:0:
256,192,64089,1,2,0:0:0:0:
256,192,64139,1,0,0:0:0:0:
256,192,64239,1,2,0:0:0:0:
256,192,64314,1,0,0:0:0:0:
256,192,64389,1,0,0:0:0:0:
256,192,64689,1,12,0:0:0:0:
256,192,64989,1,0,0:0:0:0:
256,192,65139,1,0,0:0:0:0:
256,192,65289,1,12,0:0:0:0:
256,192,65439,1,0,0:0:0:0:
256,192,65589,1,2,0:0:0:0:
256,192,65889,1,12,0:0:0:0:
256,192,66039,1,2,0:0:0:0:
256,192,66339,1,0,0:0:0:0:
256,192,66489,1,2,0:0:0:0:
256,192,66539,1,0,0:0:0:0:
256,192,66639,1,2,0:0:0:0:
256,192,66689,1,0,0:0:0:0:
256,192,66789,1,0,0:0:0:0:
256,192,66939,1,0,0:0:0:0:
256,192,67089,1,12,0:0:0:0:
256,192,67239,1,0,0:0:0:0:
256,192,67314,1,0,0:0:0:0:
256,192,67389,1,2,0:0:0:0:
256,192,67539,1,0,0:0:0:0:
256,192,67689,1,12,0:0:0:0:
256,192,67839,1,0,0:0:0:0:
256,192,67989,1,14,0:0:0:0:
256,192,68139,1,0,0:0:0:0:
256,192,68214,1,0,0:0:0:0:
256,192,68289,1,12,0:0:0:0:
256,192,68439,1,0,0:0:0:0:
256,192,68514,1,0,0:0:0:0:
256,192,68589,1,12,0:0:0:0:
256,192,68739,1,0,0:0:0:0:
256,192,68814,1,0,0:0:0:0:
256,192,68889,1,2,0:0:0:0:
256,192,68939,1,0,0:0:0:0:
256,192,69039,1,2,0:0:0:0:
256,192,69089,1,0,0:0:0:0:
256,192,69189,1,0,0:0:0:0:
256,192,69489,1,2,0:0:0:0:
256,192,69564,1,2,0:0:0:0:
256,192,69639,1,2,0:0:0:0:
256,192,69714,1,2,0:0:0:0:
256,192,69789,1,0,0:0:0:0:
256,192,69939,1,0,0:0:0:0:
256,192,70089,1,8,0:0:0:0:
256,192,70139,1,8,0:0:0:0:
256,192,70189,1,8,0:0:0:0:
256,192,70239,1,8,0:0:0:0:
256,192,70289,1,8,0:0:0:0:
256,192,70339,1,8,0:0:0:0:
32,192,70389,2,0,B|482:191|482:191|480:352,1,587.999982055665,0|0,0:0|0:0,0:0:0:0:
256,192,70989,1,12,0:0:0:0:
256,192,71289,1,2,0:0:0:0:
256,192,71339,1,2,0:0:0:0:
256,192,71439,1,2,0:0:0:0:
256,192,71489,1,2,0:0:0:0:
256,192,71589,1,4,0:0:0:0:
256,192,71889,1,8,0:0:0:0:
256,192,72039,1,8,0:0:0:0:
256,192,72114,1,0,0:0:0:0:
256,192,72189,1,12,0:0:0:0:
256,192,72489,1,0,0:0:0:0:
256,192,72639,1,0,0:0:0:0:
256,192,72789,1,2,0:0:0:0:
256,192,72939,1,2,0:0:0:0:
256,192,73014,1,0,0:0:0:0:
256,192,73164,1,2,0:0:0:0:
256,192,73239,1,0,0:0:0:0:
256,192,73389,1,2,0:0:0:0:
256,192,73464,1,0,0:0:0:0:
256,192,73614,1,0,0:0:0:0:
256,192,73689,1,2,0:0:0:0:
256,192,73764,1,2,0:0:0:0:
256,192,73839,1,2,0:0:0:0:
256,192,73914,1,2,0:0:0:0:
256,192,73989,1,4,0:0:0:0:
256,192,74289,1,2,0:0:0:0:
256,192,74589,1,0,0:0:0:0:
256,192,74889,1,0,0:0:0:0:
256,192,75039,1,0,0:0:0:0:
256,192,75189,1,2,0:0:0:0:
256,192,75489,1,0,0:0:0:0:
256,192,75639,1,0,0:0:0:0:
256,192,75789,1,2,0:0:0:0:
256,192,76089,1,0,0:0:0:0:
256,192,76239,1,0,0:0:0:0:
256,192,76389,1,2,0:0:0:0:
256,192,76539,1,2,0:0:0:0:
256,192,76689,1,2,0:0:0:0:
256,192,76839,1,2,0:0:0:0:
256,192,76989,1,2,0:0:0:0:
256,192,77139,1,2,0:0:0:0:
256,192,77289,1,2,0:0:0:0:
256,192,77439,1,2,0:0:0:0:
256,192,77589,1,0,0:0:0:0:
256,192,77739,1,0,0:0:0:0:
256,192,77814,1,2,0:0:0:0:
256,192,77964,1,0,0:0:0:0:
256,192,78039,1,2,0:0:0:0:
256,192,78189,1,0,0:0:0:0:
256,192,78489,1,2,0:0:0:0:
256,192,78789,1,2,0:0:0:0:
256,192,78939,1,2,0:0:0:0:
256,192,79089,1,2,0:0:0:0:
256,192,79239,1,2,0:0:0:0:
256,192,79389,1,0,0:0:0:0:
256,192,79439,1,0,0:0:0:0:
256,192,79489,1,0,0:0:0:0:
256,192,79539,1,0,0:0:0:0:
256,192,79589,1,0,0:0:0:0:
256,192,79639,1,0,0:0:0:0:
256,192,79689,1,2,0:0:0:0:
256,192,79764,1,2,0:0:0:0:
256,192,79839,1,2,0:0:0:0:
256,192,79914,1,2,0:0:0:0:
256,192,79989,1,4,0:0:0:0:
256,192,80139,1,0,0:0:0:0:
256,192,80214,1,2,0:0:0:0:
256,192,80289,1,4,0:0:0:0:
256,192,80439,1,8,0:0:0:0:
256,192,80589,1,0,0:0:0:0:
256,192,80739,1,2,0:0:0:0:
256,192,80814,1,2,0:0:0:0:
256,192,80889,1,0,0:0:0:0:
256,192,81039,1,2,0:0:0:0:
184,192,81189,2,0,L|352:192,1,157.500006008148
256,192,81489,1,0,0:0:0:0:
256,192,81539,1,2,0:0:0:0:
256,192,81639,1,0,0:0:0:0:
256,192,81689,1,2,0:0:0:0:
160,192,81789,2,0,L|384:192,1,210
256,192,82089,1,0,0:0:0:0:
256,192,82139,1,0,0:0:0:0:
256,192,82189,1,0,0:0:0:0:
256,192,82239,1,0,0:0:0:0:
256,192,82289,1,0,0:0:0:0:
256,192,82339,1,0,0:0:0:0:
256,192,82389,1,2,0:0:0:0:
256,192,82539,1,0,0:0:0:0:
256,192,82614,1,0,0:0:0:0:
256,192,82689,1,2,0:0:0:0:
256,192,82839,1,2,0:0:0:0:
256,192,82989,1,0,0:0:0:0:
256,192,83139,1,8,0:0:0:0:
256,192,83214,1,0,0:0:0:0:
256,192,83289,1,8,0:0:0:0:
256,192,83339,1,0,0:0:0:0:
256,192,83389,1,0,0:0:0:0:
256,192,83439,1,0,0:0:0:0:
256,192,83589,1,0,0:0:0:0:
256,192,83664,1,0,0:0:0:0:
256,192,83739,1,0,0:0:0:0:
256,192,83814,1,0,0:0:0:0:
256,192,83889,1,2,0:0:0:0:
256,192,83964,1,2,0:0:0:0:
256,192,84039,1,2,0:0:0:0:
256,192,84114,1,0,0:0:0:0:
184,192,84189,2,0,L|384:192,1,157.500006008148
256,192,84489,1,2,0:0:0:0:
256,192,84539,1,0,0:0:0:0:
256,192,84589,1,0,0:0:0:0:
256,192,84639,1,0,0:0:0:0:
256,192,84689,1,0,0:0:0:0:
256,192,84739,1,0,0:0:0:0:
256,192,84789,1,0,0:0:0:0:
256,192,84939,1,2,0:0:0:0:
256,192,85014,1,2,0:0:0:0:
256,192,85089,1,0,0:0:0:0:
256,192,85239,1,0,0:0:0:0:
256,192,85389,1,0,0:0:0:0:
256,192,85539,1,2,0:0:0:0:
256,192,85689,1,0,0:0:0:0:
256,192,85739,1,0,0:0:0:0:
256,192,85789,1,0,0:0:0:0:
256,192,85839,1,0,0:0:0:0:
256,192,85889,1,0,0:0:0:0:
256,192,85939,1,0,0:0:0:0:
256,192,85989,1,12,0:0:0:0:
256,192,86289,1,2,0:0:0:0:
256,192,86439,1,0,0:0:0:0:
256,192,86589,1,12,0:0:0:0:
256,192,86739,1,2,0:0:0:0:
256,192,86889,1,0,0:0:0:0:
256,192,87039,1,0,0:0:0:0:
256,192,87189,1,2,0:0:0:0:
256,192,87339,1,2,0:0:0:0:
256,192,87539,1,2,0:0:0:0:
256,192,87639,1,0,0:0:0:0:
256,192,87789,1,0,0:0:0:0:
256,192,87864,1,0,0:0:0:0:
256,192,87939,1,8,0:0:0:0:
256,192,88014,1,0,0:0:0:0:
192,192,88089,2,0,L|352:192,1,131.25
256,192,88389,1,2,0:0:0:0:
256,192,88539,1,2,0:0:0:0:
256,192,88689,1,2,0:0:0:0:
256,192,88839,1,2,0:0:0:0:
256,192,88989,1,0,0:0:0:0:
256,192,89039,1,0,0:0:0:0:
256,192,89089,1,0,0:0:0:0:
256,192,89139,1,0,0:0:0:0:
256,192,89189,1,0,0:0:0:0:
256,192,89239,1,0,0:0:0:0:
256,192,89289,1,2,0:0:0:0:
256,192,89364,1,2,0:0:0:0:
256,192,89439,1,2,0:0:0:0:
256,192,89514,1,2,0:0:0:0:
256,192,89589,1,2,0:0:0:0:
256,192,89739,1,0,0:0:0:0:
256,192,89814,1,2,0:0:0:0:
256,192,89889,1,4,0:0:0:0:
256,192,90039,1,2,0:0:0:0:
256,192,90189,1,0,0:0:0:0:
256,192,90339,1,2,0:0:0:0:
256,192,90414,1,2,0:0:0:0:
256,192,90489,1,0,0:0:0:0:
256,192,90639,1,2,0:0:0:0:
192,192,90789,2,0,L|384:192,1,157.500006008148
256,192,91089,1,0,0:0:0:0:
256,192,91139,1,2,0:0:0:0:
256,192,91239,1,0,0:0:0:0:
256,192,91289,1,2,0:0:0:0:
192,192,91389,2,0,L|416:192,1,210
256,192,91689,1,0,0:0:0:0:
256,192,91739,1,0,0:0:0:0:
256,192,91789,1,0,0:0:0:0:
256,192,91839,1,0,0:0:0:0:
256,192,91889,1,0,0:0:0:0:
256,192,91939,1,0,0:0:0:0:
256,192,91989,1,2,0:0:0:0:
256,192,92214,1,2,0:0:0:0:
256,192,92439,1,2,0:0:0:0:
256,192,92589,1,0,0:0:0:0:
256,192,92664,1,0,0:0:0:0:
256,192,92739,1,8,0:0:0:0:
256,192,92814,1,0,0:0:0:0:
256,192,92889,1,12,0:0:0:0:
256,192,93189,1,0,0:0:0:0:
256,192,93264,1,0,0:0:0:0:
256,192,93339,1,0,0:0:0:0:
256,192,93414,1,0,0:0:0:0:
256,192,93489,1,2,0:0:0:0:
256,192,93564,1,2,0:0:0:0:
256,192,93639,1,2,0:0:0:0:
256,192,93714,1,2,0:0:0:0:
192,192,93789,2,0,L|384:192,1,157.500006008148
256,192,94089,1,8,0:0:0:0:
256,192,94139,1,0,0:0:0:0:
256,192,94189,1,0,0:0:0:0:
256,192,94239,1,0,0:0:0:0:
256,192,94289,1,0,0:0:0:0:
256,192,94339,1,0,0:0:0:0:
256,192,94389,1,0,0:0:0:0:
256,192,94539,1,2,0:0:0:0:
256,192,94614,1,2,0:0:0:0:
256,192,94689,1,4,0:0:0:0:
256,192,94989,1,0,0:0:0:0:
256,192,95139,1,2,0:0:0:0:
256,192,95214,1,0,0:0:0:0:
256,192,95289,1,2,0:0:0:0:
256,192,95339,1,2,0:0:0:0:
256,192,95389,1,2,0:0:0:0:
256,192,95439,1,2,0:0:0:0:
256,192,95489,1,2,0:0:0:0:
256,192,95539,1,2,0:0:0:0:
256,192,95589,1,0,0:0:0:0:
256,192,95739,1,0,0:0:0:0:
256,192,95814,1,0,0:0:0:0:
256,192,95889,1,8,0:0:0:0:
256,192,96039,1,0,0:0:0:0:
256,192,96189,1,12,0:0:0:0:
256,192,96489,1,2,0:0:0:0:
256,192,96539,1,2,0:0:0:0:
256,192,96589,1,2,0:0:0:0:
256,192,96639,1,2,0:0:0:0:
256,192,96689,1,2,0:0:0:0:
256,192,96739,1,2,0:0:0:0:
256,192,96789,1,0,0:0:0:0:
256,192,96939,1,8,0:0:0:0:
256,192,97014,1,8,0:0:0:0:
256,192,97089,1,0,0:0:0:0:
256,192,97164,1,0,0:0:0:0:
256,192,97239,1,0,0:0:0:0:
256,192,97314,1,0,0:0:0:0:
256,192,97389,1,0,0:0:0:0:
256,192,97439,1,0,0:0:0:0:
256,192,97489,1,0,0:0:0:0:
256,192,97539,1,0,0:0:0:0:
256,192,97589,1,0,0:0:0:0:
256,192,97639,1,0,0:0:0:0:
256,192,97689,1,6,0:0:0:0:
256,192,97989,1,0,0:0:0:0:
256,192,98289,1,2,0:0:0:0:
256,192,98439,1,0,0:0:0:0:
256,192,98739,1,2,0:0:0:0:
256,192,99189,1,0,0:0:0:0:
256,192,99339,1,0,0:0:0:0:
256,192,99489,1,2,0:0:0:0:
256,192,99639,1,0,0:0:0:0:
256,192,99939,1,2,0:0:0:0:
256,192,100389,1,0,0:0:0:0:
256,192,100539,1,0,0:0:0:0:
256,192,100689,1,2,0:0:0:0:
256,192,100839,1,2,0:0:0:0:
256,192,101139,1,2,0:0:0:0:
256,192,101439,1,2,0:0:0:0:
256,192,101739,1,0,0:0:0:0:
256,192,101889,1,2,0:0:0:0:
256,192,102039,1,0,0:0:0:0:
256,192,102189,1,2,0:0:0:0:
256,192,102489,1,0,0:0:0:0:
256,192,102639,1,2,0:0:0:0:
256,192,102789,1,2,0:0:0:0:
256,192,103089,1,2,0:0:0:0:
256,192,103239,1,2,0:0:0:0:
256,192,103539,1,0,0:0:0:0:
256,192,103839,1,2,0:0:0:0:
256,192,104139,1,2,0:0:0:0:
256,192,104289,1,2,0:0:0:0:
256,192,104439,1,0,0:0:0:0:
256,192,104589,1,2,0:0:0:0:
256,192,104889,1,0,0:0:0:0:
256,192,105039,1,2,0:0:0:0:
256,192,105189,1,2,0:0:0:0:
256,192,105489,1,2,0:0:0:0:
256,192,105639,1,2,0:0:0:0:
256,192,105939,1,0,0:0:0:0:
256,192,106239,1,2,0:0:0:0:
256,192,106539,1,0,0:0:0:0:
256,192,106689,1,2,0:0:0:0:
256,192,106839,1,6,0:0:0:0:
256,192,107139,1,2,0:0:0:0:
256,192,107289,1,2,0:0:0:0:
256,192,107439,1,0,0:0:0:0:
256,192,107589,1,0,0:0:0:0:
256,192,107889,1,12,0:0:0:0:
256,192,108039,1,0,0:0:0:0:
256,192,108339,1,0,0:0:0:0:
256,192,108489,1,12,0:0:0:0:
256,192,108789,1,0,0:0:0:0:
256,192,108939,1,0,0:0:0:0:
256,192,109089,1,12,0:0:0:0:
256,192,109239,1,0,0:0:0:0:
256,192,109539,1,2,0:0:0:0:
256,192,109689,1,12,0:0:0:0:
256,192,109989,1,0,0:0:0:0:
256,192,110139,1,0,0:0:0:0:
256,192,110289,1,12,0:0:0:0:
256,192,110439,1,0,0:0:0:0:
256,192,110739,1,0,0:0:0:0:
256,192,110889,1,12,0:0:0:0:
256,192,111039,1,0,0:0:0:0:
256,192,111339,1,2,0:0:0:0:
256,192,111489,1,14,0:0:0:0:
256,192,111639,1,0,0:0:0:0:
256,192,111789,1,2,0:0:0:0:
256,192,111939,1,0,0:0:0:0:
256,192,112089,1,12,0:0:0:0:
256,192,112239,1,0,0:0:0:0:
256,192,112389,1,2,0:0:0:0:
256,192,112689,1,12,0:0:0:0:
256,192,112839,1,2,0:0:0:0:
256,192,113139,1,2,0:0:0:0:
256,192,113289,1,12,0:0:0:0:
256,192,113439,1,2,0:0:0:0:
256,192,113739,1,2,0:0:0:0:
256,192,113889,1,12,0:0:0:0:
256,192,114039,1,0,0:0:0:0:
256,192,114189,1,2,0:0:0:0:
256,192,114339,1,0,0:0:0:0:
256,192,114489,1,12,0:0:0:0:
256,192,114639,1,0,0:0:0:0:
256,192,114789,1,2,0:0:0:0:
256,192,115089,1,12,0:0:0:0:
256,192,115239,1,2,0:0:0:0:
256,192,115539,1,2,0:0:0:0:
256,192,115689,1,12,0:0:0:0:
256,192,115839,1,0,0:0:0:0:
256,192,115989,1,8,0:0:0:0:
256,192,116139,1,0,0:0:0:0:
256,192,116214,1,0,0:0:0:0:
256,192,116289,1,12,0:0:0:0:
256,192,116439,1,0,0:0:0:0:
256,192,116514,1,0,0:0:0:0:
256,192,116589,1,12,0:0:0:0:
256,192,116739,1,0,0:0:0:0:
256,192,116814,1,0,0:0:0:0:
256,192,116889,1,12,0:0:0:0:
256,192,117039,1,0,0:0:0:0:
256,192,117189,1,12,0:0:0:0:
256,192,117339,1,0,0:0:0:0:
256,192,117414,1,2,0:0:0:0:
256,192,117489,1,0,0:0:0:0:
256,192,117639,1,2,0:0:0:0:
256,192,117789,1,2,0:0:0:0:
256,192,117864,1,0,0:0:0:0:
256,192,117939,1,2,0:0:0:0:
256,192,118014,1,0,0:0:0:0:
256,192,118239,1,2,0:0:0:0:
256,192,118314,1,2,0:0:0:0:
256,192,118389,1,0,0:0:0:0:
256,192,118539,1,2,0:0:0:0:
256,192,118689,1,0,0:0:0:0:
256,192,118839,1,0,0:0:0:0:
256,192,118914,1,2,0:0:0:0:
256,192,118989,1,2,0:0:0:0:
256,192,119139,1,0,0:0:0:0:
256,192,119214,1,2,0:0:0:0:
256,192,119364,1,2,0:0:0:0:
256,192,119514,1,0,0:0:0:0:
256,192,119664,1,2,0:0:0:0:
256,192,119814,1,0,0:0:0:0:
256,192,119889,1,2,0:0:0:0:
256,192,120039,1,2,0:0:0:0:
256,192,120114,1,2,0:0:0:0:
256,192,120189,1,4,0:0:0:0:
256,192,120339,1,2,0:0:0:0:
256,192,120489,1,0,0:0:0:0:
256,192,120564,1,2,0:0:0:0:
256,192,120714,1,2,0:0:0:0:
256,192,120889,1,2,0:0:0:0:
256,192,120989,1,2,0:0:0:0:
256,192,121089,1,0,0:0:0:0:
256,192,121189,1,2,0:0:0:0:
256,192,121389,1,2,0:0:0:0:
256,192,121489,1,0,0:0:0:0:
256,192,121651,1,0,0:0:0:0:
256,192,121726,1,2,0:0:0:0:
256,192,121801,1,0,0:0:0:0:
256,192,121989,1,2,0:0:0:0:
256,192,122139,1,0,0:0:0:0:
256,192,122214,1,2,0:0:0:0:
256,192,122289,1,0,0:0:0:0:
256,192,122439,1,2,0:0:0:0:
256,192,122514,1,0,0:0:0:0:
256,192,122589,1,2,0:0:0:0:
256,192,122739,1,0,0:0:0:0:
256,192,122814,1,2,0:0:0:0:
256,192,122889,1,0,0:0:0:0:
256,192,123039,1,2,0:0:0:0:
256,192,123114,1,0,0:0:0:0:
256,192,123189,1,2,0:0:0:0:
256,192,123339,1,0,0:0:0:0:
256,192,123414,1,2,0:0:0:0:
256,192,123489,1,0,0:0:0:0:
256,192,123639,1,2,0:0:0:0:
256,192,123714,1,0,0:0:0:0:
256,192,123789,1,2,0:0:0:0:
256,192,123939,1,0,0:0:0:0:
256,192,124014,1,2,0:0:0:0:
256,192,124089,1,0,0:0:0:0:
256,192,124239,1,2,0:0:0:0:
256,192,124314,1,0,0:0:0:0:
256,192,124389,1,2,0:0:0:0:
256,192,124539,1,2,0:0:0:0:
256,192,124689,1,2,0:0:0:0:
256,192,124839,1,2,0:0:0:0:
256,192,124989,1,2,0:0:0:0:
256,192,125064,1,2,0:0:0:0:
256,192,125139,1,2,0:0:0:0:
256,192,125214,1,2,0:0:0:0:
256,192,125289,1,2,0:0:0:0:
256,192,125364,1,2,0:0:0:0:
256,192,125439,1,2,0:0:0:0:
256,192,125514,1,2,0:0:0:0:
256,192,125589,1,6,0:0:0:0:
256,192,126039,1,4,0:0:0:0:
64,192,126489,2,0,L|512:192,1,420
256,192,126789,1,0,0:0:0:0:
256,192,127089,1,2,0:0:0:0:
256,192,127239,1,0,0:0:0:0:
256,192,127314,1,0,0:0:0:0:
256,192,127389,1,0,0:0:0:0:
256,192,127539,1,2,0:0:0:0:
256,192,127689,1,0,0:0:0:0:
256,192,127839,1,8,0:0:0:0:
256,192,127989,1,0,0:0:0:0:
256,192,128064,1,0,0:0:0:0:
256,192,128139,1,0,0:0:0:0:
256,192,128289,1,2,0:0:0:0:
256,192,128439,1,0,0:0:0:0:
256,192,128514,1,0,0:0:0:0:
256,192,128589,1,0,0:0:0:0:
256,192,128739,1,2,0:0:0:0:
256,192,128889,1,0,0:0:0:0:
256,192,129039,1,8,0:0:0:0:
256,192,129189,1,0,0:0:0:0:
256,192,129264,1,0,0:0:0:0:
256,192,129339,1,0,0:0:0:0:
256,192,129489,1,2,0:0:0:0:
256,192,129564,1,0,0:0:0:0:
256,192,129639,1,2,0:0:0:0:
256,192,129714,1,2,0:0:0:0:
256,192,129789,1,2,0:0:0:0:
256,192,129939,1,2,0:0:0:0:
256,192,130014,1,2,0:0:0:0:
256,192,130089,1,2,0:0:0:0:
256,192,130239,1,2,0:0:0:0:
256,192,130314,1,2,0:0:0:0:
256,192,130389,1,2,0:0:0:0:
256,192,130539,1,0,0:0:0:0:
256,192,130689,1,2,0:0:0:0:
256,192,130839,1,0,0:0:0:0:
256,192,130989,1,2,0:0:0:0:
256,192,131064,1,2,0:0:0:0:
256,192,131214,1,0,0:0:0:0:
256,192,131289,1,0,0:0:0:0:
256,192,131439,1,2,0:0:0:0:
256,192,131589,1,2,0:0:0:0:
256,192,131664,1,2,0:0:0:0:
256,192,131739,1,2,0:0:0:0:
256,192,131814,1,0,0:0:0:0:
256,192,131889,1,2,0:0:0:0:
256,192,132039,1,2,0:0:0:0:
256,192,132114,1,2,0:0:0:0:
256,192,132189,1,2,0:0:0:0:
256,192,132339,1,0,0:0:0:0:
256,192,132414,1,0,0:0:0:0:
256,192,132489,1,0,0:0:0:0:
256,192,132639,1,2,0:0:0:0:
256,192,132714,1,2,0:0:0:0:
256,192,132789,1,2,0:0:0:0:
256,192,132939,1,2,0:0:0:0:
256,192,133014,1,0,0:0:0:0:
256,192,133089,1,2,0:0:0:0:
256,192,133239,1,0,0:0:0:0:
256,192,133389,1,2,0:0:0:0:
256,192,133464,1,2,0:0:0:0:
256,192,133614,1,0,0:0:0:0:
256,192,133689,1,0,0:0:0:0:
256,192,133839,1,2,0:0:0:0:
256,192,133989,1,2,0:0:0:0:
256,192,134064,1,2,0:0:0:0:
256,192,134139,1,2,0:0:0:0:
256,192,134214,1,0,0:0:0:0:
256,192,134289,1,2,0:0:0:0:
256,192,134439,1,2,0:0:0:0:
256,192,134514,1,2,0:0:0:0:
256,192,134589,1,2,0:0:0:0:
256,192,134664,1,2,0:0:0:0:
256,192,134739,1,0,0:0:0:0:
256,192,134814,1,0,0:0:0:0:
256,192,134889,1,0,0:0:0:0:
256,192,134964,1,0,0:0:0:0:
256,192,135039,1,2,0:0:0:0:
256,192,135114,1,2,0:0:0:0:
256,192,135189,1,2,0:0:0:0:
256,192,135339,1,0,0:0:0:0:
256,192,135489,1,2,0:0:0:0:
256,192,135639,1,0,0:0:0:0:
256,192,135714,1,0,0:0:0:0:
256,192,135789,1,0,0:0:0:0:
256,192,135864,1,0,0:0:0:0:
256,192,135939,1,2,0:0:0:0:
256,192,136014,1,0,0:0:0:0:
256,192,136089,1,2,0:0:0:0:
256,192,136239,1,0,0:0:0:0:
256,192,136389,1,0,0:0:0:0:
256,192,136464,1,0,0:0:0:0:
256,192,136539,1,2,0:0:0:0:
256,192,136689,1,2,0:0:0:0:
256,192,136839,1,0,0:0:0:0:
256,192,136914,1,0,0:0:0:0:
256,192,136989,1,0,0:0:0:0:
256,192,137064,1,0,0:0:0:0:
256,192,137139,1,2,0:0:0:0:
256,192,137289,1,0,0:0:0:0:
256,192,137439,1,8,0:0:0:0:
256,192,137514,1,0,0:0:0:0:
256,192,137589,1,0,0:0:0:0:
256,192,137664,1,8,0:0:0:0:
256,192,137739,1,0,0:0:0:0:
256,192,137889,1,2,0:0:0:0:
256,192,138039,1,0,0:0:0:0:
256,192,138114,1,0,0:0:0:0:
256,192,138189,1,8,0:0:0:0:
256,192,138264,1,0,0:0:0:0:
256,192,138339,1,2,0:0:0:0:
256,192,138489,1,0,0:0:0:0:
256,192,138639,1,8,0:0:0:0:
256,192,138714,1,8,0:0:0:0:
256,192,138789,1,0,0:0:0:0:
256,192,138864,1,0,0:0:0:0:
256,192,138939,1,0,0:0:0:0:
256,192,139014,1,0,0:0:0:0:
256,192,139089,1,2,0:0:0:0:
256,192,139164,1,0,0:0:0:0:
256,192,139239,1,2,0:0:0:0:
256,192,139314,1,8,0:0:0:0:
256,192,139389,1,8,0:0:0:0:
256,192,139464,1,0,0:0:0:0:
256,192,139539,1,2,0:0:0:0:
256,192,139614,1,2,0:0:0:0:
256,192,139689,1,2,0:0:0:0:
256,192,139839,1,2,0:0:0:0:
256,192,139914,1,2,0:0:0:0:
256,192,139989,1,2,0:0:0:0:
256,192,140139,1,0,0:0:0:0:
256,192,140214,1,0,0:0:0:0:
256,192,140289,1,2,0:0:0:0:
256,192,140439,1,0,0:0:0:0:
256,192,140514,1,0,0:0:0:0:
256,192,140589,1,2,0:0:0:0:
256,192,140889,1,0,0:0:0:0:
256,192,141039,1,2,0:0:0:0:
256,192,141114,1,0,0:0:0:0:
256,192,141189,1,2,0:0:0:0:
256,192,141264,1,2,0:0:0:0:
256,192,141339,1,2,0:0:0:0:
256,192,141414,1,2,0:0:0:0:
256,192,141489,1,2,0:0:0:0:
256,192,141564,1,0,0:0:0:0:
256,192,141639,1,2,0:0:0:0:
256,192,141714,1,2,0:0:0:0:
256,192,141789,1,2,0:0:0:0:
256,192,141939,1,0,0:0:0:0:
256,192,142014,1,0,0:0:0:0:
256,192,142089,1,0,0:0:0:0:
256,192,142164,1,0,0:0:0:0:
256,192,142239,1,2,0:0:0:0:
256,192,142314,1,2,0:0:0:0:
256,192,142389,1,2,0:0:0:0:
256,192,142539,1,2,0:0:0:0:
256,192,142614,1,0,0:0:0:0:
256,192,142689,1,2,0:0:0:0:
256,192,142764,1,2,0:0:0:0:
256,192,142839,1,0,0:0:0:0:
256,192,142914,1,0,0:0:0:0:
256,192,142989,1,2,0:0:0:0:
256,192,143139,1,8,0:0:0:0:
256,192,143214,1,0,0:0:0:0:
256,192,143289,1,0,0:0:0:0:
256,192,143439,1,2,0:0:0:0:
256,192,143514,1,0,0:0:0:0:
256,192,143589,1,2,0:0:0:0:
256,192,143664,1,2,0:0:0:0:
256,192,143739,1,2,0:0:0:0:
256,192,143814,1,2,0:0:0:0:
256,192,143889,1,2,0:0:0:0:
256,192,143964,1,0,0:0:0:0:
256,192,144039,1,2,0:0:0:0:
256,192,144114,1,2,0:0:0:0:
256,192,144189,1,2,0:0:0:0:
256,192,144264,1,2,0:0:0:0:
256,192,144339,1,0,0:0:0:0:
256,192,144414,1,0,0:0:0:0:
256,192,144489,1,0,0:0:0:0:
256,192,144564,1,0,0:0:0:0:
256,192,144639,1,2,0:0:0:0:
256,192,144714,1,2,0:0:0:0:
256,192,144789,1,0,0:0:0:0:
256,192,144939,1,0,0:0:0:0:
256,192,145089,1,2,0:0:0:0:
256,192,145239,1,2,0:0:0:0:
256,192,145389,1,6,0:0:0:0:
256,192,145539,1,2,0:0:0:0:
256,192,145689,1,6,0:0:0:0:
256,192,145839,1,0,0:0:0:0:
256,192,145989,1,2,0:0:0:0:
256,192,146289,1,0,0:0:0:0:
256,192,146589,1,0,0:0:0:0:
256,192,146889,1,2,0:0:0:0:
256,192,147189,1,2,0:0:0:0:
256,192,147489,1,0,0:0:0:0:
256,192,147789,1,0,0:0:0:0:
256,192,148089,1,2,0:0:0:0:
256,192,148389,1,2,0:0:0:0:
256,192,148689,1,0,0:0:0:0:
256,192,148989,1,0,0:0:0:0:
256,192,149289,1,2,0:0:0:0:
256,192,149439,1,2,0:0:0:0:
256,192,149739,1,2,0:0:0:0:
256,192,149889,1,2,0:0:0:0:
256,192,150039,1,0,0:0:0:0:
256,192,150189,1,2,0:0:0:0:
160,192,150489,2,0,L|384:192,1,210
256,192,150789,1,2,0:0:0:0:
256,192,150939,1,0,0:0:0:0:
256,192,151014,1,2,0:0:0:0:
256,192,151089,1,0,0:0:0:0:
256,192,151239,1,2,0:0:0:0:
256,192,151389,1,2,0:0:0:0:
256,192,151464,1,2,0:0:0:0:
256,192,151539,1,0,0:0:0:0:
256,192,151614,1,2,0:0:0:0:
256,192,151839,1,2,0:0:0:0:
256,192,151914,1,2,0:0:0:0:
256,192,151989,1,0,0:0:0:0:
256,192,152139,1,2,0:0:0:0:
256,192,152289,1,0,0:0:0:0:
256,192,152439,1,0,0:0:0:0:
256,192,152514,1,0,0:0:0:0:
256,192,152589,1,2,0:0:0:0:
256,192,152701,1,2,0:0:0:0:
256,192,152814,1,0,0:0:0:0:
256,192,152964,1,2,0:0:0:0:
256,192,153114,1,0,0:0:0:0:
256,192,153264,1,2,0:0:0:0:
256,192,153414,1,2,0:0:0:0:
256,192,153489,1,0,0:0:0:0:
256,192,153639,1,2,0:0:0:0:
256,192,153714,1,2,0:0:0:0:
256,192,153789,1,2,0:0:0:0:
256,192,153939,1,0,0:0:0:0:
256,192,154089,1,2,0:0:0:0:
256,192,154189,1,2,0:0:0:0:
256,192,154289,1,0,0:0:0:0:
256,192,154389,1,6,0:0:0:0:
256,192,154539,1,2,0:0:0:0:
256,192,154589,1,2,0:0:0:0:
256,192,154639,1,2,0:0:0:0:
256,192,154689,1,0,0:0:0:0:
256,192,154739,1,0,0:0:0:0:
256,192,154789,1,0,0:0:0:0:
256,192,154839,1,2,0:0:0:0:
256,192,154889,1,2,0:0:0:0:
256,192,154939,1,2,0:0:0:0:
256,192,154989,1,0,0:0:0:0:
256,192,155064,1,0,0:0:0:0:
256,192,155139,1,0,0:0:0:0:
256,192,155214,1,0,0:0:0:0:
256,192,155289,1,0,0:0:0:0:
256,192,155339,1,0,0:0:0:0:
256,192,155389,1,0,0:0:0:0:
256,192,155439,1,0,0:0:0:0:
256,192,155489,1,0,0:0:0:0:
256,192,155539,1,0,0:0:0:0:
256,192,155589,1,2,0:0:0:0:
256,192,155889,1,0,0:0:0:0:
256,192,156189,1,0,0:0:0:0:
256,192,156489,1,2,0:0:0:0:
256,192,156789,1,2,0:0:0:0:
256,192,157089,1,0,0:0:0:0:
256,192,157389,1,0,0:0:0:0:
256,192,157689,1,2,0:0:0:0:
256,192,157989,1,2,0:0:0:0:
256,192,158289,1,0,0:0:0:0:
256,192,158589,1,0,0:0:0:0:
256,192,158889,1,0,0:0:0:0:
256,192,159039,1,2,0:0:0:0:
256,192,159339,1,2,0:0:0:0:
256,192,159489,1,2,0:0:0:0:
256,192,159639,1,0,0:0:0:0:
256,192,159789,1,2,0:0:0:0:
192,192,160089,2,0,L|416:192,1,210
256,192,160389,1,2,0:0:0:0:
256,192,160539,1,0,0:0:0:0:
256,192,160614,1,2,0:0:0:0:
256,192,160689,1,0,0:0:0:0:
256,192,160839,1,2,0:0:0:0:
256,192,160914,1,0,0:0:0:0:
256,192,160989,1,2,0:0:0:0:
256,192,161139,1,0,0:0:0:0:
256,192,161214,1,2,0:0:0:0:
256,192,161289,1,0,0:0:0:0:
256,192,161439,1,2,0:0:0:0:
256,192,161514,1,0,0:0:0:0:
256,192,161589,1,2,0:0:0:0:
256,192,161739,1,0,0:0:0:0:
256,192,161814,1,2,0:0:0:0:
256,192,161889,1,0,0:0:0:0:
256,192,162039,1,2,0:0:0:0:
256,192,162114,1,0,0:0:0:0:
256,192,162189,1,2,0:0:0:0:
256,192,162339,1,0,0:0:0:0:
256,192,162414,1,2,0:0:0:0:
256,192,162489,1,0,0:0:0:0:
256,192,162639,1,2,0:0:0:0:
256,192,162714,1,0,0:0:0:0:
256,192,162789,1,2,0:0:0:0:
256,192,162939,1,2,0:0:0:0:
256,192,163089,1,2,0:0:0:0:
256,192,163239,1,2,0:0:0:0:
256,192,163389,1,2,0:0:0:0:
256,192,163464,1,2,0:0:0:0:
256,192,163539,1,2,0:0:0:0:
256,192,163614,1,2,0:0:0:0:
256,192,163689,1,2,0:0:0:0:
256,192,163764,1,2,0:0:0:0:
256,192,163839,1,2,0:0:0:0:
256,192,163914,1,2,0:0:0:0:
256,192,163989,1,4,0:0:0:0:
256,192,164139,1,4,0:0:0:0:
256,192,164289,1,2,0:0:0:0:
256,192,164439,1,0,0:0:0:0:
256,192,164589,1,2,0:0:0:0:
256,192,164739,1,0,0:0:0:0:
256,192,164814,1,0,0:0:0:0:
256,192,164889,1,6,0:0:0:0:
256,192,165039,1,0,0:0:0:0:
256,192,165189,1,2,0:0:0:0:
256,192,165339,1,2,0:0:0:0:
256,192,165489,1,2,0:0:0:0:
256,192,165639,1,2,0:0:0:0:
192,192,165789,2,0,L|352:192,1,157.500006008148
256,192,166089,1,2,0:0:0:0:
256,192,166164,1,2,0:0:0:0:
256,192,166239,1,2,0:0:0:0:
256,192,166314,1,2,0:0:0:0:
256,192,166389,1,4,0:0:0:0:
256,192,166614,1,0,0:0:0:0:
256,192,166689,1,2,0:0:0:0:
256,192,166839,1,2,0:0:0:0:
256,192,166989,1,0,0:0:0:0:
256,192,167139,1,2,0:0:0:0:
256,192,167289,1,2,0:0:0:0:
256,192,167439,1,0,0:0:0:0:
256,192,167589,1,2,0:0:0:0:
256,192,167739,1,2,0:0:0:0:
256,192,167889,1,2,0:0:0:0:
256,192,168039,1,2,0:0:0:0:
192,192,168189,2,0,L|352:192,1,157.500006008148
256,192,168489,1,2,0:0:0:0:
256,192,168564,1,2,0:0:0:0:
256,192,168639,1,2,0:0:0:0:
256,192,168714,1,2,0:0:0:0:
256,192,168789,1,4,0:0:0:0:
256,192,169014,1,0,0:0:0:0:
256,192,169089,1,2,0:0:0:0:
256,192,169239,1,2,0:0:0:0:
256,192,169314,1,2,0:0:0:0:
256,192,169389,1,0,0:0:0:0:
256,192,169539,1,2,0:0:0:0:
256,192,169689,1,2,0:0:0:0:
256,192,169839,1,0,0:0:0:0:
256,192,169989,1,2,0:0:0:0:
256,192,170139,1,2,0:0:0:0:
256,192,170289,1,2,0:0:0:0:
256,192,170439,1,2,0:0:0:0:
192,192,170589,2,0,L|352:192,1,157.500006008148
256,192,170889,1,2,0:0:0:0:
256,192,170964,1,2,0:0:0:0:
256,192,171039,1,2,0:0:0:0:
256,192,171114,1,2,0:0:0:0:
256,192,171189,1,4,0:0:0:0:
256,192,171414,1,0,0:0:0:0:
256,192,171489,1,6,0:0:0:0:
256,192,171639,1,2,0:0:0:0:
256,192,171789,1,0,0:0:0:0:
256,192,171939,1,2,0:0:0:0:
256,192,172089,1,2,0:0:0:0:
256,192,172239,1,0,0:0:0:0:
256,192,172389,1,2,0:0:0:0:
256,192,172539,1,2,0:0:0:0:
256,192,172689,1,2,0:0:0:0:
256,192,172839,1,2,0:0:0:0:
192,192,172989,2,0,L|352:192,1,157.500006008148
256,192,173289,1,2,0:0:0:0:
256,192,173364,1,2,0:0:0:0:
256,192,173439,1,2,0:0:0:0:
256,192,173514,1,2,0:0:0:0:
256,192,173589,1,4,0:0:0:0:
256,192,173739,1,0,0:0:0:0:
256,192,173814,1,0,0:0:0:0:
256,192,173889,1,6,0:0:0:0:
256,192,174039,1,2,0:0:0:0:
256,192,174189,1,0,0:0:0:0:
256,192,174414,1,2,0:0:0:0:
256,192,174489,1,0,0:0:0:0:
256,192,174639,1,2,0:0:0:0:
256,192,174789,1,2,0:0:0:0:
256,192,174939,1,2,0:0:0:0:
256,192,175089,1,2,0:0:0:0:
256,192,175164,1,2,0:0:0:0:
256,192,175239,1,2,0:0:0:0:
256,192,175314,1,2,0:0:0:0:
256,192,175389,1,4,0:0:0:0:
256,192,175539,1,2,0:0:0:0:
256,192,175689,1,4,0:0:0:0:
256,192,175839,1,0,0:0:0:0:
256,192,175989,1,2,0:0:0:0:
256,192,176139,1,2,0:0:0:0:
256,192,176289,1,2,0:0:0:0:
256,192,176364,1,2,0:0:0:0:
256,192,176439,1,2,0:0:0:0:
256,192,176514,1,2,0:0:0:0:
256,192,176589,1,4,0:0:0:0:
256,192,176739,1,2,0:0:0:0:
256,192,176889,1,4,0:0:0:0:
256,192,177039,1,0,0:0:0:0:
256,192,177189,1,2,0:0:0:0:
256,192,177339,1,2,0:0:0:0:
256,192,177489,1,2,0:0:0:0:
256,192,177564,1,2,0:0:0:0:
256,192,177639,1,2,0:0:0:0:
256,192,177714,1,2,0:0:0:0:
256,192,177789,1,4,0:0:0:0:
256,192,177939,1,2,0:0:0:0:
256,192,178089,1,4,0:0:0:0:
256,192,178239,1,0,0:0:0:0:
256,192,178389,1,2,0:0:0:0:
256,192,178539,1,2,0:0:0:0:
256,192,178689,1,2,0:0:0:0:
256,192,178764,1,2,0:0:0:0:
256,192,178839,1,2,0:0:0:0:
256,192,178914,1,2,0:0:0:0:
256,192,178989,1,4,0:0:0:0:
256,192,179139,1,2,0:0:0:0:
256,192,179289,1,4,0:0:0:0:
256,192,179439,1,0,0:0:0:0:
256,192,179589,1,0,0:0:0:0:
256,192,179639,1,0,0:0:0:0:
256,192,179739,1,2,0:0:0:0:
256,192,179789,1,2,0:0:0:0:
256,192,179889,1,0,0:0:0:0:
256,192,180039,1,0,0:0:0:0:
256,192,180189,1,0,0:0:0:0:
256,192,180239,1,0,0:0:0:0:
256,192,180339,1,2,0:0:0:0:
256,192,180389,1,2,0:0:0:0:
256,192,180489,1,0,0:0:0:0:
256,192,180639,1,0,0:0:0:0:
256,192,180789,1,0,0:0:0:0:
256,192,180839,1,0,0:0:0:0:
256,192,180939,1,2,0:0:0:0:
256,192,180989,1,2,0:0:0:0:
256,192,181089,1,0,0:0:0:0:
256,192,181239,1,0,0:0:0:0:
256,192,181389,1,0,0:0:0:0:
256,192,181439,1,0,0:0:0:0:
256,192,181539,1,2,0:0:0:0:
256,192,181589,1,2,0:0:0:0:
256,192,181689,1,0,0:0:0:0:
256,192,181839,1,0,0:0:0:0:
256,192,181989,1,2,0:0:0:0:
256,192,182039,1,0,0:0:0:0:
256,192,182139,1,0,0:0:0:0:
256,192,182289,1,2,0:0:0:0:
256,192,182339,1,0,0:0:0:0:
256,192,182439,1,0,0:0:0:0:
256,192,182589,1,2,0:0:0:0:
256,192,182639,1,0,0:0:0:0:
256,192,182739,1,0,0:0:0:0:
256,192,182889,1,2,0:0:0:0:
256,192,182939,1,0,0:0:0:0:
256,192,183039,1,0,0:0:0:0:
256,192,183189,1,0,0:0:0:0:
256,192,183339,1,0,0:0:0:0:
256,192,183414,1,2,0:0:0:0:
256,192,183489,1,8,0:0:0:0:
256,192,183564,1,0,0:0:0:0:
256,192,183639,1,2,0:0:0:0:
256,192,183789,1,0,0:0:0:0:
256,192,183939,1,12,0:0:0:0:
256,192,184089,1,0,0:0:0:0:
256,192,184164,1,0,0:0:0:0:
256,192,184239,1,0,0:0:0:0:
256,192,184314,1,0,0:0:0:0:
256,192,184389,1,2,0:0:0:0:
256,192,184539,1,2,0:0:0:0:
256,192,184689,1,2,0:0:0:0:
256,192,184839,1,2,0:0:0:0:
256,192,184989,1,2,0:0:0:0:
256,192,185039,1,2,0:0:0:0:
256,192,185089,1,2,0:0:0:0:
256,192,185139,1,2,0:0:0:0:
256,192,185189,1,2,0:0:0:0:
256,192,185239,1,2,0:0:0:0:
256,192,185289,1,2,0:0:0:0:
256,192,185364,1,2,0:0:0:0:
256,192,185439,1,2,0:0:0:0:
256,192,185514,1,2,0:0:0:0:
256,192,185589,1,4,0:0:0:0:
256,192,185739,1,0,0:0:0:0:
256,192,185814,1,2,0:0:0:0:
256,192,185889,1,4,0:0:0:0:
256,192,186039,1,8,0:0:0:0:
256,192,186189,1,0,0:0:0:0:
256,192,186339,1,2,0:0:0:0:
256,192,186414,1,2,0:0:0:0:
256,192,186489,1,0,0:0:0:0:
256,192,186639,1,2,0:0:0:0:
184,192,186789,2,0,L|352:192,1,157.500006008148
256,192,187089,1,0,0:0:0:0:
256,192,187139,1,2,0:0:0:0:
256,192,187239,1,0,0:0:0:0:
256,192,187289,1,2,0:0:0:0:
160,192,187389,2,0,L|384:192,1,210
256,192,187689,1,0,0:0:0:0:
256,192,187739,1,0,0:0:0:0:
256,192,187789,1,0,0:0:0:0:
256,192,187839,1,0,0:0:0:0:
256,192,187889,1,0,0:0:0:0:
256,192,187939,1,0,0:0:0:0:
256,192,187989,1,2,0:0:0:0:
256,192,188139,1,0,0:0:0:0:
256,192,188214,1,0,0:0:0:0:
256,192,188289,1,2,0:0:0:0:
256,192,188439,1,2,0:0:0:0:
256,192,188589,1,0,0:0:0:0:
256,192,188739,1,8,0:0:0:0:
256,192,188814,1,0,0:0:0:0:
256,192,188889,1,8,0:0:0:0:
256,192,188939,1,0,0:0:0:0:
256,192,188989,1,0,0:0:0:0:
256,192,189039,1,0,0:0:0:0:
256,192,189189,1,0,0:0:0:0:
256,192,189264,1,0,0:0:0:0:
256,192,189339,1,0,0:0:0:0:
256,192,189414,1,0,0:0:0:0:
256,192,189489,1,2,0:0:0:0:
256,192,189564,1,2,0:0:0:0:
256,192,189639,1,2,0:0:0:0:
256,192,189714,1,0,0:0:0:0:
184,192,189789,2,0,L|352:192,1,157.500006008148
256,192,190089,1,2,0:0:0:0:
256,192,190139,1,0,0:0:0:0:
256,192,190189,1,0,0:0:0:0:
256,192,190239,1,0,0:0:0:0:
256,192,190289,1,0,0:0:0:0:
256,192,190339,1,0,0:0:0:0:
256,192,190389,1,0,0:0:0:0:
256,192,190539,1,2,0:0:0:0:
256,192,190614,1,2,0:0:0:0:
256,192,190689,1,0,0:0:0:0:
256,192,190839,1,0,0:0:0:0:
256,192,190989,1,0,0:0:0:0:
256,192,191139,1,2,0:0:0:0:
256,192,191289,1,2,0:0:0:0:
256,192,191339,1,2,0:0:0:0:
256,192,191389,1,2,0:0:0:0:
256,192,191439,1,2,0:0:0:0:
256,192,191489,1,2,0:0:0:0:
256,192,191539,1,2,0:0:0:0:
256,192,191589,1,4,0:0:0:0:
256,192,191889,1,2,0:0:0:0:
256,192,192039,1,0,0:0:0:0:
256,192,192189,1,12,0:0:0:0:
256,192,192339,1,2,0:0:0:0:
256,192,192489,1,0,0:0:0:0:
256,192,192639,1,0,0:0:0:0:
256,192,192789,1,2,0:0:0:0:
256,192,192939,1,2,0:0:0:0:
256,192,193139,1,2,0:0:0:0:
256,192,193239,1,0,0:0:0:0:
256,192,193389,1,0,0:0:0:0:
256,192,193464,1,0,0:0:0:0:
256,192,193539,1,8,0:0:0:0:
256,192,193614,1,0,0:0:0:0:
192,192,193689,2,0,L|416:192,1,210
256,192,193989,1,2,0:0:0:0:
256,192,194139,1,2,0:0:0:0:
256,192,194289,1,2,0:0:0:0:
256,192,194439,1,2,0:0:0:0:
256,192,194589,1,0,0:0:0:0:
256,192,194639,1,2,0:0:0:0:
256,192,194689,1,2,0:0:0:0:
256,192,194739,1,2,0:0:0:0:
256,192,194789,1,2,0:0:0:0:
256,192,194839,1,2,0:0:0:0:
256,192,194889,1,2,0:0:0:0:
256,192,194964,1,2,0:0:0:0:
256,192,195039,1,2,0:0:0:0:
256,192,195114,1,2,0:0:0:0:
256,192,195189,1,2,0:0:0:0:
256,192,195339,1,0,0:0:0:0:
256,192,195414,1,2,0:0:0:0:
256,192,195489,1,4,0:0:0:0:
256,192,195639,1,2,0:0:0:0:
256,192,195789,1,0,0:0:0:0:
256,192,195939,1,2,0:0:0:0:
256,192,196014,1,2,0:0:0:0:
256,192,196089,1,0,0:0:0:0:
256,192,196239,1,2,0:0:0:0:
192,192,196389,2,0,L|352:192,1,157.500006008148
256,192,196689,1,0,0:0:0:0:
256,192,196739,1,2,0:0:0:0:
256,192,196839,1,0,0:0:0:0:
256,192,196889,1,2,0:0:0:0:
192,192,196989,2,0,L|416:192,1,210
256,192,197289,1,0,0:0:0:0:
256,192,197339,1,0,0:0:0:0:
256,192,197389,1,0,0:0:0:0:
256,192,197439,1,0,0:0:0:0:
256,192,197489,1,0,0:0:0:0:
256,192,197539,1,0,0:0:0:0:
256,192,197589,1,2,0:0:0:0:
256,192,197814,1,2,0:0:0:0:
256,192,198039,1,2,0:0:0:0:
256,192,198189,1,0,0:0:0:0:
256,192,198264,1,0,0:0:0:0:
256,192,198339,1,8,0:0:0:0:
256,192,198414,1,0,0:0:0:0:
256,192,198489,1,12,0:0:0:0:
256,192,198789,1,0,0:0:0:0:
256,192,198864,1,0,0:0:0:0:
256,192,198939,1,0,0:0:0:0:
256,192,199014,1,0,0:0:0:0:
256,192,199089,1,2,0:0:0:0:
256,192,199164,1,2,0:0:0:0:
256,192,199239,1,2,0:0:0:0:
256,192,199314,1,2,0:0:0:0:
192,192,199389,2,0,L|352:192,1,157.500006008148
256,192,199689,1,8,0:0:0:0:
256,192,199739,1,0,0:0:0:0:
256,192,199789,1,0,0:0:0:0:
256,192,199839,1,0,0:0:0:0:
256,192,199889,1,0,0:0:0:0:
256,192,199939,1,0,0:0:0:0:
256,192,199989,1,0,0:0:0:0:
256,192,200139,1,2,0:0:0:0:
256,192,200214,1,2,0:0:0:0:
256,192,200289,1,4,0:0:0:0:
256,192,200589,1,0,0:0:0:0:
256,192,200739,1,2,0:0:0:0:
256,192,200814,1,0,0:0:0:0:
256,192,200889,1,2,0:0:0:0:
256,192,200939,1,2,0:0:0:0:
256,192,200989,1,2,0:0:0:0:
256,192,201039,1,2,0:0:0:0:
256,192,201089,1,2,0:0:0:0:
256,192,201139,1,2,0:0:0:0:
256,192,201189,1,0,0:0:0:0:
256,192,201339,1,0,0:0:0:0:
256,192,201414,1,0,0:0:0:0:
256,192,201489,1,8,0:0:0:0:
256,192,201639,1,0,0:0:0:0:
256,192,201789,1,12,0:0:0:0:
256,192,202089,1,2,0:1:0:0:
256,192,202139,1,2,0:1:0:0:
256,192,202189,1,2,0:1:0:0:
256,192,202239,1,2,0:1:0:0:
256,192,202289,1,2,0:1:0:0:
256,192,202339,1,2,0:1:0:0:
256,192,202389,1,0,0:0:0:0:
256,192,202539,1,0,0:0:0:0:
256,192,202689,1,0,0:0:0:0:
256,192,202839,1,8,0:0:0:0:
256,192,202914,1,0,0:0:0:0:
256,192,202989,1,8,0:0:0:0:
256,192,203064,1,8,0:0:0:0:
256,192,203139,1,8,0:0:0:0:
256,192,203214,1,0,0:0:0:0:
256,192,203289,1,0,0:0:0:0:
256,192,203364,1,2,0:0:0:0:
256,192,203439,1,2,0:0:0:0:
256,192,203514,1,2,0:0:0:0:
256,192,203589,1,4,0:0:0:0:
256,192,203889,1,2,0:0:0:0:
256,192,203964,1,2,0:0:0:0:
256,192,204039,1,2,0:0:0:0:
256,192,204114,1,2,0:0:0:0:
256,192,204189,1,12,0:0:0:0:
256,192,204339,1,0,0:0:0:0:
256,192,204414,1,2,0:0:0:0:
256,192,204489,1,0,0:0:0:0:
256,192,204539,1,0,0:0:0:0:
256,192,204589,1,0,0:0:0:0:
256,192,204639,1,2,0:0:0:0:
256,192,204689,1,2,0:0:0:0:
256,192,204739,1,2,0:0:0:0:
256,192,204789,1,0,0:0:0:0:
256,192,204939,1,2,0:0:0:0:
256,192,205089,1,4,0:0:0:0:
256,192,205239,1,0,0:0:0:0:
256,192,205389,1,12,0:0:0:0:
256,192,205689,1,2,0:0:0:0:
256,192,205764,1,0,0:0:0:0:
256,192,205839,1,2,0:0:0:0:
256,192,205989,1,4,0:0:0:0:
256,192,206139,1,0,0:0:0:0:
256,192,206289,1,2,0:0:0:0:
256,192,206339,1,2,0:0:0:0:
256,192,206389,1,2,0:0:0:0:
256,192,206439,1,2,0:0:0:0:
256,192,206489,1,2,0:0:0:0:
256,192,206539,1,2,0:0:0:0:
256,192,206589,1,12,0:0:0:0:
256,192,206739,1,2,0:0:0:0:
256,192,206889,1,4,0:0:0:0:
256,192,207039,1,2,0:0:0:0:
256,192,207189,1,0,0:0:0:0:
256,192,207339,1,0,0:0:0:0:
256,192,207489,1,4,0:0:0:0:
256,192,207639,1,2,0:0:0:0:
256,192,207789,1,12,0:0:0:0:
256,192,208089,1,2,0:0:0:0:
256,192,208164,1,0,0:0:0:0:
256,192,208239,1,2,0:0:0:0:
256,192,208314,1,0,0:0:0:0:
256,192,208389,1,0,0:0:0:0:
256,192,208539,1,0,0:0:0:0:
256,192,208689,1,2,0:0:0:0:
256,192,208764,1,2,0:0:0:0:
256,192,208839,1,2,0:0:0:0:
256,192,208914,1,0,0:0:0:0:
256,192,208989,1,12,0:0:0:0:
256,192,209139,1,2,0:0:0:0:
256,192,209214,1,0,0:0:0:0:
256,192,209289,1,2,0:0:0:0:
256,192,209339,1,2,0:0:0:0:
256,192,209389,1,2,0:0:0:0:
256,192,209439,1,2,0:0:0:0:
256,192,209489,1,2,0:0:0:0:
256,192,209539,1,2,0:0:0:0:
256,192,209589,1,0,0:0:0:0:
256,192,209639,1,0,0:0:0:0:
256,192,209689,1,0,0:0:0:0:
256,192,209739,1,0,0:0:0:0:
256,192,209789,1,0,0:0:0:0:
256,192,209839,1,0,0:0:0:0:
256,192,209889,1,0,0:0:0:0:
256,192,209939,1,0,0:0:0:0:
256,192,209989,1,0,0:0:0:0:
256,192,210039,1,0,0:0:0:0:
256,192,210089,1,0,0:0:0:0:
256,192,210139,1,0,0:0:0:0:
256,192,210189,1,12,0:0:0:0:
256,192,210489,1,2,0:0:0:0:
256,192,210539,1,0,0:0:0:0:
256,192,210589,1,0,0:0:0:0:
256,192,210639,1,2,0:0:0:0:
256,192,210789,1,0,0:0:0:0:
256,192,211089,1,8,0:0:0:0:
256,192,211164,1,0,0:0:0:0:
256,192,211239,1,8,0:0:0:0:
256,192,211389,1,12,0:0:0:0:
256,192,211689,1,4,0:0:0:0:
256,192,211839,1,0,0:0:0:0:
256,192,211989,1,2,0:0:0:0:
256,192,212139,1,0,0:0:0:0:
256,192,212214,1,2,0:0:0:0:
256,192,212364,1,0,0:0:0:0:
256,192,212439,1,2,0:0:0:0:
256,192,212589,1,0,0:0:0:0:
256,192,212664,1,2,0:0:0:0:
256,192,212814,1,0,0:0:0:0:
256,192,212889,1,2,0:0:0:0:
256,192,212964,1,2,0:0:0:0:
256,192,213039,1,2,0:0:0:0:
256,192,213114,1,2,0:0:0:0:
256,192,213189,1,4,0:0:0:0:
256,192,213339,1,2,0:0:0:0:
256,192,213489,1,0,0:0:0:0:
256,192,213539,1,0,0:0:0:0:
256,192,213589,1,0,0:0:0:0:
256,192,213639,1,2,0:0:0:0:
256,192,213789,1,12,0:0:0:0:
256,192,213839,1,0,0:0:0:0:
256,192,213889,1,0,0:0:0:0:
256,192,213939,1,2,0:0:0:0:
256,192,214089,1,0,0:0:0:0:
256,192,214139,1,0,0:0:0:0:
256,192,214189,1,0,0:0:0:0:
256,192,214239,1,0,0:0:0:0:
256,192,214289,1,0,0:0:0:0:
256,192,214339,1,0,0:0:0:0:
256,192,214389,1,2,0:0:0:0:
256,192,214689,1,2,0:0:0:0:
256,192,214739,1,2,0:0:0:0:
256,192,214789,1,2,0:0:0:0:
256,192,214839,1,2,0:0:0:0:
256,192,214889,1,2,0:0:0:0:
256,192,214939,1,2,0:0:0:0:
256,192,214989,1,6,0:0:0:0:
256,192,215289,1,2,0:0:0:0:
256,192,215339,1,0,0:0:0:0:
256,192,215389,1,0,0:0:0:0:
256,192,215439,1,2,0:0:0:0:
256,192,215589,1,2,0:0:0:0:
256,192,215739,1,0,0:0:0:0:
256,192,215889,1,2,0:0:0:0:
256,192,215939,1,2,0:0:0:0:
256,192,215989,1,2,0:0:0:0:
256,192,216039,1,2,0:0:0:0:
256,192,216089,1,2,0:0:0:0:
256,192,216139,1,2,0:0:0:0:
256,192,216189,1,2,0:0:0:0:
256,192,216264,1,0,0:0:0:0:
256,192,216339,1,8,0:0:0:0:
256,192,216489,1,2,0:0:0:0:
256,192,216564,1,0,0:0:0:0:
256,192,216639,1,8,0:0:0:0:
256,192,216789,1,0,0:0:0:0:
256,192,217089,1,4,0:0:0:0:
256,192,217239,1,0,0:0:0:0:
256,192,217389,1,12,0:0:0:0:
256,192,217689,1,2,0:0:0:0:
256,192,217739,1,0,0:0:0:0:
256,192,217789,1,0,0:0:0:0:
256,192,217839,1,2,0:0:0:0:
256,192,217989,1,4,0:0:0:0:
256,192,218289,1,2,0:0:0:0:
256,192,218364,1,2,0:0:0:0:
256,192,218439,1,2,0:0:0:0:
256,192,218514,1,2,0:0:0:0:
256,192,218589,1,2,0:0:0:0:
256,192,218639,1,0,0:0:0:0:
256,192,218739,1,2,0:0:0:0:
256,192,218789,1,0,0:0:0:0:
256,192,218889,1,0,0:0:0:0:
256,192,218939,1,0,0:0:0:0:
256,192,218989,1,0,0:0:0:0:
256,192,219039,1,0,0:0:0:0:
256,192,219089,1,0,0:0:0:0:
256,192,219139,1,0,0:0:0:0:
256,192,219189,1,2,0:0:0:0:
256,192,219489,1,2,0:0:0:0:
256,192,219539,1,0,0:0:0:0:
256,192,219639,1,2,0:0:0:0:
256,192,219689,1,0,0:0:0:0:
256,192,219789,1,8,0:0:0:0:
256,192,219839,1,2,0:0:0:0:
256,192,220089,1,2,0:0:0:0:
256,192,220139,1,0,0:0:0:0:
256,192,220239,1,2,0:0:0:0:
256,192,220289,1,0,0:0:0:0:
256,192,220389,1,4,0:0:0:0:
256,192,220539,1,4,0:0:0:0:
256,192,220689,1,4,0:0:0:0:
256,192,220839,1,4,0:0:0:0:
256,192,220989,1,0,0:0:0:0:
256,192,221064,1,0,0:0:0:0:
256,192,221139,1,0,0:0:0:0:
256,192,221214,1,0,0:0:0:0:
256,192,221289,1,2,0:0:0:0:
256,192,221339,1,2,0:0:0:0:
256,192,221389,1,2,0:0:0:0:
256,192,221439,1,2,0:0:0:0:
256,192,221489,1,2,0:0:0:0:
256,192,221539,1,2,0:0:0:0:
256,192,221589,1,0,0:0:0:0:
256,192,221739,1,2,0:0:0:0:
256,192,221889,1,0,0:0:0:0:
256,192,222039,1,2,0:0:0:0:
256,192,222189,1,0,0:0:0:0:
256,192,222339,1,2,0:0:0:0:
256,192,222489,1,2,0:0:0:0:
256,192,222639,1,0,0:0:0:0:
256,192,222789,1,4,0:2:0:0:
256,192,223014,1,2,0:2:0:0:
256,192,223239,1,0,0:2:0:0:
256,192,223314,1,0,0:2:0:0:
256,192,223389,1,2,0:2:0:0:
256,192,223539,1,0,0:2:0:0:
256,192,223614,1,2,0:2:0:0:
256,192,223839,1,2,0:2:0:0:
256,192,223914,1,2,0:2:0:0:
256,192,223989,1,0,0:2:0:0:
256,192,224139,1,0,0:2:0:0:
256,192,224214,1,2,0:2:0:0:
256,192,224439,1,2,0:2:0:0:
256,192,224514,1,2,0:2:0:0:
256,192,224589,1,0,0:2:0:0:
256,192,224739,1,0,0:2:0:0:
256,192,224814,1,2,0:2:0:0:
256,192,225039,1,2,0:2:0:0:
256,192,225114,1,0,0:2:0:0:
256,192,225189,1,0,0:2:0:0:
256,192,225339,1,0,0:2:0:0:
256,192,225414,1,2,0:2:0:0:
256,192,225489,1,0,0:2:0:0:
256,192,225639,1,2,0:2:0:0:
256,192,225714,1,0,0:2:0:0:
256,192,225789,1,0,0:2:0:0:
256,192,225939,1,0,0:2:0:0:
256,192,226014,1,2,0:2:0:0:
256,192,226089,1,0,0:2:0:0:
256,192,226239,1,2,0:2:0:0:
256,192,226389,1,0,0:2:0:0:
256,192,226539,1,2,0:2:0:0:
256,192,226689,1,2,0:2:0:0:
256,192,226764,1,2,0:2:0:0:
256,192,226839,1,2,0:2:0:0:
256,192,226914,1,0,0:2:0:0:
256,192,226989,1,2,0:2:0:0:
256,192,227139,1,0,0:2:0:0:
256,192,227214,1,2,0:2:0:0:
256,192,227289,1,2,0:2:0:0:
256,192,227439,1,0,0:2:0:0:
256,192,227514,1,2,0:2:0:0:
256,192,227589,1,0,0:2:0:0:
256,192,227814,1,2,0:2:0:0:
256,192,228039,1,0,0:0:0:0:
256,192,228114,1,0,0:0:0:0:
256,192,228189,1,2,0:0:0:0:
256,192,228339,1,0,0:0:0:0:
256,192,228414,1,2,0:0:0:0:
256,192,228639,1,2,0:0:0:0:
256,192,228714,1,2,0:0:0:0:
256,192,228789,1,0,0:0:0:0:
256,192,229014,1,2,0:0:0:0:
256,192,229239,1,0,0:0:0:0:
256,192,229314,1,2,0:0:0:0:
256,192,229389,1,2,0:0:0:0:
256,192,229539,1,0,0:0:0:0:
256,192,229614,1,2,0:0:0:0:
256,192,229839,1,2,0:0:0:0:
256,192,229914,1,2,0:0:0:0:
256,192,229989,1,0,0:0:0:0:
256,192,230139,1,2,0:0:0:0:
256,192,230214,1,0,0:0:0:0:
256,192,230289,1,0,0:0:0:0:
256,192,230439,1,2,0:0:0:0:
256,192,230514,1,0,0:0:0:0:
256,192,230589,1,0,0:0:0:0:
256,192,230739,1,0,0:0:0:0:
256,192,230814,1,2,0:0:0:0:
256,192,230889,1,2,0:0:0:0:
256,192,231039,1,0,0:0:0:0:
256,192,231189,1,2,0:0:0:0:
256,192,231339,1,0,0:0:0:0:
256,192,231414,1,2,0:0:0:0:
256,192,231564,1,0,0:0:0:0:
256,192,231639,1,2,0:0:0:0:
256,192,231789,1,2,0:0:0:0:
256,192,231939,1,0,0:0:0:0:
256,192,232014,1,0,0:0:0:0:
256,192,232089,1,0,0:0:0:0:
256,192,232239,1,4,0:0:0:0:
256,192,232389,1,2,0:0:0:0:
256,192,232439,1,0,0:0:0:0:
256,192,232689,1,2,0:0:0:0:
256,192,232739,1,0,0:0:0:0:
256,192,232989,1,2,0:0:0:0:
256,192,233139,1,0,0:0:0:0:
256,192,233214,1,2,0:0:0:0:
256,192,233289,1,2,0:0:0:0:
0,96,233589,2,0,B|512:96|512:96|512:320,1,735.000028038026
256,192,234189,1,2,0:0:0:0:
256,192,234339,1,0,0:0:0:0:
256,192,234414,1,2,0:0:0:0:
256,192,234639,1,2,0:0:0:0:
256,192,234714,1,2,0:0:0:0:
256,192,234789,1,0,0:0:0:0:
256,192,234939,1,0,0:0:0:0:
256,192,235014,1,2,0:0:0:0:
256,192,235239,1,0,0:0:0:0:
256,192,235314,1,2,0:0:0:0:
256,192,235389,1,0,0:0:0:0:
256,192,235539,1,0,0:0:0:0:
256,192,235614,1,2,0:0:0:0:
256,192,235839,1,2,0:0:0:0:
256,192,235989,1,0,0:0:0:0:
256,192,236139,1,2,0:0:0:0:
256,192,236289,1,2,0:0:0:0:
256,192,236364,1,2,0:0:0:0:
256,192,236439,1,2,0:0:0:0:
256,192,236514,1,2,0:0:0:0:
256,192,236589,1,0,0:0:0:0:
256,192,236739,1,0,0:0:0:0:
256,192,236814,1,0,0:0:0:0:
256,192,236889,1,2,0:0:0:0:
256,192,237039,1,0,0:0:0:0:
256,192,237114,1,0,0:0:0:0:
256,192,237189,1,0,0:0:0:0:
256,192,237339,1,0,0:0:0:0:
256,192,237414,1,2,0:0:0:0:
256,192,237639,1,0,0:0:0:0:
256,192,237714,1,2,0:0:0:0:
256,192,237789,1,0,0:0:0:0:
256,192,237939,1,0,0:0:0:0:
256,192,238014,1,2,0:0:0:0:
256,192,238164,1,0,0:0:0:0:
256,192,238239,1,2,0:0:0:0:
256,192,238314,1,2,0:0:0:0:
256,192,238389,1,0,0:0:0:0:
256,192,238539,1,2,0:0:0:0:
256,192,238614,1,0,0:0:0:0:
256,192,238689,1,0,0:0:0:0:
256,192,238839,1,0,0:0:0:0:
256,192,238914,1,2,0:0:0:0:
256,192,238989,1,0,0:0:0:0:
256,192,239139,1,0,0:0:0:0:
256,192,239214,1,2,0:0:0:0:
256,192,239439,1,0,0:0:0:0:
256,192,239589,1,0,0:0:0:0:
256,192,239739,1,2,0:0:0:0:
256,192,239889,1,2,0:0:0:0:
256,192,239939,1,0,0:0:0:0:
256,192,239989,1,0,0:0:0:0:
256,192,240039,1,0,0:0:0:0:
256,192,240189,1,2,0:0:0:0:
256,192,240339,1,8,0:0:0:0:
256,192,240414,1,8,0:0:0:0:
256,192,240489,1,0,0:0:0:0:
256,192,240639,1,0,0:0:0:0:
256,192,240689,1,0,0:0:0:0:
256,192,240739,1,0,0:0:0:0:
256,192,240789,1,8,0:0:0:0:
256,192,240939,1,0,0:0:0:0:
256,192,241014,1,8,0:0:0:0:
256,192,241164,1,0,0:0:0:0:
256,192,241239,1,8,0:0:0:0:
256,192,241389,1,8,0:0:0:0:
256,192,241539,1,0,0:0:0:0:
256,192,241689,1,0,0:0:0:0:
256,192,241739,1,0,0:0:0:0:
256,192,241789,1,0,0:0:0:0:
256,192,241839,1,0,0:0:0:0:
256,192,241889,1,0,0:0:0:0:
256,192,241939,1,0,0:0:0:0:
256,192,241989,1,4,0:0:0:0:
256,192,242139,1,0,0:0:0:0:
256,192,242189,1,0,0:0:0:0:
256,192,242239,1,0,0:0:0:0:
256,192,242289,1,2,0:0:0:0:
256,192,242439,1,0,0:0:0:0:
256,192,242489,1,0,0:0:0:0:
256,192,242539,1,0,0:0:0:0:
256,192,242589,1,2,0:0:0:0:
256,192,242739,1,0,0:0:0:0:
256,192,242814,1,8,0:0:0:0:
256,192,242889,1,0,0:0:0:0:
256,192,243039,1,0,0:0:0:0:
256,192,243189,1,2,0:0:0:0:
256,192,243339,1,2,0:0:0:0:
256,192,243489,1,2,0:0:0:0:
256,192,243564,1,0,0:0:0:0:
256,192,243639,1,2,0:0:0:0:
256,192,243789,1,8,0:0:0:0:
256,192,243939,1,8,0:0:0:0:
256,192,244089,1,2,0:0:0:0:
256,192,244164,1,2,0:0:0:0:
256,192,244239,1,0,0:0:0:0:
256,192,244389,1,4,0:0:0:0:
256,192,244689,1,8,0:0:0:0:
256,192,244764,1,0,0:0:0:0:
256,192,244839,1,8,0:0:0:0:
256,192,244989,1,0,0:0:0:0:
256,192,245139,1,2,0:0:0:0:
256,192,245189,1,2,0:0:0:0:
256,192,245239,1,2,0:0:0:0:
256,192,245289,1,0,0:0:0:0:
256,192,245339,1,0,0:0:0:0:
256,192,245389,1,0,0:0:0:0:
256,192,245439,1,0,0:0:0:0:
256,192,245589,1,0,0:0:0:0:
256,192,245739,1,0,0:0:0:0:
256,192,245814,1,8,0:0:0:0:
256,192,245889,1,0,0:0:0:0:
256,192,245964,1,8,0:0:0:0:
256,192,246039,1,0,0:0:0:0:
256,192,246189,1,12,0:0:0:0:
256,192,246339,1,0,0:0:0:0:
256,192,246489,1,2,0:0:0:0:
256,192,246789,5,4,0:0:0:0:
256,192,246939,1,0,0:0:0:0:
256,192,247089,1,8,0:0:0:0:
256,192,247164,1,8,0:0:0:0:
256,192,247239,1,0,0:0:0:0:
256,192,247314,1,0,0:0:0:0:
256,192,247389,1,8,0:0:0:0:
256,192,247539,1,0,0:0:0:0:
256,192,247614,1,2,0:0:0:0:
256,192,247689,1,0,0:0:0:0:
256,192,247839,5,2,0:0:0:0:
256,192,247876,1,2,0:0:0:0:
256,192,247914,1,2,0:0:0:0:
256,192,247951,1,2,0:0:0:0:
256,192,247989,1,0,0:0:0:0:
256,192,248139,1,8,0:0:0:0:
256,192,248289,1,0,0:0:0:0:
256,192,248364,1,0,0:0:0:0:
256,192,248439,1,0,0:0:0:0:
256,192,248514,1,0,0:0:0:0:
256,192,248589,1,8,0:0:0:0:
256,192,248739,1,8,0:0:0:0:
256,192,248889,1,2,0:0:0:0:
256,192,248964,1,2,0:0:0:0:
256,192,249039,1,0,0:0:0:0:
256,192,249189,1,4,0:0:0:0:
256,192,249339,1,0,0:0:0:0:
256,192,249489,1,0,0:0:0:0:
256,192,249564,1,0,0:0:0:0:
256,192,249639,1,8,0:0:0:0:
256,192,249714,1,0,0:0:0:0:
256,192,249789,1,8,0:0:0:0:
256,192,249939,1,2,0:0:0:0:
256,192,249989,1,2,0:0:0:0:
256,192,250039,1,2,0:0:0:0:
256,192,250089,1,0,0:0:0:0:
256,192,250139,1,0,0:0:0:0:
256,192,250189,1,0,0:0:0:0:
256,192,250239,1,0,0:0:0:0:
256,192,250314,1,0,0:0:0:0:
256,192,250389,1,2,0:0:0:0:
256,192,250539,1,0,0:0:0:0:
256,192,250614,1,0,0:0:0:0:
256,192,250689,1,2,0:0:0:0:
256,192,250764,1,0,0:0:0:0:
256,192,250839,1,0,0:0:0:0:
256,192,250914,1,0,0:0:0:0:
256,192,250989,1,12,0:0:0:0:
256,192,251139,1,0,0:0:0:0:
256,192,251214,1,8,0:0:0:0:
256,192,251289,1,0,0:0:0:0:
256,192,251439,5,2,0:0:0:0:
256,192,251476,1,2,0:0:0:0:
256,192,251514,1,2,0:0:0:0:
256,192,251551,1,2,0:0:0:0:
256,192,251589,1,0,0:0:0:0:
256,192,251739,1,0,0:0:0:0:
256,192,251889,1,2,0:0:0:0:
256,192,251964,1,2,0:0:0:0:
256,192,252039,1,0,0:0:0:0:
256,192,252189,1,8,0:0:0:0:
256,192,252339,1,0,0:0:0:0:
256,192,252414,1,8,0:0:0:0:
256,192,252489,1,0,0:0:0:0:
256,192,252639,1,8,0:0:0:0:
256,192,252676,1,8,0:0:0:0:
256,192,252714,1,8,0:0:0:0:
256,192,252751,1,8,0:0:0:0:
256,192,252789,1,0,0:0:0:0:
256,192,252939,1,8,0:0:0:0:
256,192,253089,1,0,0:0:0:0:
256,192,253164,1,0,0:0:0:0:
256,192,253239,1,8,0:0:0:0:
256,192,253314,1,0,0:0:0:0:
256,192,253389,1,8,0:0:0:0:
256,192,253539,1,8,0:0:0:0:
256,192,253689,1,8,0:0:0:0:
256,192,253739,1,0,0:0:0:0:
256,192,253789,1,8,0:0:0:0:
256,192,253839,1,0,0:0:0:0:
256,192,253989,1,4,0:0:0:0:
256,192,254139,1,0,0:0:0:0:
256,192,254289,1,2,0:0:0:0:
256,192,254339,1,0,0:0:0:0:
256,192,254389,1,0,0:0:0:0:
256,192,254439,1,2,0:0:0:0:
256,192,254589,1,0,0:0:0:0:
256,192,254739,1,2,0:0:0:0:
256,192,254789,1,2,0:0:0:0:
256,192,254839,1,2,0:0:0:0:
256,192,254889,1,0,0:0:0:0:
256,192,254939,1,0,0:0:0:0:
256,192,254989,1,0,0:0:0:0:
256,192,255039,1,0,0:0:0:0:
256,192,255189,1,2,0:0:0:0:
256,192,255339,1,2,0:0:0:0:
256,192,255389,1,0,0:0:0:0:
256,192,255439,1,0,0:0:0:0:
256,192,255489,1,2,0:0:0:0:
256,192,255564,1,0,0:0:0:0:
256,192,255639,1,0,0:0:0:0:
256,192,255714,1,0,0:0:0:0:
256,192,255789,1,12,0:0:0:0:
256,192,255939,1,0,0:0:0:0:
256,192,256014,1,8,0:0:0:0:
256,192,256089,1,0,0:0:0:0:
256,192,256239,1,2,0:0:0:0:
256,192,256276,1,2,0:0:0:0:
256,192,256314,1,2,0:0:0:0:
256,192,256351,1,2,0:0:0:0:
256,192,256389,1,0,0:0:0:0:
256,192,256539,1,2,0:0:0:0:
256,192,256639,1,2,0:0:0:0:
256,192,256739,1,0,0:0:0:0:
256,192,256839,1,0,0:0:0:0:
256,192,256914,1,0,0:0:0:0:
256,192,256989,1,8,0:0:0:0:
256,192,257139,1,0,0:0:0:0:
256,192,257214,1,2,0:0:0:0:
256,192,257289,1,0,0:0:0:0:
256,192,257339,1,0,0:0:0:0:
256,192,257389,1,0,0:0:0:0:
256,192,257439,1,2,0:0:0:0:
256,192,257476,1,2,0:0:0:0:
256,192,257514,1,2,0:0:0:0:
256,192,257551,1,2,0:0:0:0:
256,192,257589,1,0,0:0:0:0:
256,192,257739,1,0,0:0:0:0:
256,192,257889,1,8,0:0:0:0:
256,192,257964,1,0,0:0:0:0:
256,192,258039,1,8,0:0:0:0:
256,192,258189,1,8,0:0:0:0:
256,192,258339,1,8,0:0:0:0:
256,192,258489,1,0,0:0:0:0:
256,192,258639,1,2,0:0:0:0:
256,192,258676,1,2,0:0:0:0:
256,192,258714,1,2,0:0:0:0:
256,192,258751,1,2,0:0:0:0:
256,192,258789,1,0,0:0:0:0:
256,192,259089,1,0,0:0:0:0:
256,192,259164,1,0,0:0:0:0:
256,192,259239,1,8,0:0:0:0:
256,192,259314,1,0,0:0:0:0:
256,192,259389,1,2,0:0:0:0:
256,192,259426,1,2,0:0:0:0:
256,192,259464,1,2,0:0:0:0:
256,192,259501,1,2,0:0:0:0:
256,192,259539,1,0,0:0:0:0:
256,192,259577,1,2,0:0:0:0:
256,192,259614,1,0,0:0:0:0:
256,192,259652,1,0,0:0:0:0:
256,192,259689,1,0,0:0:0:0:
256,192,259727,1,0,0:0:0:0:
256,192,259764,1,0,0:0:0:0:
256,192,259801,1,0,0:0:0:0:
256,192,259839,1,0,0:0:0:0:
256,192,259989,1,2,0:0:0:0:
256,192,260289,1,2,0:0:0:0:
256,192,260589,1,0,0:0:0:0:
24,196,260889,2,0,L|512:192,2,466.666666666667,0|0|0,0:0|0:0|0:0,0:0:0:0:
256,192,262989,12,0,266790,0:0:0:0:
