osu file format v13

[General]
AudioFilename: 11. Count down 321.mp3
AudioLeadIn: 0
PreviewTime: 97216
Countdown: 1
SampleSet: Normal
StackLeniency: 0.7
Mode: 0
LetterboxInBreaks: 1
WidescreenStoryboard: 0

[Editor]
DistanceSpacing: 1.2
BeatDivisor: 4
GridSize: 4
TimelineZoom: 3.299999

[Metadata]
Title:Count down 321
TitleUnicode:Count down 321
Artist:t+pazolite
ArtistUnicode:t+pazolite
Creator:Nakagawa-Kanon
Version:0 Count
Source:
Tags:
BeatmapID:591347
BeatmapSetID:258585

[Difficulty]
HPDrainRate:8
CircleSize:4
OverallDifficulty:9
ApproachRate:10
SliderMultiplier:1.9
SliderTickRate:1

[Events]
//Background and Video events
0,0,"BG.jpg",0,0
//Break Periods
2,13677,16018
2,73490,78822
2,85453,96766
//Storyboard Layer 0 (Background)
//Storyboard Layer 1 (Fail)
//Storyboard Layer 2 (Pass)
//Storyboard Layer 3 (Foreground)
//Storyboard Sound Samples

[TimingPoints]
20,186.915887850467,4,1,0,80,1,0
113,-200,4,2,0,80,0,0
1515,-133.333333333333,4,1,0,80,0,0
6063,-133.333333333333,4,2,0,80,0,0
6562,-133.333333333333,4,1,0,80,0,0
7496,-100,4,1,0,80,0,0
16468,-133.333333333333,4,1,0,80,0,0
25440,-100,4,1,0,80,0,0
27683,-200,4,1,0,80,0,0
28244,-100,4,1,0,80,0,0
29365,-200,4,1,0,80,0,0
31421,-100,4,1,0,80,0,0
33664,-200,4,1,0,80,0,0
34412,-100,4,1,0,80,0,0
35347,-200,4,1,0,80,0,0
35627,-100,4,1,0,80,0,0
61328,-200,4,1,0,80,0,0
61515,-200,4,2,0,80,0,0
97216,-133.333333333333,4,2,0,80,0,0
109178,-117.647058823529,4,1,0,80,0,0
122636,-100,4,1,0,80,0,1
146562,-133.333333333333,4,1,0,80,0,0
157029,-133.333333333333,4,2,0,80,0,0
158524,-100,4,1,0,80,0,1
170300,-100,4,1,0,80,0,0
177216,-200,4,1,0,80,0,0
177777,-100,4,1,0,80,0,0
178898,-200,4,1,0,80,0,0
180907,-100,4,1,0,80,0,0
183150,-200,4,1,0,80,0,0
183758,-100,4,1,0,80,0,0
184833,-200,4,1,0,80,0,0
185206,-100,4,1,0,80,0,0

[Colours]
Combo1 : 127,127,127
Combo2 : 255,43,43
Combo3 : 221,171,53
Combo4 : 233,83,33

[HitObjects]
44,192,20,5,0,0:0:0:0:
92,272,206,1,0,0:0:0:0:
180,312,393,1,0,0:0:0:0:
276,308,580,1,0,0:0:0:0:
356,256,767,1,0,0:0:0:0:
376,240,861,2,0,L|372:136,1,95
384,68,1141,2,0,P|400:56|436:40,1,47.5
448,116,1328,2,0,P|476:112|504:116,1,47.5
312,96,1515,6,0,B|176:120|168:16|20:52,2,285.000010871888,0|0|0,0:0|2:0|0:0,0:0:0:0:
32,192,2543,1,0,0:0:0:0:
312,288,2823,1,0,0:0:0:0:
176,332,3010,6,0,P|172:252|124:188,2,142.500005435944,0|0|0,0:0|2:0|2:0,0:0:0:0:
276,204,3571,2,0,B|380:176|372:276|476:252,1,213.750008153916
444,168,3945,2,0,P|456:120|396:44,1,142.500005435944
328,44,4225,2,0,L|176:52,1,142.500005435944,0|0,0:0|0:0,0:0:0:0:
168,128,4505,1,0,0:0:0:0:
156,140,5253,6,0,L|160:304,1,142.500005435944
80,312,5534,2,0,P|36:220|96:104,1,213.750008153916
240,216,6001,2,0,L|316:212,8,47.5000018119813,0|0|0|0|0|0|0|0|0,0:0|0:0|0:0|0:0|0:0|0:0|0:0|0:0|0:0,0:0:0:0:
304,212,6562,1,0,0:0:0:0:
440,48,6748,2,0,P|476:120|440:188,1,142.500005435944,0|0,0:0|0:0,0:0:0:0:
412,240,7029,2,0,P|376:168|412:100,1,142.500005435944,0|0,2:0|0:0,0:0:0:0:
44,328,7496,6,0,L|144:340,1,95,0|0,0:0|0:0,0:0:0:0:
28,240,7683,2,0,L|128:252,1,95,0|0,0:0|0:0,0:0:0:0:
48,156,7870,2,0,L|148:168,1,95,0|0,0:0|0:0,0:0:0:0:
32,68,8057,2,0,L|132:80,1,95,0|0,0:0|0:0,0:0:0:0:
212,260,8244,2,0,P|248:184|216:84,1,190
128,80,8524,2,0,L|413:69,1,285
512,268,8991,6,0,P|452:236|352:308,1,190
444,328,9272,1,0,0:0:0:0:
512,268,9365,2,0,L|504:72,1,190
72,168,9833,1,0,0:0:0:0:
32,248,9926,2,0,P|44:296|80:336,1,95
160,332,10113,2,0,P|200:252|164:160,1,190
412,48,10487,6,0,B|420:92|420:92|408:156,1,95
320,132,10674,2,0,B|312:88|312:88|324:24,1,95,0|0,0:0|0:0,0:0:0:0:
224,40,10861,2,0,B|232:84|232:84|220:148,1,95
132,124,11048,2,0,B|124:80|124:80|136:16,1,95,0|0,0:0|0:0,0:0:0:0:
36,76,11234,2,0,L|48:292,1,190
116,320,11515,2,0,B|236:352|268:240|412:288,1,285
412,48,11982,6,0,P|468:116|412:216,1,190
384,132,12262,1,0,0:0:0:0:
384,132,12356,1,0,0:0:0:0:
324,60,12449,1,0,0:0:0:0:
324,60,12543,2,0,L|216:56,1,95
144,56,12730,5,0,0:0:0:0:
128,232,12917,1,0,0:0:0:0:
48,32,13104,1,0,0:0:0:0:
32,208,13291,1,0,0:0:0:0:
224,260,13477,5,0,0:0:0:0:
0,116,16468,6,0,P|8:208|12:284,1,142.500005435944
88,300,16748,1,0,0:0:0:0:
156,248,16842,2,0,P|152:176|148:100,1,142.500005435944,8|0,0:0|0:0,0:0:0:0:
168,332,17216,2,0,B|240:388|300:324|300:324,2,142.500005435944,0|0|8,0:0|0:0|0:0,0:0:0:0:
496,128,17963,6,0,P|496:208|492:284,1,142.500005435944
260,244,18337,2,0,P|260:164|264:88,1,142.500005435944,8|0,0:0|0:0,0:0:0:0:
368,296,18711,1,8,0:0:0:0:
384,72,18898,1,0,0:0:0:0:
368,296,19085,1,8,0:0:0:0:
20,108,19459,6,0,P|92:116|144:64,1,142.500005435944
68,40,19739,1,0,0:0:0:0:
68,40,19833,2,0,L|232:36,1,142.500005435944
296,36,20113,1,0,0:0:0:0:
252,108,20206,2,0,P|256:148|252:192,2,71.2500027179719,0|0|0,0:0|0:0|0:0,0:0:0:0:
484,104,20580,2,0,P|480:64|484:20,2,71.2500027179719,0|0|0,0:0|0:0|0:0,0:0:0:0:
176,208,20954,6,0,P|180:248|176:292,2,71.2500027179719,0|0|0,0:0|0:0|0:0,0:0:0:0:
408,204,21328,2,0,P|404:164|408:120,2,71.2500027179719,0|0|0,0:0|0:0|0:0,0:0:0:0:
60,196,21702,2,0,L|64:340,1,142.500005435944
312,208,22076,2,0,L|308:64,1,142.500005435944
492,276,22449,6,0,P|420:268|368:320,1,142.500005435944
444,344,22729,1,0,0:0:0:0:
444,344,22823,2,0,L|280:348,1,142.500005435944
216,348,23103,1,0,0:0:0:0:
260,276,23196,2,0,P|256:236|260:192,2,71.2500027179719,0|0|0,0:0|0:0|0:0,0:0:0:0:
28,280,23570,2,0,P|32:320|28:364,2,71.2500027179719,0|0|0,0:0|0:0|0:0,0:0:0:0:
336,176,23944,6,0,P|332:136|336:92,2,71.2500027179719,0|0|0,0:0|0:0|0:0,0:0:0:0:
104,180,24318,2,0,P|108:220|104:264,2,71.2500027179719,0|0|0,0:0|0:0|0:0,0:0:0:0:
452,188,24692,2,0,L|448:44,1,142.500005435944
452,292,25066,5,2,2:0:0:0:
40,52,25440,5,0,0:0:0:0:
136,44,25534,1,0,0:0:0:0:
144,140,25627,1,0,0:0:0:0:
48,148,25720,1,0,0:0:0:0:
100,228,25814,2,0,L|104:336,1,95
204,224,26001,2,0,L|208:332,1,95
240,132,26188,6,0,L|236:24,1,95
344,128,26375,2,0,L|340:20,1,95
436,32,26562,1,0,0:0:0:0:
440,128,26655,1,0,0:0:0:0:
456,36,26748,1,0,0:0:0:0:
460,132,26841,1,0,0:0:0:0:
452,356,26935,5,0,0:0:0:0:
396,240,27028,1,0,0:0:0:0:
432,352,27121,1,0,0:0:0:0:
376,236,27214,1,0,0:0:0:0:
412,348,27309,2,0,L|300:348,1,95
360,232,27496,2,0,L|248:232,1,95
40,320,27683,6,0,P|100:352|212:288,1,190
96,52,28431,5,0,0:0:0:0:
68,200,28524,1,0,0:0:0:0:
172,104,28618,1,0,0:0:0:0:
32,116,28711,1,0,0:0:0:0:
156,192,28805,2,0,P|200:192|244:152,1,95
316,108,28991,2,0,P|360:108|404:148,1,95
492,160,29178,5,0,0:0:0:0:
480,256,29272,1,0,0:0:0:0:
388,228,29365,2,0,L|396:328,1,95
484,156,29739,5,0,0:0:0:0:
472,252,29833,1,0,0:0:0:0:
380,224,29926,2,0,L|156:220,1,190
88,148,30487,1,0,0:0:0:0:
16,244,30674,2,0,L|20:348,1,95
96,352,30954,2,0,P|124:288|80:216,1,142.5
472,52,31421,5,0,0:0:0:0:
376,44,31515,1,0,0:0:0:0:
368,140,31608,1,0,0:0:0:0:
464,148,31701,1,0,0:0:0:0:
412,228,31795,2,0,L|408:336,1,95
308,224,31982,2,0,L|304:332,1,95
272,132,32169,6,0,L|276:24,1,95
168,128,32356,2,0,L|172:20,1,95
76,32,32543,1,0,0:0:0:0:
72,128,32636,1,0,0:0:0:0:
56,36,32729,1,0,0:0:0:0:
52,132,32822,1,0,0:0:0:0:
60,356,32916,5,0,0:0:0:0:
116,240,33009,1,0,0:0:0:0:
80,352,33102,1,0,0:0:0:0:
136,236,33195,1,0,0:0:0:0:
100,348,33290,2,0,L|212:348,1,95
152,232,33477,2,0,L|264:232,1,95
472,320,33664,6,0,P|412:352|300:288,1,190
416,52,34412,5,0,0:0:0:0:
444,200,34505,1,0,0:0:0:0:
340,104,34599,1,0,0:0:0:0:
480,116,34692,1,0,0:0:0:0:
356,192,34786,2,0,P|312:192|268:152,1,95
196,108,34972,2,0,P|152:108|108:148,1,95
20,160,35159,5,0,0:0:0:0:
32,256,35253,1,0,0:0:0:0:
124,228,35347,2,0,L|116:328,1,95
28,156,35720,5,0,0:0:0:0:
40,252,35814,1,0,0:0:0:0:
132,224,35907,2,0,L|356:220,2,190,0|0|0,0:0|0:0|0:0,0:0:0:0:
124,128,36375,1,0,0:0:0:0:
124,128,36468,1,0,0:0:0:0:
124,128,36562,1,0,0:0:0:0:
124,128,36655,5,0,0:0:0:0:
232,312,36842,1,2,2:0:0:0:
320,124,37029,1,0,0:0:0:0:
472,300,37403,6,0,P|484:244|456:200,1,95
384,252,37590,2,0,P|372:308|400:352,1,95
396,160,37777,1,0,0:0:0:0:
396,160,37870,2,0,P|344:164|304:216,1,95
468,216,38057,2,0,P|490:168|465:108,1,95
384,252,38244,2,0,P|413:295|478:303,1,95
420,72,38431,1,0,0:0:0:0:
420,72,38524,2,0,L|200:68,1,190
104,96,38805,1,0,0:0:0:0:
184,148,38898,6,0,P|104:184|16:124,2,190,0|0|0,0:0|0:0|0:0,0:0:0:0:
280,132,39365,1,0,0:0:0:0:
288,228,39459,1,0,0:0:0:0:
196,248,39552,2,0,B|328:208|336:344|480:300,1,285
196,336,40019,1,0,0:0:0:0:
464,216,40206,1,0,0:0:0:0:
120,288,40393,6,0,L|8:292,1,95
24,124,40580,2,0,L|136:120,1,95
68,208,40767,1,0,0:0:0:0:
68,208,40861,2,0,L|180:204,1,95
200,32,41048,2,0,L|204:144,1,95
368,184,41234,2,0,L|256:188,1,95
236,360,41421,2,0,L|232:248,1,95
328,368,41608,2,0,L|324:256,2,95,0|0|0,0:0|0:0|0:0,0:0:0:0:
420,108,41889,6,0,P|460:208|396:280,1,190
316,264,42169,2,0,P|276:164|340:92,1,190
368,184,42449,1,0,0:0:0:0:
48,48,42636,5,0,0:0:0:0:
248,40,42823,1,0,0:0:0:0:
8,140,43010,5,0,0:0:0:0:
208,132,43197,1,0,0:0:0:0:
40,300,43384,6,0,P|28:244|56:200,1,95
128,252,43571,2,0,P|140:308|112:352,1,95
116,160,43758,1,0,0:0:0:0:
116,160,43851,2,0,P|168:164|208:216,1,95
44,216,44038,2,0,P|22:168|47:108,1,95
128,252,44225,2,0,P|99:295|34:303,1,95
92,72,44412,1,0,0:0:0:0:
92,72,44505,2,0,L|312:68,1,190
408,96,44786,1,0,0:0:0:0:
328,148,44879,6,0,P|408:184|496:124,2,190,0|0|0,0:0|0:0|0:0,0:0:0:0:
232,132,45346,1,0,0:0:0:0:
224,228,45440,1,0,0:0:0:0:
316,248,45533,2,0,B|184:208|176:344|32:300,1,285
316,336,46000,1,0,0:0:0:0:
48,216,46187,1,0,0:0:0:0:
392,288,46374,6,0,L|504:292,1,95
488,124,46561,2,0,L|376:120,1,95
444,208,46748,1,0,0:0:0:0:
444,208,46842,2,0,L|332:204,1,95
312,32,47029,2,0,L|308:144,1,95
144,184,47215,2,0,L|256:188,1,95
276,360,47402,2,0,L|280:248,1,95
184,368,47589,2,0,L|188:256,2,95,0|0|0,0:0|0:0|0:0,0:0:0:0:
92,108,47870,6,0,P|52:208|116:280,1,190
196,264,48150,2,0,P|236:164|172:92,1,190
144,184,48431,2,0,L|460:168,1,285
504,256,48805,1,0,0:0:0:0:
504,256,48898,1,0,0:0:0:0:
504,256,48991,1,0,0:0:0:0:
504,256,49085,1,0,0:0:0:0:
504,256,49178,1,0,0:0:0:0:
504,256,49272,1,0,0:0:0:0:
504,256,49365,6,0,B|512:304|512:304|496:360,1,95
320,328,49552,2,0,B|312:280|312:280|328:224,1,95
420,104,49739,1,0,0:0:0:0:
420,104,49833,2,0,B|428:152|428:152|412:208,1,95
248,184,50019,2,0,B|285:153|285:153|342:138,1,95
404,288,50206,2,0,B|358:270|358:270|317:229,1,95
284,64,50393,1,0,0:0:0:0:
284,64,50487,2,0,L|68:56,1,190
24,176,50767,1,0,0:0:0:0:
112,144,50861,6,0,P|112:204|92:240,1,95
80,328,51048,2,0,P|28:298|6:262,1,95
168,288,51234,1,0,0:0:0:0:
264,280,51328,1,0,0:0:0:0:
360,272,51421,1,0,0:0:0:0:
456,264,51515,2,0,B|440:192|476:144|476:144|440:152|440:152|476:88|432:24,1,285
228,116,51982,2,0,P|320:148|372:68,1,190
24,104,52356,6,0,P|16:152|32:196,1,95
112,144,52543,2,0,P|120:96|104:52,1,95,0|0,0:0|0:0,0:0:0:0:
120,228,52730,1,0,0:0:0:0:
120,228,52823,2,0,L|232:220,1,95
356,336,53010,2,0,L|244:344,1,95
116,220,53197,6,0,L|228:212,1,95
352,328,53384,2,0,L|240:336,1,95
296,248,53571,1,0,0:0:0:0:
392,240,53664,1,0,0:0:0:0:
448,320,53758,1,0,0:0:0:0:
332,160,53851,2,0,P|416:148|484:232,1,190
300,160,54132,2,0,P|440:140|500:256,1,285
208,256,54599,5,0,0:0:0:0:
224,40,54786,1,0,0:0:0:0:
100,244,54973,5,0,0:0:0:0:
116,28,55160,1,0,0:0:0:0:
16,244,55347,6,0,B|8:292|8:292|24:348,1,95
192,328,55534,2,0,B|200:280|200:280|184:224,1,95
92,104,55721,1,0,0:0:0:0:
92,104,55815,2,0,B|84:152|84:152|100:208,1,95
264,184,56001,2,0,B|227:153|227:153|170:138,1,95
108,288,56188,2,0,B|154:270|154:270|195:229,1,95
228,64,56375,1,0,0:0:0:0:
228,64,56469,2,0,L|444:56,1,190
488,176,56749,1,0,0:0:0:0:
400,144,56843,6,0,P|400:204|420:240,1,95
432,328,57030,2,0,P|484:298|506:262,1,95
344,288,57216,1,0,0:0:0:0:
248,280,57310,1,0,0:0:0:0:
152,272,57403,1,0,0:0:0:0:
56,264,57496,1,0,0:0:0:0:
56,264,57590,2,0,P|52:164|40:48,1,190
260,88,57963,2,0,P|256:188|244:304,1,190
488,104,58338,6,0,P|496:152|480:196,1,95
400,144,58525,2,0,P|392:96|408:52,1,95,0|0,0:0|0:0,0:0:0:0:
392,228,58712,1,0,0:0:0:0:
392,228,58805,2,0,L|280:220,1,95
156,336,58992,2,0,L|268:344,1,95
396,220,59179,6,0,L|284:212,1,95
160,328,59366,2,0,L|272:336,1,95
216,248,59553,1,0,0:0:0:0:
120,240,59646,1,0,0:0:0:0:
64,320,59740,1,0,0:0:0:0:
180,160,59833,2,0,P|96:148|28:232,1,190
212,160,60114,2,0,P|72:140|12:256,1,285
312,260,60580,5,0,0:0:0:0:
256,336,60674,2,0,P|340:352|404:276,1,190
476,224,60954,1,0,0:0:0:0:
468,128,61048,1,0,0:0:0:0:
464,224,61141,1,0,0:0:0:0:
456,128,61235,1,0,0:0:0:0:
448,32,61328,5,4,0:0:0:0:
48,304,62449,1,2,0:0:0:0:
12,116,62823,2,0,B|72:176|148:124|148:124|168:164|168:164|224:28|400:24|452:164,1,570,2|0,0:0|0:0,0:0:0:0:
512,340,64319,6,0,P|440:296|348:344,1,190,2|0,0:0|0:0,0:0:0:0:
256,352,64879,2,0,L|60:344,1,190,2|0,0:0|0:0,0:0:0:0:
4,272,65440,1,2,0:0:0:0:
76,96,65814,2,0,L|80:152,11,31.6666666666667,2|0|0|0|0|0|0|0|0|0|0|0,0:0|0:0|0:0|0:0|0:0|0:0|0:0|0:0|0:0|0:0|0:0|0:0,0:0:0:0:
88,84,66562,2,0,P|220:96|360:24,1,285,2|0,0:0|0:0,0:0:0:0:
428,88,67309,5,2,0:0:0:0:
452,104,67403,1,0,0:0:0:0:
468,128,67496,1,0,0:0:0:0:
476,156,67590,1,0,0:0:0:0:
476,184,67683,2,0,L|472:300,1,95,8|0,0:0|0:0,0:0:0:0:
468,308,67963,1,0,0:0:0:0:
464,336,68057,1,0,0:0:0:0:
384,168,68244,2,0,L|380:284,2,95,0|10|0,0:0|0:0|0:0,0:0:0:0:
376,348,68805,5,2,0:0:0:0:
296,248,68991,1,0,0:0:0:0:
284,344,69178,2,0,P|224:340|176:336,1,95,8|0,0:0|0:0,0:0:0:0:
20,228,69552,1,0,0:0:0:0:
100,328,69738,1,0,0:0:0:0:
112,232,69925,2,0,P|172:236|220:240,1,95,8|0,0:0|0:0,0:0:0:0:
8,320,70300,5,2,0:0:0:0:
8,320,70393,1,0,0:0:0:0:
32,136,70580,1,0,0:0:0:0:
32,136,70674,2,0,P|24:76|12:32,1,95,8|2,0:0|0:0,0:0:0:0:
128,140,71048,2,0,P|120:200|108:244,1,95,0|0,0:0|0:0,0:0:0:0:
104,52,71421,2,0,L|224:48,1,95,10|0,0:0|0:0,0:0:0:0:
284,96,71795,2,0,L|288:152,11,31.6666666666667,2|0|0|0|0|0|8|0|0|0|0|0,0:0|0:0|0:0|0:0|0:0|0:0|0:0|0:0|0:0|0:0|0:0|0:0,0:0:0:0:
288,84,72543,2,0,P|368:72|468:152,2,190,2|8|4,0:0|0:0|0:1,0:0:0:0:
256,192,79272,12,4,85253,0:1:0:0:
104,36,97216,6,0,P|104:112|100:196,1,142.500005435944,4|0,1:2|0:0,0:0:0:0:
96,268,97496,1,0,0:0:0:0:
176,228,97590,2,0,P|180:156|180:128,1,71.2500027179719,2|0,0:0|0:0,0:0:0:0:
24,224,97777,2,0,P|28:152|28:124,1,71.2500027179719,2|0,0:0|0:0,0:0:0:0:
180,236,97963,2,0,P|184:164|184:136,1,71.2500027179719,0|2,0:0|0:0,0:0:0:0:
28,232,98150,2,0,P|32:160|32:132,1,71.2500027179719,0|2,0:0|0:0,0:0:0:0:
184,244,98337,2,0,P|188:172|188:144,1,71.2500027179719,0|2,0:0|0:0,0:0:0:0:
32,240,98524,2,0,P|36:168|36:140,1,71.2500027179719
152,320,98711,6,0,P|232:320|272:248,1,142.500005435944
272,188,98991,1,0,0:0:0:0:
268,104,99085,2,0,L|264:28,1,71.2500027179719,2|0,0:0|0:0,0:0:0:0:
396,156,99272,2,0,L|392:80,1,71.2500027179719,2|0,0:0|0:0,0:0:0:0:
276,108,99459,2,0,L|272:32,1,71.2500027179719,0|2,0:0|0:0,0:0:0:0:
404,160,99646,2,0,L|400:84,1,71.2500027179719,0|2,0:0|0:0,0:0:0:0:
284,112,99833,2,0,L|280:36,1,71.2500027179719,0|2,0:0|0:0,0:0:0:0:
412,164,100019,1,0,0:0:0:0:
408,80,100113,1,0,0:0:0:0:
480,120,100206,6,0,P|484:196|436:244,1,142.500005435944,0|0,0:0|0:0,0:0:0:0:
392,312,100487,1,0,0:0:0:0:
356,236,100580,2,0,L|272:232,1,71.2500027179719,2|0,0:0|0:0,0:0:0:0:
324,356,100767,2,0,L|240:352,1,71.2500027179719,2|0,0:0|0:0,0:0:0:0:
348,228,100954,2,0,L|264:224,1,71.2500027179719,0|2,0:0|0:0,0:0:0:0:
316,348,101141,2,0,L|232:344,1,71.2500027179719,0|2,0:0|0:0,0:0:0:0:
340,220,101328,1,0,0:0:0:0:
252,248,101421,2,0,L|96:240,1,142.500005435944,2|2,0:0|0:0,0:0:0:0:
28,304,101702,6,0,P|8:240|44:164,1,142.500005435944
120,152,101982,1,0,0:0:0:0:
204,156,102076,2,0,P|208:120|204:84,1,71.2500027179719,2|0,0:0|0:0,0:0:0:0:
60,96,102262,2,0,P|56:60|60:24,1,71.2500027179719,2|0,0:0|0:0,0:0:0:0:
212,152,102449,2,0,P|216:116|212:80,1,71.2500027179719,0|2,0:0|0:0,0:0:0:0:
68,92,102635,2,0,P|64:56|68:20,1,71.2500027179719,0|2,0:0|0:0,0:0:0:0:
220,148,102823,2,0,P|224:112|220:76,1,71.2500027179719,0|2,0:0|0:0,0:0:0:0:
76,88,103009,2,0,P|72:52|76:16,1,71.2500027179719,0|2,0:0|0:0,0:0:0:0:
408,36,103197,6,0,P|408:112|412:196,1,142.500005435944,4|0,1:2|0:0,0:0:0:0:
416,268,103477,1,0,0:0:0:0:
336,228,103571,2,0,P|332:156|332:128,1,71.2500027179719,2|0,0:0|0:0,0:0:0:0:
488,224,103758,2,0,P|484:152|484:124,1,71.2500027179719,2|0,0:0|0:0,0:0:0:0:
332,236,103944,2,0,P|328:164|328:136,1,71.2500027179719,0|2,0:0|0:0,0:0:0:0:
484,232,104131,2,0,P|480:160|480:132,1,71.2500027179719,0|2,0:0|0:0,0:0:0:0:
328,244,104318,2,0,P|324:172|324:144,1,71.2500027179719,0|2,0:0|0:0,0:0:0:0:
480,240,104505,2,0,P|476:168|476:140,1,71.2500027179719
360,320,104692,6,0,P|280:320|240:248,1,142.500005435944
240,188,104972,1,0,0:0:0:0:
244,104,105066,2,0,L|248:28,1,71.2500027179719,2|0,0:0|0:0,0:0:0:0:
116,156,105253,2,0,L|120:80,1,71.2500027179719,2|0,0:0|0:0,0:0:0:0:
236,108,105440,2,0,L|240:32,1,71.2500027179719,0|2,0:0|0:0,0:0:0:0:
108,160,105627,2,0,L|112:84,1,71.2500027179719,0|2,0:0|0:0,0:0:0:0:
228,112,105814,2,0,L|232:36,1,71.2500027179719,0|2,0:0|0:0,0:0:0:0:
100,164,106000,1,0,0:0:0:0:
104,80,106094,1,0,0:0:0:0:
32,120,106187,6,0,P|28:196|76:244,1,142.500005435944,0|0,0:0|0:0,0:0:0:0:
120,312,106468,1,0,0:0:0:0:
156,236,106561,2,0,L|240:232,1,71.2500027179719,2|0,0:0|0:0,0:0:0:0:
188,356,106748,2,0,L|272:352,1,71.2500027179719,2|0,0:0|0:0,0:0:0:0:
164,228,106935,2,0,L|248:224,1,71.2500027179719,0|2,0:0|0:0,0:0:0:0:
196,348,107122,2,0,L|280:344,1,71.2500027179719,0|2,0:0|0:0,0:0:0:0:
172,220,107309,1,0,0:0:0:0:
260,248,107402,2,0,L|416:240,1,142.500005435944,2|2,0:0|0:0,0:0:0:0:
484,304,107683,6,0,P|504:240|468:164,1,142.500005435944,0|2,0:0|0:0,0:0:0:0:
392,152,107963,1,0,0:0:0:0:
452,92,108057,1,2,0:0:0:0:
368,72,108150,1,0,0:0:0:0:
308,132,108244,1,2,0:0:0:0:
288,48,108337,1,0,0:0:0:0:
224,104,108431,1,0,0:0:0:0:
208,20,108524,5,2,0:0:0:0:
140,72,108618,1,0,0:0:0:0:
156,156,108711,1,0,0:0:0:0:
236,192,108805,1,2,0:0:0:0:
248,276,108898,1,0,0:0:0:0:
184,332,108991,1,2,0:0:0:0:
104,304,109085,1,0,0:0:0:0:
92,220,109178,6,0,B|168:240|168:240|236:192,1,161.500003080368,4|0,1:2|0:0,0:0:0:0:
324,212,109459,1,0,2:0:0:0:
412,228,109552,2,0,L|420:308,1,80.750001540184,0|0,0:0|2:0,0:0:0:0:
504,152,109739,2,0,L|496:72,1,80.750001540184,0|0,0:0|2:0,0:0:0:0:
416,224,109926,2,0,L|424:304,1,80.750001540184,0|0,0:0|2:0,0:0:0:0:
508,148,110113,2,0,L|500:68,1,80.750001540184,0|0,0:0|2:0,0:0:0:0:
420,220,110300,2,0,L|428:300,1,80.750001540184,0|0,0:0|2:0,0:0:0:0:
512,144,110487,2,0,L|504:64,1,80.750001540184
376,144,110674,6,0,P|296:132|240:184,1,161.500003080368
248,264,110954,1,0,2:0:0:0:
328,300,111048,2,0,P|336:268|320:204,1,80.750001540184,0|0,0:0|2:0,0:0:0:0:
164,228,111234,2,0,P|156:260|172:324,1,80.750001540184,0|0,0:0|2:0,0:0:0:0:
324,296,111421,2,0,P|332:264|316:200,1,80.750001540184,0|0,0:0|2:0,0:0:0:0:
160,224,111607,2,0,P|152:256|168:320,1,80.750001540184,0|0,0:0|2:0,0:0:0:0:
320,292,111795,2,0,P|328:260|312:196,1,80.750001540184,0|0,0:0|2:0,0:0:0:0:
156,220,111982,1,0,0:0:0:0:
80,268,112076,1,0,0:0:0:0:
64,176,112169,6,0,P|136:180|200:100,1,161.500003080368
108,96,112449,1,0,2:0:0:0:
256,56,112543,2,0,L|356:52,1,80.750001540184,0|0,0:0|2:0,0:0:0:0:
260,188,112730,2,0,L|360:184,1,80.750001540184,0|0,0:0|2:0,0:0:0:0:
264,64,112917,2,0,L|364:60,1,80.750001540184,0|0,0:0|2:0,0:0:0:0:
268,196,113104,2,0,L|368:192,1,80.750001540184,0|0,0:0|2:0,0:0:0:0:
272,72,113291,2,0,L|372:68,1,80.750001540184,0|0,0:0|2:0,0:0:0:0:
276,204,113478,2,0,L|376:200,1,80.750001540184,0|0,0:0|0:0,0:0:0:0:
472,200,113664,6,0,P|504:284|472:348,1,161.500003080368
420,272,113945,1,0,2:0:0:0:
388,356,114038,1,0,0:0:0:0:
388,356,114132,1,0,2:0:0:0:
336,284,114225,1,0,0:0:0:0:
336,284,114319,1,0,2:0:0:0:
304,368,114412,1,0,0:0:0:0:
304,368,114505,1,0,2:0:0:0:
248,296,114599,1,0,0:0:0:0:
248,296,114692,1,0,2:0:0:0:
160,304,114786,2,0,P|116:316|84:352,1,80.750001540184,0|0,0:0|2:0,0:0:0:0:
0,208,114973,2,0,P|30:234|68:243,1,80.750001540184
68,72,115160,5,0,0:0:0:0:
72,160,115253,1,0,0:0:0:0:
160,156,115347,1,0,0:0:0:0:
156,68,115440,1,0,0:0:0:0:
72,68,115534,5,0,0:0:0:0:
68,156,115627,1,0,0:0:0:0:
156,159,115721,1,0,0:0:0:0:
160,71,115814,1,0,0:0:0:0:
80,64,115907,5,0,0:0:0:0:
68,151,116000,1,0,0:0:0:0:
155,161,116094,1,0,0:0:0:0:
167,74,116187,1,0,0:0:0:0:
88,56,116281,5,0,0:0:0:0:
68,141,116374,1,0,0:0:0:0:
154,159,116468,1,0,0:0:0:0:
173,73,116561,1,0,0:0:0:0:
248,212,116655,5,0,0:0:0:0:
252,124,116748,1,0,0:0:0:0:
340,128,116842,1,0,0:0:0:0:
336,216,116935,1,0,0:0:0:0:
252,216,117029,5,0,0:0:0:0:
248,128,117122,1,0,0:0:0:0:
336,125,117216,1,0,0:0:0:0:
340,213,117309,1,0,0:0:0:0:
260,220,117402,5,0,0:0:0:0:
248,133,117495,1,0,0:0:0:0:
335,123,117589,1,0,0:0:0:0:
347,210,117682,1,0,0:0:0:0:
268,228,117776,5,0,0:0:0:0:
248,143,117869,1,0,0:0:0:0:
334,125,117963,1,0,0:0:0:0:
353,211,118056,1,0,0:0:0:0:
424,284,118150,2,0,L|464:280,15,40.375000770092,0|0|0|0|0|0|0|0|0|0|0|0|0|0|0|0,0:0|0:0|0:0|0:0|0:0|0:0|0:0|0:0|0:0|0:0|0:0|0:0|0:0|0:0|0:0|0:0,0:0:0:0:
392,352,118898,2,0,L|352:348,15,40.375000770092,0|0|0|0|0|0|0|0|0|0|0|0|0|0|0|0,0:0|0:0|0:0|0:0|0:0|0:0|0:0|0:0|0:0|0:0|0:0|0:0|0:0|0:0|0:0|0:0,0:0:0:0:
276,352,119646,6,0,L|272:304,1,40.375000770092
192,336,119739,2,0,L|188:288,1,40.375000770092
108,320,119833,2,0,L|104:272,1,40.375000770092
24,304,119926,2,0,L|20:256,1,40.375000770092
76,152,120019,2,0,L|80:200,1,40.375000770092
160,168,120112,2,0,L|164:216,1,40.375000770092
244,184,120206,2,0,L|248:232,1,40.375000770092
328,200,120299,2,0,L|332:248,1,40.375000770092
288,360,120393,6,0,L|284:312,1,40.375000770092
204,344,120486,2,0,L|200:296,1,40.375000770092
120,328,120580,2,0,L|116:280,1,40.375000770092
36,312,120673,2,0,L|32:264,1,40.375000770092
88,160,120766,2,0,L|92:208,1,40.375000770092
172,176,120859,2,0,L|176:224,1,40.375000770092
256,192,120953,2,0,L|260:240,1,40.375000770092
340,208,121046,2,0,L|344:256,1,40.375000770092,0|0,0:0|0:0,0:0:0:0:
380,316,121141,5,0,0:0:0:0:
468,188,121328,1,0,2:0:0:0:
380,68,121515,2,0,B|208:104|220:44|48:84,1,323.000006160736,2|2,2:0|2:0,0:0:0:0:
512,68,122262,5,0,0:0:0:0:
0,316,122636,6,0,P|88:356|164:284,1,190
76,252,122917,1,0,0:0:0:0:
164,212,123010,1,0,0:0:0:0:
252,248,123104,1,0,0:0:0:0:
164,212,123197,1,0,0:0:0:0:
260,216,123291,1,0,0:0:0:0:
164,212,123384,1,0,0:0:0:0:
256,188,123477,1,0,0:0:0:0:
164,212,123571,1,0,0:0:0:0:
244,160,123664,1,0,0:0:0:0:
164,212,123758,1,0,0:0:0:0:
228,140,123851,1,0,0:0:0:0:
164,212,123945,2,0,P|168:264|172:320,1,95
304,340,124132,6,0,P|368:264|480:272,1,190
404,344,124412,1,0,0:0:0:0:
488,168,124505,1,0,0:0:0:0:
496,64,124599,1,0,0:0:0:0:
488,168,124692,1,0,0:0:0:0:
464,64,124786,1,0,0:0:0:0:
488,168,124879,1,0,0:0:0:0:
436,76,124973,1,0,0:0:0:0:
488,168,125066,1,0,0:0:0:0:
408,100,125160,1,0,0:0:0:0:
488,168,125253,1,0,0:0:0:0:
392,128,125347,1,0,0:0:0:0:
488,168,125440,1,0,0:0:0:0:
385,160,125534,1,0,0:0:0:0:
304,232,125627,6,0,B|296:160|296:160|312:116|312:116|300:32,1,190
216,96,125907,1,0,0:0:0:0:
128,60,126001,1,0,0:0:0:0:
143,153,126094,1,0,0:0:0:0:
128,60,126188,1,0,0:0:0:0:
110,152,126281,1,0,0:0:0:0:
128,60,126375,1,0,0:0:0:0:
77,139,126468,1,0,0:0:0:0:
128,60,126562,1,0,0:0:0:0:
51,115,126655,1,0,0:0:0:0:
128,60,126748,1,0,0:0:0:0:
35,81,126842,1,0,0:0:0:0:
128,60,126935,2,0,L|240:64,1,95
200,216,127122,6,0,B|160:244|120:228|120:228|116:256|116:256|76:228|20:256,1,190
64,324,127403,1,0,0:0:0:0:
184,312,127496,1,0,0:0:0:0:
275,284,127590,1,0,0:0:0:0:
184,312,127683,1,0,0:0:0:0:
279,317,127777,1,0,0:0:0:0:
184,312,127870,1,0,0:0:0:0:
272,348,127963,1,0,0:0:0:0:
340,280,128057,1,0,0:0:0:0:
292,200,128150,1,0,0:0:0:0:
200,216,128244,1,0,0:0:0:0:
144,140,128337,1,0,0:0:0:0:
176,52,128431,1,0,0:0:0:0:
268,36,128524,1,0,0:0:0:0:
332,108,128618,6,0,P|432:132|504:52,1,190
404,48,128898,1,0,0:0:0:0:
420,236,128991,1,0,0:0:0:0:
480,312,129085,1,0,0:0:0:0:
420,236,129178,1,0,0:0:0:0:
448,328,129272,1,0,0:0:0:0:
420,236,129365,1,0,0:0:0:0:
412,332,129459,1,0,0:0:0:0:
420,236,129552,1,0,0:0:0:0:
376,320,129646,1,0,0:0:0:0:
420,236,129739,5,2,2:0:0:0:
348,300,129833,1,2,2:0:0:0:
272,244,129926,1,2,2:0:0:0:
8,300,130113,6,0,L|216:292,1,190
180,200,130393,1,0,0:0:0:0:
244,128,130487,1,0,0:0:0:0:
152,104,130580,1,0,0:0:0:0:
244,128,130674,1,0,0:0:0:0:
160,80,130767,1,0,0:0:0:0:
244,128,130861,1,0,0:0:0:0:
176,60,130954,1,0,0:0:0:0:
244,128,131048,1,0,0:0:0:0:
200,44,131141,1,0,0:0:0:0:
244,128,131234,1,0,0:0:0:0:
224,36,131328,1,0,0:0:0:0:
244,128,131421,1,0,0:0:0:0:
256,32,131515,1,0,0:0:0:0:
200,208,131608,6,0,B|296:232|292:172|392:200,1,190
340,284,131889,1,0,0:0:0:0:
376,108,131982,1,0,0:0:0:0:
460,64,132076,1,0,0:0:0:0:
376,108,132169,1,0,0:0:0:0:
468,88,132262,1,0,0:0:0:0:
376,108,132356,1,0,0:0:0:0:
469,119,132449,1,0,0:0:0:0:
376,108,132543,1,0,0:0:0:0:
461,147,132636,1,0,0:0:0:0:
376,108,132730,2,0,P|372:52|368:8,1,95
384,200,132917,2,0,P|388:256|392:300,1,95
308,344,133104,6,0,B|216:320|216:376|120:344,1,190
32,312,133384,1,0,0:0:0:0:
28,216,133477,1,0,0:0:0:0:
116,184,133571,1,0,0:0:0:0:
176,256,133664,1,0,0:0:0:0:
176,256,133758,1,0,0:0:0:0:
48,120,133851,6,0,P|88:96|144:96,1,95
296,140,134038,2,0,P|256:164|200:164,1,95
228,72,134225,1,0,0:0:0:0:
320,48,134319,1,0,0:0:0:0:
392,112,134412,1,0,0:0:0:0:
372,204,134505,1,0,0:0:0:0:
280,236,134599,6,0,P|280:280|264:336,1,95
104,168,134786,2,0,P|104:124|120:68,1,95
176,256,134973,1,0,0:0:0:0:
84,276,135066,1,0,0:0:0:0:
176,256,135160,1,0,0:0:0:0:
93,302,135253,1,0,0:0:0:0:
176,256,135347,1,0,0:0:0:0:
107,321,135440,1,0,0:0:0:0:
176,256,135534,1,0,0:0:0:0:
125,336,135627,1,0,0:0:0:0:
176,256,135720,1,0,0:0:0:0:
149,347,135814,1,0,0:0:0:0:
176,256,135907,2,0,L|303:253,1,95
368,164,136094,6,0,P|444:160|516:272,1,190
420,248,136375,1,0,0:0:0:0:
268,164,136468,1,0,0:0:0:0:
319,83,136562,1,0,0:0:0:0:
268,164,136655,1,0,0:0:0:0:
283,70,136748,1,0,0:0:0:0:
268,164,136842,1,0,0:0:0:0:
243,72,136935,1,0,0:0:0:0:
268,164,137029,1,0,0:0:0:0:
210,88,137122,1,0,0:0:0:0:
268,164,137216,1,0,0:0:0:0:
186,115,137309,1,0,0:0:0:0:
268,164,137403,1,0,0:0:0:0:
174,151,137496,1,0,0:0:0:0:
48,240,137590,6,0,B|84:228|120:248|120:248|124:224|124:224|164:256|220:228,1,190
68,152,137870,1,0,0:0:0:0:
72,328,137963,1,0,0:0:0:0:
168,324,138057,1,0,0:0:0:0:
264,316,138150,1,0,0:0:0:0:
324,244,138244,1,0,0:0:0:0:
264,316,138337,1,0,0:0:0:0:
348,268,138431,1,0,0:0:0:0:
264,316,138524,1,0,0:0:0:0:
360,300,138618,1,0,0:0:0:0:
264,316,138711,1,0,0:0:0:0:
360,332,138805,1,0,0:0:0:0:
264,316,138898,1,0,0:0:0:0:
348,360,138991,1,0,0:0:0:0:
424,216,139085,6,0,B|388:120|448:116|424:24,1,190
500,160,139365,1,0,0:0:0:0:
344,64,139459,2,0,L|244:60,2,95,0|0|0,0:0|0:0|0:0,0:0:0:0:
156,104,139739,2,0,P|144:152|164:200,1,95
248,240,139926,2,0,P|260:192|240:144,1,95
160,280,140113,1,0,0:0:0:0:
80,232,140206,1,0,0:0:0:0:
12,300,140300,1,0,0:0:0:0:
92,352,140393,1,0,0:0:0:0:
92,352,140487,1,0,0:0:0:0:
248,336,140580,6,0,B|316:344|316:344|368:320|368:320|448:328,1,190
492,252,140861,1,0,0:0:0:0:
400,236,140954,1,0,0:0:0:0:
460,160,141048,1,0,0:0:0:0:
400,236,141141,1,0,0:0:0:0:
428,144,141234,1,0,0:0:0:0:
400,236,141328,1,0,0:0:0:0:
392,140,141421,1,0,0:0:0:0:
400,236,141515,1,0,0:0:0:0:
356,152,141608,1,0,0:0:0:0:
400,236,141702,5,2,2:0:0:0:
328,172,141795,1,2,2:0:0:0:
312,268,141889,1,2,2:0:0:0:
16,60,142076,6,0,P|108:48|168:132,1,190
72,132,142356,1,0,0:0:0:0:
104,252,142449,1,0,0:0:0:0:
196,232,142543,1,0,0:0:0:0:
104,252,142636,1,0,0:0:0:0:
196,272,142730,1,0,0:0:0:0:
104,252,142823,1,0,0:0:0:0:
180,308,142917,1,0,0:0:0:0:
104,252,143010,1,0,0:0:0:0:
152,336,143104,1,0,0:0:0:0:
104,252,143197,1,0,0:0:0:0:
116,348,143291,1,0,0:0:0:0:
104,252,143384,1,0,0:0:0:0:
76,344,143477,1,0,0:0:0:0:
272,336,143571,6,0,B|324:348|352:336|352:336|376:344|376:344|412:328|476:344,1,190
508,256,143851,1,0,0:0:0:0:
412,248,143945,1,0,0:0:0:0:
465,170,144038,1,0,0:0:0:0:
412,248,144132,1,0,0:0:0:0:
437,156,144225,1,0,0:0:0:0:
412,248,144319,1,0,0:0:0:0:
408,153,144412,1,0,0:0:0:0:
412,248,144505,1,0,0:0:0:0:
375,159,144599,1,0,0:0:0:0:
412,248,144692,1,0,0:0:0:0:
348,177,144786,1,0,0:0:0:0:
412,248,144879,1,0,0:0:0:0:
326,204,144973,1,0,0:0:0:0:
164,296,145066,6,0,P|240:328|336:268,1,190
244,240,145347,1,0,0:0:0:0:
156,204,145440,1,0,0:0:0:0:
76,260,145534,1,0,0:0:0:0:
92,352,145627,1,0,0:0:0:0:
92,352,145720,1,0,0:0:0:0:
64,168,145814,6,0,B|56:144|56:144|68:56,1,95
248,56,146001,2,0,B|256:80|256:80|244:168,1,95
152,120,146188,2,0,B|144:96|144:96|156:8,1,95
336,8,146375,2,0,B|344:32|344:32|332:120,1,95
324,192,146562,6,0,P|400:192|464:244,1,142.500005435944
244,240,146842,1,0,0:0:0:0:
332,280,146935,2,0,P|396:300|436:368,1,142.500005435944
148,236,147309,6,0,P|100:232|64:232,1,71.2500027179719
108,312,147496,1,0,0:0:0:0:
192,316,147590,1,0,0:0:0:0:
168,148,147683,2,0,P|204:152|252:152,1,71.2500027179719
208,72,147870,1,0,0:0:0:0:
488,76,148057,6,0,P|424:56|356:108,1,142.500005435944
348,124,148306,1,0,0:0:0:0:
352,144,148368,1,0,0:0:0:0:
356,164,148431,1,0,0:0:0:0:
388,332,148618,1,0,0:0:0:0:
488,192,148805,5,0,0:0:0:0:
24,192,149178,5,0,0:0:0:0:
488,276,149552,6,0,P|420:256|360:312,1,142.500005435944
212,260,149833,1,0,0:0:0:0:
160,324,149926,2,0,P|228:344|288:288,1,142.500005435944
124,52,150300,6,0,B|120:88|120:88|132:124,1,71.2500027179719
204,76,150487,1,0,0:0:0:0:
212,160,150580,1,0,0:0:0:0:
368,184,150674,2,0,B|372:220|372:220|360:256,1,71.2500027179719
288,208,150861,1,0,0:0:0:0:
284,32,151048,6,0,L|452:40,1,142.500005435944
448,56,151297,1,0,0:0:0:0:
444,76,151359,1,0,0:0:0:0:
440,96,151421,1,0,0:0:0:0:
480,296,151608,2,0,L|488:260,3,35.625001358986,0|0|0|0,0:0|0:0|0:0|0:0,0:0:0:0:
480,248,151795,5,0,0:0:0:0:
32,248,152169,5,0,0:0:0:0:
492,164,152543,2,0,P|436:176|360:128,1,142.500005435944
224,256,152823,1,0,0:0:0:0:
176,184,152917,2,0,P|232:172|308:220,1,142.500005435944
296,32,153291,6,0,P|296:72|292:112,1,71.2500027179719
216,64,153477,1,0,0:0:0:0:
132,60,153571,1,0,0:0:0:0:
24,172,153664,2,0,P|24:132|28:92,1,71.2500027179719
104,140,153850,1,0,0:0:0:0:
304,304,154038,6,0,B|372:324|376:280|448:304,1,142.500005435944
468,316,154287,1,0,0:0:0:0:
464,332,154350,1,0,0:0:0:0:
460,344,154412,1,0,0:0:0:0:
224,256,154599,1,0,0:0:0:0:
452,32,154786,6,0,B|448:80|448:80|460:120|460:120|456:180,1,142.500005435944
292,152,155066,1,0,0:0:0:0:
368,111,155160,2,0,B|372:164|372:164|360:204|360:204|364:252,1,142.500005435944
16,272,155534,6,0,P|68:296|144:252,1,142.500005435944
20,144,155814,1,0,0:0:0:0:
76,208,155907,2,0,P|100:140|64:72,1,142.500005435944
292,48,156281,6,0,P|252:48|208:40,1,71.2500027179719
140,40,156468,1,0,0:0:0:0:
180,116,156562,1,0,0:0:0:0:
304,216,156655,2,0,P|264:216|220:208,1,71.2500027179719
268,132,156842,1,0,0:0:0:0:
476,344,157029,6,0,P|508:288|456:224,1,142.500005435944,2|0,0:0|0:0,0:0:0:0:
452,200,157278,1,0,0:0:0:0:
436,204,157340,1,0,0:0:0:0:
420,208,157403,1,2,0:0:0:0:
492,52,157590,1,0,0:0:0:0:
388,292,157777,6,0,B|248:344|252:248|100:296,1,285.000010871888,0|2,0:0|0:0,0:0:0:0:
44,44,158524,5,0,0:0:0:0:
56,168,158618,1,0,0:0:0:0:
60,48,158711,5,0,0:0:0:0:
72,172,158805,1,0,0:0:0:0:
72,52,158898,5,0,0:0:0:0:
84,176,158992,1,0,0:0:0:0:
88,56,159085,5,0,0:0:0:0:
100,180,159179,1,0,0:0:0:0:
164,48,159272,5,0,0:0:0:0:
176,172,159366,1,0,0:0:0:0:
180,52,159459,5,0,0:0:0:0:
192,176,159553,1,0,0:0:0:0:
192,56,159646,5,0,0:0:0:0:
204,180,159740,1,0,0:0:0:0:
208,60,159833,5,0,0:0:0:0:
220,184,159927,1,0,0:0:0:0:
288,48,160019,5,0,0:0:0:0:
300,172,160113,1,0,0:0:0:0:
304,52,160206,5,0,0:0:0:0:
316,176,160300,1,0,0:0:0:0:
316,56,160393,5,0,0:0:0:0:
328,180,160487,1,0,0:0:0:0:
332,60,160580,5,0,0:0:0:0:
344,184,160674,1,0,0:0:0:0:
408,52,160767,5,0,0:0:0:0:
420,176,160861,1,0,0:0:0:0:
424,56,160954,5,0,0:0:0:0:
436,180,161048,1,0,0:0:0:0:
436,60,161141,5,0,0:0:0:0:
448,184,161235,1,0,0:0:0:0:
452,64,161328,5,0,0:0:0:0:
464,188,161422,1,0,0:0:0:0:
448,348,161515,5,0,0:0:0:0:
328,320,161608,1,0,0:0:0:0:
444,328,161702,5,0,0:0:0:0:
324,300,161795,1,0,0:0:0:0:
440,308,161889,5,0,0:0:0:0:
320,280,161982,1,0,0:0:0:0:
436,288,162076,5,0,0:0:0:0:
316,260,162169,1,0,0:0:0:0:
196,336,162262,5,0,0:0:0:0:
76,308,162355,1,0,0:0:0:0:
192,316,162449,5,0,0:0:0:0:
72,288,162542,1,0,0:0:0:0:
188,296,162636,5,0,0:0:0:0:
68,268,162729,1,0,0:0:0:0:
184,276,162823,5,0,0:0:0:0:
64,248,162916,1,0,0:0:0:0:
56,44,163010,5,0,0:0:0:0:
176,72,163103,1,0,0:0:0:0:
60,64,163197,5,0,0:0:0:0:
180,92,163290,1,0,0:0:0:0:
64,84,163384,5,0,0:0:0:0:
184,112,163477,1,0,0:0:0:0:
68,104,163571,5,0,0:0:0:0:
188,132,163664,1,0,0:0:0:0:
308,56,163757,5,0,0:0:0:0:
428,84,163850,1,0,0:0:0:0:
312,76,163944,5,0,0:0:0:0:
432,104,164037,1,0,0:0:0:0:
316,96,164131,5,0,0:0:0:0:
436,124,164224,1,0,0:0:0:0:
320,116,164318,5,0,0:0:0:0:
440,144,164411,1,0,0:0:0:0:
460,336,164505,5,0,0:0:0:0:
504,232,164599,1,0,0:0:0:0:
460,336,164692,1,0,0:0:0:0:
476,224,164786,1,0,0:0:0:0:
460,336,164879,1,0,0:0:0:0:
448,224,164973,1,0,0:0:0:0:
460,336,165066,1,0,0:0:0:0:
420,228,165160,1,0,0:0:0:0:
460,336,165253,1,0,0:0:0:0:
396,240,165347,1,0,0:0:0:0:
460,336,165440,1,0,0:0:0:0:
372,260,165534,1,0,0:0:0:0:
460,336,165627,1,0,0:0:0:0:
360,284,165720,1,0,0:0:0:0:
460,336,165814,1,0,0:0:0:0:
348,312,165907,1,0,0:0:0:0:
192,232,166001,5,0,0:0:0:0:
236,336,166095,1,0,0:0:0:0:
192,232,166188,1,0,0:0:0:0:
208,344,166282,1,0,0:0:0:0:
192,232,166375,1,0,0:0:0:0:
180,344,166469,1,0,0:0:0:0:
192,232,166562,1,0,0:0:0:0:
152,340,166656,1,0,0:0:0:0:
192,232,166749,1,0,0:0:0:0:
128,328,166843,1,0,0:0:0:0:
192,232,166936,1,0,0:0:0:0:
104,308,167030,1,0,0:0:0:0:
192,232,167123,1,0,0:0:0:0:
92,284,167216,1,0,0:0:0:0:
192,232,167310,1,0,0:0:0:0:
80,256,167403,1,0,0:0:0:0:
184,20,167496,6,0,L|188:76,1,47.5
120,176,167590,2,0,L|116:120,1,47.5
196,24,167683,2,0,L|200:80,1,47.5
132,180,167777,2,0,L|128:124,1,47.5
208,28,167870,2,0,L|212:84,1,47.5
144,184,167964,2,0,L|140:128,1,47.5
220,32,168057,2,0,L|224:88,1,47.5
156,188,168151,2,0,L|152:132,1,47.5
308,56,168244,6,0,L|312:112,1,47.5
244,212,168338,2,0,L|240:156,1,47.5
320,60,168431,2,0,L|324:116,1,47.5
256,216,168525,2,0,L|252:160,1,47.5
332,64,168618,2,0,L|336:120,1,47.5
268,220,168712,2,0,L|264:164,1,47.5
344,68,168805,2,0,L|348:124,1,47.5
280,224,168899,2,0,L|276:168,1,47.5
420,48,168991,6,0,L|424:92,31,23.75,0|0|0|0|0|0|0|0|0|0|0|0|0|0|0|0|0|0|0|0|0|0|0|0|0|0|0|0|0|0|0|0,0:0|0:0|0:0|0:0|0:0|0:0|0:0|0:0|0:0|0:0|0:0|0:0|0:0|0:0|0:0|0:0|0:0|0:0|0:0|0:0|0:0|0:0|0:0|0:0|0:0|0:0|0:0|0:0|0:0|0:0|0:0|0:0,0:0:0:0:
440,96,169739,6,0,L|444:140,23,23.75,0|0|0|0|0|0|0|0|0|0|0|0|0|0|0|0|0|0|0|0|0|0|0|0,0:0|0:0|0:0|0:0|0:0|0:0|0:0|0:0|0:0|0:0|0:0|0:0|0:0|0:0|0:0|0:0|0:0|0:0|0:0|0:0|0:0|0:0|0:0|0:0,0:0:0:0:
460,136,170300,5,0,0:0:0:0:
256,192,170347,12,0,173477,0:0:0:0:
472,332,174973,5,0,0:0:0:0:
376,340,175067,1,0,0:0:0:0:
368,244,175160,1,0,0:0:0:0:
464,236,175253,1,0,0:0:0:0:
412,156,175347,2,0,L|408:48,1,95
308,160,175534,2,0,L|304:52,1,95
272,252,175721,6,0,L|276:360,1,95
168,256,175908,2,0,L|172:364,1,95
76,352,176095,1,0,0:0:0:0:
72,256,176188,1,0,0:0:0:0:
56,348,176281,1,0,0:0:0:0:
52,252,176374,1,0,0:0:0:0:
60,28,176468,5,0,0:0:0:0:
116,144,176561,1,0,0:0:0:0:
80,32,176654,1,0,0:0:0:0:
136,148,176747,1,0,0:0:0:0:
100,36,176842,2,0,L|212:36,1,95
152,152,177029,2,0,L|264:152,1,95
472,64,177216,6,0,P|412:32|300:96,1,190
416,332,177964,5,0,0:0:0:0:
444,184,178057,1,0,0:0:0:0:
340,280,178151,1,0,0:0:0:0:
480,268,178244,1,0,0:0:0:0:
356,192,178338,2,0,P|312:192|268:232,1,95
196,276,178524,2,0,P|152:276|108:236,1,95
20,224,178711,5,0,0:0:0:0:
32,128,178805,1,0,0:0:0:0:
124,156,178898,2,0,L|116:56,1,95
28,228,179272,5,0,0:0:0:0:
40,132,179366,1,0,0:0:0:0:
132,160,179459,2,0,L|356:164,1,190
424,236,180020,1,0,0:0:0:0:
496,140,180207,2,0,L|492:36,1,95
416,32,180487,2,0,P|388:96|432:168,1,142.5
40,332,180954,5,0,0:0:0:0:
136,340,181048,1,0,0:0:0:0:
144,244,181141,1,0,0:0:0:0:
48,236,181234,1,0,0:0:0:0:
100,156,181328,2,0,L|104:48,1,95
204,160,181515,2,0,L|208:52,1,95
240,252,181702,6,0,L|236:360,1,95
344,256,181889,2,0,L|340:364,1,95
436,352,182076,1,0,0:0:0:0:
440,256,182169,1,0,0:0:0:0:
456,348,182262,1,0,0:0:0:0:
460,252,182355,1,0,0:0:0:0:
452,28,182449,5,0,0:0:0:0:
396,144,182542,1,0,0:0:0:0:
432,32,182635,1,0,0:0:0:0:
376,148,182728,1,0,0:0:0:0:
412,36,182823,2,0,L|300:36,1,95
360,152,183010,2,0,L|248:152,1,95
40,64,183197,6,0,P|100:32|212:96,1,190
96,332,183945,5,0,0:0:0:0:
68,184,184038,1,0,0:0:0:0:
172,280,184132,1,0,0:0:0:0:
32,268,184225,1,0,0:0:0:0:
156,192,184319,2,0,P|200:192|244:232,1,95
316,276,184505,2,0,P|360:276|404:236,1,95
492,224,184692,5,0,0:0:0:0:
480,128,184786,1,0,0:0:0:0:
388,156,184880,2,0,L|396:56,1,95
484,228,185253,5,0,0:0:0:0:
472,132,185347,1,0,0:0:0:0:
380,160,185440,2,0,L|156:164,2,190,0|0|0,0:0|0:0|0:0,0:0:0:0:
388,256,185908,1,0,0:0:0:0:
388,256,186001,1,0,0:0:0:0:
388,256,186095,1,0,0:0:0:0:
388,256,186188,5,0,0:0:0:0:
280,72,186375,1,2,2:0:0:0:
192,260,186562,1,0,0:0:0:0:
40,84,186936,6,0,P|28:140|56:184,1,95
128,132,187123,2,0,P|140:76|112:32,1,95
116,224,187310,1,0,0:0:0:0:
116,224,187403,2,0,P|168:220|208:168,1,95
44,168,187590,2,0,P|22:216|47:276,1,95
128,132,187777,2,0,P|99:89|34:81,1,95
92,312,187964,1,0,0:0:0:0:
92,312,188057,2,0,L|312:316,1,190
408,288,188338,1,0,0:0:0:0:
328,236,188431,6,0,P|408:200|496:260,2,190,0|0|0,0:0|0:0|0:0,0:0:0:0:
232,252,188898,1,0,0:0:0:0:
224,156,188992,1,0,0:0:0:0:
316,136,189085,2,0,B|184:176|176:40|32:84,1,285
316,48,189552,1,0,0:0:0:0:
48,168,189739,1,0,0:0:0:0:
392,96,189926,6,0,L|504:92,1,95
488,260,190113,2,0,L|376:264,1,95
444,176,190300,1,0,0:0:0:0:
444,176,190394,2,0,L|332:180,1,95
312,352,190581,2,0,L|308:240,1,95
144,200,190767,2,0,L|256:196,1,95
276,24,190954,2,0,L|280:136,1,95
184,16,191141,2,0,L|188:128,2,95,0|0|0,0:0|0:0|0:0,0:0:0:0:
92,276,191422,6,0,P|52:176|116:104,1,190
196,120,191702,2,0,P|236:220|172:292,1,190
144,200,191982,1,0,0:0:0:0:
464,336,192169,5,0,0:0:0:0:
264,344,192356,1,0,0:0:0:0:
504,244,192543,5,0,0:0:0:0:
304,252,192730,1,0,0:0:0:0:
472,84,192917,6,0,P|484:140|456:184,1,95
384,132,193104,2,0,P|372:76|400:32,1,95
396,224,193291,1,0,0:0:0:0:
396,224,193384,2,0,P|344:220|304:168,1,95
468,168,193571,2,0,P|490:216|465:276,1,95
384,132,193758,2,0,P|413:89|478:81,1,95
420,312,193945,1,0,0:0:0:0:
420,312,194038,2,0,L|200:316,1,190
104,288,194319,1,0,0:0:0:0:
184,236,194412,6,0,P|104:200|16:260,2,190,0|0|0,0:0|0:0|0:0,0:0:0:0:
280,252,194879,1,0,0:0:0:0:
288,156,194973,1,0,0:0:0:0:
196,136,195066,2,0,B|328:176|336:40|480:84,1,285
196,48,195533,1,0,0:0:0:0:
464,168,195720,1,0,0:0:0:0:
120,96,195907,6,0,L|8:92,1,95
24,260,196094,2,0,L|136:264,1,95
68,176,196281,1,0,0:0:0:0:
68,176,196375,2,0,L|180:180,1,95
200,352,196562,2,0,L|204:240,1,95
368,200,196748,2,0,L|256:196,1,95
236,24,196935,2,0,L|232:136,1,95
328,16,197122,2,0,L|324:128,2,95,0|0|0,0:0|0:0|0:0,0:0:0:0:
420,276,197403,6,0,P|460:176|396:104,1,190
316,120,197683,2,0,P|276:220|340:292,1,190
368,200,197964,2,0,L|52:216,1,285
8,128,198338,1,0,0:0:0:0:
8,128,198431,1,0,0:0:0:0:
8,128,198524,1,0,0:0:0:0:
8,128,198618,1,0,0:0:0:0:
8,128,198711,1,0,0:0:0:0:
8,128,198805,1,0,0:0:0:0:
8,128,198898,6,0,B|0:80|0:80|16:24,1,95
192,56,199085,2,0,B|200:104|200:104|184:160,1,95
92,280,199272,1,0,0:0:0:0:
92,280,199366,2,0,B|84:232|84:232|100:176,1,95
264,200,199552,2,0,B|227:231|227:231|170:246,1,95
108,96,199739,2,0,B|154:114|154:114|195:155,1,95
228,320,199926,1,0,0:0:0:0:
228,320,200020,2,0,L|444:328,1,190
488,208,200300,1,0,0:0:0:0:
400,240,200394,6,0,P|400:180|420:144,1,95
432,56,200581,2,0,P|484:86|506:122,1,95
344,96,200767,1,0,0:0:0:0:
248,104,200861,1,0,0:0:0:0:
152,112,200954,1,0,0:0:0:0:
56,120,201048,2,0,B|72:192|36:240|36:240|72:232|72:232|36:296|80:360,1,285
284,268,201515,2,0,P|192:236|140:316,1,190
488,280,201889,6,0,P|496:232|480:188,1,95
400,240,202076,2,0,P|392:288|408:332,1,95,0|0,0:0|0:0,0:0:0:0:
392,156,202263,1,0,0:0:0:0:
392,156,202356,2,0,L|280:164,1,95
156,48,202543,2,0,L|268:40,1,95
396,164,202730,6,0,L|284:172,1,95
160,56,202917,2,0,L|272:48,1,95
216,136,203104,1,0,0:0:0:0:
120,144,203197,1,0,0:0:0:0:
64,64,203291,1,0,0:0:0:0:
180,224,203384,2,0,P|96:236|28:152,1,190
212,224,203665,2,0,P|72:244|12:128,1,285
304,128,204132,5,0,0:0:0:0:
288,344,204319,1,0,0:0:0:0:
412,140,204506,5,0,0:0:0:0:
396,356,204693,1,0,0:0:0:0:
496,140,204880,6,0,B|504:92|504:92|488:36,1,95
320,56,205067,2,0,B|312:104|312:104|328:160,1,95
420,280,205254,1,0,0:0:0:0:
420,280,205348,2,0,B|428:232|428:232|412:176,1,95
248,200,205534,2,0,B|285:231|285:231|342:246,1,95
404,96,205721,2,0,B|358:114|358:114|317:155,1,95
284,320,205908,1,0,0:0:0:0:
284,320,206002,2,0,L|68:328,1,190
24,208,206282,1,0,0:0:0:0:
112,240,206376,6,0,P|112:180|92:144,1,95
80,56,206563,2,0,P|28:86|6:122,1,95
168,96,206749,1,0,0:0:0:0:
264,104,206843,1,0,0:0:0:0:
360,112,206936,1,0,0:0:0:0:
456,120,207029,1,0,0:0:0:0:
456,120,207123,2,0,P|460:220|472:336,1,190
252,296,207496,2,0,P|256:196|268:80,1,190
24,280,207871,6,0,P|16:232|32:188,1,95
112,240,208058,2,0,P|120:288|104:332,1,95,0|0,0:0|0:0,0:0:0:0:
120,156,208245,1,0,0:0:0:0:
120,156,208338,2,0,L|232:164,1,95
356,48,208525,2,0,L|244:40,1,95
116,164,208712,6,0,L|228:172,1,95
352,56,208899,2,0,L|240:48,1,95
296,136,209086,1,0,0:0:0:0:
392,144,209179,1,0,0:0:0:0:
448,64,209273,1,0,0:0:0:0:
332,224,209366,2,0,P|416:236|484:152,1,190
300,224,209647,2,0,P|440:244|500:128,1,285
200,124,210113,5,0,0:0:0:0:
256,48,210207,2,0,P|172:32|108:108,1,190
36,160,210487,5,0,0:0:0:0:
44,256,210581,1,0,0:0:0:0:
48,160,210674,1,0,0:0:0:0:
56,256,210768,1,0,0:0:0:0:
64,352,210861,5,4,0:0:0:0:
256,192,210907,12,0,216842,2:0:0:0:
