osu file format v14

[General]
AudioFilename: Candy Crack Curtain Call.mp3
AudioLeadIn: 0
PreviewTime: -1
Countdown: 1
SampleSet: None
StackLeniency: 0.7
Mode: 1
LetterboxInBreaks: 1
WidescreenStoryboard: 1

[Editor]
Bookmarks: 24020,40020,48020,56020,64020,72020,113520,114020
DistanceSpacing: 1
BeatDivisor: 4
GridSize: 32
TimelineZoom: 3.899999

[Metadata]
Title:Candy Crack Curtain Call
TitleUnicode:Candy Crack Curtain Call
Artist:t+pazolite
ArtistUnicode:t+pazolite
Creator:Michel
Version:MAD TAIKO
Source:
Tags:
BeatmapID:674599
BeatmapSetID:300802

[Difficulty]
HPDrainRate:6
CircleSize:5
OverallDifficulty:7
ApproachRate:6
SliderMultiplier:1.4
SliderTickRate:1

[Events]
//Background and Video events
0,0,"cal.jpg",0,0
//Break Periods
//Storyboard Layer 0 (Background)
//Storyboard Layer 1 (Fail)
//Storyboard Layer 2 (Pass)
//Storyboard Layer 3 (Foreground)
//Storyboard Sound Samples

[TimingPoints]
20,250,4,1,0,100,1,0
20,-200,4,1,0,100,0,0
16020,-100,4,1,0,100,0,0
41020,-200,4,1,0,100,0,0
56020,-100,4,1,0,100,0,0
72020,-100,4,1,0,100,0,1
102770,-100,4,1,0,100,0,0

[HitObjects]
128,160,20,5,0,0:0:0:0:
128,160,270,1,0,0:0:0:0:
128,192,520,1,8,0:0:0:0:
128,192,770,1,8,0:0:0:0:
128,192,895,1,0,0:0:0:0:
192,192,1270,1,0,0:0:0:0:
192,192,1395,1,0,0:0:0:0:
192,192,1520,1,8,0:0:0:0:
192,192,1645,1,0,0:0:0:0:
192,192,1770,1,0,0:0:0:0:
128,224,2020,1,0,0:0:0:0:
128,224,2270,1,0,0:0:0:0:
128,224,2520,1,8,0:0:0:0:
128,224,2770,1,8,0:0:0:0:
128,224,2895,1,0,0:0:0:0:
64,160,3270,1,0,0:0:0:0:
224,288,3395,1,0,0:0:0:0:
224,288,3520,1,8,0:0:0:0:
128,192,3645,1,0,0:0:0:0:
128,192,3770,1,8,0:0:0:0:
128,192,3895,1,0,0:0:0:0:
128,192,4020,1,0,0:0:0:0:
128,224,4270,1,0,0:0:0:0:
128,224,4520,1,8,0:0:0:0:
128,224,4770,1,8,0:0:0:0:
128,224,4895,1,0,0:0:0:0:
128,224,5270,1,0,0:0:0:0:
128,224,5395,1,8,0:0:0:0:
128,224,5520,1,0,0:0:0:0:
128,224,5645,1,0,0:0:0:0:
128,224,5770,1,8,0:0:0:0:
128,192,6020,1,0,0:0:0:0:
128,224,6270,1,0,0:0:0:0:
128,224,6520,1,8,0:0:0:0:
128,224,6770,1,8,0:0:0:0:
128,224,6895,1,0,0:0:0:0:
160,192,7270,1,0,0:0:0:0:
160,192,7395,1,0,0:0:0:0:
192,192,7520,1,8,0:0:0:0:
64,160,7645,1,0,0:0:0:0:
192,192,7770,1,8,0:0:0:0:
192,192,7895,1,0,0:0:0:0:
192,192,8020,1,0,0:0:0:0:
128,160,8270,1,0,0:0:0:0:
128,192,8520,1,8,0:0:0:0:
128,192,8770,1,8,0:0:0:0:
128,192,8895,1,0,0:0:0:0:
128,192,9270,1,0,0:0:0:0:
128,192,9395,1,0,0:0:0:0:
128,192,9520,1,8,0:0:0:0:
128,192,9645,1,0,0:0:0:0:
128,192,9770,1,0,0:0:0:0:
192,256,10020,1,0,0:0:0:0:
192,256,10270,1,0,0:0:0:0:
192,256,10520,1,8,0:0:0:0:
192,256,10770,1,8,0:0:0:0:
192,256,10895,1,0,0:0:0:0:
320,256,11270,1,0,0:0:0:0:
320,256,11395,1,0,0:0:0:0:
320,256,11520,1,8,0:0:0:0:
224,192,11645,1,0,0:0:0:0:
224,192,11770,1,0,0:0:0:0:
320,256,11895,1,0,0:0:0:0:
192,256,12020,1,0,0:0:0:0:
192,256,12270,1,0,0:0:0:0:
192,256,12520,1,8,0:0:0:0:
192,256,12770,1,8,0:0:0:0:
192,256,12895,1,0,0:0:0:0:
96,160,13270,1,0,0:0:0:0:
96,160,13395,1,8,0:0:0:0:
64,192,13520,1,0,0:0:0:0:
64,192,13645,1,0,0:0:0:0:
64,192,13770,1,8,0:0:0:0:
192,256,14020,1,0,0:0:0:0:
192,256,14270,1,0,0:0:0:0:
192,256,14520,1,8,0:0:0:0:
192,256,14770,1,8,0:0:0:0:
192,256,14895,1,0,0:0:0:0:
32,160,15270,1,0,0:0:0:0:
32,160,15395,1,0,0:0:0:0:
32,160,15520,1,8,0:0:0:0:
32,160,15645,1,0,0:0:0:0:
64,160,15770,1,0,0:0:0:0:
64,160,16020,1,4,0:0:0:0:
128,288,16270,1,0,0:0:0:0:
128,288,16520,1,0,0:0:0:0:
128,288,16770,1,0,0:0:0:0:
128,288,17020,1,0,0:0:0:0:
128,288,17270,1,0,0:0:0:0:
128,288,17520,1,0,0:0:0:0:
128,288,17770,1,0,0:0:0:0:
128,288,18020,1,0,0:0:0:0:
128,288,18270,1,0,0:0:0:0:
128,288,18520,1,0,0:0:0:0:
128,288,18770,1,0,0:0:0:0:
128,288,19020,1,0,0:0:0:0:
128,288,19270,1,0,0:0:0:0:
128,288,19520,1,0,0:0:0:0:
128,192,19770,1,0,0:0:0:0:
128,288,20020,1,0,0:0:0:0:
64,160,20145,1,0,0:0:0:0:
64,160,20270,1,0,0:0:0:0:
64,160,20395,1,0,0:0:0:0:
64,160,20520,1,0,0:0:0:0:
64,160,20645,1,0,0:0:0:0:
64,160,20770,1,0,0:0:0:0:
64,160,20895,1,0,0:0:0:0:
64,160,21020,1,0,0:0:0:0:
64,160,21145,1,0,0:0:0:0:
64,160,21270,1,0,0:0:0:0:
64,160,21395,1,0,0:0:0:0:
64,160,21520,1,0,0:0:0:0:
64,160,21645,1,0,0:0:0:0:
64,160,21770,1,0,0:0:0:0:
64,160,21895,1,0,0:0:0:0:
352,96,22020,1,0,0:0:0:0:
352,96,22082,1,0,0:0:0:0:
352,96,22145,1,0,0:0:0:0:
352,96,22207,1,0,0:0:0:0:
384,96,22270,1,0,0:0:0:0:
352,96,22332,1,0,0:0:0:0:
352,96,22395,1,0,0:0:0:0:
352,96,22457,1,0,0:0:0:0:
352,96,22520,1,0,0:0:0:0:
352,96,22582,1,0,0:0:0:0:
352,96,22645,1,0,0:0:0:0:
352,96,22707,1,0,0:0:0:0:
352,96,22770,1,0,0:0:0:0:
352,96,22832,1,0,0:0:0:0:
352,96,22895,1,0,0:0:0:0:
64,160,23020,1,12,0:0:0:0:
64,160,23269,1,12,0:0:0:0:
64,160,23520,1,12,0:0:0:0:
96,160,23770,1,12,0:0:0:0:
96,160,23895,1,12,0:0:0:0:
416,320,24020,1,0,0:0:0:0:
128,160,24270,1,8,0:0:0:0:
320,256,24520,1,0,0:0:0:0:
160,160,24645,1,0,0:0:0:0:
288,192,24707,1,0,0:0:0:0:
320,256,24770,1,8,0:0:0:0:
256,256,25020,1,0,0:0:0:0:
288,192,25145,1,0,0:0:0:0:
256,256,25270,1,8,0:0:0:0:
288,192,25395,1,0,0:0:0:0:
288,192,25457,1,0,0:0:0:0:
128,288,25520,1,0,0:0:0:0:
224,224,25645,1,0,0:0:0:0:
224,224,25770,1,8,0:0:0:0:
224,224,25895,1,8,0:0:0:0:
224,224,25957,1,8,0:0:0:0:
224,224,26020,1,0,0:0:0:0:
224,192,26270,1,8,0:0:0:0:
224,192,26520,1,0,0:0:0:0:
224,192,26644,1,0,0:0:0:0:
224,192,26770,1,8,0:0:0:0:
288,288,27020,1,8,0:0:0:0:
256,288,27082,1,0,0:0:0:0:
96,128,27145,1,0,0:0:0:0:
288,288,27270,1,8,0:0:0:0:
256,288,27332,1,0,0:0:0:0:
256,288,27395,1,0,0:0:0:0:
288,288,27520,1,8,0:0:0:0:
288,288,27645,1,8,0:0:0:0:
160,192,27707,1,0,0:0:0:0:
288,256,27770,1,0,0:0:0:0:
224,288,27895,1,8,0:0:0:0:
416,320,28020,1,0,0:0:0:0:
128,160,28270,1,8,0:0:0:0:
320,256,28520,1,0,0:0:0:0:
160,160,28645,1,0,0:0:0:0:
288,192,28707,1,0,0:0:0:0:
320,256,28770,1,8,0:0:0:0:
256,256,29020,1,0,0:0:0:0:
288,192,29145,1,0,0:0:0:0:
256,256,29270,1,8,0:0:0:0:
288,192,29395,1,0,0:0:0:0:
288,192,29457,1,0,0:0:0:0:
128,288,29520,1,0,0:0:0:0:
224,224,29645,1,0,0:0:0:0:
224,224,29770,1,8,0:0:0:0:
352,256,29895,1,0,0:0:0:0:
352,256,29957,1,0,0:0:0:0:
224,224,30020,1,0,0:0:0:0:
224,192,30270,1,8,0:0:0:0:
224,192,30520,1,0,0:0:0:0:
224,192,30644,1,0,0:0:0:0:
224,192,30770,1,8,0:0:0:0:
96,128,31020,1,0,0:0:0:0:
256,288,31082,1,0,0:0:0:0:
96,128,31145,1,0,0:0:0:0:
96,128,31270,1,0,0:0:0:0:
256,288,31332,1,0,0:0:0:0:
256,288,31395,1,0,0:0:0:0:
288,256,31520,1,0,0:0:0:0:
288,320,31582,1,0,0:0:0:0:
288,320,31645,1,0,0:0:0:0:
288,256,31770,1,0,0:0:0:0:
288,256,31895,1,0,0:0:0:0:
416,320,32020,1,0,0:0:0:0:
128,160,32270,1,8,0:0:0:0:
320,256,32520,1,0,0:0:0:0:
160,160,32645,1,0,0:0:0:0:
288,192,32707,1,0,0:0:0:0:
320,256,32770,1,8,0:0:0:0:
256,256,33020,1,0,0:0:0:0:
288,192,33145,1,0,0:0:0:0:
256,256,33270,1,8,0:0:0:0:
288,192,33395,1,0,0:0:0:0:
288,192,33457,1,0,0:0:0:0:
128,288,33520,1,0,0:0:0:0:
224,224,33645,1,0,0:0:0:0:
224,224,33770,1,8,0:0:0:0:
224,224,33895,1,8,0:0:0:0:
224,224,33957,1,8,0:0:0:0:
224,224,34020,1,0,0:0:0:0:
224,192,34270,1,8,0:0:0:0:
224,192,34520,1,0,0:0:0:0:
224,192,34644,1,0,0:0:0:0:
224,192,34770,1,8,0:0:0:0:
160,192,35020,1,12,0:0:0:0:
160,192,35145,1,4,0:0:0:0:
160,192,35270,1,12,0:0:0:0:
160,192,35395,1,4,0:0:0:0:
160,192,35520,1,12,0:0:0:0:
160,192,35645,1,4,0:0:0:0:
160,192,35770,1,4,0:0:0:0:
160,192,35895,1,12,0:0:0:0:
256,192,36020,1,4,0:0:0:0:
96,192,36145,1,0,0:0:0:0:
96,192,36270,1,8,0:0:0:0:
96,192,36395,1,0,0:0:0:0:
192,288,36457,1,0,0:0:0:0:
96,192,36520,1,8,0:0:0:0:
96,192,36645,1,0,0:0:0:0:
96,192,36770,1,8,0:0:0:0:
96,192,36895,1,0,0:0:0:0:
192,288,36957,1,0,0:0:0:0:
96,192,37020,1,8,0:0:0:0:
96,192,37145,1,0,0:0:0:0:
96,192,37270,1,8,0:0:0:0:
96,192,37395,1,0,0:0:0:0:
192,288,37457,1,0,0:0:0:0:
96,192,37520,1,8,0:0:0:0:
96,192,37645,1,0,0:0:0:0:
96,192,37770,1,8,0:0:0:0:
96,192,37895,1,0,0:0:0:0:
192,288,37957,1,0,0:0:0:0:
96,192,38020,1,8,0:0:0:0:
224,288,38082,1,0,0:0:0:0:
224,288,38145,1,0,0:0:0:0:
224,288,38207,1,0,0:0:0:0:
224,288,38270,1,8,0:0:0:0:
224,288,38332,1,0,0:0:0:0:
224,288,38395,1,0,0:0:0:0:
224,288,38457,1,0,0:0:0:0:
224,288,38520,1,8,0:0:0:0:
224,288,38582,1,0,0:0:0:0:
224,288,38645,1,0,0:0:0:0:
224,288,38707,1,0,0:0:0:0:
224,288,38770,1,8,0:0:0:0:
224,288,38832,1,0,0:0:0:0:
224,288,38895,1,0,0:0:0:0:
224,288,38957,1,0,0:0:0:0:
224,288,39020,1,8,0:0:0:0:
224,288,39082,1,8,0:0:0:0:
224,288,39145,1,8,0:0:0:0:
256,320,39207,1,8,0:0:0:0:
224,288,39270,1,8,0:0:0:0:
224,288,39332,1,8,0:0:0:0:
224,288,39395,1,8,0:0:0:0:
224,288,39457,1,8,0:0:0:0:
224,288,39520,1,8,0:0:0:0:
224,288,39582,1,8,0:0:0:0:
224,288,39645,1,8,0:0:0:0:
224,288,39707,1,8,0:0:0:0:
224,288,39770,1,8,0:0:0:0:
224,288,39832,1,8,0:0:0:0:
224,288,39895,1,8,0:0:0:0:
224,288,39957,1,8,0:0:0:0:
224,288,40020,1,0,0:0:0:0:
64,224,42020,1,0,0:0:0:0:
32,192,44020,1,0,0:0:0:0:
96,192,46020,1,0,0:0:0:0:
160,192,47020,1,0,0:0:0:0:
160,192,47520,1,0,0:0:0:0:
160,192,48020,1,0,0:0:0:0:
128,160,48270,1,0,0:0:0:0:
128,160,48520,1,8,0:0:0:0:
128,160,48770,1,0,0:0:0:0:
128,160,48895,1,0,0:0:0:0:
128,192,49145,1,0,0:0:0:0:
128,192,49270,1,8,0:0:0:0:
160,256,49520,1,0,0:0:0:0:
160,256,49645,1,0,0:0:0:0:
160,256,49770,1,0,0:0:0:0:
160,256,49895,1,0,0:0:0:0:
160,192,50020,1,0,0:0:0:0:
128,160,50270,1,0,0:0:0:0:
128,160,50520,1,8,0:0:0:0:
128,160,50770,1,0,0:0:0:0:
128,160,50895,1,0,0:0:0:0:
128,192,51145,1,0,0:0:0:0:
128,192,51270,1,8,0:0:0:0:
160,256,51520,1,0,0:0:0:0:
160,256,51645,1,0,0:0:0:0:
160,256,51770,1,0,0:0:0:0:
160,256,51895,1,0,0:0:0:0:
160,192,52020,1,0,0:0:0:0:
128,160,52270,1,0,0:0:0:0:
128,160,52520,1,8,0:0:0:0:
128,160,52770,1,0,0:0:0:0:
128,160,52895,1,0,0:0:0:0:
128,192,53145,1,0,0:0:0:0:
128,192,53270,1,8,0:0:0:0:
160,256,53520,1,0,0:0:0:0:
160,256,53645,1,0,0:0:0:0:
160,256,53770,1,0,0:0:0:0:
160,256,53895,1,0,0:0:0:0:
160,192,54020,1,0,0:0:0:0:
128,160,54270,1,0,0:0:0:0:
128,160,54520,1,8,0:0:0:0:
128,160,54770,1,0,0:0:0:0:
128,160,54895,1,0,0:0:0:0:
128,192,55145,1,0,0:0:0:0:
128,192,55270,1,8,0:0:0:0:
160,256,55520,1,0,0:0:0:0:
160,256,55645,1,0,0:0:0:0:
160,256,55770,1,0,0:0:0:0:
160,256,55895,1,0,0:0:0:0:
160,192,56020,1,12,0:0:0:0:
288,320,56270,1,12,0:0:0:0:
288,320,56395,1,4,0:0:0:0:
288,320,56520,1,4,0:0:0:0:
288,320,56645,1,12,0:0:0:0:
224,256,57020,1,12,0:0:0:0:
224,256,57270,1,12,0:0:0:0:
224,256,57395,1,4,0:0:0:0:
224,256,57520,1,4,0:0:0:0:
256,256,57645,1,12,0:0:0:0:
224,224,58020,1,8,0:0:0:0:
239,130,58145,1,0,0:0:0:0:
239,130,58207,1,0,0:0:0:0:
239,130,58270,1,8,0:0:0:0:
239,130,58395,1,8,0:0:0:0:
239,130,58520,1,0,0:0:0:0:
239,130,58645,1,8,0:0:0:0:
176,142,59020,1,8,0:0:0:0:
183,145,59145,1,0,0:0:0:0:
183,145,59207,1,0,0:0:0:0:
183,145,59270,1,8,0:0:0:0:
184,147,59395,1,0,0:0:0:0:
184,147,59520,1,0,0:0:0:0:
190,151,59582,1,0,0:0:0:0:
184,147,59645,1,8,0:0:0:0:
108,215,60020,1,4,0:0:0:0:
108,215,60145,1,4,0:0:0:0:
201,223,60520,1,4,0:0:0:0:
201,223,60645,1,4,0:0:0:0:
90,238,61020,1,4,0:0:0:0:
90,238,61145,1,4,0:0:0:0:
90,238,61520,1,4,0:0:0:0:
90,238,61645,1,4,0:0:0:0:
90,238,62020,1,12,0:0:0:0:
90,238,62145,1,12,0:0:0:0:
90,238,62520,1,12,0:0:0:0:
90,238,62645,1,12,0:0:0:0:
90,238,63020,1,4,0:0:0:0:
90,238,63145,1,4,0:0:0:0:
90,238,63270,1,4,0:0:0:0:
90,238,63395,1,4,0:0:0:0:
90,238,63520,1,12,0:0:0:0:
90,238,63645,1,12,0:0:0:0:
90,238,63770,1,12,0:0:0:0:
90,238,63895,1,12,0:0:0:0:
270,284,64020,1,4,0:0:0:0:
147,192,64270,1,0,0:0:0:0:
147,192,64520,1,0,0:0:0:0:
147,192,64770,1,0,0:0:0:0:
147,192,65020,1,0,0:0:0:0:
147,192,65270,1,0,0:0:0:0:
147,192,65520,1,0,0:0:0:0:
147,192,65770,1,0,0:0:0:0:
188,195,65895,1,0,0:0:0:0:
307,260,66020,1,4,0:0:0:0:
147,192,66270,1,0,0:0:0:0:
147,192,66520,1,0,0:0:0:0:
147,192,66770,1,0,0:0:0:0:
147,192,67020,1,0,0:0:0:0:
147,192,67270,1,0,0:0:0:0:
147,192,67520,1,0,0:0:0:0:
188,195,67645,1,0,0:0:0:0:
147,192,67770,1,0,0:0:0:0:
188,195,67895,1,0,0:0:0:0:
77,171,68020,1,12,0:0:0:0:
101,192,68145,1,0,0:0:0:0:
101,192,68207,1,0,0:0:0:0:
101,192,68270,1,0,0:0:0:0:
101,192,68395,1,0,0:0:0:0:
101,192,68520,1,12,0:0:0:0:
101,192,68645,1,0,0:0:0:0:
101,192,68707,1,0,0:0:0:0:
101,192,68770,1,0,0:0:0:0:
101,192,68895,1,0,0:0:0:0:
77,171,69020,1,12,0:0:0:0:
101,192,69145,1,0,0:0:0:0:
126,184,69207,1,0,0:0:0:0:
126,184,69270,1,0,0:0:0:0:
101,192,69395,1,0,0:0:0:0:
101,192,69520,1,12,0:0:0:0:
101,192,69645,1,0,0:0:0:0:
126,184,69707,1,0,0:0:0:0:
126,184,69770,1,0,0:0:0:0:
101,192,69895,1,0,0:0:0:0:
77,171,70020,1,12,0:0:0:0:
101,192,70145,1,0,0:0:0:0:
101,192,70270,1,12,0:0:0:0:
101,192,70395,1,0,0:0:0:0:
77,171,70520,1,12,0:0:0:0:
103,169,70645,1,8,0:0:0:0:
103,169,70707,1,8,0:0:0:0:
103,169,70770,1,8,0:0:0:0:
103,169,70832,1,8,0:0:0:0:
103,169,70895,1,8,0:0:0:0:
77,171,71020,1,4,0:0:0:0:
114,226,71145,1,0,0:0:0:0:
114,226,71207,1,0,0:0:0:0:
114,226,71270,1,0,0:0:0:0:
113,219,71395,1,8,0:0:0:0:
113,219,71520,1,0,0:0:0:0:
113,219,71582,1,0,0:0:0:0:
113,219,71645,1,0,0:0:0:0:
113,219,71707,1,0,0:0:0:0:
113,219,71770,1,8,0:0:0:0:
144,234,72020,1,12,0:0:0:0:
144,234,72145,1,0,0:0:0:0:
144,234,72207,1,0,0:0:0:0:
144,234,72270,1,8,0:0:0:0:
144,234,72395,1,8,0:0:0:0:
144,234,72520,1,0,0:0:0:0:
144,234,72645,1,8,0:0:0:0:
252,278,72770,1,0,0:0:0:0:
144,234,72895,1,8,0:0:0:0:
181,322,73020,1,0,0:0:0:0:
145,229,73145,1,8,0:0:0:0:
144,234,73207,1,0,0:0:0:0:
144,234,73270,1,0,0:0:0:0:
145,229,73395,1,8,0:0:0:0:
145,229,73520,1,0,0:0:0:0:
145,229,73645,1,8,0:0:0:0:
145,229,73707,1,8,0:0:0:0:
145,229,73770,1,0,0:0:0:0:
145,229,73895,1,8,0:0:0:0:
270,176,74020,1,0,0:0:0:0:
119,246,74082,1,0,0:0:0:0:
270,176,74145,1,8,0:0:0:0:
270,176,74207,1,8,0:0:0:0:
270,176,74270,1,0,0:0:0:0:
270,176,74395,1,8,0:0:0:0:
270,176,74457,1,0,0:0:0:0:
270,176,74520,1,8,0:0:0:0:
270,176,74582,1,0,0:0:0:0:
270,176,74645,1,8,0:0:0:0:
274,179,74707,1,0,0:0:0:0:
274,179,74770,1,8,0:0:0:0:
80,193,74895,1,0,0:0:0:0:
80,193,75020,1,4,0:0:0:0:
80,193,75145,1,4,0:0:0:0:
80,193,75270,1,12,0:0:0:0:
80,193,75395,1,12,0:0:0:0:
80,193,75520,1,4,0:0:0:0:
228,276,75645,1,4,0:0:0:0:
105,197,75770,1,12,0:0:0:0:
105,197,75895,1,4,0:0:0:0:
105,197,76020,1,12,0:0:0:0:
97,150,76145,1,0,0:0:0:0:
102,150,76270,1,8,0:0:0:0:
105,149,76395,1,8,0:0:0:0:
105,148,76520,1,0,0:0:0:0:
108,148,76645,1,8,0:0:0:0:
108,148,76770,1,0,0:0:0:0:
109,148,76895,1,8,0:0:0:0:
113,146,77020,1,0,0:0:0:0:
113,146,77145,1,8,0:0:0:0:
113,146,77207,1,8,0:0:0:0:
113,146,77270,1,0,0:0:0:0:
88,179,77395,1,8,0:0:0:0:
88,179,77520,1,0,0:0:0:0:
88,179,77645,1,8,0:0:0:0:
88,179,77707,1,0,0:0:0:0:
88,179,77770,1,0,0:0:0:0:
88,179,77895,1,0,0:0:0:0:
87,85,78020,2,4,L|471:310,1,420
194,227,78895,1,12,0:0:0:0:
257,237,79020,1,4,0:0:0:0:
311,309,79145,1,4,0:0:0:0:
311,309,79269,1,4,0:0:0:0:
311,309,79395,1,12,0:0:0:0:
80,200,79520,1,12,0:0:0:0:
155,308,79770,1,4,0:0:0:0:
155,308,80020,1,12,0:0:0:0:
144,234,80145,5,0,0:0:0:0:
144,234,80207,1,0,0:0:0:0:
144,234,80270,1,8,0:0:0:0:
144,234,80395,1,8,0:0:0:0:
144,234,80520,1,0,0:0:0:0:
144,234,80645,1,8,0:0:0:0:
252,278,80770,1,0,0:0:0:0:
144,234,80895,1,8,0:0:0:0:
181,322,81020,1,0,0:0:0:0:
145,229,81145,1,8,0:0:0:0:
144,234,81207,1,0,0:0:0:0:
144,234,81270,1,0,0:0:0:0:
145,229,81395,1,8,0:0:0:0:
145,229,81520,1,0,0:0:0:0:
145,229,81645,1,8,0:0:0:0:
145,229,81707,1,8,0:0:0:0:
145,229,81770,1,0,0:0:0:0:
145,229,81895,1,8,0:0:0:0:
270,176,82020,1,0,0:0:0:0:
119,246,82082,1,0,0:0:0:0:
270,176,82145,1,8,0:0:0:0:
270,176,82207,1,8,0:0:0:0:
270,176,82270,1,0,0:0:0:0:
270,176,82395,1,8,0:0:0:0:
270,176,82457,1,0,0:0:0:0:
270,176,82520,1,8,0:0:0:0:
270,176,82582,1,0,0:0:0:0:
270,176,82645,1,8,0:0:0:0:
274,179,82707,1,0,0:0:0:0:
274,179,82770,1,8,0:0:0:0:
80,193,82895,1,0,0:0:0:0:
80,193,83020,1,4,0:0:0:0:
80,193,83145,1,4,0:0:0:0:
80,193,83270,1,12,0:0:0:0:
80,193,83395,1,12,0:0:0:0:
80,193,83520,1,4,0:0:0:0:
228,276,83645,1,4,0:0:0:0:
105,197,83770,1,12,0:0:0:0:
105,197,83895,1,4,0:0:0:0:
87,239,84020,1,8,0:0:0:0:
87,239,84145,1,8,0:0:0:0:
87,239,84207,1,8,0:0:0:0:
87,239,84270,1,8,0:0:0:0:
87,239,84395,1,8,0:0:0:0:
87,239,84520,1,8,0:0:0:0:
87,239,84582,1,8,0:0:0:0:
401,312,84645,1,8,0:0:0:0:
87,239,84770,1,8,0:0:0:0:
134,175,84895,1,8,0:0:0:0:
134,175,84957,1,8,0:0:0:0:
356,297,85020,1,0,0:0:0:0:
356,297,85082,1,0,0:0:0:0:
356,297,85145,1,8,0:0:0:0:
356,297,85207,1,8,0:0:0:0:
356,297,85270,1,0,0:0:0:0:
356,297,85395,1,8,0:0:0:0:
356,297,85520,1,0,0:0:0:0:
363,298,85645,1,0,0:0:0:0:
363,298,85770,1,0,0:0:0:0:
363,298,85895,1,0,0:0:0:0:
87,85,86020,2,4,L|471:310,1,420
194,227,86895,1,12,0:0:0:0:
257,237,87020,1,4,0:0:0:0:
311,309,87145,1,4,0:0:0:0:
311,309,87269,1,4,0:0:0:0:
311,309,87395,1,12,0:0:0:0:
95,179,87520,1,4,0:0:0:0:
179,325,87770,1,4,0:0:0:0:
179,325,88020,1,12,0:0:0:0:
72,185,88145,5,0,0:0:0:0:
72,185,88207,1,0,0:0:0:0:
72,185,88270,1,8,0:0:0:0:
72,185,88395,1,8,0:0:0:0:
72,185,88520,1,0,0:0:0:0:
72,185,88645,1,8,0:0:0:0:
74,185,88770,1,0,0:0:0:0:
81,184,88895,1,8,0:0:0:0:
81,184,89020,1,8,0:0:0:0:
81,184,89145,1,8,0:0:0:0:
395,322,89207,1,8,0:0:0:0:
81,184,89270,1,0,0:0:0:0:
81,184,89395,1,8,0:0:0:0:
81,184,89520,1,8,0:0:0:0:
82,184,89645,1,0,0:0:0:0:
395,322,89708,1,0,0:0:0:0:
82,184,89770,1,8,0:0:0:0:
89,167,89895,1,0,0:0:0:0:
92,164,90020,1,8,0:0:0:0:
92,164,90145,1,0,0:0:0:0:
92,164,90207,1,0,0:0:0:0:
93,164,90270,1,8,0:0:0:0:
93,164,90395,1,0,0:0:0:0:
93,164,90457,1,0,0:0:0:0:
93,164,90520,1,8,0:0:0:0:
93,164,90582,1,0,0:0:0:0:
93,164,90645,1,0,0:0:0:0:
94,164,90707,1,0,0:0:0:0:
95,163,90770,1,8,0:0:0:0:
155,219,90895,1,0,0:0:0:0:
80,193,91020,1,4,0:0:0:0:
80,193,91145,1,4,0:0:0:0:
80,193,91270,1,12,0:0:0:0:
80,193,91395,1,12,0:0:0:0:
80,193,91520,1,4,0:0:0:0:
228,276,91645,1,4,0:0:0:0:
105,197,91770,1,12,0:0:0:0:
105,197,91895,1,4,0:0:0:0:
105,197,92020,1,12,0:0:0:0:
97,150,92145,1,0,0:0:0:0:
126,231,92207,1,0,0:0:0:0:
24,213,92270,1,8,0:0:0:0:
45,215,92395,1,0,0:0:0:0:
47,215,92520,1,0,0:0:0:0:
49,215,92645,1,8,0:0:0:0:
49,215,92770,1,0,0:0:0:0:
379,328,92895,1,8,0:0:0:0:
379,328,93020,1,8,0:0:0:0:
379,328,93145,1,8,0:0:0:0:
379,328,93207,1,8,0:0:0:0:
379,328,93270,1,8,0:0:0:0:
379,328,93395,1,0,0:0:0:0:
379,328,93520,1,8,0:0:0:0:
243,280,93582,1,0,0:0:0:0:
243,280,93645,1,8,0:0:0:0:
243,280,93707,1,0,0:0:0:0:
243,280,93770,1,8,0:0:0:0:
243,280,93832,1,0,0:0:0:0:
243,280,93895,1,8,0:0:0:0:
87,85,94020,2,4,L|471:310,1,420
194,227,94895,1,12,0:0:0:0:
257,237,95020,1,4,0:0:0:0:
311,309,95145,1,4,0:0:0:0:
311,309,95269,1,4,0:0:0:0:
311,309,95395,1,12,0:0:0:0:
80,200,95520,1,12,0:0:0:0:
166,297,95770,1,4,0:0:0:0:
166,297,96020,1,12,0:0:0:0:
72,185,96145,5,0,0:0:0:0:
72,185,96207,1,0,0:0:0:0:
72,185,96270,1,8,0:0:0:0:
72,185,96395,1,8,0:0:0:0:
72,185,96520,1,0,0:0:0:0:
72,185,96645,1,8,0:0:0:0:
74,185,96770,1,0,0:0:0:0:
81,184,96895,1,8,0:0:0:0:
81,184,97020,1,8,0:0:0:0:
81,184,97145,1,8,0:0:0:0:
395,322,97207,1,8,0:0:0:0:
81,184,97270,1,0,0:0:0:0:
81,184,97395,1,8,0:0:0:0:
81,184,97520,1,8,0:0:0:0:
82,184,97645,1,0,0:0:0:0:
395,322,97708,1,0,0:0:0:0:
82,184,97770,1,8,0:0:0:0:
89,167,97895,1,0,0:0:0:0:
92,164,98020,1,8,0:0:0:0:
92,164,98145,1,0,0:0:0:0:
92,164,98207,1,0,0:0:0:0:
93,164,98270,1,8,0:0:0:0:
93,164,98395,1,0,0:0:0:0:
93,164,98457,1,0,0:0:0:0:
93,164,98520,1,8,0:0:0:0:
93,164,98582,1,0,0:0:0:0:
93,164,98645,1,0,0:0:0:0:
94,164,98707,1,0,0:0:0:0:
95,163,98770,1,8,0:0:0:0:
155,219,98895,1,0,0:0:0:0:
80,193,99020,1,4,0:0:0:0:
80,193,99145,1,4,0:0:0:0:
80,193,99270,1,12,0:0:0:0:
80,193,99395,1,12,0:0:0:0:
80,193,99520,1,4,0:0:0:0:
228,276,99645,1,4,0:0:0:0:
105,197,99770,1,8,0:0:0:0:
202,223,99832,1,8,0:0:0:0:
105,197,99895,1,0,0:0:0:0:
202,223,99957,1,0,0:0:0:0:
105,197,100020,1,8,0:0:0:0:
97,150,100145,1,0,0:0:0:0:
126,231,100207,1,0,0:0:0:0:
52,200,100270,1,0,0:0:0:0:
116,240,100395,1,8,0:0:0:0:
47,215,100520,1,0,0:0:0:0:
202,223,100582,1,0,0:0:0:0:
49,215,100645,1,0,0:0:0:0:
49,215,100770,1,0,0:0:0:0:
341,271,100832,1,0,0:0:0:0:
379,328,100895,1,8,0:0:0:0:
341,271,100957,1,0,0:0:0:0:
379,328,101020,1,8,0:0:0:0:
113,161,101145,1,8,0:0:0:0:
113,160,101270,1,0,0:0:0:0:
113,160,101395,1,0,0:0:0:0:
114,159,101520,1,8,0:0:0:0:
114,159,101645,1,8,0:0:0:0:
113,161,101770,1,0,0:0:0:0:
113,161,101895,1,8,0:0:0:0:
87,85,102020,2,4,L|471:310,1,420
189,167,104020,1,4,0:0:0:0:
86,227,104520,5,8,0:0:0:0:
210,198,104770,1,8,0:0:0:0:
184,286,105020,2,0,L|345:320,2,140
121,178,105770,1,0,0:0:0:0:
121,178,106020,1,12,0:0:0:0:
100,241,106270,1,8,0:0:0:0:
100,241,106332,1,8,0:0:0:0:
100,241,106395,1,8,0:0:0:0:
100,241,106457,1,8,0:0:0:0:
100,241,106520,1,0,0:0:0:0:
434,322,106645,1,0,0:0:0:0:
434,322,106707,1,0,0:0:0:0:
434,322,106770,1,0,0:0:0:0:
434,322,106895,1,0,0:0:0:0:
434,322,107020,1,8,0:0:0:0:
434,322,107145,1,8,0:0:0:0:
434,322,107270,1,8,0:0:0:0:
369,264,107395,1,0,0:0:0:0:
369,264,107520,1,8,0:0:0:0:
369,264,107645,1,8,0:0:0:0:
369,264,107770,1,12,0:0:0:0:
58,220,108020,2,0,L|326:321,1,280
40,191,108770,1,0,0:0:0:0:
67,177,109020,1,0,0:0:0:0:
67,177,109082,1,0,0:0:0:0:
67,177,109145,1,0,0:0:0:0:
67,177,109207,1,0,0:0:0:0:
67,177,109270,1,0,0:0:0:0:
67,177,109332,1,0,0:0:0:0:
67,177,109395,1,0,0:0:0:0:
67,177,109457,1,0,0:0:0:0:
67,177,109520,1,0,0:0:0:0:
111,271,109770,1,0,0:0:0:0:
111,271,110020,1,12,0:0:0:0:
158,289,110270,6,0,L|316:296,1,140
75,210,110770,1,0,0:0:0:0:
75,210,110895,1,0,0:0:0:0:
81,213,111020,1,4,0:0:0:0:
81,213,111270,1,4,0:0:0:0:
177,239,111520,1,0,0:0:0:0:
177,239,111770,1,12,0:0:0:0:
380,284,112020,5,0,0:0:0:0:
374,286,112145,1,0,0:0:0:0:
372,286,112207,1,0,0:0:0:0:
372,286,112270,1,8,0:0:0:0:
374,286,112520,1,8,0:0:0:0:
374,286,112645,1,0,0:0:0:0:
374,286,112770,1,8,0:0:0:0:
380,284,112895,1,0,0:0:0:0:
29,221,113020,2,0,L|190:239,1,140
41,232,113520,1,8,0:0:0:0:
160,168,113770,1,8,0:0:0:0:
58,205,114020,6,4,L|335:250,1,280
80,207,114645,1,8,0:0:0:0:
80,207,114707,1,8,0:0:0:0:
80,207,114770,1,0,0:0:0:0:
166,290,115020,1,12,0:0:0:0:
166,290,115145,1,12,0:0:0:0:
166,290,115270,1,12,0:0:0:0:
178,294,115395,1,0,0:0:0:0:
178,294,115457,1,0,0:0:0:0:
126,184,115520,1,0,0:0:0:0:
126,184,115582,1,0,0:0:0:0:
126,184,115645,1,0,0:0:0:0:
126,184,115707,1,0,0:0:0:0:
126,184,115770,1,8,0:0:0:0:
121,214,116020,5,4,0:0:0:0:
121,214,116145,1,4,0:0:0:0:
121,214,116270,1,4,0:0:0:0:
61,135,116520,2,4,L|192:229,1,140
115,221,117020,1,12,0:0:0:0:
115,221,117145,1,12,0:0:0:0:
115,221,117270,1,12,0:0:0:0:
32,151,117520,2,12,L|169:232,1,140
94,206,118020,1,8,0:0:0:0:
93,208,118082,1,0,0:0:0:0:
93,208,118145,1,0,0:0:0:0:
93,208,118207,1,0,0:0:0:0:
97,208,118270,1,8,0:0:0:0:
95,206,118332,1,0,0:0:0:0:
95,206,118395,1,0,0:0:0:0:
95,206,118457,1,0,0:0:0:0:
97,208,118520,1,8,0:0:0:0:
95,206,118582,1,0,0:0:0:0:
95,206,118645,1,0,0:0:0:0:
95,206,118707,1,0,0:0:0:0:
97,208,118770,1,8,0:0:0:0:
95,206,118832,1,0,0:0:0:0:
94,206,118895,1,0,0:0:0:0:
94,206,118957,1,0,0:0:0:0:
66,226,120020,1,4,0:0:0:0:
66,226,120270,1,4,0:0:0:0:
147,263,120520,1,8,0:0:0:0:
147,263,120770,1,8,0:0:0:0:
106,212,121020,1,0,0:0:0:0:
106,212,121145,1,0,0:0:0:0:
106,212,121270,1,0,0:0:0:0:
194,182,121520,1,12,0:0:0:0:
194,182,121770,1,12,0:0:0:0:
66,226,122020,1,4,0:0:0:0:
66,226,122270,1,4,0:0:0:0:
147,263,122520,1,8,0:0:0:0:
147,263,122770,1,8,0:0:0:0:
106,212,123020,1,0,0:0:0:0:
106,212,123145,1,0,0:0:0:0:
231,211,123270,1,8,0:0:0:0:
231,211,123395,1,0,0:0:0:0:
236,205,123520,1,8,0:0:0:0:
236,205,123645,1,0,0:0:0:0:
236,205,123895,1,8,0:0:0:0:
66,226,124020,1,4,0:0:0:0:
66,226,124270,1,4,0:0:0:0:
147,263,124520,1,8,0:0:0:0:
147,263,124770,1,8,0:0:0:0:
106,212,125020,1,0,0:0:0:0:
106,212,125145,1,0,0:0:0:0:
106,212,125270,1,0,0:0:0:0:
194,182,125520,1,12,0:0:0:0:
194,182,125770,1,12,0:0:0:0:
66,226,126020,1,4,0:0:0:0:
66,226,126270,1,4,0:0:0:0:
147,263,126520,1,8,0:0:0:0:
147,263,126770,1,8,0:0:0:0:
106,212,127020,1,0,0:0:0:0:
106,212,127145,1,0,0:0:0:0:
231,211,127270,1,8,0:0:0:0:
231,211,127395,1,0,0:0:0:0:
236,205,127520,1,8,0:0:0:0:
98,195,127770,1,8,0:0:0:0:
236,205,127895,1,8,0:0:0:0:
66,226,128020,1,4,0:0:0:0:
66,226,128270,1,4,0:0:0:0:
147,263,128520,1,8,0:0:0:0:
147,263,128770,1,8,0:0:0:0:
106,212,129020,1,0,0:0:0:0:
106,212,129145,1,0,0:0:0:0:
106,212,129270,1,0,0:0:0:0:
194,182,129520,1,12,0:0:0:0:
194,182,129770,1,12,0:0:0:0:
66,226,130020,1,4,0:0:0:0:
66,226,130270,1,4,0:0:0:0:
147,263,130520,1,8,0:0:0:0:
147,263,130770,1,8,0:0:0:0:
106,212,131020,1,0,0:0:0:0:
106,212,131145,1,0,0:0:0:0:
231,211,131270,1,8,0:0:0:0:
231,211,131395,1,0,0:0:0:0:
236,205,131520,1,8,0:0:0:0:
236,205,131645,1,0,0:0:0:0:
236,205,131895,1,8,0:0:0:0:
94,189,132020,1,4,0:0:0:0:
95,189,132145,1,8,0:0:0:0:
96,190,132207,1,8,0:0:0:0:
96,190,132270,1,0,0:0:0:0:
96,190,132395,1,0,0:0:0:0:
96,190,132520,1,4,0:0:0:0:
96,190,132645,1,8,0:0:0:0:
97,190,132707,1,8,0:0:0:0:
94,189,132770,1,0,0:0:0:0:
110,244,132895,1,0,0:0:0:0:
110,244,133020,1,12,0:0:0:0:
110,244,133145,1,8,0:0:0:0:
110,244,133207,1,8,0:0:0:0:
110,244,133270,1,0,0:0:0:0:
110,244,133395,1,0,0:0:0:0:
110,244,133520,1,12,0:0:0:0:
110,244,133645,1,8,0:0:0:0:
110,244,133707,1,8,0:0:0:0:
110,244,133770,1,0,0:0:0:0:
110,244,133895,1,0,0:0:0:0:
110,244,134020,1,8,0:0:0:0:
116,242,134082,1,0,0:0:0:0:
116,242,134145,1,0,0:0:0:0:
116,242,134207,1,0,0:0:0:0:
116,242,134270,1,8,0:0:0:0:
116,242,134332,1,0,0:0:0:0:
116,242,134395,1,0,0:0:0:0:
116,242,134457,1,0,0:0:0:0:
116,242,134520,1,8,0:0:0:0:
116,242,134582,1,0,0:0:0:0:
116,242,134645,1,0,0:0:0:0:
116,242,134707,1,0,0:0:0:0:
116,242,134770,1,8,0:0:0:0:
116,242,134832,1,0,0:0:0:0:
116,242,134895,1,0,0:0:0:0:
116,242,134957,1,0,0:0:0:0:
116,242,135020,1,8,0:0:0:0:
116,242,135082,1,8,0:0:0:0:
116,242,135145,1,8,0:0:0:0:
116,242,135207,1,8,0:0:0:0:
116,242,135270,1,8,0:0:0:0:
116,242,135332,1,8,0:0:0:0:
116,242,135395,1,8,0:0:0:0:
